  0
SECTION
  2
HEADER
  9
$ACADVER
  1
AC1015
  9
$ACADMAINTVER
 70
    20
  9
$DWGCODEPAGE
  3
ANSI_932
  9
$INSBASE
 10
0.0
 20
0.0
 30
0.0
  9
$EXTMIN
 10
0.0000000000000568
 20
0.0
 30
0.0
  9
$EXTMAX
 10
2180.700000000001
 20
1512.0
 30
0.0
  9
$LIMMIN
 10
0.0
 20
0.0
  9
$LIMMAX
 10
2376.0
 20
1680.0
  9
$ORTHOMODE
 70
     0
  9
$REGENMODE
 70
     1
  9
$FILLMODE
 70
     1
  9
$QTEXTMODE
 70
     0
  9
$MIRRTEXT
 70
     1
  9
$LTSCALE
 40
47.52
  9
$ATTMODE
 70
     1
  9
$TEXTSIZE
 40
0.2
  9
$TRACEWID
 40
0.05
  9
$TEXTSTYLE
  7
STANDARD
  9
$CLAYER
  8
0
  9
$CELTYPE
  6
CONTINUOUS
  9
$CECOLOR
 62
   256
  9
$CELTSCALE
 40
1.0
  9
$DISPSILH
 70
     0
  9
$DIMSCALE
 40
1.0
  9
$DIMASZ
 40
0.18
  9
$DIMEXO
 40
0.0625
  9
$DIMDLI
 40
0.38
  9
$DIMRND
 40
0.0
  9
$DIMDLE
 40
0.0
  9
$DIMEXE
 40
0.18
  9
$DIMTP
 40
0.0
  9
$DIMTM
 40
0.0
  9
$DIMTXT
 40
0.18
  9
$DIMCEN
 40
0.09
  9
$DIMTSZ
 40
0.0
  9
$DIMTOL
 70
     0
  9
$DIMLIM
 70
     0
  9
$DIMTIH
 70
     1
  9
$DIMTOH
 70
     1
  9
$DIMSE1
 70
     0
  9
$DIMSE2
 70
     0
  9
$DIMTAD
 70
     0
  9
$DIMZIN
 70
     0
  9
$DIMBLK
  1

  9
$DIMASO
 70
     1
  9
$DIMSHO
 70
     1
  9
$DIMPOST
  1

  9
$DIMAPOST
  1

  9
$DIMALT
 70
     0
  9
$DIMALTD
 70
     2
  9
$DIMALTF
 40
25.4
  9
$DIMLFAC
 40
1.0
  9
$DIMTOFL
 70
     0
  9
$DIMTVP
 40
0.0
  9
$DIMTIX
 70
     0
  9
$DIMSOXD
 70
     0
  9
$DIMSAH
 70
     0
  9
$DIMBLK1
  1

  9
$DIMBLK2
  1

  9
$DIMSTYLE
  2
STANDARD
  9
$DIMCLRD
 70
     0
  9
$DIMCLRE
 70
     0
  9
$DIMCLRT
 70
     0
  9
$DIMTFAC
 40
1.0
  9
$DIMGAP
 40
0.09
  9
$DIMJUST
 70
     0
  9
$DIMSD1
 70
     0
  9
$DIMSD2
 70
     0
  9
$DIMTOLJ
 70
     1
  9
$DIMTZIN
 70
     0
  9
$DIMALTZ
 70
     0
  9
$DIMALTTZ
 70
     0
  9
$DIMUPT
 70
     0
  9
$DIMDEC
 70
     4
  9
$DIMTDEC
 70
     4
  9
$DIMALTU
 70
     2
  9
$DIMALTTD
 70
     2
  9
$DIMTXSTY
  7
STANDARD
  9
$DIMAUNIT
 70
     0
  9
$DIMADEC
 70
     0
  9
$DIMALTRND
 40
0.0
  9
$DIMAZIN
 70
     0
  9
$DIMDSEP
 70
    46
  9
$DIMATFIT
 70
     3
  9
$DIMFRAC
 70
     0
  9
$DIMLDRBLK
  1

  9
$DIMLUNIT
 70
     2
  9
$DIMLWD
 70
    -2
  9
$DIMLWE
 70
    -2
  9
$DIMTMOVE
 70
     0
  9
$LUNITS
 70
     2
  9
$LUPREC
 70
     4
  9
$SKETCHINC
 40
0.1
  9
$FILLETRAD
 40
0.0
  9
$AUNITS
 70
     0
  9
$AUPREC
 70
     0
  9
$MENU
  1
.
  9
$ELEVATION
 40
0.0
  9
$PELEVATION
 40
0.0
  9
$THICKNESS
 40
0.0
  9
$LIMCHECK
 70
     0
  9
$CHAMFERA
 40
0.0
  9
$CHAMFERB
 40
0.0
  9
$CHAMFERC
 40
0.0
  9
$CHAMFERD
 40
0.0
  9
$SKPOLY
 70
     0
  9
$TDCREATE
 40
2451212.682759178
  9
$TDUCREATE
 40
2451212.307759178
  9
$TDUPDATE
 40
2455226.370985417
  9
$TDUUPDATE
 40
2455225.995985417
  9
$TDINDWG
 40
0.0004783912
  9
$TDUSRTIMER
 40
0.0004783912
  9
$USRTIMER
 70
     1
  9
$ANGBASE
 50
0.0
  9
$ANGDIR
 70
     0
  9
$PDMODE
 70
     0
  9
$PDSIZE
 40
0.0
  9
$PLINEWID
 40
0.0
  9
$SPLFRAME
 70
     0
  9
$SPLINETYPE
 70
     6
  9
$SPLINESEGS
 70
     8
  9
$HANDSEED
  5
2CB
  9
$SURFTAB1
 70
     6
  9
$SURFTAB2
 70
     6
  9
$SURFTYPE
 70
     6
  9
$SURFU
 70
     6
  9
$SURFV
 70
     6
  9
$UCSBASE
  2

  9
$UCSNAME
  2

  9
$UCSORG
 10
0.0
 20
0.0
 30
0.0
  9
$UCSXDIR
 10
1.0
 20
0.0
 30
0.0
  9
$UCSYDIR
 10
0.0
 20
1.0
 30
0.0
  9
$UCSORTHOREF
  2

  9
$UCSORTHOVIEW
 70
     0
  9
$UCSORGTOP
 10
0.0
 20
0.0
 30
0.0
  9
$UCSORGBOTTOM
 10
0.0
 20
0.0
 30
0.0
  9
$UCSORGLEFT
 10
0.0
 20
0.0
 30
0.0
  9
$UCSORGRIGHT
 10
0.0
 20
0.0
 30
0.0
  9
$UCSORGFRONT
 10
0.0
 20
0.0
 30
0.0
  9
$UCSORGBACK
 10
0.0
 20
0.0
 30
0.0
  9
$PUCSBASE
  2

  9
$PUCSNAME
  2

  9
$PUCSORG
 10
0.0
 20
0.0
 30
0.0
  9
$PUCSXDIR
 10
1.0
 20
0.0
 30
0.0
  9
$PUCSYDIR
 10
0.0
 20
1.0
 30
0.0
  9
$PUCSORTHOREF
  2

  9
$PUCSORTHOVIEW
 70
     0
  9
$PUCSORGTOP
 10
0.0
 20
0.0
 30
0.0
  9
$PUCSORGBOTTOM
 10
0.0
 20
0.0
 30
0.0
  9
$PUCSORGLEFT
 10
0.0
 20
0.0
 30
0.0
  9
$PUCSORGRIGHT
 10
0.0
 20
0.0
 30
0.0
  9
$PUCSORGFRONT
 10
0.0
 20
0.0
 30
0.0
  9
$PUCSORGBACK
 10
0.0
 20
0.0
 30
0.0
  9
$USERI1
 70
     0
  9
$USERI2
 70
     0
  9
$USERI3
 70
     0
  9
$USERI4
 70
     0
  9
$USERI5
 70
     0
  9
$USERR1
 40
0.0
  9
$USERR2
 40
0.0
  9
$USERR3
 40
0.0
  9
$USERR4
 40
0.0
  9
$USERR5
 40
0.0
  9
$WORLDVIEW
 70
     1
  9
$SHADEDGE
 70
     3
  9
$SHADEDIF
 70
    70
  9
$TILEMODE
 70
     1
  9
$MAXACTVP
 70
    16
  9
$PINSBASE
 10
0.0
 20
0.0
 30
0.0
  9
$PLIMCHECK
 70
     0
  9
$PEXTMIN
 10
1.000000000000000E+20
 20
1.000000000000000E+20
 30
1.000000000000000E+20
  9
$PEXTMAX
 10
-1.000000000000000E+20
 20
-1.000000000000000E+20
 30
-1.000000000000000E+20
  9
$PLIMMIN
 10
0.0
 20
0.0
  9
$PLIMMAX
 10
12.0
 20
9.0
  9
$UNITMODE
 70
     0
  9
$VISRETAIN
 70
     1
  9
$PLINEGEN
 70
     0
  9
$PSLTSCALE
 70
     1
  9
$TREEDEPTH
 70
  3020
  9
$CMLSTYLE
  2
STANDARD
  9
$CMLJUST
 70
     0
  9
$CMLSCALE
 40
1.0
  9
$PROXYGRAPHICS
 70
     1
  9
$MEASUREMENT
 70
     0
  9
$CELWEIGHT
370
    -1
  9
$ENDCAPS
280
     0
  9
$JOINSTYLE
280
     0
  9
$LWDISPLAY
290
     0
  9
$INSUNITS
 70
     0
  9
$HYPERLINKBASE
  1

  9
$STYLESHEET
  1

  9
$XEDIT
290
     1
  9
$CEPSNTYPE
380
     0
  9
$PSTYLEMODE
290
     1
  9
$FINGERPRINTGUID
  2
{508785F0-FFDE-494A-BEBB-82E708C00021}
  9
$VERSIONGUID
  2
{BD8806FE-46E2-4F82-815E-873EA85E3AE3}
  9
$EXTNAMES
290
     1
  9
$PSVPSCALE
 40
0.0
  9
$OLESTARTUP
290
     0
  0
ENDSEC
  0
SECTION
  2
CLASSES
  0
CLASS
  1
ACDBDICTIONARYWDFLT
  2
AcDbDictionaryWithDefault
  3
ObjectDBX Classes
 90
        0
280
     0
281
     0
  0
CLASS
  1
TABLESTYLE
  2
AcDbTableStyle
  3
ObjectDBX Classes
 90
     2047
280
     0
281
     0
  0
CLASS
  1
DICTIONARYVAR
  2
AcDbDictionaryVar
  3
ObjectDBX Classes
 90
        0
280
     0
281
     0
  0
CLASS
  1
ACDBPLACEHOLDER
  2
AcDbPlaceHolder
  3
ObjectDBX Classes
 90
        0
280
     0
281
     0
  0
CLASS
  1
LAYOUT
  2
AcDbLayout
  3
ObjectDBX Classes
 90
        0
280
     0
281
     0
  0
ENDSEC
  0
SECTION
  2
TABLES
  0
TABLE
  2
VPORT
  5
1
330
0
100
AcDbSymbolTable
 70
     2
  0
VPORT
  5
2C5
330
1
100
AcDbSymbolTableRecord
100
AcDbViewportTableRecord
  2
*Active
 70
     0
 10
0.0
 20
0.0
 11
1.0
 21
1.0
 12
1991.618772563152
 22
840.0
 13
0.0
 23
0.0
 14
1.0
 24
1.0
 15
0.0
 25
0.0
 16
0.0
 26
0.0
 36
1.0
 17
0.0
 27
0.0
 37
0.0
 40
2376.0
 41
2.155234657039711
 42
50.0
 43
0.0
 44
0.0
 50
0.0
 51
0.0
 71
     0
 72
   100
 73
     1
 74
     1
 75
     0
 76
     0
 77
     0
 78
     0
281
     0
 65
     1
110
0.0
120
0.0
130
0.0
111
1.0
121
0.0
131
0.0
112
0.0
122
1.0
132
0.0
 79
     0
146
0.0
  0
ENDTAB
  0
TABLE
  2
LTYPE
  5
9E
330
0
100
AcDbSymbolTable
 70
    25
  0
LTYPE
  5
2E
330
9E
100
AcDbSymbolTableRecord
100
AcDbLinetypeTableRecord
  2
BYBLOCK
 70
     0
  3

 72
    65
 73
     0
 40
0.0
  0
LTYPE
  5
2F
330
9E
100
AcDbSymbolTableRecord
100
AcDbLinetypeTableRecord
  2
BYLAYER
 70
     0
  3

 72
    65
 73
     0
 40
0.0
  0
LTYPE
  5
30
330
9E
100
AcDbSymbolTableRecord
100
AcDbLinetypeTableRecord
  2
CONTINUOUS
 70
     0
  3
Solid line
 72
    65
 73
     0
 40
0.0
  0
LTYPE
  5
31
330
9E
100
AcDbSymbolTableRecord
100
AcDbLinetypeTableRecord
  2
BORDER
 70
     0
  3
__ __ . __ __ . __ __ . __ __ . __ __ . __ __ .
 72
    65
 73
     6
 40
1.75
 49
0.5
 74
     0
 49
-0.25
 74
     0
 49
0.5
 74
     0
 49
-0.25
 74
     0
 49
0.0
 74
     0
 49
-0.25
 74
     0
  0
LTYPE
  5
32
330
9E
100
AcDbSymbolTableRecord
100
AcDbLinetypeTableRecord
  2
BORDER2
 70
     0
  3
__.__.__.__.__.__.__.__.__.__.__.__.__.__.__.__
 72
    65
 73
     6
 40
0.875
 49
0.25
 74
     0
 49
-0.125
 74
     0
 49
0.25
 74
     0
 49
-0.125
 74
     0
 49
0.0
 74
     0
 49
-0.125
 74
     0
  0
LTYPE
  5
33
330
9E
100
AcDbSymbolTableRecord
100
AcDbLinetypeTableRecord
  2
BORDERX2
 70
     0
  3
____  ____  .  ____  ____  .  ____  ____  .  __
 72
    65
 73
     6
 40
3.5
 49
1.0
 74
     0
 49
-0.5
 74
     0
 49
1.0
 74
     0
 49
-0.5
 74
     0
 49
0.0
 74
     0
 49
-0.5
 74
     0
  0
LTYPE
  5
34
330
9E
100
AcDbSymbolTableRecord
100
AcDbLinetypeTableRecord
  2
CENTER
 70
     0
  3
____ _ ____ _ ____ _ ____ _ ____ _ ____ _ ____ 
 72
    65
 73
     4
 40
2.0
 49
1.25
 74
     0
 49
-0.25
 74
     0
 49
0.25
 74
     0
 49
-0.25
 74
     0
  0
LTYPE
  5
35
330
9E
100
AcDbSymbolTableRecord
100
AcDbLinetypeTableRecord
  2
CENTER2
 70
     0
  3
___ _ ___ _ ___ _ ___ _ ___ _ ___ _ ___ _ ___ _
 72
    65
 73
     4
 40
1.125
 49
0.75
 74
     0
 49
-0.125
 74
     0
 49
0.125
 74
     0
 49
-0.125
 74
     0
  0
LTYPE
  5
36
330
9E
100
AcDbSymbolTableRecord
100
AcDbLinetypeTableRecord
  2
CENTERX2
 70
     0
  3
________  __  ________  __  ________  __  _____
 72
    65
 73
     4
 40
4.0
 49
2.5
 74
     0
 49
-0.5
 74
     0
 49
0.5
 74
     0
 49
-0.5
 74
     0
  0
LTYPE
  5
37
330
9E
100
AcDbSymbolTableRecord
100
AcDbLinetypeTableRecord
  2
DASHDOT
 70
     0
  3
__ . __ . __ . __ . __ . __ . __ . __ . __ . __
 72
    65
 73
     4
 40
1.0
 49
0.5
 74
     0
 49
-0.25
 74
     0
 49
0.0
 74
     0
 49
-0.25
 74
     0
  0
LTYPE
  5
38
330
9E
100
AcDbSymbolTableRecord
100
AcDbLinetypeTableRecord
  2
DASHDOT2
 70
     0
  3
_._._._._._._._._._._._._._._._._._._._._._._._
 72
    65
 73
     4
 40
0.5
 49
0.25
 74
     0
 49
-0.125
 74
     0
 49
0.0
 74
     0
 49
-0.125
 74
     0
  0
LTYPE
  5
39
330
9E
100
AcDbSymbolTableRecord
100
AcDbLinetypeTableRecord
  2
DASHDOTX2
 70
     0
  3
____  .  ____  .  ____  .  ____  .  ____  .  __
 72
    65
 73
     4
 40
2.0
 49
1.0
 74
     0
 49
-0.5
 74
     0
 49
0.0
 74
     0
 49
-0.5
 74
     0
  0
LTYPE
  5
3A
330
9E
100
AcDbSymbolTableRecord
100
AcDbLinetypeTableRecord
  2
DASHED
 70
     0
  3
__ __ __ __ __ __ __ __ __ __ __ __ __ __ __ __
 72
    65
 73
     2
 40
0.75
 49
0.5
 74
     0
 49
-0.25
 74
     0
  0
LTYPE
  5
3B
330
9E
100
AcDbSymbolTableRecord
100
AcDbLinetypeTableRecord
  2
DASHED2
 70
     0
  3
_ _ _ _ _ _ _ _ _ _ _ _ _ _ _ _ _ _ _ _ _ _ _ _
 72
    65
 73
     2
 40
0.375
 49
0.25
 74
     0
 49
-0.125
 74
     0
  0
LTYPE
  5
3C
330
9E
100
AcDbSymbolTableRecord
100
AcDbLinetypeTableRecord
  2
DASHEDX2
 70
     0
  3
____  ____  ____  ____  ____  ____  ____  ____ 
 72
    65
 73
     2
 40
1.5
 49
1.0
 74
     0
 49
-0.5
 74
     0
  0
LTYPE
  5
3D
330
9E
100
AcDbSymbolTableRecord
100
AcDbLinetypeTableRecord
  2
DIVIDE
 70
     0
  3
____ . . ____ . . ____ . . ____ . . ____ . . __
 72
    65
 73
     6
 40
1.25
 49
0.5
 74
     0
 49
-0.25
 74
     0
 49
0.0
 74
     0
 49
-0.25
 74
     0
 49
0.0
 74
     0
 49
-0.25
 74
     0
  0
LTYPE
  5
3E
330
9E
100
AcDbSymbolTableRecord
100
AcDbLinetypeTableRecord
  2
DIVIDE2
 70
     0
  3
__..__..__..__..__..__..__..__..__..__..__..__.
 72
    65
 73
     6
 40
0.625
 49
0.25
 74
     0
 49
-0.125
 74
     0
 49
0.0
 74
     0
 49
-0.125
 74
     0
 49
0.0
 74
     0
 49
-0.125
 74
     0
  0
LTYPE
  5
3F
330
9E
100
AcDbSymbolTableRecord
100
AcDbLinetypeTableRecord
  2
DIVIDEX2
 70
     0
  3
________  .  .  ________  .  .  ________  .  . 
 72
    65
 73
     6
 40
2.5
 49
1.0
 74
     0
 49
-0.5
 74
     0
 49
0.0
 74
     0
 49
-0.5
 74
     0
 49
0.0
 74
     0
 49
-0.5
 74
     0
  0
LTYPE
  5
40
330
9E
100
AcDbSymbolTableRecord
100
AcDbLinetypeTableRecord
  2
DOT
 70
     0
  3
. . . . . . . . . . . . . . . . . . . . . . . .
 72
    65
 73
     2
 40
0.25
 49
0.0
 74
     0
 49
-0.25
 74
     0
  0
LTYPE
  5
41
330
9E
100
AcDbSymbolTableRecord
100
AcDbLinetypeTableRecord
  2
DOT2
 70
     0
  3
...............................................
 72
    65
 73
     2
 40
0.125
 49
0.0
 74
     0
 49
-0.125
 74
     0
  0
LTYPE
  5
42
330
9E
100
AcDbSymbolTableRecord
100
AcDbLinetypeTableRecord
  2
DOTX2
 70
     0
  3
.  .  .  .  .  .  .  .  .  .  .  .  .  .  .  . 
 72
    65
 73
     2
 40
0.5
 49
0.0
 74
     0
 49
-0.5
 74
     0
  0
LTYPE
  5
43
330
9E
100
AcDbSymbolTableRecord
100
AcDbLinetypeTableRecord
  2
HIDDEN
 70
     0
  3
__ __ __ __ __ __ __ __ __ __ __ __ __ __ __ __
 72
    65
 73
     2
 40
0.375
 49
0.25
 74
     0
 49
-0.125
 74
     0
  0
LTYPE
  5
44
330
9E
100
AcDbSymbolTableRecord
100
AcDbLinetypeTableRecord
  2
HIDDEN2
 70
     0
  3
_ _ _ _ _ _ _ _ _ _ _ _ _ _ _ _ _ _ _ _ _ _ _ _
 72
    65
 73
     2
 40
0.1875
 49
0.125
 74
     0
 49
-0.0625
 74
     0
  0
LTYPE
  5
45
330
9E
100
AcDbSymbolTableRecord
100
AcDbLinetypeTableRecord
  2
HIDDENX2
 70
     0
  3
____ ____ ____ ____ ____ ____ ____ ____ ____ __
 72
    65
 73
     2
 40
0.75
 49
0.5
 74
     0
 49
-0.25
 74
     0
  0
LTYPE
  5
46
330
9E
100
AcDbSymbolTableRecord
100
AcDbLinetypeTableRecord
  2
PHANTOM
 70
     0
  3
______  __  __  ______  __  __  ______  __  __ 
 72
    65
 73
     6
 40
2.5
 49
1.25
 74
     0
 49
-0.25
 74
     0
 49
0.25
 74
     0
 49
-0.25
 74
     0
 49
0.25
 74
     0
 49
-0.25
 74
     0
  0
LTYPE
  5
47
330
9E
100
AcDbSymbolTableRecord
100
AcDbLinetypeTableRecord
  2
PHANTOM2
 70
     0
  3
___ _ _ ___ _ _ ___ _ _ ___ _ _ ___ _ _ ___ _ _
 72
    65
 73
     6
 40
1.25
 49
0.625
 74
     0
 49
-0.125
 74
     0
 49
0.125
 74
     0
 49
-0.125
 74
     0
 49
0.125
 74
     0
 49
-0.125
 74
     0
  0
LTYPE
  5
48
330
9E
100
AcDbSymbolTableRecord
100
AcDbLinetypeTableRecord
  2
PHANTOMX2
 70
     0
  3
____________    ____    ____    ____________   
 72
    65
 73
     6
 40
5.0
 49
2.5
 74
     0
 49
-0.5
 74
     0
 49
0.5
 74
     0
 49
-0.5
 74
     0
 49
0.5
 74
     0
 49
-0.5
 74
     0
  0
ENDTAB
  0
TABLE
  2
LAYER
  5
9D
330
0
100
AcDbSymbolTable
 70
     5
  0
LAYER
  5
49
330
9D
100
AcDbSymbolTableRecord
100
AcDbLayerTableRecord
  2
0
 70
     0
 62
     7
  6
CONTINUOUS
370
    -3
390
2B5
  0
LAYER
  5
4A
330
9D
100
AcDbSymbolTableRecord
100
AcDbLayerTableRecord
  2
LEVEL001
 70
     0
 62
     7
  6
CONTINUOUS
370
    -3
390
2B5
  0
LAYER
  5
4B
330
9D
100
AcDbSymbolTableRecord
100
AcDbLayerTableRecord
  2
内図枠(作図領域)
 70
     0
 62
     7
  6
CONTINUOUS
370
    -3
390
2B5
  0
LAYER
  5
4C
330
9D
100
AcDbSymbolTableRecord
100
AcDbLayerTableRecord
  2
外図枠(出力紙領域)
 70
     0
 62
     7
  6
CONTINUOUS
370
    -3
390
2B5
  0
LAYER
  5
4D
330
9D
100
AcDbSymbolTableRecord
100
AcDbLayerTableRecord
  2
部品表金額表示用
 70
     0
 62
     7
  6
CONTINUOUS
370
    -3
390
2B5
  0
ENDTAB
  0
TABLE
  2
STYLE
  5
6
330
0
100
AcDbSymbolTable
 70
     3
  0
STYLE
  5
7
330
6
100
AcDbSymbolTableRecord
100
AcDbTextStyleTableRecord
  2
STANDARD
 70
     0
 40
0.0
 41
1.0
 50
0.0
 71
     0
 42
0.2
  3
TXT
  4
BIGFONT
  0
STYLE
  5
8
330
6
100
AcDbSymbolTableRecord
100
AcDbTextStyleTableRecord
  2
STANDARD1
 70
     4
 40
0.0
 41
1.0
 50
0.0
 71
     0
 42
0.2
  3
TXT
  4
BIGFONT
  0
STYLE
  5
9
330
6
100
AcDbSymbolTableRecord
100
AcDbTextStyleTableRecord
  2
GMM001
 70
     0
 40
0.0
 41
1.0
 50
0.0
 71
     0
 42
1.0
  3
txt.shx
  4
bigfont.shx
  0
ENDTAB
  0
TABLE
  2
VIEW
  5
2
330
0
100
AcDbSymbolTable
 70
     0
  0
ENDTAB
  0
TABLE
  2
UCS
  5
3
330
0
100
AcDbSymbolTable
 70
     0
  0
ENDTAB
  0
TABLE
  2
APPID
  5
4
330
0
100
AcDbSymbolTable
 70
     1
  0
APPID
  5
5
330
4
100
AcDbSymbolTableRecord
100
AcDbRegAppTableRecord
  2
ACAD
 70
     0
  0
ENDTAB
  0
TABLE
  2
DIMSTYLE
  5
9C
330
0
100
AcDbSymbolTable
 70
     4
100
AcDbDimStyleTable
 71
     0
  0
DIMSTYLE
105
4E
330
9C
100
AcDbSymbolTableRecord
100
AcDbDimStyleTableRecord
  2
STANDARD
 70
     0
340
7
  0
DIMSTYLE
105
4F
102
{ACAD_REACTORS
330
290
330
291
330
292
330
293
330
296
102
}
330
9C
100
AcDbSymbolTableRecord
100
AcDbDimStyleTableRecord
  2
GMM001
 70
     0
 41
12.0
 42
0.0
 43
32.0
 44
8.0
 46
15.0
 73
     0
 74
     0
 77
     1
 78
     8
140
24.0
141
4.0
143
0.0394
146
0.625
147
10.285714285714
172
     1
173
     1
176
     1
177
     1
178
     7
271
     6
272
     0
340
9
341
1B
343
1B
344
1B
  0
DIMSTYLE
105
50
102
{ACAD_REACTORS
330
294
330
295
102
}
330
9C
100
AcDbSymbolTableRecord
100
AcDbDimStyleTableRecord
  2
GMM002
 70
     0
 41
12.0
 42
0.0
 43
32.0
 44
8.0
 46
15.0
 73
     0
 74
     0
 76
     1
 77
     1
 78
     8
140
24.0
141
4.0
143
0.0394
146
0.625
147
10.285714285714
172
     1
173
     1
176
     1
177
     1
178
     7
271
     6
272
     0
340
9
341
1B
343
1B
344
1B
  0
DIMSTYLE
105
51
102
{ACAD_REACTORS
330
297
102
}
330
9C
100
AcDbSymbolTableRecord
100
AcDbDimStyleTableRecord
  2
GMM003
 70
     0
  3
R<>
 41
12.0
 42
0.0
 43
32.0
 44
8.0
 46
15.0
 73
     0
 74
     0
 75
     1
 76
     1
 77
     1
 78
     8
140
24.0
141
4.0
143
0.0394
146
0.625
147
15.13223785676
172
     1
173
     1
176
     1
177
     1
178
     7
271
     6
272
     0
288
     1
340
9
341
23
343
23
344
1B
  0
ENDTAB
  0
TABLE
  2
BLOCK_RECORD
  5
A
330
0
100
AcDbSymbolTable
 70
    33
  0
BLOCK_RECORD
  5
B
330
A
100
AcDbSymbolTableRecord
100
AcDbBlockTableRecord
  2
*MODEL_SPACE
340
2BC
  0
BLOCK_RECORD
  5
C
330
A
100
AcDbSymbolTableRecord
100
AcDbBlockTableRecord
  2
*PAPER_SPACE
340
2BD
  0
BLOCK_RECORD
  5
D
330
A
100
AcDbSymbolTableRecord
100
AcDbBlockTableRecord
  2
*D0
340
0
  0
BLOCK_RECORD
  5
E
330
A
100
AcDbSymbolTableRecord
100
AcDbBlockTableRecord
  2
*D1
340
0
  0
BLOCK_RECORD
  5
F
330
A
100
AcDbSymbolTableRecord
100
AcDbBlockTableRecord
  2
*D2
340
0
  0
BLOCK_RECORD
  5
10
330
A
100
AcDbSymbolTableRecord
100
AcDbBlockTableRecord
  2
*D3
340
0
  0
BLOCK_RECORD
  5
11
330
A
100
AcDbSymbolTableRecord
100
AcDbBlockTableRecord
  2
*D4
340
0
  0
BLOCK_RECORD
  5
12
330
A
100
AcDbSymbolTableRecord
100
AcDbBlockTableRecord
  2
*D5
340
0
  0
BLOCK_RECORD
  5
13
330
A
100
AcDbSymbolTableRecord
100
AcDbBlockTableRecord
  2
*D6
340
0
  0
BLOCK_RECORD
  5
14
330
A
100
AcDbSymbolTableRecord
100
AcDbBlockTableRecord
  2
*D7
340
0
  0
BLOCK_RECORD
  5
15
330
A
100
AcDbSymbolTableRecord
100
AcDbBlockTableRecord
  2
_ARCHTICK
340
0
  0
BLOCK_RECORD
  5
16
330
A
100
AcDbSymbolTableRecord
100
AcDbBlockTableRecord
  2
_OBLIQUE
340
0
  0
BLOCK_RECORD
  5
17
330
A
100
AcDbSymbolTableRecord
100
AcDbBlockTableRecord
  2
_BOXBLANK
340
0
  0
BLOCK_RECORD
  5
18
330
A
100
AcDbSymbolTableRecord
100
AcDbBlockTableRecord
  2
_BOXFILLED
340
0
  0
BLOCK_RECORD
  5
19
330
A
100
AcDbSymbolTableRecord
100
AcDbBlockTableRecord
  2
_CLOSED
340
0
  0
BLOCK_RECORD
  5
1A
330
A
100
AcDbSymbolTableRecord
100
AcDbBlockTableRecord
  2
_OPEN
340
0
  0
BLOCK_RECORD
  5
1B
330
A
100
AcDbSymbolTableRecord
100
AcDbBlockTableRecord
  2
_OPEN30
340
0
102
{BLKREFS
331
AE
331
AF
331
B4
331
B5
331
BA
331
BB
331
C0
331
C1
331
C6
331
C7
331
CC
331
CD
331
D2
331
D3
331
D6
102
}
  0
BLOCK_RECORD
  5
1C
330
A
100
AcDbSymbolTableRecord
100
AcDbBlockTableRecord
  2
_OPEN90
340
0
  0
BLOCK_RECORD
  5
1D
330
A
100
AcDbSymbolTableRecord
100
AcDbBlockTableRecord
  2
_CLOSEDBLANK
340
0
  0
BLOCK_RECORD
  5
1E
330
A
100
AcDbSymbolTableRecord
100
AcDbBlockTableRecord
  2
_DOT
340
0
  0
BLOCK_RECORD
  5
1F
330
A
100
AcDbSymbolTableRecord
100
AcDbBlockTableRecord
  2
_DOTSMALL
340
0
  0
BLOCK_RECORD
  5
20
330
A
100
AcDbSymbolTableRecord
100
AcDbBlockTableRecord
  2
_DATUMBLANK
340
0
  0
BLOCK_RECORD
  5
21
330
A
100
AcDbSymbolTableRecord
100
AcDbBlockTableRecord
  2
_DATUMFILLED
340
0
  0
BLOCK_RECORD
  5
22
330
A
100
AcDbSymbolTableRecord
100
AcDbBlockTableRecord
  2
_ORIGIN
340
0
  0
BLOCK_RECORD
  5
23
330
A
100
AcDbSymbolTableRecord
100
AcDbBlockTableRecord
  2
_NONE
340
0
  0
BLOCK_RECORD
  5
24
330
A
100
AcDbSymbolTableRecord
100
AcDbBlockTableRecord
  2
_DOTBLANK
340
0
  0
BLOCK_RECORD
  5
25
330
A
100
AcDbSymbolTableRecord
100
AcDbBlockTableRecord
  2
_INTEGRAL
340
0
  0
BLOCK_RECORD
  5
26
330
A
100
AcDbSymbolTableRecord
100
AcDbBlockTableRecord
  2
A2
340
0
102
{BLKREFS
331
135
102
}
  0
BLOCK_RECORD
  5
27
330
A
100
AcDbSymbolTableRecord
100
AcDbBlockTableRecord
  2
BLOCK001
340
0
102
{BLKREFS
331
136
102
}
  0
BLOCK_RECORD
  5
28
330
A
100
AcDbSymbolTableRecord
100
AcDbBlockTableRecord
  2
BLOCK002
340
0
102
{BLKREFS
331
137
102
}
  0
BLOCK_RECORD
  5
29
330
A
100
AcDbSymbolTableRecord
100
AcDbBlockTableRecord
  2
BLOCK003
340
0
102
{BLKREFS
331
138
102
}
  0
BLOCK_RECORD
  5
2A
330
A
100
AcDbSymbolTableRecord
100
AcDbBlockTableRecord
  2
EGF7M10
340
0
102
{BLKREFS
331
199
102
}
  0
BLOCK_RECORD
  5
2B
330
A
100
AcDbSymbolTableRecord
100
AcDbBlockTableRecord
  2
EGF9M10
340
0
102
{BLKREFS
331
1B3
102
}
  0
BLOCK_RECORD
  5
2C
330
A
100
AcDbSymbolTableRecord
100
AcDbBlockTableRecord
  2
EGF21M10
340
0
102
{BLKREFS
331
1B6
331
22D
331
22E
331
22F
331
254
331
257
331
258
331
25C
102
}
  0
BLOCK_RECORD
  5
2D
330
A
100
AcDbSymbolTableRecord
100
AcDbBlockTableRecord
  2
EGF11M10
340
0
102
{BLKREFS
331
1B7
331
230
331
255
331
25D
102
}
  0
ENDTAB
  0
ENDSEC
  0
SECTION
  2
BLOCKS
  0
BLOCK
  5
56
330
B
100
AcDbEntity
  8
0
100
AcDbBlockBegin
  2
*MODEL_SPACE
 70
     0
 10
0.0
 20
0.0
 30
0.0
  3
*MODEL_SPACE
  1

  0
ENDBLK
  5
79
330
B
100
AcDbEntity
  8
0
100
AcDbBlockEnd
  0
BLOCK
  5
57
330
C
100
AcDbEntity
 67
     1
  8
0
100
AcDbBlockBegin
  2
*PAPER_SPACE
 70
     0
 10
0.0
 20
0.0
 30
0.0
  3
*PAPER_SPACE
  1

  0
ENDBLK
  5
7A
330
C
100
AcDbEntity
 67
     1
  8
0
100
AcDbBlockEnd
  0
BLOCK
  5
58
330
D
100
AcDbEntity
  8
0
100
AcDbBlockBegin
  2
*D0
 70
     1
 10
0.0
 20
0.0
 30
0.0
  3
*D0
  1

  0
LINE
  5
AB
330
D
100
AcDbEntity
  8
LEVEL001
  6
Continuous
 62
     1
100
AcDbLine
 10
525.4999999999999
 20
440.0
 30
0.0
 11
525.4999999999999
 21
367.0
 31
0.0
  0
LINE
  5
AC
330
D
100
AcDbEntity
  8
LEVEL001
  6
Continuous
 62
     1
100
AcDbLine
 10
920.5
 20
440.0
 30
0.0
 11
920.5
 21
367.0
 31
0.0
  0
LINE
  5
AD
330
D
100
AcDbEntity
  8
LEVEL001
  6
Continuous
 62
     1
100
AcDbLine
 10
525.4999999999999
 20
375.0
 30
0.0
 11
920.5
 21
375.0
 31
0.0
  0
INSERT
  5
AE
330
D
100
AcDbEntity
  8
LEVEL001
  6
Continuous
 62
     1
100
AcDbBlockReference
  2
_OPEN30
 10
525.4999999999999
 20
375.0
 30
0.0
 41
12.0
 42
12.0
 43
12.0
 50
180.0
  0
INSERT
  5
AF
330
D
100
AcDbEntity
  8
LEVEL001
  6
Continuous
 62
     1
100
AcDbBlockReference
  2
_OPEN30
 10
920.5
 20
375.0
 30
0.0
 41
12.0
 42
12.0
 43
12.0
  0
MTEXT
  5
B0
330
D
100
AcDbEntity
  8
LEVEL001
  6
ByBlock
 62
     7
100
AcDbMText
 10
723.0
 20
385.28571428571
 30
0.0
 40
24.0
 41
0.0
 71
     8
 72
     1
  1
\A1;395
  7
GMM001
 73
     1
 44
1.0
1001
ACAD
1000
MTEXTBEGIN
1070
    73
1070
     1
1070
    44
1040
1.0
1070
    74
1070
     0
1000
MTEXTEND
  0
ENDBLK
  5
83
330
D
100
AcDbEntity
  8
0
100
AcDbBlockEnd
  0
BLOCK
  5
59
330
E
100
AcDbEntity
  8
0
100
AcDbBlockBegin
  2
*D1
 70
     1
 10
0.0
 20
0.0
 30
0.0
  3
*D1
  1

  0
LINE
  5
B1
330
E
100
AcDbEntity
  8
LEVEL001
  6
Continuous
 62
     1
100
AcDbLine
 10
954.0
 20
189.0
 30
0.0
 11
1246.0
 21
189.0
 31
0.0
  0
LINE
  5
B2
330
E
100
AcDbEntity
  8
LEVEL001
  6
Continuous
 62
     1
100
AcDbLine
 10
954.4999999999999
 20
849.0
 30
0.0
 11
1246.0
 21
849.0
 31
0.0
  0
LINE
  5
B3
330
E
100
AcDbEntity
  8
LEVEL001
  6
Continuous
 62
     1
100
AcDbLine
 10
1238.0
 20
189.0
 30
0.0
 11
1238.0
 21
849.0
 31
0.0
  0
INSERT
  5
B4
330
E
100
AcDbEntity
  8
LEVEL001
  6
Continuous
 62
     1
100
AcDbBlockReference
  2
_OPEN30
 10
1238.0
 20
189.0
 30
0.0
 41
12.0
 42
12.0
 43
12.0
 50
270.0
  0
INSERT
  5
B5
330
E
100
AcDbEntity
  8
LEVEL001
  6
Continuous
 62
     1
100
AcDbBlockReference
  2
_OPEN30
 10
1238.0
 20
849.0
 30
0.0
 41
12.0
 42
12.0
 43
12.0
 50
90.0
  0
MTEXT
  5
B6
330
E
100
AcDbEntity
  8
LEVEL001
  6
ByBlock
 62
     7
100
AcDbMText
 10
1227.7142857143
 20
519.0
 30
0.0
 40
24.0
 41
0.0
 71
     8
 72
     1
  1
\A1;660
  7
GMM001
 11
0.0
 21
1.0
 31
0.0
 73
     1
 44
1.0
1001
ACAD
1000
MTEXTBEGIN
1070
    73
1070
     1
1070
    44
1040
1.0
1070
    74
1070
     0
1000
MTEXTEND
  0
ENDBLK
  5
84
330
E
100
AcDbEntity
  8
0
100
AcDbBlockEnd
  0
BLOCK
  5
5A
330
F
100
AcDbEntity
  8
0
100
AcDbBlockBegin
  2
*D2
 70
     1
 10
0.0
 20
0.0
 30
0.0
  3
*D2
  1

  0
LINE
  5
B7
330
F
100
AcDbEntity
  8
LEVEL001
  6
Continuous
 62
     1
100
AcDbLine
 10
308.0
 20
829.0
 30
0.0
 11
308.0
 21
944.0
 31
0.0
  0
LINE
  5
B8
330
F
100
AcDbEntity
  8
LEVEL001
  6
Continuous
 62
     1
100
AcDbLine
 10
1119.0
 20
747.0
 30
0.0
 11
1119.0
 21
944.0
 31
0.0
  0
LINE
  5
B9
330
F
100
AcDbEntity
  8
LEVEL001
  6
Continuous
 62
     1
100
AcDbLine
 10
308.0
 20
936.0
 30
0.0
 11
1119.0
 21
936.0
 31
0.0
  0
INSERT
  5
BA
330
F
100
AcDbEntity
  8
LEVEL001
  6
Continuous
 62
     1
100
AcDbBlockReference
  2
_OPEN30
 10
308.0
 20
936.0
 30
0.0
 41
12.0
 42
12.0
 43
12.0
 50
180.0
  0
INSERT
  5
BB
330
F
100
AcDbEntity
  8
LEVEL001
  6
Continuous
 62
     1
100
AcDbBlockReference
  2
_OPEN30
 10
1119.0
 20
936.0
 30
0.0
 41
12.0
 42
12.0
 43
12.0
  0
MTEXT
  5
BC
330
F
100
AcDbEntity
  8
LEVEL001
  6
ByBlock
 62
     7
100
AcDbMText
 10
713.4999999999999
 20
946.28571428571
 30
0.0
 40
24.0
 41
0.0
 71
     8
 72
     1
  1
\A1;811
  7
GMM001
 73
     1
 44
1.0
1001
ACAD
1000
MTEXTBEGIN
1070
    73
1070
     1
1070
    44
1040
1.0
1070
    74
1070
     0
1000
MTEXTEND
  0
ENDBLK
  5
85
330
F
100
AcDbEntity
  8
0
100
AcDbBlockEnd
  0
BLOCK
  5
5B
330
10
100
AcDbEntity
  8
0
100
AcDbBlockBegin
  2
*D3
 70
     1
 10
0.0
 20
0.0
 30
0.0
  3
*D3
  1

  0
LINE
  5
BD
330
10
100
AcDbEntity
  8
LEVEL001
  6
Continuous
 62
     1
100
AcDbLine
 10
1908.0
 20
829.0
 30
0.0
 11
1908.0
 21
944.0
 31
0.0
  0
LINE
  5
BE
330
10
100
AcDbEntity
  8
LEVEL001
  6
Continuous
 62
     1
100
AcDbLine
 10
1463.0
 20
555.0
 30
0.0
 11
1463.0
 21
944.0
 31
0.0
  0
LINE
  5
BF
330
10
100
AcDbEntity
  8
LEVEL001
  6
Continuous
 62
     1
100
AcDbLine
 10
1908.0
 20
936.0
 30
0.0
 11
1463.0
 21
936.0
 31
0.0
  0
INSERT
  5
C0
330
10
100
AcDbEntity
  8
LEVEL001
  6
Continuous
 62
     1
100
AcDbBlockReference
  2
_OPEN30
 10
1908.0
 20
936.0
 30
0.0
 41
12.0
 42
12.0
 43
12.0
  0
INSERT
  5
C1
330
10
100
AcDbEntity
  8
LEVEL001
  6
Continuous
 62
     1
100
AcDbBlockReference
  2
_OPEN30
 10
1463.0
 20
936.0
 30
0.0
 41
12.0
 42
12.0
 43
12.0
 50
180.0
  0
MTEXT
  5
C2
330
10
100
AcDbEntity
  8
LEVEL001
  6
ByBlock
 62
     7
100
AcDbMText
 10
1685.5
 20
946.28571428571
 30
0.0
 40
24.0
 41
0.0
 71
     8
 72
     1
  1
\A1;445
  7
GMM001
 73
     1
 44
1.0
1001
ACAD
1000
MTEXTBEGIN
1070
    73
1070
     1
1070
    44
1040
1.0
1070
    74
1070
     0
1000
MTEXTEND
  0
ENDBLK
  5
86
330
10
100
AcDbEntity
  8
0
100
AcDbBlockEnd
  0
BLOCK
  5
5C
330
11
100
AcDbEntity
  8
0
100
AcDbBlockBegin
  2
*D4
 70
     1
 10
0.0
 20
0.0
 30
0.0
  3
*D4
  1

  0
LINE
  5
C3
330
11
100
AcDbEntity
  8
LEVEL001
  6
Continuous
 62
     1
100
AcDbLine
 10
308.0
 20
262.0
 30
0.0
 11
308.0
 21
98.0
 31
0.0
  0
LINE
  5
C4
330
11
100
AcDbEntity
  8
LEVEL001
  6
Continuous
 62
     1
100
AcDbLine
 10
423.0
 20
254.0
 30
0.0
 11
423.0
 21
98.0
 31
0.0
  0
LINE
  5
C5
330
11
100
AcDbEntity
  8
LEVEL001
  6
Continuous
 62
     1
100
AcDbLine
 10
308.0
 20
106.0
 30
0.0
 11
423.0
 21
106.0
 31
0.0
  0
INSERT
  5
C6
330
11
100
AcDbEntity
  8
LEVEL001
  6
Continuous
 62
     1
100
AcDbBlockReference
  2
_OPEN30
 10
308.0
 20
106.0
 30
0.0
 41
12.0
 42
12.0
 43
12.0
 50
180.0
  0
INSERT
  5
C7
330
11
100
AcDbEntity
  8
LEVEL001
  6
Continuous
 62
     1
100
AcDbBlockReference
  2
_OPEN30
 10
423.0
 20
106.0
 30
0.0
 41
12.0
 42
12.0
 43
12.0
  0
MTEXT
  5
C8
330
11
100
AcDbEntity
  8
LEVEL001
  6
ByBlock
 62
     7
100
AcDbMText
 10
365.5
 20
116.28571428571
 30
0.0
 40
24.0
 41
0.0
 71
     8
 72
     1
  1
\A1;115
  7
GMM001
 73
     1
 44
1.0
1001
ACAD
1000
MTEXTBEGIN
1070
    73
1070
     1
1070
    44
1040
1.0
1070
    74
1070
     0
1000
MTEXTEND
  0
ENDBLK
  5
87
330
11
100
AcDbEntity
  8
0
100
AcDbBlockEnd
  0
BLOCK
  5
5D
330
12
100
AcDbEntity
  8
0
100
AcDbBlockBegin
  2
*D5
 70
     1
 10
0.0
 20
0.0
 30
0.0
  3
*D5
  1

  0
LINE
  5
C9
330
12
100
AcDbEntity
  8
LEVEL001
  6
Continuous
 62
     1
100
AcDbLine
 10
423.0
 20
254.0
 30
0.0
 11
423.0
 21
98.0
 31
0.0
  0
LINE
  5
CA
330
12
100
AcDbEntity
  8
LEVEL001
  6
Continuous
 62
     1
100
AcDbLine
 10
1023.0
 20
225.0
 30
0.0
 11
1023.0
 21
98.0
 31
0.0
  0
LINE
  5
CB
330
12
100
AcDbEntity
  8
LEVEL001
  6
Continuous
 62
     1
100
AcDbLine
 10
423.0
 20
106.0
 30
0.0
 11
1023.0
 21
106.0
 31
0.0
  0
INSERT
  5
CC
330
12
100
AcDbEntity
  8
LEVEL001
  6
Continuous
 62
     1
100
AcDbBlockReference
  2
_OPEN30
 10
423.0
 20
106.0
 30
0.0
 41
12.0
 42
12.0
 43
12.0
 50
180.0
  0
INSERT
  5
CD
330
12
100
AcDbEntity
  8
LEVEL001
  6
Continuous
 62
     1
100
AcDbBlockReference
  2
_OPEN30
 10
1023.0
 20
106.0
 30
0.0
 41
12.0
 42
12.0
 43
12.0
  0
MTEXT
  5
CE
330
12
100
AcDbEntity
  8
LEVEL001
  6
ByBlock
 62
     7
100
AcDbMText
 10
723.0
 20
116.28571428571
 30
0.0
 40
24.0
 41
0.0
 71
     8
 72
     1
  1
\A1;600
  7
GMM001
 73
     1
 44
1.0
1001
ACAD
1000
MTEXTBEGIN
1070
    73
1070
     1
1070
    44
1040
1.0
1070
    74
1070
     0
1000
MTEXTEND
  0
ENDBLK
  5
88
330
12
100
AcDbEntity
  8
0
100
AcDbBlockEnd
  0
BLOCK
  5
5E
330
13
100
AcDbEntity
  8
0
100
AcDbBlockBegin
  2
*D6
 70
     1
 10
0.0
 20
0.0
 30
0.0
  3
*D6
  1

  0
LINE
  5
CF
330
13
100
AcDbEntity
  8
LEVEL001
  6
Continuous
 62
     1
100
AcDbLine
 10
1023.0
 20
225.0
 30
0.0
 11
1023.0
 21
98.0
 31
0.0
  0
LINE
  5
D0
330
13
100
AcDbEntity
  8
LEVEL001
  6
Continuous
 62
     1
100
AcDbLine
 10
1119.0
 20
262.0
 30
0.0
 11
1119.0
 21
98.0
 31
0.0
  0
LINE
  5
D1
330
13
100
AcDbEntity
  8
LEVEL001
  6
Continuous
 62
     1
100
AcDbLine
 10
1023.0
 20
106.0
 30
0.0
 11
1119.0
 21
106.0
 31
0.0
  0
INSERT
  5
D2
330
13
100
AcDbEntity
  8
LEVEL001
  6
Continuous
 62
     1
100
AcDbBlockReference
  2
_OPEN30
 10
1023.0
 20
106.0
 30
0.0
 41
12.0
 42
12.0
 43
12.0
 50
180.0
  0
INSERT
  5
D3
330
13
100
AcDbEntity
  8
LEVEL001
  6
Continuous
 62
     1
100
AcDbBlockReference
  2
_OPEN30
 10
1119.0
 20
106.0
 30
0.0
 41
12.0
 42
12.0
 43
12.0
  0
MTEXT
  5
D4
330
13
100
AcDbEntity
  8
LEVEL001
  6
ByBlock
 62
     7
100
AcDbMText
 10
1071.0
 20
116.28571428571
 30
0.0
 40
24.0
 41
0.0
 71
     8
 72
     1
  1
\A1;96
  7
GMM001
 73
     1
 44
1.0
1001
ACAD
1000
MTEXTBEGIN
1070
    73
1070
     1
1070
    44
1040
1.0
1070
    74
1070
     0
1000
MTEXTEND
  0
ENDBLK
  5
89
330
13
100
AcDbEntity
  8
0
100
AcDbBlockEnd
  0
BLOCK
  5
5F
330
14
100
AcDbEntity
  8
0
100
AcDbBlockBegin
  2
*D7
 70
     1
 10
0.0
 20
0.0
 30
0.0
  3
*D7
  1

  0
LINE
  5
D5
330
14
100
AcDbEntity
  8
LEVEL001
  6
Continuous
 62
     1
100
AcDbLine
 10
1708.0
 20
600.0
 30
0.0
 11
1573.2993377658
 21
513.65342164473
 31
0.0
  0
INSERT
  5
D6
330
14
100
AcDbEntity
  8
LEVEL001
  6
Continuous
 62
     1
100
AcDbBlockReference
  2
_OPEN30
 10
1573.2993377658
 20
513.65342164473
 30
0.0
 41
12.0
 42
12.0
 43
12.0
 50
212.66091272167
  0
MTEXT
  5
D7
330
14
100
AcDbEntity
  8
LEVEL001
  6
ByBlock
 62
     7
100
AcDbMText
 10
1616.0
 20
559.0
 30
0.0
 40
24.0
 41
0.0
 71
     8
 72
     1
  1
\A1;R160
  7
GMM001
 11
0.84187913896388
 21
0.5396661147204201
 31
0.0
 73
     1
 44
1.0
1001
ACAD
1000
MTEXTBEGIN
1070
    73
1070
     1
1070
    44
1040
1.0
1070
    74
1070
     0
1000
MTEXTEND
  0
ENDBLK
  5
8A
330
14
100
AcDbEntity
  8
0
100
AcDbBlockEnd
  0
BLOCK
  5
60
330
15
100
AcDbEntity
  8
0
100
AcDbBlockBegin
  2
_ARCHTICK
 70
     0
 10
0.0
 20
0.0
 30
0.0
  3
_ARCHTICK
  1

  0
LWPOLYLINE
  5
D8
330
15
100
AcDbEntity
  8
0
  6
ByBlock
 62
     0
100
AcDbPolyline
 90
        2
 70
     1
 43
0.15
 10
-0.5
 20
-0.5
 10
0.5
 20
0.5
  0
ENDBLK
  5
8B
330
15
100
AcDbEntity
  8
0
100
AcDbBlockEnd
  0
BLOCK
  5
61
330
16
100
AcDbEntity
  8
0
100
AcDbBlockBegin
  2
_OBLIQUE
 70
     0
 10
0.0
 20
0.0
 30
0.0
  3
_OBLIQUE
  1

  0
LINE
  5
DC
330
16
100
AcDbEntity
  8
0
  6
ByBlock
 62
     0
100
AcDbLine
 10
-0.5
 20
-0.5
 30
0.0
 11
0.5
 21
0.5
 31
0.0
  0
ENDBLK
  5
97
330
16
100
AcDbEntity
  8
0
100
AcDbBlockEnd
  0
BLOCK
  5
62
330
17
100
AcDbEntity
  8
0
100
AcDbBlockBegin
  2
_BOXBLANK
 70
     0
 10
0.0
 20
0.0
 30
0.0
  3
_BOXBLANK
  1

  0
LINE
  5
DD
330
17
100
AcDbEntity
  8
0
  6
ByBlock
 62
     0
100
AcDbLine
 10
-0.5
 20
-0.5
 30
0.0
 11
0.5
 21
-0.5
 31
0.0
  0
LINE
  5
DE
330
17
100
AcDbEntity
  8
0
  6
ByBlock
 62
     0
100
AcDbLine
 10
0.5
 20
-0.5
 30
0.0
 11
0.5
 21
0.5
 31
0.0
  0
LINE
  5
DF
330
17
100
AcDbEntity
  8
0
  6
ByBlock
 62
     0
100
AcDbLine
 10
0.5
 20
0.5
 30
0.0
 11
-0.5
 21
0.5
 31
0.0
  0
LINE
  5
E0
330
17
100
AcDbEntity
  8
0
  6
ByBlock
 62
     0
100
AcDbLine
 10
-0.5
 20
0.5
 30
0.0
 11
-0.5
 21
-0.5
 31
0.0
  0
LINE
  5
E1
330
17
100
AcDbEntity
  8
0
  6
ByBlock
 62
     0
100
AcDbLine
 10
-0.5
 20
0.0
 30
0.0
 11
-1.0
 21
0.0
 31
0.0
  0
ENDBLK
  5
8C
330
17
100
AcDbEntity
  8
0
100
AcDbBlockEnd
  0
BLOCK
  5
63
330
18
100
AcDbEntity
  8
0
100
AcDbBlockBegin
  2
_BOXFILLED
 70
     0
 10
0.0
 20
0.0
 30
0.0
  3
_BOXFILLED
  1

  0
SOLID
  5
E2
330
18
100
AcDbEntity
  8
0
  6
ByBlock
 62
     0
100
AcDbTrace
 10
-0.5
 20
0.5
 30
0.0
 11
0.5
 21
0.5
 31
0.0
 12
-0.5
 22
-0.5
 32
0.0
 13
0.5
 23
-0.5
 33
0.0
  0
LINE
  5
E3
330
18
100
AcDbEntity
  8
0
  6
ByBlock
 62
     0
100
AcDbLine
 10
-0.5
 20
0.0
 30
0.0
 11
-1.0
 21
0.0
 31
0.0
  0
ENDBLK
  5
8D
330
18
100
AcDbEntity
  8
0
100
AcDbBlockEnd
  0
BLOCK
  5
64
330
19
100
AcDbEntity
  8
0
100
AcDbBlockBegin
  2
_CLOSED
 70
     0
 10
0.0
 20
0.0
 30
0.0
  3
_CLOSED
  1

  0
LINE
  5
E4
330
19
100
AcDbEntity
  8
0
  6
ByBlock
 62
     0
100
AcDbLine
 10
-1.0
 20
0.16666666666667
 30
0.0
 11
0.0
 21
0.0
 31
0.0
  0
LINE
  5
E5
330
19
100
AcDbEntity
  8
0
  6
ByBlock
 62
     0
100
AcDbLine
 10
0.0
 20
0.0
 30
0.0
 11
-1.0
 21
-0.16666666666667
 31
0.0
  0
LINE
  5
E6
330
19
100
AcDbEntity
  8
0
  6
ByBlock
 62
     0
100
AcDbLine
 10
-1.0
 20
0.16666666666667
 30
0.0
 11
-1.0
 21
-0.16666666666667
 31
0.0
  0
LINE
  5
E7
330
19
100
AcDbEntity
  8
0
  6
ByBlock
 62
     0
100
AcDbLine
 10
0.0
 20
0.0
 30
0.0
 11
-1.0
 21
0.0
 31
0.0
  0
ENDBLK
  5
8E
330
19
100
AcDbEntity
  8
0
100
AcDbBlockEnd
  0
BLOCK
  5
65
330
1A
100
AcDbEntity
  8
0
100
AcDbBlockBegin
  2
_OPEN
 70
     0
 10
0.0
 20
0.0
 30
0.0
  3
_OPEN
  1

  0
LINE
  5
E8
330
1A
100
AcDbEntity
  8
0
  6
ByBlock
 62
     0
100
AcDbLine
 10
-1.0
 20
0.16666666666667
 30
0.0
 11
0.0
 21
0.0
 31
0.0
  0
LINE
  5
E9
330
1A
100
AcDbEntity
  8
0
  6
ByBlock
 62
     0
100
AcDbLine
 10
0.0
 20
0.0
 30
0.0
 11
-1.0
 21
-0.16666666666667
 31
0.0
  0
LINE
  5
EA
330
1A
100
AcDbEntity
  8
0
  6
ByBlock
 62
     0
100
AcDbLine
 10
0.0
 20
0.0
 30
0.0
 11
-1.0
 21
0.0
 31
0.0
  0
ENDBLK
  5
98
330
1A
100
AcDbEntity
  8
0
100
AcDbBlockEnd
  0
BLOCK
  5
66
330
1B
100
AcDbEntity
  8
0
100
AcDbBlockBegin
  2
_OPEN30
 70
     0
 10
0.0
 20
0.0
 30
0.0
  3
_OPEN30
  1

  0
LINE
  5
EB
330
1B
100
AcDbEntity
  8
0
  6
ByBlock
 62
     0
100
AcDbLine
 10
-1.0
 20
0.2679491924311
 30
0.0
 11
0.0
 21
0.0
 31
0.0
  0
LINE
  5
EC
330
1B
100
AcDbEntity
  8
0
  6
ByBlock
 62
     0
100
AcDbLine
 10
0.0
 20
0.0
 30
0.0
 11
-1.0
 21
-0.2679491924311
 31
0.0
  0
LINE
  5
ED
330
1B
100
AcDbEntity
  8
0
  6
ByBlock
 62
     0
100
AcDbLine
 10
0.0
 20
0.0
 30
0.0
 11
-1.0
 21
0.0
 31
0.0
  0
ENDBLK
  5
99
330
1B
100
AcDbEntity
  8
0
100
AcDbBlockEnd
  0
BLOCK
  5
67
330
1C
100
AcDbEntity
  8
0
100
AcDbBlockBegin
  2
_OPEN90
 70
     0
 10
0.0
 20
0.0
 30
0.0
  3
_OPEN90
  1

  0
LINE
  5
EE
330
1C
100
AcDbEntity
  8
0
  6
ByBlock
 62
     0
100
AcDbLine
 10
-0.5
 20
0.5
 30
0.0
 11
0.0
 21
0.0
 31
0.0
  0
LINE
  5
EF
330
1C
100
AcDbEntity
  8
0
  6
ByBlock
 62
     0
100
AcDbLine
 10
0.0
 20
0.0
 30
0.0
 11
-0.5
 21
-0.5
 31
0.0
  0
LINE
  5
F0
330
1C
100
AcDbEntity
  8
0
  6
ByBlock
 62
     0
100
AcDbLine
 10
0.0
 20
0.0
 30
0.0
 11
-1.0
 21
0.0
 31
0.0
  0
ENDBLK
  5
9A
330
1C
100
AcDbEntity
  8
0
100
AcDbBlockEnd
  0
BLOCK
  5
68
330
1D
100
AcDbEntity
  8
0
100
AcDbBlockBegin
  2
_CLOSEDBLANK
 70
     0
 10
0.0
 20
0.0
 30
0.0
  3
_CLOSEDBLANK
  1

  0
LINE
  5
F1
330
1D
100
AcDbEntity
  8
0
  6
ByBlock
 62
     0
100
AcDbLine
 10
-1.0
 20
0.16666666666667
 30
0.0
 11
0.0
 21
0.0
 31
0.0
  0
LINE
  5
F2
330
1D
100
AcDbEntity
  8
0
  6
ByBlock
 62
     0
100
AcDbLine
 10
0.0
 20
0.0
 30
0.0
 11
-1.0
 21
-0.16666666666667
 31
0.0
  0
LINE
  5
F3
330
1D
100
AcDbEntity
  8
0
  6
ByBlock
 62
     0
100
AcDbLine
 10
-1.0
 20
0.16666666666667
 30
0.0
 11
-1.0
 21
-0.16666666666667
 31
0.0
  0
ENDBLK
  5
8F
330
1D
100
AcDbEntity
  8
0
100
AcDbBlockEnd
  0
BLOCK
  5
69
330
1E
100
AcDbEntity
  8
0
100
AcDbBlockBegin
  2
_DOT
 70
     0
 10
0.0
 20
0.0
 30
0.0
  3
_DOT
  1

  0
LWPOLYLINE
  5
F4
330
1E
100
AcDbEntity
  8
0
  6
ByBlock
 62
     0
100
AcDbPolyline
 90
        2
 70
     1
 43
0.5
 10
-0.25
 20
0.0
 42
1.0
 10
0.25
 20
0.0
 42
1.0
  0
LINE
  5
F8
330
1E
100
AcDbEntity
  8
0
  6
ByBlock
 62
     0
100
AcDbLine
 10
-0.5
 20
0.0
 30
0.0
 11
-1.0
 21
0.0
 31
0.0
  0
ENDBLK
  5
92
330
1E
100
AcDbEntity
  8
0
100
AcDbBlockEnd
  0
BLOCK
  5
6A
330
1F
100
AcDbEntity
  8
0
100
AcDbBlockBegin
  2
_DOTSMALL
 70
     0
 10
0.0
 20
0.0
 30
0.0
  3
_DOTSMALL
  1

  0
LWPOLYLINE
  5
F9
330
1F
100
AcDbEntity
  8
0
  6
ByBlock
 62
     0
100
AcDbPolyline
 90
        2
 70
     1
 43
0.5
 10
-0.0625
 20
0.0
 42
1.0
 10
0.0625
 20
0.0
 42
1.0
  0
ENDBLK
  5
94
330
1F
100
AcDbEntity
  8
0
100
AcDbBlockEnd
  0
BLOCK
  5
6B
330
20
100
AcDbEntity
  8
0
100
AcDbBlockBegin
  2
_DATUMBLANK
 70
     0
 10
0.0
 20
0.0
 30
0.0
  3
_DATUMBLANK
  1

  0
LINE
  5
FD
330
20
100
AcDbEntity
  8
0
  6
ByBlock
 62
     0
100
AcDbLine
 10
0.0
 20
0.5773502700000001
 30
0.0
 11
-1.0
 21
0.0
 31
0.0
  0
LINE
  5
FE
330
20
100
AcDbEntity
  8
0
  6
ByBlock
 62
     0
100
AcDbLine
 10
-1.0
 20
0.0
 30
0.0
 11
0.0
 21
-0.5773502700000001
 31
0.0
  0
LINE
  5
FF
330
20
100
AcDbEntity
  8
0
  6
ByBlock
 62
     0
100
AcDbLine
 10
0.0
 20
-0.5773502700000001
 30
0.0
 11
0.0
 21
0.5773502700000001
 31
0.0
  0
ENDBLK
  5
90
330
20
100
AcDbEntity
  8
0
100
AcDbBlockEnd
  0
BLOCK
  5
6C
330
21
100
AcDbEntity
  8
0
100
AcDbBlockBegin
  2
_DATUMFILLED
 70
     0
 10
0.0
 20
0.0
 30
0.0
  3
_DATUMFILLED
  1

  0
SOLID
  5
100
330
21
100
AcDbEntity
  8
0
  6
ByBlock
 62
     0
100
AcDbTrace
 10
0.0
 20
0.5773502700000001
 30
0.0
 11
-1.0
 21
0.0
 31
0.0
 12
0.0
 22
-0.5773502700000001
 32
0.0
 13
0.0
 23
-0.5773502700000001
 33
0.0
  0
ENDBLK
  5
91
330
21
100
AcDbEntity
  8
0
100
AcDbBlockEnd
  0
BLOCK
  5
6D
330
22
100
AcDbEntity
  8
0
100
AcDbBlockBegin
  2
_ORIGIN
 70
     0
 10
0.0
 20
0.0
 30
0.0
  3
_ORIGIN
  1

  0
CIRCLE
  5
101
330
22
100
AcDbEntity
  8
0
  6
ByBlock
 62
     0
100
AcDbCircle
 10
0.0
 20
0.0
 30
0.0
 40
0.5
  0
LINE
  5
102
330
22
100
AcDbEntity
  8
0
  6
ByBlock
 62
     0
100
AcDbLine
 10
0.0
 20
0.0
 30
0.0
 11
-1.0
 21
0.0
 31
0.0
  0
ENDBLK
  5
9B
330
22
100
AcDbEntity
  8
0
100
AcDbBlockEnd
  0
BLOCK
  5
6E
330
23
100
AcDbEntity
  8
0
100
AcDbBlockBegin
  2
_NONE
 70
     0
 10
0.0
 20
0.0
 30
0.0
  3
_NONE
  1

  0
CIRCLE
  5
103
330
23
100
AcDbEntity
  8
0
  6
ByBlock
 62
     0
100
AcDbCircle
 10
0.0
 20
0.0
 30
0.0
 40
0.25
  0
ENDBLK
  5
96
330
23
100
AcDbEntity
  8
0
100
AcDbBlockEnd
  0
BLOCK
  5
6F
330
24
100
AcDbEntity
  8
0
100
AcDbBlockBegin
  2
_DOTBLANK
 70
     0
 10
0.0
 20
0.0
 30
0.0
  3
_DOTBLANK
  1

  0
CIRCLE
  5
104
330
24
100
AcDbEntity
  8
0
  6
ByBlock
 62
     0
100
AcDbCircle
 10
0.0
 20
0.0
 30
0.0
 40
0.5
  0
LINE
  5
105
330
24
100
AcDbEntity
  8
0
  6
ByBlock
 62
     0
100
AcDbLine
 10
-0.5
 20
0.0
 30
0.0
 11
-1.0
 21
0.0
 31
0.0
  0
ENDBLK
  5
93
330
24
100
AcDbEntity
  8
0
100
AcDbBlockEnd
  0
BLOCK
  5
70
330
25
100
AcDbEntity
  8
0
100
AcDbBlockBegin
  2
_INTEGRAL
 70
     0
 10
0.0
 20
0.0
 30
0.0
  3
_INTEGRAL
  1

  0
ARC
  5
106
330
25
100
AcDbEntity
  8
0
  6
ByBlock
 62
     0
100
AcDbCircle
 10
0.444888
 20
-0.091335
 30
0.0
 40
0.454167
100
AcDbArc
 50
102.0
 51
168.0
  0
ARC
  5
107
330
25
100
AcDbEntity
  8
0
  6
ByBlock
 62
     0
100
AcDbCircle
 10
-0.444888
 20
0.091335
 30
0.0
 40
0.454167
100
AcDbArc
 50
282.0
 51
348.0
  0
ENDBLK
  5
95
330
25
100
AcDbEntity
  8
0
100
AcDbBlockEnd
  0
BLOCK
  5
71
330
26
100
AcDbEntity
  8
0
100
AcDbBlockBegin
  2
A2
 70
     0
 10
0.0
 20
0.0
 30
0.0
  3
A2
  1

  0
LWPOLYLINE
  5
108
330
26
100
AcDbEntity
  8
内図枠(作図領域)
  6
Continuous
 62
     7
100
AcDbPolyline
 90
        4
 70
     1
 43
0.0
 10
0.0000000000000142
 20
0.0
 10
544.0
 20
0.0
 10
544.0
 20
378.0
 10
0.0000000000000142
 20
378.0
  0
ENDBLK
  5
7B
330
26
100
AcDbEntity
  8
0
100
AcDbBlockEnd
  0
BLOCK
  5
72
330
27
100
AcDbEntity
  8
0
100
AcDbBlockBegin
  2
BLOCK001
 70
     0
 10
0.0
 20
0.0
 30
0.0
  3
BLOCK001
  1

  0
LINE
  5
109
330
27
100
AcDbEntity
  8
LEVEL001
  6
Continuous
 62
     7
100
AcDbLine
 10
1632.0
 20
144.0
 30
0.0
 11
2176.0
 21
144.0
 31
0.0
  0
LINE
  5
10A
330
27
100
AcDbEntity
  8
LEVEL001
  6
Continuous
 62
     7
100
AcDbLine
 10
1632.0
 20
96.0
 30
0.0
 11
2176.0
 21
96.0
 31
0.0
  0
LINE
  5
10B
330
27
100
AcDbEntity
  8
LEVEL001
  6
Continuous
 62
     7
100
AcDbLine
 10
1632.0
 20
144.0
 30
0.0
 11
1632.0
 21
96.0
 31
0.0
  0
LINE
  5
10C
330
27
100
AcDbEntity
  8
LEVEL001
  6
Continuous
 62
     7
100
AcDbLine
 10
1664.0
 20
144.0
 30
0.0
 11
1664.0
 21
96.0
 31
0.0
  0
LINE
  5
10D
330
27
100
AcDbEntity
  8
LEVEL001
  6
Continuous
 62
     7
100
AcDbLine
 10
1904.0
 20
144.0
 30
0.0
 11
1904.0
 21
96.0
 31
0.0
  0
LINE
  5
10E
330
27
100
AcDbEntity
  8
LEVEL001
  6
Continuous
 62
     7
100
AcDbLine
 10
1936.0
 20
144.0
 30
0.0
 11
1936.0
 21
96.0
 31
0.0
  0
LINE
  5
10F
330
27
100
AcDbEntity
  8
LEVEL001
  6
Continuous
 62
     7
100
AcDbLine
 10
2176.0
 20
144.0
 30
0.0
 11
2176.0
 21
96.0
 31
0.0
  0
ENDBLK
  5
7C
330
27
100
AcDbEntity
  8
0
100
AcDbBlockEnd
  0
BLOCK
  5
73
330
28
100
AcDbEntity
  8
0
100
AcDbBlockBegin
  2
BLOCK002
 70
     0
 10
0.0
 20
0.0
 30
0.0
  3
BLOCK002
  1

  0
LINE
  5
110
330
28
100
AcDbEntity
  8
LEVEL001
  6
Continuous
 62
     7
100
AcDbLine
 10
1632.0
 20
96.0
 30
0.0
 11
2176.0
 21
96.0
 31
0.0
  0
LINE
  5
111
330
28
100
AcDbEntity
  8
LEVEL001
  6
Continuous
 62
     7
100
AcDbLine
 10
1784.0
 20
64.0
 30
0.0
 11
2176.0
 21
64.0
 31
0.0
  0
LINE
  5
112
330
28
100
AcDbEntity
  8
LEVEL001
  6
Continuous
 62
     7
100
AcDbLine
 10
1632.0
 20
32.0
 30
0.0
 11
2176.0
 21
32.0
 31
0.0
  0
LINE
  5
113
330
28
100
AcDbEntity
  8
LEVEL001
  6
Continuous
 62
     7
100
AcDbLine
 10
1632.0
 20
0.0
 30
0.0
 11
2176.0
 21
0.0
 31
0.0
  0
LINE
  5
114
330
28
100
AcDbEntity
  8
LEVEL001
  6
Continuous
 62
     7
100
AcDbLine
 10
1632.0
 20
96.0
 30
0.0
 11
1632.0
 21
0.0
 31
0.0
  0
LINE
  5
115
330
28
100
AcDbEntity
  8
LEVEL001
  6
Continuous
 62
     7
100
AcDbLine
 10
1664.0
 20
96.0
 30
0.0
 11
1664.0
 21
32.0
 31
0.0
  0
LINE
  5
116
330
28
100
AcDbEntity
  8
LEVEL001
  6
Continuous
 62
     7
100
AcDbLine
 10
1784.0
 20
96.0
 30
0.0
 11
1784.0
 21
32.0
 31
0.0
  0
LINE
  5
117
330
28
100
AcDbEntity
  8
LEVEL001
  6
Continuous
 62
     7
100
AcDbLine
 10
1904.0
 20
96.0
 30
0.0
 11
1904.0
 21
32.0
 31
0.0
  0
LINE
  5
118
330
28
100
AcDbEntity
  8
LEVEL001
  6
Continuous
 62
     7
100
AcDbLine
 10
1936.0
 20
96.0
 30
0.0
 11
1936.0
 21
32.0
 31
0.0
  0
LINE
  5
119
330
28
100
AcDbEntity
  8
LEVEL001
  6
Continuous
 62
     7
100
AcDbLine
 10
2016.0
 20
96.0
 30
0.0
 11
2016.0
 21
32.0
 31
0.0
  0
LINE
  5
11A
330
28
100
AcDbEntity
  8
LEVEL001
  6
Continuous
 62
     7
100
AcDbLine
 10
2044.0
 20
96.0
 30
0.0
 11
2044.0
 21
64.0
 31
0.0
  0
LINE
  5
11B
330
28
100
AcDbEntity
  8
LEVEL001
  6
Continuous
 62
     7
100
AcDbLine
 10
2068.0
 20
96.0
 30
0.0
 11
2068.0
 21
64.0
 31
0.0
  0
LINE
  5
11C
330
28
100
AcDbEntity
  8
LEVEL001
  6
Continuous
 62
     7
100
AcDbLine
 10
2096.0
 20
96.0
 30
0.0
 11
2096.0
 21
32.0
 31
0.0
  0
LINE
  5
11D
330
28
100
AcDbEntity
  8
LEVEL001
  6
Continuous
 62
     7
100
AcDbLine
 10
2176.0
 20
96.0
 30
0.0
 11
2176.0
 21
0.0
 31
0.0
  0
ENDBLK
  5
7D
330
28
100
AcDbEntity
  8
0
100
AcDbBlockEnd
  0
BLOCK
  5
74
330
29
100
AcDbEntity
  8
0
100
AcDbBlockBegin
  2
BLOCK003
 70
     0
 10
0.0
 20
0.0
 30
0.0
  3
BLOCK003
  1

  0
TEXT
  5
11E
330
29
100
AcDbEntity
  8
LEVEL001
  6
ByBlock
 62
     7
100
AcDbText
 10
1780.8000183105
 20
8.0
 30
0.0
 40
16.0
  1
さぬき麺機株式会社
100
AcDbText
  0
TEXT
  5
11F
330
29
100
AcDbEntity
  8
LEVEL001
  6
ByBlock
 62
     7
100
AcDbText
 10
1648.0
 20
140.44442749023
 30
0.0
 40
16.0
  1
名称
  7
STANDARD1
100
AcDbText
  0
TEXT
  5
120
330
29
100
AcDbEntity
  8
LEVEL001
  6
ByBlock
 62
     7
100
AcDbText
 10
1920.0
 20
140.44439697266
 30
0.0
 40
16.0
  1
図番
  7
STANDARD1
100
AcDbText
  0
TEXT
  5
121
330
29
100
AcDbEntity
  8
LEVEL001
  6
ByBlock
 62
     7
100
AcDbText
 10
1648.0
 20
87.111111323039
 30
0.0
 40
16.0
  1
画法
  7
STANDARD1
100
AcDbText
  0
TEXT
  5
122
330
29
100
AcDbEntity
  8
LEVEL001
  6
ByBlock
 62
     7
100
AcDbText
 10
1675.2000002861
 20
56.0
 30
0.0
 40
16.0
  1
第三角法
100
AcDbText
  0
TEXT
  5
123
330
29
100
AcDbEntity
  8
LEVEL001
  6
ByBlock
 62
     7
100
AcDbText
 10
1795.2000002861
 20
72.0
 30
0.0
 40
16.0
  1
共通機種
100
AcDbText
  0
TEXT
  5
124
330
29
100
AcDbEntity
  8
LEVEL001
  6
ByBlock
 62
     7
100
AcDbText
 10
1907.1999998112
 20
72.0
 30
0.0
 40
16.0
  1
個数
 41
0.80000001192093
100
AcDbText
  0
TEXT
  5
125
330
29
100
AcDbEntity
  8
LEVEL001
  6
ByBlock
 62
     7
100
AcDbText
 10
1952.0
 20
72.0
 30
0.0
 40
16.0
  1
尺度
100
AcDbText
  0
TEXT
  5
126
330
29
100
AcDbEntity
  8
LEVEL001
  6
ByBlock
 62
     7
100
AcDbText
 10
2024.0
 20
72.0
 30
0.0
 40
16.0
  1
年月日
100
AcDbText
  0
TEXT
  5
127
330
29
100
AcDbEntity
  8
LEVEL001
  6
ByBlock
 62
     7
100
AcDbText
 10
2112.0
 20
72.0
 30
0.0
 40
16.0
  1
製図
100
AcDbText
  0
POINT
  5
128
330
29
100
AcDbEntity
  8
LEVEL001
  6
ByBlock
 62
     7
100
AcDbPoint
 10
2016.0
 20
40.0
 30
0.0
  0
ENDBLK
  5
7E
330
29
100
AcDbEntity
  8
0
100
AcDbBlockEnd
  0
BLOCK
  5
75
330
2A
100
AcDbEntity
  8
0
100
AcDbBlockBegin
  2
EGF7M10
 70
     0
 10
0.0
 20
0.0
 30
0.0
  3
EGF7M10
  1

  0
CIRCLE
  5
129
330
2A
100
AcDbEntity
  8
LEVEL001
  6
Continuous
 62
     7
100
AcDbCircle
 10
0.0
 20
0.0
 30
0.0
 40
8.25
  0
LWPOLYLINE
  5
12A
330
2A
100
AcDbEntity
  8
LEVEL001
  6
Continuous
 62
     7
100
AcDbPolyline
 90
        6
 70
     1
 43
0.0
 10
0.0
 20
9.8149545761978
 10
-8.5
 20
4.907477288060199
 10
-8.5
 20
-4.907477288060199
 10
0.0
 20
-9.8149545761978
 10
8.5
 20
-4.907477288060199
 10
8.5
 20
4.907477288060199
  0
ENDBLK
  5
7F
330
2A
100
AcDbEntity
  8
0
100
AcDbBlockEnd
  0
BLOCK
  5
76
330
2B
100
AcDbEntity
  8
0
100
AcDbBlockBegin
  2
EGF9M10
 70
     0
 10
0.0
 20
0.0
 30
0.0
  3
EGF9M10
  1

  0
CIRCLE
  5
12B
330
2B
100
AcDbEntity
  8
LEVEL001
  6
Continuous
 62
     7
100
AcDbCircle
 10
0.0
 20
0.0
 30
0.0
 40
5.0
  0
CIRCLE
  5
12C
330
2B
100
AcDbEntity
  8
LEVEL001
  6
Continuous
 62
     7
100
AcDbCircle
 10
0.0
 20
0.0
 30
0.0
 40
8.25
  0
LWPOLYLINE
  5
12D
330
2B
100
AcDbEntity
  8
LEVEL001
  6
Continuous
 62
     7
100
AcDbPolyline
 90
        6
 70
     1
 43
0.0
 10
0.0
 20
9.8149545761978
 10
-8.5
 20
4.907477288060199
 10
-8.5
 20
-4.907477288060199
 10
0.0
 20
-9.8149545761978
 10
8.5
 20
-4.907477288060199
 10
8.5
 20
4.907477288060199
  0
ENDBLK
  5
80
330
2B
100
AcDbEntity
  8
0
100
AcDbBlockEnd
  0
BLOCK
  5
77
330
2C
100
AcDbEntity
  8
0
100
AcDbBlockBegin
  2
EGF21M10
 70
     0
 10
0.0
 20
0.0
 30
0.0
  3
EGF21M10
  1

  0
LWPOLYLINE
  5
12E
330
2C
100
AcDbEntity
  8
LEVEL001
  6
Continuous
 62
     7
100
AcDbPolyline
 90
        4
 70
     1
 43
0.0
 10
0.0
 20
-10.5
 10
2.0
 20
-10.5
 10
2.0
 20
10.5
 10
0.0
 20
10.5
  0
ENDBLK
  5
81
330
2C
100
AcDbEntity
  8
0
100
AcDbBlockEnd
  0
BLOCK
  5
78
330
2D
100
AcDbEntity
  8
0
100
AcDbBlockBegin
  2
EGF11M10
 70
     0
 10
0.0
 20
0.0
 30
0.0
  3
EGF11M10
  1

  0
ARC
  5
12F
330
2D
100
AcDbEntity
  8
LEVEL001
  6
Continuous
 62
     7
100
AcDbCircle
 10
-5.779165296304699
 20
0.0
 30
0.0
 40
13.779165296305
100
AcDbArc
 50
339.13593563448
 51
20.864064365521
  0
ARC
  5
130
330
2D
100
AcDbEntity
  8
LEVEL001
  6
Continuous
 62
     7
100
AcDbCircle
 10
4.216386071101299
 20
7.361215932129099
 30
0.0
 40
3.7836139288987
100
AcDbArc
 50
319.57010315284
 51
0.0
  0
LWPOLYLINE
  5
131
330
2D
100
AcDbEntity
  8
LEVEL001
  6
Continuous
 62
     7
100
AcDbPolyline
 90
        6
 70
     1
 43
0.0
 10
0.0
 20
-9.8149545761978
 10
0.0
 20
9.8149545761978
 10
7.0964730540863
 20
9.8149545761978
 10
8.0
 20
8.25
 10
8.0
 20
-8.25
 10
7.0964730540863
 20
-9.8149545761978
  0
LINE
  5
132
330
2D
100
AcDbEntity
  8
LEVEL001
  6
Continuous
 62
     7
100
AcDbLine
 10
0.0
 20
4.907477288060199
 30
0.0
 11
7.0964730540863
 21
4.907477288060199
 31
0.0
  0
ARC
  5
133
330
2D
100
AcDbEntity
  8
LEVEL001
  6
Continuous
 62
     7
100
AcDbCircle
 10
4.216386071101299
 20
-7.361215932129
 30
0.0
 40
3.7836139288987
100
AcDbArc
 50
0.0
 51
40.429896847157
  0
LINE
  5
134
330
2D
100
AcDbEntity
  8
LEVEL001
  6
Continuous
 62
     7
100
AcDbLine
 10
0.0
 20
-4.907477288060199
 30
0.0
 11
7.0964730540863
 21
-4.907477288060199
 31
0.0
  0
ENDBLK
  5
82
330
2D
100
AcDbEntity
  8
0
100
AcDbBlockEnd
  0
ENDSEC
  0
SECTION
  2
ENTITIES
  0
INSERT
  5
135
330
B
100
AcDbEntity
  8
0
100
AcDbBlockReference
  2
A2
 10
0.0
 20
0.0
 30
0.0
 41
4.0
 42
4.0
  0
INSERT
  5
136
330
B
100
AcDbEntity
  8
LEVEL001
100
AcDbBlockReference
  2
BLOCK001
 10
0.0
 20
0.0
 30
0.0
  0
INSERT
  5
137
330
B
100
AcDbEntity
  8
LEVEL001
100
AcDbBlockReference
  2
BLOCK002
 10
0.0
 20
0.0
 30
0.0
  0
INSERT
  5
138
330
B
100
AcDbEntity
  8
0
100
AcDbBlockReference
  2
BLOCK003
 10
0.0
 20
0.0
 30
0.0
  0
LINE
  5
139
330
B
100
AcDbEntity
  8
LEVEL001
  6
Continuous
 62
     7
100
AcDbLine
 10
1495.1
 20
1094.0
 30
0.0
 11
1495.1
 21
1190.0
 31
0.0
  0
LINE
  5
13A
330
B
100
AcDbEntity
  8
LEVEL001
  6
Continuous
 62
     7
100
AcDbLine
 10
1463.1
 20
998.0
 30
0.0
 11
1463.1
 21
1382.0
 31
0.0
  0
LINE
  5
13B
330
B
100
AcDbEntity
  8
LEVEL001
  6
Continuous
 62
     7
100
AcDbLine
 10
1670.1
 20
1382.0
 30
0.0
 11
1670.1
 21
998.0
 31
0.0
  0
LINE
  5
13C
330
B
100
AcDbEntity
  8
LEVEL001
  6
Continuous
 62
     7
100
AcDbLine
 10
2110.1
 20
1030.0
 30
0.0
 11
1463.1
 21
1030.0
 31
0.0
  0
LINE
  5
13D
330
B
100
AcDbEntity
  8
LEVEL001
  6
Continuous
 62
     7
100
AcDbLine
 10
2110.1
 20
1382.0
 30
0.0
 11
1463.1
 21
1382.0
 31
0.0
  0
LINE
  5
13E
330
B
100
AcDbEntity
  8
LEVEL001
  6
Continuous
 62
     7
100
AcDbLine
 10
1463.1
 20
1350.0
 30
0.0
 11
2110.1
 21
1350.0
 31
0.0
  0
LINE
  5
13F
330
B
100
AcDbEntity
  8
LEVEL001
  6
Continuous
 62
     7
100
AcDbLine
 10
1463.1
 20
1318.0
 30
0.0
 11
2110.1
 21
1318.0
 31
0.0
  0
LINE
  5
140
330
B
100
AcDbEntity
  8
LEVEL001
  6
Continuous
 62
     7
100
AcDbLine
 10
1463.1
 20
1286.0
 30
0.0
 11
2110.1
 21
1286.0
 31
0.0
  0
LINE
  5
141
330
B
100
AcDbEntity
  8
LEVEL001
  6
Continuous
 62
     7
100
AcDbLine
 10
1463.1
 20
1254.0
 30
0.0
 11
2110.1
 21
1254.0
 31
0.0
  0
LINE
  5
142
330
B
100
AcDbEntity
  8
LEVEL001
  6
Continuous
 62
     7
100
AcDbLine
 10
1463.1
 20
1222.0
 30
0.0
 11
2110.1
 21
1222.0
 31
0.0
  0
LINE
  5
143
330
B
100
AcDbEntity
  8
LEVEL001
  6
Continuous
 62
     7
100
AcDbLine
 10
1463.1
 20
1190.0
 30
0.0
 11
2110.1
 21
1190.0
 31
0.0
  0
LINE
  5
144
330
B
100
AcDbEntity
  8
LEVEL001
  6
Continuous
 62
     7
100
AcDbLine
 10
1495.1
 20
1158.0
 30
0.0
 11
2110.1
 21
1158.0
 31
0.0
  0
LINE
  5
145
330
B
100
AcDbEntity
  8
LEVEL001
  6
Continuous
 62
     7
100
AcDbLine
 10
1495.1
 20
1126.0
 30
0.0
 11
2110.1
 21
1126.0
 31
0.0
  0
LINE
  5
146
330
B
100
AcDbEntity
  8
LEVEL001
  6
Continuous
 62
     7
100
AcDbLine
 10
1463.1
 20
1094.0
 30
0.0
 11
2110.1
 21
1094.0
 31
0.0
  0
LINE
  5
147
330
B
100
AcDbEntity
  8
LEVEL001
  6
Continuous
 62
     7
100
AcDbLine
 10
1463.1
 20
1062.0
 30
0.0
 11
2110.1
 21
1062.0
 31
0.0
  0
LINE
  5
148
330
B
100
AcDbEntity
  8
LEVEL001
  6
Continuous
 62
     7
100
AcDbLine
 10
2110.1
 20
1382.0
 30
0.0
 11
2110.1
 21
998.0
 31
0.0
  0
LINE
  5
149
330
B
100
AcDbEntity
  8
LEVEL001
  6
Continuous
 62
     7
100
AcDbLine
 10
1463.1
 20
998.0
 30
0.0
 11
2110.1
 21
998.0
 31
0.0
  0
TEXT
  5
14A
330
B
100
AcDbEntity
  8
LEVEL001
 62
     7
100
AcDbText
 10
2120.0
 20
40.0
 30
0.0
 40
16.0
  1
井上
100
AcDbText
  0
LWPOLYLINE
  5
14B
330
B
100
AcDbEntity
  8
LEVEL001
  6
Continuous
 62
     7
100
AcDbPolyline
 90
        4
 70
     1
 43
0.0
 10
308.0
 20
1077.0
 10
422.0
 20
1077.0
 10
422.0
 20
1457.0
 10
308.0
 20
1457.0
  0
LWPOLYLINE
  5
14C
330
B
100
AcDbEntity
  8
LEVEL001
  6
Continuous
 62
     7
100
AcDbPolyline
 90
        4
 70
     1
 43
0.0
 10
1024.0
 20
1077.0
 10
1119.0
 20
1077.0
 10
1119.0
 20
1457.0
 10
1024.0
 20
1457.0
  0
LINE
  5
14D
330
B
100
AcDbEntity
  8
LEVEL001
  6
Continuous
 62
     7
100
AcDbLine
 10
944.5
 20
1157.0
 30
0.0
 11
1024.0
 21
1157.0
 31
0.0
  0
LINE
  5
14E
330
B
100
AcDbEntity
  8
LEVEL001
  6
Continuous
 62
     7
100
AcDbLine
 10
1024.0
 20
1357.0
 30
0.0
 11
944.5
 21
1357.0
 31
0.0
  0
LINE
  5
14F
330
B
100
AcDbEntity
  8
LEVEL001
  6
Continuous
 62
     7
100
AcDbLine
 10
422.0
 20
1357.0
 30
0.0
 11
501.4999999999999
 21
1357.0
 31
0.0
  0
LINE
  5
150
330
B
100
AcDbEntity
  8
LEVEL001
  6
Continuous
 62
     7
100
AcDbLine
 10
973.0
 20
1037.0
 30
0.0
 11
973.0
 21
1157.0
 31
0.0
  0
LINE
  5
151
330
B
100
AcDbEntity
  8
LEVEL001
  6
Continuous
 62
     7
100
AcDbLine
 10
973.0
 20
1357.0
 30
0.0
 11
973.0
 21
1457.0
 31
0.0
  0
LWPOLYLINE
  5
152
330
B
100
AcDbEntity
  8
LEVEL001
  6
Continuous
 62
     7
100
AcDbPolyline
 90
        3
 70
     0
 43
0.0
 10
970.0
 20
1037.0
 10
1023.0
 20
1037.0
 10
1023.0
 20
1157.0
  0
LINE
  5
153
330
B
100
AcDbEntity
  8
LEVEL001
  6
Continuous
 62
     7
100
AcDbLine
 10
473.0
 20
1457.0
 30
0.0
 11
473.0
 21
1357.0
 31
0.0
  0
LWPOLYLINE
  5
154
330
B
100
AcDbEntity
  8
LEVEL001
  6
Continuous
 62
     7
100
AcDbPolyline
 90
        4
 70
     0
 43
0.0
 10
1023.0
 20
1357.0
 10
1023.0
 20
1457.0
 10
423.0
 20
1457.0
 10
423.0
 20
1357.0
  0
LINE
  5
155
330
B
100
AcDbEntity
  8
LEVEL001
  6
DASHDOT
 62
     1
100
AcDbLine
 10
723.0
 20
1497.0
 30
0.0
 11
723.0
 21
996.0
 31
0.0
  0
LINE
  5
156
330
B
100
AcDbEntity
  8
LEVEL001
  6
DASHDOT
 62
     1
100
AcDbLine
 10
277.0
 20
1257.0
 30
0.0
 11
1169.0
 21
1257.0
 31
0.0
  0
LWPOLYLINE
  5
157
330
B
100
AcDbEntity
  8
LEVEL001
  6
Continuous
 62
     7
100
AcDbPolyline
 90
        4
 70
     0
 43
0.0
 10
527.0
 20
1085.0
 10
527.0
 20
1084.0
 10
567.0
 20
1084.0
 10
567.0
 20
1085.0
  0
LWPOLYLINE
  5
158
330
B
100
AcDbEntity
  8
LEVEL001
  6
Continuous
 62
     7
100
AcDbPolyline
 90
        4
 70
     0
 43
0.0
 10
547.0
 20
1084.0
 10
547.0
 20
1066.0
 10
567.0
 20
1066.0
 10
567.0
 20
1084.0
  0
ARC
  5
159
330
B
100
AcDbEntity
  8
LEVEL001
  6
Continuous
 62
     7
100
AcDbCircle
 10
628.0
 20
1072.0
 30
0.0
 40
10.0
100
AcDbArc
 50
0.0
 51
90.0
  0
LINE
  5
15A
330
B
100
AcDbEntity
  8
LEVEL001
  6
Continuous
 62
     7
100
AcDbLine
 10
628.0
 20
1082.0
 30
0.0
 11
621.0
 21
1082.0
 31
0.0
  0
LWPOLYLINE
  5
15B
330
B
100
AcDbEntity
  8
LEVEL001
  6
Continuous
 62
     7
100
AcDbPolyline
 90
        4
 70
     0
 43
0.0
 10
569.0
 20
1085.0
 10
569.0
 20
1069.0
 10
621.0
 20
1069.0
 10
621.0
 20
1085.0
  0
LINE
  5
15C
330
B
100
AcDbEntity
  8
LEVEL001
  6
Continuous
 62
     7
100
AcDbLine
 10
628.0
 20
1072.0
 30
0.0
 11
621.0
 21
1072.0
 31
0.0
  0
LWPOLYLINE
  5
15D
330
B
100
AcDbEntity
  8
LEVEL001
  6
Continuous
 62
     7
100
AcDbPolyline
 90
        4
 70
     0
 43
0.0
 10
628.0
 20
1072.0
 10
628.0
 20
1052.0
 10
638.0
 20
1052.0
 10
638.0
 20
1072.0
  0
LINE
  5
15E
330
B
100
AcDbEntity
  8
LEVEL001
  6
Continuous
 62
     7
100
AcDbLine
 10
621.0
 20
1069.0
 30
0.0
 11
628.0
 21
1069.0
 31
0.0
  0
LWPOLYLINE
  5
15F
330
B
100
AcDbEntity
  8
LEVEL001
  6
Continuous
 62
     7
100
AcDbPolyline
 90
        4
 70
     1
 43
0.0
 10
498.0
 20
1106.5
 10
543.0
 20
1106.5
 10
543.0
 20
1168.5
 10
498.0
 20
1168.5
  0
LWPOLYLINE
  5
160
330
B
100
AcDbEntity
  8
LEVEL001
  6
Continuous
 62
     7
100
AcDbPolyline
 90
        8
 70
     1
 43
0.0
 10
498.0
 20
1107.5
 10
479.0
 20
1107.5
 10
479.0
 20
1117.5
 10
473.0
 20
1117.5
 10
473.0
 20
1157.5
 10
479.0
 20
1157.5
 10
479.0
 20
1167.5
 10
498.0
 20
1167.5
  0
LINE
  5
161
330
B
100
AcDbEntity
  8
LEVEL001
  6
Continuous
 62
     7
100
AcDbLine
 10
569.0
 20
1082.0
 30
0.0
 11
567.0
 21
1082.0
 31
0.0
  0
LINE
  5
162
330
B
100
AcDbEntity
  8
LEVEL001
  6
Continuous
 62
     7
100
AcDbLine
 10
567.0
 20
1072.0
 30
0.0
 11
569.0
 21
1072.0
 31
0.0
  0
LINE
  5
163
330
B
100
AcDbEntity
  8
LEVEL001
  6
Continuous
 62
     7
100
AcDbLine
 10
923.0
 20
1424.0
 30
0.0
 11
923.0
 21
1085.0
 31
0.0
  0
LWPOLYLINE
  5
164
330
B
100
AcDbEntity
  8
LEVEL001
  6
Continuous
 62
     7
100
AcDbPolyline
 90
        4
 70
     0
 43
0.0
 10
899.0
 20
1084.0
 10
899.0
 20
1066.0
 10
879.0
 20
1066.0
 10
879.0
 20
1084.0
  0
ARC
  5
165
330
B
100
AcDbEntity
  8
LEVEL001
  6
Continuous
 62
     7
100
AcDbCircle
 10
818.0
 20
1072.0
 30
0.0
 40
10.0
100
AcDbArc
 50
90.0
 51
180.0
  0
LINE
  5
166
330
B
100
AcDbEntity
  8
LEVEL001
  6
Continuous
 62
     7
100
AcDbLine
 10
818.0
 20
1082.0
 30
0.0
 11
825.0
 21
1082.0
 31
0.0
  0
LWPOLYLINE
  5
167
330
B
100
AcDbEntity
  8
LEVEL001
  6
Continuous
 62
     7
100
AcDbPolyline
 90
        4
 70
     0
 43
0.0
 10
877.0
 20
1085.0
 10
877.0
 20
1069.0
 10
825.0
 20
1069.0
 10
825.0
 20
1085.0
  0
LINE
  5
168
330
B
100
AcDbEntity
  8
LEVEL001
  6
Continuous
 62
     7
100
AcDbLine
 10
818.0
 20
1072.0
 30
0.0
 11
825.0
 21
1072.0
 31
0.0
  0
LWPOLYLINE
  5
169
330
B
100
AcDbEntity
  8
LEVEL001
  6
Continuous
 62
     7
100
AcDbPolyline
 90
        4
 70
     0
 43
0.0
 10
818.0
 20
1072.0
 10
818.0
 20
1052.0
 10
808.0
 20
1052.0
 10
808.0
 20
1072.0
  0
LINE
  5
16A
330
B
100
AcDbEntity
  8
LEVEL001
  6
Continuous
 62
     7
100
AcDbLine
 10
825.0
 20
1069.0
 30
0.0
 11
818.0
 21
1069.0
 31
0.0
  0
LINE
  5
16B
330
B
100
AcDbEntity
  8
LEVEL001
  6
Continuous
 62
     7
100
AcDbLine
 10
877.0
 20
1082.0
 30
0.0
 11
879.0
 21
1082.0
 31
0.0
  0
LINE
  5
16C
330
B
100
AcDbEntity
  8
LEVEL001
  6
Continuous
 62
     7
100
AcDbLine
 10
879.0
 20
1072.0
 30
0.0
 11
877.0
 21
1072.0
 31
0.0
  0
LWPOLYLINE
  5
16D
330
B
100
AcDbEntity
  8
LEVEL001
  6
Continuous
 62
     7
100
AcDbPolyline
 90
        4
 70
     0
 43
0.0
 10
919.0
 20
1085.0
 10
919.0
 20
1084.0
 10
879.0
 20
1084.0
 10
879.0
 20
1085.0
  0
LINE
  5
16E
330
B
100
AcDbEntity
  8
LEVEL001
  6
Continuous
 62
     7
100
AcDbLine
 10
638.0
 20
1069.0
 30
0.0
 11
808.0
 21
1069.0
 31
0.0
  0
LWPOLYLINE
  5
16F
330
B
100
AcDbEntity
  8
LEVEL001
  6
Continuous
 62
     7
100
AcDbPolyline
 90
        4
 70
     1
 43
0.0
 10
556.0
 20
1135.0
 10
890.0
 20
1135.0
 10
890.0
 20
1303.0
 10
556.0
 20
1303.0
  0
LINE
  5
170
330
B
100
AcDbEntity
  8
LEVEL001
  6
Continuous
 62
     7
100
AcDbLine
 10
890.0
 20
1300.4
 30
0.0
 11
556.0
 21
1300.4
 31
0.0
  0
LINE
  5
171
330
B
100
AcDbEntity
  8
LEVEL001
  6
Continuous
 62
     7
100
AcDbLine
 10
890.0
 20
1267.2
 30
0.0
 11
556.0
 21
1267.2
 31
0.0
  0
LINE
  5
172
330
B
100
AcDbEntity
  8
LEVEL001
  6
Continuous
 62
     7
100
AcDbLine
 10
890.0
 20
1270.4
 30
0.0
 11
556.0
 21
1270.4
 31
0.0
  0
LINE
  5
173
330
B
100
AcDbEntity
  8
LEVEL001
  6
Continuous
 62
     7
100
AcDbLine
 10
890.0
 20
1234.0
 30
0.0
 11
556.0
 21
1234.0
 31
0.0
  0
LINE
  5
174
330
B
100
AcDbEntity
  8
LEVEL001
  6
Continuous
 62
     7
100
AcDbLine
 10
890.0
 20
1237.2
 30
0.0
 11
556.0
 21
1237.2
 31
0.0
  0
LINE
  5
175
330
B
100
AcDbEntity
  8
LEVEL001
  6
Continuous
 62
     7
100
AcDbLine
 10
890.0
 20
1200.8
 30
0.0
 11
556.0
 21
1200.8
 31
0.0
  0
LINE
  5
176
330
B
100
AcDbEntity
  8
LEVEL001
  6
Continuous
 62
     7
100
AcDbLine
 10
890.0
 20
1204.0
 30
0.0
 11
556.0
 21
1204.0
 31
0.0
  0
LINE
  5
177
330
B
100
AcDbEntity
  8
LEVEL001
  6
Continuous
 62
     7
100
AcDbLine
 10
890.0
 20
1167.6
 30
0.0
 11
556.0
 21
1167.6
 31
0.0
  0
LINE
  5
178
330
B
100
AcDbEntity
  8
LEVEL001
  6
Continuous
 62
     7
100
AcDbLine
 10
890.0
 20
1170.8
 30
0.0
 11
556.0
 21
1170.8
 31
0.0
  0
LINE
  5
179
330
B
100
AcDbEntity
  8
LEVEL001
  6
Continuous
 62
     7
100
AcDbLine
 10
890.0
 20
1137.6
 30
0.0
 11
556.0
 21
1137.6
 31
0.0
  0
LINE
  5
17A
330
B
100
AcDbEntity
  8
LEVEL001
  6
Continuous
 62
     7
100
AcDbLine
 10
558.6
 20
1303.0
 30
0.0
 11
558.6
 21
1135.0
 31
0.0
  0
LINE
  5
17B
330
B
100
AcDbEntity
  8
LEVEL001
  6
Continuous
 62
     7
100
AcDbLine
 10
588.6
 20
1303.0
 30
0.0
 11
588.6
 21
1135.0
 31
0.0
  0
LINE
  5
17C
330
B
100
AcDbEntity
  8
LEVEL001
  6
Continuous
 62
     7
100
AcDbLine
 10
591.7999999999999
 20
1303.0
 30
0.0
 11
591.7999999999999
 21
1135.0
 31
0.0
  0
LINE
  5
17D
330
B
100
AcDbEntity
  8
LEVEL001
  6
Continuous
 62
     7
100
AcDbLine
 10
621.7999999999999
 20
1303.0
 30
0.0
 11
621.7999999999999
 21
1135.0
 31
0.0
  0
LINE
  5
17E
330
B
100
AcDbEntity
  8
LEVEL001
  6
Continuous
 62
     7
100
AcDbLine
 10
625.0
 20
1303.0
 30
0.0
 11
625.0
 21
1135.0
 31
0.0
  0
LINE
  5
17F
330
B
100
AcDbEntity
  8
LEVEL001
  6
Continuous
 62
     7
100
AcDbLine
 10
655.0
 20
1303.0
 30
0.0
 11
655.0
 21
1135.0
 31
0.0
  0
LINE
  5
180
330
B
100
AcDbEntity
  8
LEVEL001
  6
Continuous
 62
     7
100
AcDbLine
 10
658.2
 20
1303.0
 30
0.0
 11
658.2
 21
1135.0
 31
0.0
  0
LINE
  5
181
330
B
100
AcDbEntity
  8
LEVEL001
  6
Continuous
 62
     7
100
AcDbLine
 10
688.2
 20
1303.0
 30
0.0
 11
688.2
 21
1135.0
 31
0.0
  0
LINE
  5
182
330
B
100
AcDbEntity
  8
LEVEL001
  6
Continuous
 62
     7
100
AcDbLine
 10
691.3999999999999
 20
1303.0
 30
0.0
 11
691.3999999999999
 21
1135.0
 31
0.0
  0
LINE
  5
183
330
B
100
AcDbEntity
  8
LEVEL001
  6
Continuous
 62
     7
100
AcDbLine
 10
721.3999999999999
 20
1303.0
 30
0.0
 11
721.3999999999999
 21
1135.0
 31
0.0
  0
LINE
  5
184
330
B
100
AcDbEntity
  8
LEVEL001
  6
Continuous
 62
     7
100
AcDbLine
 10
724.6
 20
1303.0
 30
0.0
 11
724.6
 21
1135.0
 31
0.0
  0
LINE
  5
185
330
B
100
AcDbEntity
  8
LEVEL001
  6
Continuous
 62
     7
100
AcDbLine
 10
754.6
 20
1303.0
 30
0.0
 11
754.6
 21
1135.0
 31
0.0
  0
LINE
  5
186
330
B
100
AcDbEntity
  8
LEVEL001
  6
Continuous
 62
     7
100
AcDbLine
 10
757.7999999999999
 20
1303.0
 30
0.0
 11
757.7999999999999
 21
1135.0
 31
0.0
  0
LINE
  5
187
330
B
100
AcDbEntity
  8
LEVEL001
  6
Continuous
 62
     7
100
AcDbLine
 10
787.8
 20
1303.0
 30
0.0
 11
787.8
 21
1135.0
 31
0.0
  0
LINE
  5
188
330
B
100
AcDbEntity
  8
LEVEL001
  6
Continuous
 62
     7
100
AcDbLine
 10
791.0
 20
1303.0
 30
0.0
 11
791.0
 21
1135.0
 31
0.0
  0
LINE
  5
189
330
B
100
AcDbEntity
  8
LEVEL001
  6
Continuous
 62
     7
100
AcDbLine
 10
821.0
 20
1303.0
 30
0.0
 11
821.0
 21
1135.0
 31
0.0
  0
LINE
  5
18A
330
B
100
AcDbEntity
  8
LEVEL001
  6
Continuous
 62
     7
100
AcDbLine
 10
824.2
 20
1303.0
 30
0.0
 11
824.2
 21
1135.0
 31
0.0
  0
LINE
  5
18B
330
B
100
AcDbEntity
  8
LEVEL001
  6
Continuous
 62
     7
100
AcDbLine
 10
854.1999999999999
 20
1303.0
 30
0.0
 11
854.1999999999999
 21
1135.0
 31
0.0
  0
LINE
  5
18C
330
B
100
AcDbEntity
  8
LEVEL001
  6
Continuous
 62
     7
100
AcDbLine
 10
857.3999999999999
 20
1303.0
 30
0.0
 11
857.3999999999999
 21
1135.0
 31
0.0
  0
LINE
  5
18D
330
B
100
AcDbEntity
  8
LEVEL001
  6
Continuous
 62
     7
100
AcDbLine
 10
887.4
 20
1303.0
 30
0.0
 11
887.4
 21
1135.0
 31
0.0
  0
LINE
  5
18E
330
B
100
AcDbEntity
  8
LEVEL001
  6
Continuous
 62
     7
100
AcDbLine
 10
523.0
 20
1424.0
 30
0.0
 11
523.0
 21
1168.5
 31
0.0
  0
LINE
  5
18F
330
B
100
AcDbEntity
  8
LEVEL001
  6
Continuous
 62
     7
100
AcDbLine
 10
523.0
 20
1106.5
 30
0.0
 11
523.0
 21
1085.0
 31
0.0
  0
LWPOLYLINE
  5
190
330
B
100
AcDbEntity
  8
LEVEL001
  6
Continuous
 62
     7
100
AcDbPolyline
 90
        4
 70
     1
 43
0.0
 10
438.4999999999999
 20
1093.0
 10
458.4999999999999
 20
1093.0
 10
458.4999999999999
 20
1188.0
 10
438.4999999999999
 20
1188.0
  0
LINE
  5
191
330
B
100
AcDbEntity
  8
LEVEL001
  6
Continuous
 62
     7
100
AcDbLine
 10
436.5
 20
1200.5
 30
0.0
 11
436.5
 21
1080.5
 31
0.0
  0
LWPOLYLINE
  5
192
330
B
100
AcDbEntity
  8
LEVEL001
  6
Continuous
 62
     7
100
AcDbPolyline
 90
        4
 70
     0
 43
0.0
 10
422.0
 20
1200.5
 10
438.4999999999999
 20
1200.5
 10
438.4999999999999
 20
1080.5
 10
422.0
 20
1080.5
  0
LINE
  5
193
330
B
100
AcDbEntity
  8
LEVEL001
  6
Continuous
 62
     7
100
AcDbLine
 10
473.0
 20
1157.0
 30
0.0
 11
458.4999999999999
 21
1157.0
 31
0.0
  0
LWPOLYLINE
  5
194
330
B
100
AcDbEntity
  8
LEVEL001
  6
Continuous
 62
     7
100
AcDbPolyline
 90
        3
 70
     0
 43
0.0
 10
501.4999999999999
 20
1106.5
 10
501.4999999999999
 20
1087.0
 10
502.0
 20
1087.0
  0
LWPOLYLINE
  5
195
330
B
100
AcDbEntity
  8
LEVEL001
  6
Continuous
 62
     7
100
AcDbPolyline
 90
        3
 70
     0
 43
0.0
 10
970.0
 20
1357.0
 10
970.0
 20
1442.6075304531
 10
931.68696629589
 20
1442.6075304531
  0
LINE
  5
196
330
B
100
AcDbEntity
  8
LEVEL001
  6
Continuous
 62
     7
100
AcDbLine
 10
924.31303370413
 20
1442.6075304531
 30
0.0
 11
521.6869662958699
 21
1442.6075304531
 31
0.0
  0
LWPOLYLINE
  5
197
330
B
100
AcDbEntity
  8
LEVEL001
  6
Continuous
 62
     7
100
AcDbPolyline
 90
        3
 70
     0
 43
0.0
 10
514.31303370411
 20
1442.6075304531
 10
476.0
 20
1442.6075304531
 10
476.0
 20
1357.0
  0
LINE
  5
198
330
B
100
AcDbEntity
  8
LEVEL001
  6
Continuous
 62
     7
100
AcDbLine
 10
923.0
 20
1424.0
 30
0.0
 11
523.0
 21
1424.0
 31
0.0
  0
INSERT
  5
199
330
B
100
AcDbEntity
  8
0
100
AcDbBlockReference
  2
EGF7M10
 10
460.5
 20
1057.0
 30
0.0
  0
CIRCLE
  5
19A
330
B
100
AcDbEntity
  8
LEVEL001
  6
Continuous
 62
     7
100
AcDbCircle
 10
460.5
 20
1057.0
 30
0.0
 40
10.5
  0
LWPOLYLINE
  5
19B
330
B
100
AcDbEntity
  8
LEVEL001
  6
Continuous
 62
     7
100
AcDbPolyline
 90
        4
 70
     0
 43
0.0
 10
317.5
 20
1077.0
 10
317.5
 20
1075.5
 10
412.5
 20
1075.5
 10
412.5
 20
1077.0
  0
LWPOLYLINE
  5
19C
330
B
100
AcDbEntity
  8
LEVEL001
  6
Continuous
 62
     7
100
AcDbPolyline
 90
        4
 70
     0
 43
0.0
 10
1054.5
 20
1077.0
 10
1054.5
 20
1074.5
 10
1089.5
 20
1074.5
 10
1089.5
 20
1077.0
  0
LWPOLYLINE
  5
19D
330
B
100
AcDbEntity
  8
LEVEL001
  6
Continuous
 62
     7
100
AcDbPolyline
 90
        4
 70
     0
 43
0.0
 10
1055.75
 20
1074.5
 10
1055.75
 20
1063.0
 10
1088.25
 20
1063.0
 10
1088.25
 20
1074.5
  0
LWPOLYLINE
  5
19E
330
B
100
AcDbEntity
  8
LEVEL001
  6
Continuous
 62
     7
100
AcDbPolyline
 90
        4
 70
     0
 43
0.0
 10
1059.5
 20
1063.0
 10
1059.5
 20
1057.0
 10
1084.5
 20
1057.0
 10
1084.5
 20
1063.0
  0
LWPOLYLINE
  5
19F
330
B
100
AcDbEntity
  8
LEVEL001
  6
HIDDEN
 62
     1
100
AcDbPolyline
 90
        4
 70
     0
 43
0.0
 10
525.4999999999999
 20
830.0
 10
525.4999999999999
 20
440.0
 10
920.5
 20
440.0
 10
920.5
 20
830.0
  0
LINE
  5
1A0
330
B
100
AcDbEntity
  8
LEVEL001
  6
Continuous
 62
     7
100
AcDbLine
 10
422.0
 20
700.0
 30
0.0
 11
501.4999999999999
 21
700.0
 31
0.0
  0
LINE
  5
1A1
330
B
100
AcDbEntity
  8
LEVEL001
  6
Continuous
 62
     7
100
AcDbLine
 10
944.5
 20
548.0
 30
0.0
 11
1024.0
 21
548.0
 31
0.0
  0
LINE
  5
1A2
330
B
100
AcDbEntity
  8
LEVEL001
  6
Continuous
 62
     7
100
AcDbLine
 10
944.5
 20
700.0
 30
0.0
 11
1024.0
 21
700.0
 31
0.0
  0
LWPOLYLINE
  5
1A3
330
B
100
AcDbEntity
  8
LEVEL001
  6
Continuous
 62
     7
100
AcDbPolyline
 90
        4
 70
     0
 43
0.0
 10
476.0
 20
470.9770266440099
 10
476.0
 20
262.56250000004
 10
970.0
 20
262.56250000004
 10
970.0
 20
470.9770266440099
  0
LINE
  5
1A4
330
B
100
AcDbEntity
  8
LEVEL001
  6
Continuous
 62
     7
100
AcDbLine
 10
476.0
 20
359.32923373367
 30
0.0
 11
970.0
 21
359.32923373367
 31
0.0
  0
LINE
  5
1A5
330
B
100
AcDbEntity
  8
LEVEL001
  6
Continuous
 62
     7
100
AcDbLine
 10
973.0
 20
263.0
 30
0.0
 11
973.0
 21
548.0
 31
0.0
  0
LINE
  5
1A6
330
B
100
AcDbEntity
  8
LEVEL001
  6
Continuous
 62
     7
100
AcDbLine
 10
970.0
 20
263.0
 30
0.0
 11
1024.0
 21
263.0
 31
0.0
  0
LINE
  5
1A7
330
B
100
AcDbEntity
  8
LEVEL001
  6
Continuous
 62
     7
100
AcDbLine
 10
476.0
 20
263.0
 30
0.0
 11
423.0
 21
263.0
 31
0.0
  0
LWPOLYLINE
  5
1A8
330
B
100
AcDbEntity
  8
LEVEL001
  6
Continuous
 62
     7
100
AcDbPolyline
 90
        4
 70
     1
 43
0.0
 10
1024.0
 20
262.0
 10
1119.0
 20
262.0
 10
1119.0
 20
747.0
 10
1024.0
 20
747.0
  0
LINE
  5
1A9
330
B
100
AcDbEntity
  8
LEVEL001
  6
Continuous
 62
     7
100
AcDbLine
 10
973.0
 20
470.9770266440099
 30
0.0
 11
944.5
 21
470.9770266440099
 31
0.0
  0
LINE
  5
1AA
330
B
100
AcDbEntity
  8
LEVEL001
  6
Continuous
 62
     7
100
AcDbLine
 10
501.4999999999999
 20
470.9770266440099
 30
0.0
 11
473.0
 21
470.9770266440099
 31
0.0
  0
POINT
  5
1AB
330
B
100
AcDbEntity
  8
LEVEL001
 62
     7
100
AcDbPoint
 10
323.0
 20
819.0
 30
0.0
  0
POINT
  5
1AC
330
B
100
AcDbEntity
  8
LEVEL001
 62
     7
100
AcDbPoint
 10
407.0
 20
819.0
 30
0.0
  0
POINT
  5
1AD
330
B
100
AcDbEntity
  8
LEVEL001
 62
     7
100
AcDbPoint
 10
323.0
 20
624.0
 30
0.0
  0
POINT
  5
1AE
330
B
100
AcDbEntity
  8
LEVEL001
 62
     7
100
AcDbPoint
 10
407.0
 20
624.0
 30
0.0
  0
ARC
  5
1AF
330
B
100
AcDbEntity
  8
LEVEL001
  6
Continuous
 62
     7
100
AcDbCircle
 10
441.0
 20
545.0
 30
0.0
 40
10.0
100
AcDbArc
 50
14.999999999747
 51
180.00000000002
  0
LWPOLYLINE
  5
1B0
330
B
100
AcDbEntity
  8
LEVEL001
  6
Continuous
 62
     7
100
AcDbPolyline
 90
        6
 70
     0
 43
0.0
 10
422.0
 20
564.0
 10
422.0
 20
829.0
 10
308.0
 20
829.0
 10
308.0
 20
262.0
 10
422.0
 20
262.0
 10
422.0
 20
548.0
  0
LINE
  5
1B1
330
B
100
AcDbEntity
  8
LEVEL001
  6
Continuous
 62
     7
100
AcDbLine
 10
450.53939201417
 20
548.0
 30
0.0
 11
501.4999999999999
 21
548.0
 31
0.0
  0
LWPOLYLINE
  5
1B2
330
B
100
AcDbEntity
  8
LEVEL001
  6
Continuous
 62
     7
100
AcDbPolyline
 90
        4
 70
     0
 43
0.0
 10
501.4999999999999
 20
564.0
 10
317.5
 20
564.0
 10
317.5
 20
548.0
 10
431.4606079858299
 20
548.0
  0
INSERT
  5
1B3
330
B
100
AcDbEntity
  8
0
100
AcDbBlockReference
  2
EGF9M10
 10
441.0
 20
535.0
 30
0.0
  0
LINE
  5
1B4
330
B
100
AcDbEntity
  8
LEVEL001
  6
Continuous
 62
     7
100
AcDbLine
 10
473.0
 20
263.0
 30
0.0
 11
473.0
 21
525.0
 31
0.0
  0
LINE
  5
1B5
330
B
100
AcDbEntity
  8
LEVEL001
  6
Continuous
 62
     7
100
AcDbLine
 10
473.0
 20
536.12432667763
 30
0.0
 11
473.0
 21
548.0
 31
0.0
  0
INSERT
  5
1B6
330
B
100
AcDbEntity
  8
0
100
AcDbBlockReference
  2
EGF21M10
 10
460.5
 20
564.0
 30
0.0
 50
90.0
  0
INSERT
  5
1B7
330
B
100
AcDbEntity
  8
0
100
AcDbBlockReference
  2
EGF11M10
 10
460.5
 20
566.0
 30
0.0
 50
90.0
  0
CIRCLE
  5
1B8
330
B
100
AcDbEntity
  8
LEVEL001
  6
Continuous
 62
     7
100
AcDbCircle
 10
441.0
 20
535.0
 30
0.0
 40
10.5
  0
LINE
  5
1B9
330
B
100
AcDbEntity
  8
LEVEL001
  6
Continuous
 62
     7
100
AcDbLine
 10
431.0
 20
545.0
 30
0.0
 11
431.0
 21
538.2015621187199
 31
0.0
  0
LINE
  5
1BA
330
B
100
AcDbEntity
  8
LEVEL001
  6
DASHDOT
 62
     1
100
AcDbLine
 10
277.0
 20
600.0
 30
0.0
 11
1169.0
 21
600.0
 31
0.0
  0
LINE
  5
1BB
330
B
100
AcDbEntity
  8
LEVEL001
  6
Continuous
 62
     7
100
AcDbLine
 10
277.0
 20
189.0
 30
0.0
 11
1169.0
 21
189.0
 31
0.0
  0
LWPOLYLINE
  5
1BC
330
B
100
AcDbEntity
  8
LEVEL001
  6
Continuous
 62
     7
100
AcDbPolyline
 90
        3
 70
     0
 43
0.0
 10
877.0
 20
825.0
 10
825.0
 20
825.0
 10
825.0
 20
809.0
  0
CIRCLE
  5
1BD
330
B
100
AcDbEntity
  8
LEVEL001
  6
Continuous
 62
     7
100
AcDbCircle
 10
813.0
 20
817.0
 30
0.0
 40
5.0
  0
LINE
  5
1BE
330
B
100
AcDbEntity
  8
LEVEL001
  6
Continuous
 62
     7
100
AcDbLine
 10
813.0
 20
822.0
 30
0.0
 11
825.0
 21
822.0
 31
0.0
  0
LINE
  5
1BF
330
B
100
AcDbEntity
  8
LEVEL001
  6
Continuous
 62
     7
100
AcDbLine
 10
813.0
 20
812.0
 30
0.0
 11
825.0
 21
812.0
 31
0.0
  0
LINE
  5
1C0
330
B
100
AcDbEntity
  8
LEVEL001
  6
Continuous
 62
     7
100
AcDbLine
 10
877.0
 20
822.0
 30
0.0
 11
879.0
 21
822.0
 31
0.0
  0
LINE
  5
1C1
330
B
100
AcDbEntity
  8
LEVEL001
  6
Continuous
 62
     7
100
AcDbLine
 10
879.0
 20
812.0
 30
0.0
 11
877.0
 21
812.0
 31
0.0
  0
LWPOLYLINE
  5
1C2
330
B
100
AcDbEntity
  8
LEVEL001
  6
Continuous
 62
     7
100
AcDbPolyline
 90
        4
 70
     1
 43
0.0
 10
879.0
 20
790.0
 10
919.0
 20
790.0
 10
919.0
 20
828.0
 10
879.0
 20
828.0
  0
LWPOLYLINE
  5
1C3
330
B
100
AcDbEntity
  8
LEVEL001
  6
Continuous
 62
     7
100
AcDbPolyline
 90
        3
 70
     0
 43
0.0
 10
879.0
 20
802.0
 10
899.0
 20
802.0
 10
899.0
 20
828.0
  0
POINT
  5
1C4
330
B
100
AcDbEntity
  8
LEVEL001
 62
     7
100
AcDbPoint
 10
909.0
 20
818.0
 30
0.0
  0
POINT
  5
1C5
330
B
100
AcDbEntity
  8
LEVEL001
 62
     7
100
AcDbPoint
 10
909.0
 20
814.0
 30
0.0
  0
POINT
  5
1C6
330
B
100
AcDbEntity
  8
LEVEL001
 62
     7
100
AcDbPoint
 10
909.0
 20
802.0
 30
0.0
  0
POINT
  5
1C7
330
B
100
AcDbEntity
  8
LEVEL001
 62
     7
100
AcDbPoint
 10
909.0
 20
798.0
 30
0.0
  0
LWPOLYLINE
  5
1C8
330
B
100
AcDbEntity
  8
LEVEL001
  6
Continuous
 62
     7
100
AcDbPolyline
 90
        6
 70
     1
 43
0.0
 10
498.0
 20
811.0
 10
500.0
 20
811.0
 10
500.0
 20
845.0
 10
543.0
 20
845.0
 10
543.0
 20
847.0
 10
498.0
 20
847.0
  0
LWPOLYLINE
  5
1C9
330
B
100
AcDbEntity
  8
LEVEL001
  6
Continuous
 62
     7
100
AcDbPolyline
 90
        4
 70
     1
 43
0.0
 10
498.0
 20
812.0
 10
498.0
 20
847.0
 10
473.0
 20
847.0
 10
473.0
 20
812.0
  0
LINE
  5
1CA
330
B
100
AcDbEntity
  8
LEVEL001
  6
Continuous
 62
     7
100
AcDbLine
 10
479.0
 20
847.0
 30
0.0
 11
479.0
 21
812.0
 31
0.0
  0
LWPOLYLINE
  5
1CB
330
B
100
AcDbEntity
  8
LEVEL001
  6
Continuous
 62
     7
100
AcDbPolyline
 90
        4
 70
     1
 43
0.0
 10
567.0
 20
790.0
 10
527.0
 20
790.0
 10
527.0
 20
828.0
 10
567.0
 20
828.0
  0
LWPOLYLINE
  5
1CC
330
B
100
AcDbEntity
  8
LEVEL001
  6
Continuous
 62
     7
100
AcDbPolyline
 90
        3
 70
     0
 43
0.0
 10
567.0
 20
802.0
 10
547.0
 20
802.0
 10
547.0
 20
828.0
  0
POINT
  5
1CD
330
B
100
AcDbEntity
  8
LEVEL001
 62
     7
100
AcDbPoint
 10
537.0
 20
818.0
 30
0.0
  0
POINT
  5
1CE
330
B
100
AcDbEntity
  8
LEVEL001
 62
     7
100
AcDbPoint
 10
537.0
 20
814.0
 30
0.0
  0
POINT
  5
1CF
330
B
100
AcDbEntity
  8
LEVEL001
 62
     7
100
AcDbPoint
 10
537.0
 20
802.0
 30
0.0
  0
POINT
  5
1D0
330
B
100
AcDbEntity
  8
LEVEL001
 62
     7
100
AcDbPoint
 10
537.0
 20
798.0
 30
0.0
  0
LWPOLYLINE
  5
1D1
330
B
100
AcDbEntity
  8
LEVEL001
  6
Continuous
 62
     7
100
AcDbPolyline
 90
        3
 70
     0
 43
0.0
 10
569.0
 20
825.0
 10
621.0
 20
825.0
 10
621.0
 20
809.0
  0
CIRCLE
  5
1D2
330
B
100
AcDbEntity
  8
LEVEL001
  6
Continuous
 62
     7
100
AcDbCircle
 10
633.0
 20
817.0
 30
0.0
 40
5.0
  0
LINE
  5
1D3
330
B
100
AcDbEntity
  8
LEVEL001
  6
Continuous
 62
     7
100
AcDbLine
 10
633.0
 20
822.0
 30
0.0
 11
621.0
 21
822.0
 31
0.0
  0
LINE
  5
1D4
330
B
100
AcDbEntity
  8
LEVEL001
  6
Continuous
 62
     7
100
AcDbLine
 10
633.0
 20
812.0
 30
0.0
 11
621.0
 21
812.0
 31
0.0
  0
LINE
  5
1D5
330
B
100
AcDbEntity
  8
LEVEL001
  6
Continuous
 62
     7
100
AcDbLine
 10
569.0
 20
822.0
 30
0.0
 11
567.0
 21
822.0
 31
0.0
  0
LINE
  5
1D6
330
B
100
AcDbEntity
  8
LEVEL001
  6
Continuous
 62
     7
100
AcDbLine
 10
567.0
 20
812.0
 30
0.0
 11
569.0
 21
812.0
 31
0.0
  0
LWPOLYLINE
  5
1D7
330
B
100
AcDbEntity
  8
LEVEL001
  6
Continuous
 62
     7
100
AcDbPolyline
 90
       12
 70
     1
 43
0.0
 10
502.0
 20
830.0
 10
502.0
 20
832.0
 10
523.0
 20
832.0
 10
523.0
 20
845.0
 10
923.0
 20
845.0
 10
923.0
 20
832.0
 10
944.0
 20
832.0
 10
944.0
 20
830.0
 10
877.0
 20
830.0
 10
877.0
 20
807.0
 10
569.0
 20
807.0
 10
569.0
 20
830.0
  0
LINE
  5
1D8
330
B
100
AcDbEntity
  8
LEVEL001
  6
Continuous
 62
     7
100
AcDbLine
 10
569.0
 20
809.0
 30
0.0
 11
877.0
 21
809.0
 31
0.0
  0
LWPOLYLINE
  5
1D9
330
B
100
AcDbEntity
  8
LEVEL001
  6
Continuous
 62
     7
100
AcDbPolyline
 90
        4
 70
     1
 43
0.0
 10
436.5
 20
768.5
 10
438.4999999999999
 20
768.5
 10
438.4999999999999
 20
828.5
 10
436.5
 20
828.5
  0
LWPOLYLINE
  5
1DA
330
B
100
AcDbEntity
  8
LEVEL001
  6
Continuous
 62
     7
100
AcDbPolyline
 90
        4
 70
     1
 43
0.0
 10
438.4999999999999
 20
793.5
 10
458.4999999999999
 20
793.5
 10
458.4999999999999
 20
828.5
 10
438.4999999999999
 20
828.5
  0
LWPOLYLINE
  5
1DB
330
B
100
AcDbEntity
  8
LEVEL001
  6
Continuous
 62
     7
100
AcDbPolyline
 90
        6
 70
     0
 43
0.0
 10
422.0
 20
828.0
 10
436.5
 20
828.0
 10
436.5
 20
768.0
 10
434.4999999999999
 20
768.0
 10
434.4999999999999
 20
826.0
 10
422.0
 20
826.0
  0
POINT
  5
1DC
330
B
100
AcDbEntity
  8
LEVEL001
 62
     7
100
AcDbPoint
 10
935.5
 20
812.8999999999999
 30
0.0
  0
CIRCLE
  5
1DD
330
B
100
AcDbEntity
  8
LEVEL001
  6
Continuous
 62
     7
100
AcDbCircle
 10
928.0
 20
837.0
 30
0.0
 40
5.0
  0
CIRCLE
  5
1DE
330
B
100
AcDbEntity
  8
LEVEL001
  6
Continuous
 62
     7
100
AcDbCircle
 10
518.0
 20
837.0
 30
0.0
 40
5.0
  0
POINT
  5
1DF
330
B
100
AcDbEntity
  8
LEVEL001
 62
     7
100
AcDbPoint
 10
510.5
 20
812.8999999999999
 30
0.0
  0
LWPOLYLINE
  5
1E0
330
B
100
AcDbEntity
  8
LEVEL001
  6
Continuous
 62
     7
100
AcDbPolyline
 90
        4
 70
     0
 43
0.0
 10
944.5
 20
830.0
 10
944.5
 20
848.9
 10
912.5
 20
848.9
 10
912.5
 20
845.0
  0
LWPOLYLINE
  5
1E1
330
B
100
AcDbEntity
  8
LEVEL001
  6
Continuous
 62
     7
100
AcDbPolyline
 90
        4
 70
     0
 43
0.0
 10
501.4999999999999
 20
830.0
 10
501.4999999999999
 20
848.9
 10
533.4999999999999
 20
848.9
 10
533.4999999999999
 20
847.0
  0
LINE
  5
1E2
330
B
100
AcDbEntity
  8
LEVEL001
  6
DASHDOT
 62
     1
100
AcDbLine
 10
723.0
 20
873.0
 30
0.0
 11
723.0
 21
150.0
 31
0.0
  0
LWPOLYLINE
  5
1E3
330
B
100
AcDbEntity
  8
LEVEL001
  6
Continuous
 62
     7
100
AcDbPolyline
 90
        4
 70
     1
 43
0.0
 10
501.4999999999999
 20
439.0
 10
944.5
 20
439.0
 10
944.5
 20
830.0
 10
501.4999999999999
 20
830.0
  0
LWPOLYLINE
  5
1E4
330
B
100
AcDbEntity
  8
LEVEL001
  6
Continuous
 62
     7
100
AcDbPolyline
 90
        6
 70
     0
 43
0.0
 10
1023.0
 20
263.0
 10
1023.0
 20
225.0
 10
1014.0
 20
225.0
 10
1014.0
 20
254.0
 10
873.0
 20
254.0
 10
873.0
 20
262.56250000004
  0
LWPOLYLINE
  5
1E5
330
B
100
AcDbEntity
  8
LEVEL001
  6
Continuous
 62
     7
100
AcDbPolyline
 90
        4
 70
     0
 43
0.0
 10
488.0
 20
262.56250000004
 10
488.0
 20
254.0
 10
423.0
 20
254.0
 10
423.0
 20
263.0
  0
LWPOLYLINE
  5
1E6
330
B
100
AcDbEntity
  8
LEVEL001
  6
Continuous
 62
     7
100
AcDbPolyline
 90
        4
 70
     1
 43
0.0
 10
317.5
 20
618.5
 10
412.5
 20
618.5
 10
412.5
 20
824.5
 10
317.5
 20
824.5
  0
CIRCLE
  5
1E7
330
B
100
AcDbEntity
  8
LEVEL001
  6
Continuous
 62
     7
100
AcDbCircle
 10
345.0
 20
668.5
 30
0.0
 40
12.5
  0
CIRCLE
  5
1E8
330
B
100
AcDbEntity
  8
LEVEL001
  6
Continuous
 62
     7
100
AcDbCircle
 10
345.0
 20
668.5
 30
0.0
 40
16.25
  0
CIRCLE
  5
1E9
330
B
100
AcDbEntity
  8
LEVEL001
  6
Continuous
 62
     7
100
AcDbCircle
 10
385.0
 20
668.5
 30
0.0
 40
16.25
  0
CIRCLE
  5
1EA
330
B
100
AcDbEntity
  8
LEVEL001
  6
Continuous
 62
     7
100
AcDbCircle
 10
385.0
 20
668.5
 30
0.0
 40
12.5
  0
CIRCLE
  5
1EB
330
B
100
AcDbEntity
  8
LEVEL001
  6
Continuous
 62
     7
100
AcDbCircle
 10
1072.0
 20
697.0
 30
0.0
 40
12.5
  0
CIRCLE
  5
1EC
330
B
100
AcDbEntity
  8
LEVEL001
  6
Continuous
 62
     7
100
AcDbCircle
 10
1072.0
 20
697.0
 30
0.0
 40
16.25
  0
ARC
  5
1ED
330
B
100
AcDbEntity
  8
LEVEL001
  6
Continuous
 62
     7
100
AcDbCircle
 10
1072.0
 20
697.0
 30
0.0
 40
17.5
100
AcDbArc
 50
180.0
 51
0.0
  0
LWPOLYLINE
  5
1EE
330
B
100
AcDbEntity
  8
LEVEL001
  6
Continuous
 62
     7
100
AcDbPolyline
 90
        4
 70
     0
 43
0.0
 10
1054.5
 20
697.0
 10
1054.5
 20
724.5
 10
1089.5
 20
724.5
 10
1089.5
 20
697.0
  0
LINE
  5
1EF
330
B
100
AcDbEntity
  8
LEVEL001
  6
Continuous
 62
     7
100
AcDbLine
 10
501.4999999999999
 20
792.0
 30
0.0
 11
527.0
 21
792.0
 31
0.0
  0
LINE
  5
1F0
330
B
100
AcDbEntity
  8
LEVEL001
  6
Continuous
 62
     7
100
AcDbLine
 10
567.0
 20
792.0
 30
0.0
 11
879.0
 21
792.0
 31
0.0
  0
LINE
  5
1F1
330
B
100
AcDbEntity
  8
LEVEL001
  6
Continuous
 62
     7
100
AcDbLine
 10
919.0
 20
792.0
 30
0.0
 11
944.5
 21
792.0
 31
0.0
  0
LWPOLYLINE
  5
1F2
330
B
100
AcDbEntity
  8
LEVEL001
  6
Continuous
 62
     7
100
AcDbPolyline
 90
        4
 70
     1
 43
0.0
 10
447.5
 20
189.0
 10
468.5
 20
189.0
 10
468.5
 20
239.0
 10
447.5
 20
239.0
  0
LWPOLYLINE
  5
1F3
330
B
100
AcDbEntity
  8
LEVEL001
  6
Continuous
 62
     7
100
AcDbPolyline
 90
       12
 70
     0
 43
0.0
 10
446.0
 20
239.0
 10
446.0
 20
206.5
 10
444.0
 20
206.5
 10
444.0
 20
252.0
 10
438.0
 20
252.0
 10
438.0
 20
254.0
 10
478.0
 20
254.0
 10
478.0
 20
252.0
 10
472.0
 20
252.0
 10
472.0
 20
206.5
 10
470.0
 20
206.5
 10
470.0
 20
239.0
  0
ARC
  5
1F4
330
B
100
AcDbEntity
  8
LEVEL001
  6
Continuous
 62
     7
100
AcDbCircle
 10
458.0
 20
239.0
 30
0.0
 40
12.0
100
AcDbArc
 50
0.0
 51
180.0
  0
LWPOLYLINE
  5
1F5
330
B
100
AcDbEntity
  8
LEVEL001
  6
Continuous
 62
     7
100
AcDbPolyline
 90
        4
 70
     1
 43
0.0
 10
933.0
 20
189.0
 10
954.0
 20
189.0
 10
954.0
 20
239.0
 10
933.0
 20
239.0
  0
LWPOLYLINE
  5
1F6
330
B
100
AcDbEntity
  8
LEVEL001
  6
Continuous
 62
     7
100
AcDbPolyline
 90
       12
 70
     0
 43
0.0
 10
931.4999999999999
 20
239.0
 10
931.4999999999999
 20
206.5
 10
929.4999999999999
 20
206.5
 10
929.4999999999999
 20
252.0
 10
923.4999999999999
 20
252.0
 10
923.4999999999999
 20
254.0
 10
963.4999999999999
 20
254.0
 10
963.4999999999999
 20
252.0
 10
957.5000000000001
 20
252.0
 10
957.5000000000001
 20
206.5
 10
955.4999999999999
 20
206.5
 10
955.4999999999999
 20
239.0
  0
ARC
  5
1F7
330
B
100
AcDbEntity
  8
LEVEL001
  6
Continuous
 62
     7
100
AcDbCircle
 10
943.5
 20
239.0
 30
0.0
 40
12.0
100
AcDbArc
 50
0.0
 51
180.0
  0
LWPOLYLINE
  5
1F8
330
B
100
AcDbEntity
  8
LEVEL001
  6
Continuous
 62
     7
100
AcDbPolyline
 90
        8
 70
     1
 43
0.0
 10
333.5
 20
1075.5
 10
333.5
 20
1071.5
 10
336.5
 20
1071.5
 10
336.5
 20
1068.5
 10
393.5
 20
1068.5
 10
393.5
 20
1071.5
 10
396.5
 20
1071.5
 10
396.5
 20
1075.5
  0
LINE
  5
1F9
330
B
100
AcDbEntity
  8
LEVEL001
  6
Continuous
 62
     7
100
AcDbLine
 10
352.0
 20
1067.5
 30
0.0
 11
353.5
 21
1066.0
 31
0.0
  0
LWPOLYLINE
  5
1FA
330
B
100
AcDbEntity
  8
LEVEL001
  6
Continuous
 62
     7
100
AcDbPolyline
 90
        4
 70
     0
 43
0.0
 10
362.5
 20
1068.5
 10
362.5
 20
1057.5
 10
367.5
 20
1057.5
 10
367.5
 20
1068.5
  0
LWPOLYLINE
  5
1FB
330
B
100
AcDbEntity
  8
LEVEL001
  6
Continuous
 62
     7
100
AcDbPolyline
 90
        4
 70
     0
 43
0.0
 10
363.0
 20
1068.5
 10
363.0
 20
1058.5
 10
367.0
 20
1058.5
 10
367.0
 20
1068.5
  0
LINE
  5
1FC
330
B
100
AcDbEntity
  8
LEVEL001
  6
Continuous
 62
     7
100
AcDbLine
 10
364.5
 20
1068.5
 30
0.0
 11
364.5
 21
1057.5
 31
0.0
  0
LINE
  5
1FD
330
B
100
AcDbEntity
  8
LEVEL001
  6
Continuous
 62
     7
100
AcDbLine
 10
365.5
 20
1057.5
 30
0.0
 11
365.5
 21
1068.5
 31
0.0
  0
LINE
  5
1FE
330
B
100
AcDbEntity
  8
LEVEL001
  6
Continuous
 62
     7
100
AcDbLine
 10
363.0
 20
1058.5
 30
0.0
 11
362.5
 21
1057.5
 31
0.0
  0
LINE
  5
1FF
330
B
100
AcDbEntity
  8
LEVEL001
  6
Continuous
 62
     7
100
AcDbLine
 10
367.0
 20
1058.5
 30
0.0
 11
367.5
 21
1057.5
 31
0.0
  0
LWPOLYLINE
  5
200
330
B
100
AcDbEntity
  8
LEVEL001
  6
Continuous
 62
     7
100
AcDbPolyline
 90
        3
 70
     0
 43
0.0
 10
352.0
 20
1068.5
 10
352.0
 20
1067.5
 10
362.5
 20
1067.5
  0
LWPOLYLINE
  5
201
330
B
100
AcDbEntity
  8
LEVEL001
  6
Continuous
 62
     7
100
AcDbPolyline
 90
        3
 70
     0
 43
0.0
 10
367.5
 20
1067.5
 10
378.0
 20
1067.5
 10
378.0
 20
1068.5
  0
LWPOLYLINE
  5
202
330
B
100
AcDbEntity
  8
LEVEL001
  6
Continuous
 62
     7
100
AcDbPolyline
 90
        6
 70
     0
 43
0.0
 10
362.5
 20
1066.0
 10
353.5
 20
1066.0
 10
353.5
 20
1056.0
 10
376.5
 20
1056.0
 10
376.5
 20
1066.0
 10
367.5
 20
1066.0
  0
LWPOLYLINE
  5
203
330
B
100
AcDbEntity
  8
LEVEL001
  6
Continuous
 62
     7
100
AcDbPolyline
 90
        3
 70
     0
 43
0.0
 10
328.75
 20
1075.5
 10
328.75
 20
1065.5
 10
353.5
 20
1065.5
  0
LWPOLYLINE
  5
204
330
B
100
AcDbEntity
  8
LEVEL001
  6
Continuous
 62
     7
100
AcDbPolyline
 90
        3
 70
     0
 43
0.0
 10
332.5
 20
1065.5
 10
332.5
 20
1059.5
 10
353.5
 20
1059.5
  0
LINE
  5
205
330
B
100
AcDbEntity
  8
LEVEL001
  6
Continuous
 62
     7
100
AcDbLine
 10
336.5
 20
1071.5
 30
0.0
 11
393.5
 21
1071.5
 31
0.0
  0
LWPOLYLINE
  5
206
330
B
100
AcDbEntity
  8
LEVEL001
  6
Continuous
 62
     7
100
AcDbPolyline
 90
        4
 70
     0
 43
0.0
 10
353.5
 20
1056.0
 10
357.0
 20
1055.5
 10
373.0
 20
1055.5
 10
376.5
 20
1056.0
  0
LINE
  5
207
330
B
100
AcDbEntity
  8
LEVEL001
  6
Continuous
 62
     7
100
AcDbLine
 10
376.5
 20
1066.0
 30
0.0
 11
378.0
 21
1067.5
 31
0.0
  0
LWPOLYLINE
  5
208
330
B
100
AcDbEntity
  8
LEVEL001
  6
Continuous
 62
     7
100
AcDbPolyline
 90
        3
 70
     0
 43
0.0
 10
401.25
 20
1075.5
 10
401.25
 20
1065.5
 10
376.5
 20
1065.5
  0
LWPOLYLINE
  5
209
330
B
100
AcDbEntity
  8
LEVEL001
  6
Continuous
 62
     7
100
AcDbPolyline
 90
        3
 70
     0
 43
0.0
 10
397.5
 20
1065.5
 10
397.5
 20
1059.5
 10
376.5
 20
1059.5
  0
LWPOLYLINE
  5
20A
330
B
100
AcDbEntity
  8
LEVEL001
  6
Continuous
 62
     7
100
AcDbPolyline
 90
        4
 70
     1
 43
0.0
 10
333.5
 20
698.5
 10
396.5
 20
698.5
 10
396.5
 20
782.5
 10
333.5
 20
782.5
  0
LWPOLYLINE
  5
20B
330
B
100
AcDbEntity
  8
LEVEL001
  6
Continuous
 62
     7
100
AcDbPolyline
 90
        4
 70
     1
 43
0.0
 10
339.0
 20
709.0
 10
391.0
 20
709.0
 10
391.0
 20
772.0
 10
339.0
 20
772.0
  0
POINT
  5
20C
330
B
100
AcDbEntity
  8
LEVEL001
 62
     7
100
AcDbPoint
 10
365.0
 20
745.7
 30
0.0
  0
LWPOLYLINE
  5
20D
330
B
100
AcDbEntity
  8
LEVEL001
  6
Continuous
 62
     7
100
AcDbPolyline
 90
        4
 70
     0
 43
0.0
 10
362.5
 20
756.9249721603199
 10
363.0
 20
761.95
 10
367.0
 20
761.95
 10
367.5
 20
756.9249721603199
  0
LWPOLYLINE
  5
20E
330
B
100
AcDbEntity
  8
LEVEL001
  6
Continuous
 62
     7
100
AcDbPolyline
 90
        4
 70
     0
 43
0.0
 10
362.5
 20
734.47502783968
 10
363.0
 20
729.45
 10
367.0
 20
729.45
 10
367.5
 20
734.47502783968
  0
LINE
  5
20F
330
B
100
AcDbEntity
  8
LEVEL001
  6
Continuous
 62
     7
100
AcDbLine
 10
364.5
 20
761.95
 30
0.0
 11
364.5
 21
757.1891252930799
 31
0.0
  0
LINE
  5
210
330
B
100
AcDbEntity
  8
LEVEL001
  6
Continuous
 62
     7
100
AcDbLine
 10
365.5
 20
761.95
 30
0.0
 11
365.5
 21
757.1891252930799
 31
0.0
  0
CIRCLE
  5
211
330
B
100
AcDbEntity
  8
LEVEL001
  6
Continuous
 62
     7
100
AcDbCircle
 10
365.0
 20
745.7
 30
0.0
 40
8.0
  0
ARC
  5
212
330
B
100
AcDbEntity
  8
LEVEL001
  6
Continuous
 62
     7
100
AcDbCircle
 10
365.00000000054
 20
730.2434194268299
 30
0.0
 40
4.9565805731756
100
AcDbArc
 50
58.91685076564801
 51
121.08314923825
  0
ARC
  5
213
330
B
100
AcDbEntity
  8
LEVEL001
  6
Continuous
 62
     7
100
AcDbCircle
 10
377.08444130397
 20
736.0629796410099
 30
0.0
 40
4.9565805731756
100
AcDbArc
 50
110.34542219429
 51
172.51172066698
  0
ARC
  5
214
330
B
100
AcDbEntity
  8
LEVEL001
  6
Continuous
 62
     7
100
AcDbCircle
 10
380.06905182825
 20
749.1394127449
 30
0.0
 40
4.9565805731756
100
AcDbArc
 50
161.7739936229
 51
223.94029209562
  0
ARC
  5
215
330
B
100
AcDbEntity
  8
LEVEL001
  6
Continuous
 62
     7
100
AcDbCircle
 10
371.70635897366
 20
759.6258979006499
 30
0.0
 40
4.9565805731756
100
AcDbArc
 50
213.20256505143
 51
275.3688635241001
  0
ARC
  5
216
330
B
100
AcDbEntity
  8
LEVEL001
  6
Continuous
 62
     7
100
AcDbCircle
 10
358.29364102754
 20
759.62589790067
 30
0.0
 40
4.9565805731756
100
AcDbArc
 50
264.63113648
 51
326.79743495269
  0
ARC
  5
217
330
B
100
AcDbEntity
  8
LEVEL001
  6
Continuous
 62
     7
100
AcDbCircle
 10
349.93094817291
 20
749.13941274494
 30
0.0
 40
4.9565805731756
100
AcDbArc
 50
316.05970790859
 51
18.226006381284
  0
ARC
  5
218
330
B
100
AcDbEntity
  8
LEVEL001
  6
Continuous
 62
     7
100
AcDbCircle
 10
352.91555869714
 20
736.0629796410499
 30
0.0
 40
4.9565805731756
100
AcDbArc
 50
7.4882793371149
 51
69.654577809758
  0
ARC
  5
219
330
B
100
AcDbEntity
  8
LEVEL001
  6
Continuous
 62
     7
100
AcDbCircle
 10
365.0
 20
745.7
 30
0.0
 40
11.5
100
AcDbArc
 50
231.42857143246
 51
257.14285714492
  0
ARC
  5
21A
330
B
100
AcDbEntity
  8
LEVEL001
  6
Continuous
 62
     7
100
AcDbCircle
 10
365.0
 20
745.7
 30
0.0
 40
11.5
100
AcDbArc
 50
282.85714285913
 51
308.57142857551
  0
ARC
  5
21B
330
B
100
AcDbEntity
  8
LEVEL001
  6
Continuous
 62
     7
100
AcDbCircle
 10
365.0
 20
745.7
 30
0.0
 40
11.5
100
AcDbArc
 50
334.28571428414
 51
0.0
  0
ARC
  5
21C
330
B
100
AcDbEntity
  8
LEVEL001
  6
Continuous
 62
     7
100
AcDbCircle
 10
365.0
 20
745.69999999999
 30
0.0
 40
11.5
100
AcDbArc
 50
180.00000000269
 51
205.71428571275
  0
ARC
  5
21D
330
B
100
AcDbEntity
  8
LEVEL001
  6
Continuous
 62
     7
100
AcDbCircle
 10
365.0
 20
745.70000000001
 30
0.0
 40
11.5
100
AcDbArc
 50
128.57142857083
 51
154.28571428181
  0
ARC
  5
21E
330
B
100
AcDbEntity
  8
LEVEL001
  6
Continuous
 62
     7
100
AcDbCircle
 10
365.0
 20
745.7
 30
0.0
 40
11.5
100
AcDbArc
 50
25.714285710178
 51
51.42857142823199
  0
ARC
  5
21F
330
B
100
AcDbEntity
  8
LEVEL001
  6
Continuous
 62
     7
100
AcDbCircle
 10
365.0
 20
745.7
 30
0.0
 40
11.5
100
AcDbArc
 50
77.14285713919401
 51
102.85714285374
  0
ARC
  5
220
330
B
100
AcDbEntity
  8
LEVEL001
  6
Continuous
 62
     7
100
AcDbCircle
 10
365.00000000001
 20
745.7
 30
0.0
 40
13.0
100
AcDbArc
 50
100.39033808318
 51
259.60966191682
  0
ARC
  5
221
330
B
100
AcDbEntity
  8
LEVEL001
  6
Continuous
 62
     7
100
AcDbCircle
 10
365.00000000002
 20
745.7
 30
0.0
 40
13.0
100
AcDbArc
 50
280.39033808305
 51
79.60966191695501
  0
ARC
  5
222
330
B
100
AcDbEntity
  8
LEVEL001
  6
Continuous
 62
     7
100
AcDbCircle
 10
365.0
 20
745.7
 30
0.0
 40
20.0
100
AcDbArc
 50
299.9999999998
 51
240.0000000002
  0
LWPOLYLINE
  5
223
330
B
100
AcDbEntity
  8
LEVEL001
  6
Continuous
 62
     7
100
AcDbPolyline
 90
        4
 70
     1
 43
0.0
 10
336.5
 20
706.5
 10
393.5
 20
706.5
 10
393.5
 20
774.5
 10
336.5
 20
774.5
  0
LWPOLYLINE
  5
224
330
B
100
AcDbEntity
  8
LEVEL001
  6
Continuous
 62
     7
100
AcDbPolyline
 90
        4
 70
     1
 43
0.0
 10
912.5
 20
1427.0
 10
944.5
 20
1427.0
 10
944.5
 20
1439.0
 10
912.5
 20
1439.0
  0
LWPOLYLINE
  5
225
330
B
100
AcDbEntity
  8
LEVEL001
  6
Continuous
 62
     7
100
AcDbPolyline
 90
        4
 70
     0
 43
0.0
 10
923.0
 20
1427.0
 10
923.0
 20
1409.0
 10
933.0
 20
1409.0
 10
933.0
 20
1427.0
  0
LWPOLYLINE
  5
226
330
B
100
AcDbEntity
  8
LEVEL001
  6
Continuous
 62
     7
100
AcDbPolyline
 90
        4
 70
     0
 43
0.0
 10
923.0
 20
1439.0
 10
925.54779163982
 20
1446.0
 10
930.4522083601799
 20
1446.0
 10
933.0
 20
1439.0
  0
LWPOLYLINE
  5
227
330
B
100
AcDbEntity
  8
LEVEL001
  6
Continuous
 62
     7
100
AcDbPolyline
 90
        4
 70
     1
 43
0.0
 10
533.4999999999999
 20
1427.0
 10
501.4999999999999
 20
1427.0
 10
501.4999999999999
 20
1439.0
 10
533.4999999999999
 20
1439.0
  0
LWPOLYLINE
  5
228
330
B
100
AcDbEntity
  8
LEVEL001
  6
Continuous
 62
     7
100
AcDbPolyline
 90
        4
 70
     0
 43
0.0
 10
523.0
 20
1427.0
 10
523.0
 20
1409.0
 10
513.0
 20
1409.0
 10
513.0
 20
1427.0
  0
LWPOLYLINE
  5
229
330
B
100
AcDbEntity
  8
LEVEL001
  6
Continuous
 62
     7
100
AcDbPolyline
 90
        4
 70
     0
 43
0.0
 10
523.0
 20
1439.0
 10
520.45220836018
 20
1446.0
 10
515.54779163982
 20
1446.0
 10
513.0
 20
1439.0
  0
LWPOLYLINE
  5
22A
330
B
100
AcDbEntity
  8
LEVEL001
  6
Continuous
 62
     7
100
AcDbPolyline
 90
        3
 70
     0
 43
0.0
 10
513.0
 20
1424.0
 10
502.0
 20
1424.0
 10
502.0
 20
1168.5
  0
LWPOLYLINE
  5
22B
330
B
100
AcDbEntity
  8
LEVEL001
  6
Continuous
 62
     7
100
AcDbPolyline
 90
        5
 70
     0
 43
0.0
 10
944.0
 20
1087.0
 10
944.5
 20
1087.0
 10
944.5
 20
1427.0
 10
501.4999999999999
 20
1427.0
 10
501.4999999999999
 20
1168.5
  0
LWPOLYLINE
  5
22C
330
B
100
AcDbEntity
  8
LEVEL001
  6
Continuous
 62
     7
100
AcDbPolyline
 90
        5
 70
     0
 43
0.0
 10
502.0
 20
1106.5
 10
502.0
 20
1085.0
 10
944.0
 20
1085.0
 10
944.0
 20
1424.0
 10
933.0
 20
1424.0
  0
INSERT
  5
22D
330
B
100
AcDbEntity
  8
0
100
AcDbBlockReference
  2
EGF21M10
 10
441.0
 20
1033.0
 30
0.0
 50
90.0
  0
INSERT
  5
22E
330
B
100
AcDbEntity
  8
0
100
AcDbBlockReference
  2
EGF21M10
 10
441.0
 20
1035.0
 30
0.0
 50
90.0
  0
INSERT
  5
22F
330
B
100
AcDbEntity
  8
0
100
AcDbBlockReference
  2
EGF21M10
 10
441.0
 20
1022.0
 30
0.0
 50
90.0
  0
INSERT
  5
230
330
B
100
AcDbEntity
  8
0
100
AcDbBlockReference
  2
EGF11M10
 10
441.0
 20
1022.0
 30
0.0
 42
-1.0
 50
270.0
  0
LWPOLYLINE
  5
231
330
B
100
AcDbEntity
  8
LEVEL001
  6
Continuous
 62
     7
100
AcDbPolyline
 90
        4
 70
     1
 43
0.0
 10
481.0
 20
1033.0
 10
431.0
 20
1033.0
 10
431.0
 20
1024.0
 10
481.0
 20
1024.0
  0
LWPOLYLINE
  5
232
330
B
100
AcDbEntity
  8
LEVEL001
  6
Continuous
 62
     7
100
AcDbPolyline
 90
        4
 70
     0
 43
0.0
 10
436.0
 20
1014.0
 10
436.0
 20
1013.0
 10
446.0
 20
1013.0
 10
446.0
 20
1014.0
  0
LINE
  5
233
330
B
100
AcDbEntity
  8
LEVEL001
  6
Continuous
 62
     7
100
AcDbLine
 10
452.97696790163
 20
1033.0
 30
0.0
 11
452.97696790163
 21
1024.0
 31
0.0
  0
LINE
  5
234
330
B
100
AcDbEntity
  8
LEVEL001
  6
Continuous
 62
     7
100
AcDbLine
 10
464.0
 20
1037.0
 30
0.0
 11
476.0
 21
1037.0
 31
0.0
  0
LINE
  5
235
330
B
100
AcDbEntity
  8
LEVEL001
  6
Continuous
 62
     7
100
AcDbLine
 10
480.4999999999999
 20
564.0
 30
0.0
 11
480.4999999999999
 21
548.0
 31
0.0
  0
LWPOLYLINE
  5
236
330
B
100
AcDbEntity
  8
LEVEL001
  6
Continuous
 62
     7
100
AcDbPolyline
 90
        5
 70
     0
 43
0.0
 10
450.65925826289
 20
547.58819045098
 10
452.97696790163
 20
538.9383803220099
 10
481.0
 20
535.0
 10
481.0
 20
525.0
 10
444.2015621187199
 20
525.0
  0
POINT
  5
237
330
B
100
AcDbEntity
  8
LEVEL001
 62
     7
100
AcDbPoint
 10
460.5
 20
1057.0
 30
0.0
  0
LINE
  5
238
330
B
100
AcDbEntity
  8
LEVEL001
  6
Continuous
 62
     7
100
AcDbLine
 10
413.4999999999999
 20
1059.0
 30
0.0
 11
323.87549105844
 21
1050.9720863866
 31
0.0
  0
LINE
  5
239
330
B
100
AcDbEntity
  8
LEVEL001
  6
Continuous
 62
     7
100
AcDbLine
 10
324.5
 20
1037.0
 30
0.0
 11
460.5
 21
1037.0
 31
0.0
  0
ARC
  5
23A
330
B
100
AcDbEntity
  8
LEVEL001
  6
Continuous
 62
     7
100
AcDbCircle
 10
460.5
 20
1057.0
 30
0.0
 40
20.0
100
AcDbArc
 50
270.0
 51
44.42700400081299
  0
ARC
  5
23B
330
B
100
AcDbEntity
  8
LEVEL001
  6
Continuous
 62
     7
100
AcDbCircle
 10
324.5
 20
1044.0
 30
0.0
 40
7.0
100
AcDbArc
 50
90.0
 51
270.0
  0
ARC
  5
23C
330
B
100
AcDbEntity
  8
LEVEL001
  6
Continuous
 62
     7
100
AcDbCircle
 10
489.0657137141699
 20
1085.0
 30
0.0
 40
20.0
100
AcDbArc
 50
90.000000000003
 51
224.4270040008
  0
LINE
  5
23D
330
B
100
AcDbEntity
  8
LEVEL001
  6
Continuous
 62
     7
100
AcDbLine
 10
501.4999999999999
 20
1105.0
 30
0.0
 11
489.0657137141699
 21
1105.0
 31
0.0
  0
LINE
  5
23E
330
B
100
AcDbEntity
  8
LEVEL001
  6
Continuous
 62
     7
100
AcDbLine
 10
473.0
 20
1041.387505004
 30
0.0
 11
473.0
 21
1037.0
 31
0.0
  0
LWPOLYLINE
  5
23F
330
B
100
AcDbEntity
  8
LEVEL001
  6
Continuous
 62
     7
100
AcDbPolyline
 90
        4
 70
     0
 43
0.0
 10
476.0
 20
1044.3607753402
 10
476.0
 20
1036.0
 10
970.0
 20
1036.0
 10
970.0
 20
1157.0
  0
LINE
  5
240
330
B
100
AcDbEntity
  8
LEVEL001
  6
Continuous
 62
     7
100
AcDbLine
 10
473.0
 20
1096.9118782253
 30
0.0
 11
473.0
 21
1073.0881217747
 31
0.0
  0
LINE
  5
241
330
B
100
AcDbEntity
  8
LEVEL001
  6
Continuous
 62
     7
100
AcDbLine
 10
476.0
 20
1100.1422298602
 30
0.0
 11
476.0
 21
1069.6392246598
 31
0.0
  0
LINE
  5
242
330
B
100
AcDbEntity
  8
LEVEL001
  6
Continuous
 62
     7
100
AcDbLine
 10
413.4999999999999
 20
1059.0
 30
0.0
 11
432.05933135845
 21
1080.5
 31
0.0
  0
LINE
  5
243
330
B
100
AcDbEntity
  8
LEVEL001
  6
Continuous
 62
     7
100
AcDbLine
 10
438.4999999999999
 20
1087.961172664
 30
0.0
 11
442.84964028778
 21
1093.0
 31
0.0
  0
LINE
  5
244
330
B
100
AcDbEntity
  8
LEVEL001
  6
Continuous
 62
     7
100
AcDbLine
 10
458.4999999999999
 20
1111.1301107952
 30
0.0
 11
473.0
 21
1127.9275909403
 31
0.0
  0
LINE
  5
245
330
B
100
AcDbEntity
  8
LEVEL001
  6
Continuous
 62
     7
100
AcDbLine
 10
423.0
 20
1080.5
 30
0.0
 11
423.0
 21
1070.0052456123
 31
0.0
  0
LINE
  5
246
330
B
100
AcDbEntity
  8
LEVEL001
  6
DASHDOT
 62
     1
100
AcDbLine
 10
1962.0
 20
600.0
 30
0.0
 11
1454.0
 21
600.0
 31
0.0
  0
LINE
  5
247
330
B
100
AcDbEntity
  8
LEVEL001
  6
HIDDEN
 62
     1
100
AcDbLine
 10
1489.6719238979
 20
360.04731328123
 30
0.0
 11
1893.3479899203
 21
468.53525602478
 31
0.0
  0
LWPOLYLINE
  5
248
330
B
100
AcDbEntity
  8
LEVEL001
  6
Continuous
 62
     7
100
AcDbPolyline
 90
        4
 70
     0
 43
0.0
 10
1488.0
 20
359.59798373367
 10
1487.0
 20
359.32923373367
 10
1487.0
 20
262.56250000004
 10
1488.0
 20
262.56250000004
  0
LINE
  5
249
330
B
100
AcDbEntity
  8
LEVEL001
  6
Continuous
 62
     7
100
AcDbLine
 10
1528.0
 20
747.0
 30
0.0
 11
1908.0
 21
747.0
 31
0.0
  0
LWPOLYLINE
  5
24A
330
B
100
AcDbEntity
  8
LEVEL001
  6
Continuous
 62
     7
100
AcDbPolyline
 90
        4
 70
     0
 43
0.0
 10
1528.0
 20
548.0
 10
1488.0
 20
548.0
 10
1488.0
 20
263.0
 10
1528.0
 20
263.0
  0
ARC
  5
24B
330
B
100
AcDbEntity
  8
LEVEL001
  6
HIDDEN
 62
     1
100
AcDbCircle
 10
1708.0
 20
600.0
 30
0.0
 40
161.0
100
AcDbArc
 50
180.0
 51
0.0
  0
ARC
  5
24C
330
B
100
AcDbEntity
  8
LEVEL001
  6
HIDDEN
 62
     1
100
AcDbCircle
 10
1708.0
 20
600.0
 30
0.0
 40
160.0
100
AcDbArc
 50
180.0
 51
0.0
  0
LINE
  5
24D
330
B
100
AcDbEntity
  8
LEVEL001
  6
HIDDEN
 62
     1
100
AcDbLine
 10
1547.0
 20
747.0
 30
0.0
 11
1547.0
 21
600.0
 31
0.0
  0
LINE
  5
24E
330
B
100
AcDbEntity
  8
LEVEL001
  6
HIDDEN
 62
     1
100
AcDbLine
 10
1548.0
 20
747.0
 30
0.0
 11
1548.0
 21
600.0
 31
0.0
  0
LINE
  5
24F
330
B
100
AcDbEntity
  8
LEVEL001
  6
HIDDEN
 62
     1
100
AcDbLine
 10
1868.0
 20
600.0
 30
0.0
 11
1868.0
 21
747.0
 31
0.0
  0
LINE
  5
250
330
B
100
AcDbEntity
  8
LEVEL001
  6
HIDDEN
 62
     1
100
AcDbLine
 10
1869.0
 20
600.0
 30
0.0
 11
1869.0
 21
747.0
 31
0.0
  0
LINE
  5
251
330
B
100
AcDbEntity
  8
LEVEL001
  6
Continuous
 62
     7
100
AcDbLine
 10
1869.0
 20
747.0
 30
0.0
 11
1869.0
 21
830.0
 31
0.0
  0
LINE
  5
252
330
B
100
AcDbEntity
  8
LEVEL001
  6
Continuous
 62
     7
100
AcDbLine
 10
1547.0
 20
830.0
 30
0.0
 11
1547.0
 21
747.0
 31
0.0
  0
LWPOLYLINE
  5
253
330
B
100
AcDbEntity
  8
LEVEL001
  6
Continuous
 62
     7
100
AcDbPolyline
 90
        4
 70
     0
 43
0.0
 10
1488.0
 20
263.0
 10
1488.0
 20
225.0
 10
1908.0
 20
225.0
 10
1908.0
 20
263.0
  0
INSERT
  5
254
330
B
100
AcDbEntity
  8
0
100
AcDbBlockReference
  2
EGF21M10
 10
1508.0
 20
564.0
 30
0.0
 42
-1.0
 50
90.0
  0
INSERT
  5
255
330
B
100
AcDbEntity
  8
0
100
AcDbBlockReference
  2
EGF11M10
 10
1508.0
 20
566.0
 30
0.0
 42
-1.0
 50
90.0
  0
LWPOLYLINE
  5
256
330
B
100
AcDbEntity
  8
LEVEL001
  6
Continuous
 62
     7
100
AcDbPolyline
 90
        3
 70
     0
 43
0.0
 10
1528.0
 20
564.0
 10
1488.0
 20
564.0
 10
1488.0
 20
548.0
  0
INSERT
  5
257
330
B
100
AcDbEntity
  8
0
100
AcDbBlockReference
  2
EGF21M10
 10
1488.0
 20
535.0
 30
0.0
 42
-1.0
 50
180.0
  0
INSERT
  5
258
330
B
100
AcDbEntity
  8
0
100
AcDbBlockReference
  2
EGF21M10
 10
1486.0
 20
535.0
 30
0.0
 42
-1.0
 50
180.0
  0
LWPOLYLINE
  5
259
330
B
100
AcDbEntity
  8
LEVEL001
  6
Continuous
 62
     7
100
AcDbPolyline
 90
        4
 70
     1
 43
0.0
 10
1484.0
 20
525.0
 10
1475.0
 20
525.0
 10
1475.0
 20
555.0
 10
1484.0
 20
555.0
  0
LINE
  5
25A
330
B
100
AcDbEntity
  8
LEVEL001
  6
Continuous
 62
     7
100
AcDbLine
 10
1475.0
 20
538.9383803220099
 30
0.0
 11
1484.0
 21
538.9383803220099
 31
0.0
  0
LINE
  5
25B
330
B
100
AcDbEntity
  8
LEVEL001
  6
Continuous
 62
     7
100
AcDbLine
 10
1475.0
 20
535.00000000001
 30
0.0
 11
1484.0
 21
535.00000000001
 31
0.0
  0
INSERT
  5
25C
330
B
100
AcDbEntity
  8
0
100
AcDbBlockReference
  2
EGF21M10
 10
1475.0
 20
535.0
 30
0.0
 42
-1.0
 50
180.0
  0
INSERT
  5
25D
330
B
100
AcDbEntity
  8
0
100
AcDbBlockReference
  2
EGF11M10
 10
1473.0
 20
535.0
 30
0.0
 42
-1.0
 50
180.0
  0
LWPOLYLINE
  5
25E
330
B
100
AcDbEntity
  8
LEVEL001
  6
Continuous
 62
     7
100
AcDbPolyline
 90
        4
 70
     0
 43
0.0
 10
1465.0
 20
540.0
 10
1464.0
 20
540.0
 10
1464.0
 20
530.0
 10
1465.0
 20
530.0
  0
LINE
  5
25F
330
B
100
AcDbEntity
  8
LEVEL001
  6
DASHDOT
 62
     1
100
AcDbLine
 10
1708.0
 20
873.0
 30
0.0
 11
1708.0
 21
150.0
 31
0.0
  0
LWPOLYLINE
  5
260
330
B
100
AcDbEntity
  8
LEVEL001
  6
Continuous
 62
     7
100
AcDbPolyline
 90
        4
 70
     0
 43
0.0
 10
1868.0
 20
747.0
 10
1868.0
 20
830.0
 10
1548.0
 20
830.0
 10
1548.0
 20
747.0
  0
LWPOLYLINE
  5
261
330
B
100
AcDbEntity
  8
LEVEL001
  6
Continuous
 62
     7
100
AcDbPolyline
 90
        4
 70
     0
 43
0.0
 10
1547.0
 20
830.0
 10
1538.0
 20
830.0
 10
1538.0
 20
792.0
 10
1547.0
 20
792.0
  0
LWPOLYLINE
  5
262
330
B
100
AcDbEntity
  8
LEVEL001
  6
Continuous
 62
     7
100
AcDbPolyline
 90
        4
 70
     0
 43
0.0
 10
1869.0
 20
830.0
 10
1878.0
 20
830.0
 10
1878.0
 20
792.0
 10
1869.0
 20
792.0
  0
LWPOLYLINE
  5
263
330
B
100
AcDbEntity
  8
LEVEL001
  6
Continuous
 62
     7
100
AcDbPolyline
 90
        4
 70
     0
 43
0.0
 10
1528.0
 20
724.5
 10
1525.5
 20
724.5
 10
1525.5
 20
679.4999999999999
 10
1528.0
 20
679.4999999999999
  0
LWPOLYLINE
  5
264
330
B
100
AcDbEntity
  8
LEVEL001
  6
Continuous
 62
     7
100
AcDbPolyline
 90
        4
 70
     0
 43
0.0
 10
1525.5
 20
713.25
 10
1514.0
 20
713.25
 10
1514.0
 20
680.75
 10
1525.5
 20
680.75
  0
LWPOLYLINE
  5
265
330
B
100
AcDbEntity
  8
LEVEL001
  6
Continuous
 62
     7
100
AcDbPolyline
 90
        4
 70
     0
 43
0.0
 10
1514.0
 20
709.4999999999999
 10
1508.0
 20
709.4999999999999
 10
1508.0
 20
684.4999999999999
 10
1514.0
 20
684.4999999999999
  0
CIRCLE
  5
266
330
B
100
AcDbEntity
  8
LEVEL001
  6
Continuous
 62
     7
100
AcDbCircle
 10
1883.0
 20
214.0
 30
0.0
 40
3.399999999999999
  0
CIRCLE
  5
267
330
B
100
AcDbEntity
  8
LEVEL001
  6
Continuous
 62
     7
100
AcDbCircle
 10
1502.0
 20
214.0
 30
0.0
 40
3.399999999999999
  0
ARC
  5
268
330
B
100
AcDbEntity
  8
LEVEL001
  6
Continuous
 62
     7
100
AcDbCircle
 10
1502.0
 20
213.99999999998
 30
0.0
 40
7.5
100
AcDbArc
 50
179.99999999984
 51
323.02724994093
  0
ARC
  5
269
330
B
100
AcDbEntity
  8
LEVEL001
  6
Continuous
 62
     7
100
AcDbCircle
 10
1883.0
 20
214.00000000003
 30
0.0
 40
7.5
100
AcDbArc
 50
197.69996383265
 51
342.3000361673
  0
LINE
  5
26A
330
B
100
AcDbEntity
  8
LEVEL001
  6
Continuous
 62
     7
100
AcDbLine
 10
1871.6167803738
 20
225.0
 30
0.0
 11
1875.8550374512
 21
211.71975655327
 31
0.0
  0
LINE
  5
26B
330
B
100
AcDbEntity
  8
LEVEL001
  6
Continuous
 62
     7
100
AcDbLine
 10
1894.3832196262
 20
225.0
 30
0.0
 11
1890.1449625488
 21
211.71975655327
 31
0.0
  0
ARC
  5
26C
330
B
100
AcDbEntity
  8
LEVEL001
  6
Continuous
 62
     7
100
AcDbCircle
 10
1883.0
 20
214.00000000001
 30
0.0
 40
25.0
100
AcDbArc
 50
153.89611886267
 51
26.10388113731801
  0
LINE
  5
26D
330
B
100
AcDbEntity
  8
LEVEL001
  6
Continuous
 62
     7
100
AcDbLine
 10
1494.5
 20
214.0
 30
0.0
 11
1494.5
 21
225.0
 31
0.0
  0
LINE
  5
26E
330
B
100
AcDbEntity
  8
LEVEL001
  6
Continuous
 62
     7
100
AcDbLine
 10
1520.2178988495
 20
225.0
 30
0.0
 11
1507.9919123274
 21
209.48923657671
 31
0.0
  0
ARC
  5
26F
330
B
100
AcDbEntity
  8
LEVEL001
  6
Continuous
 62
     7
100
AcDbCircle
 10
1502.0
 20
214.0
 30
0.0
 40
25.0
100
AcDbArc
 50
124.05579774257
 51
26.103881137346
  0
LINE
  5
270
330
B
100
AcDbEntity
  8
LEVEL001
  6
Continuous
 62
     7
100
AcDbLine
 10
1414.0
 20
189.0
 30
0.0
 11
1948.0
 21
189.0
 31
0.0
  0
LWPOLYLINE
  5
271
330
B
100
AcDbEntity
  8
LEVEL001
  6
Continuous
 62
     7
100
AcDbPolyline
 90
        3
 70
     0
 43
0.0
 10
1515.0
 20
680.75
 10
1515.0
 20
652.2499999999999
 10
1526.5
 20
652.2499999999999
  0
LWPOLYLINE
  5
272
330
B
100
AcDbEntity
  8
LEVEL001
  6
Continuous
 62
     7
100
AcDbPolyline
 90
        4
 70
     0
 43
0.0
 10
1514.0
 20
681.0
 10
1509.0
 20
681.0
 10
1509.0
 20
656.0
 10
1515.0
 20
656.0
  0
LWPOLYLINE
  5
273
330
B
100
AcDbEntity
  8
LEVEL001
  6
Continuous
 62
     7
100
AcDbPolyline
 90
        3
 70
     0
 43
0.0
 10
1528.0
 20
618.5
 10
1526.5
 20
618.5
 10
1526.5
 20
679.4999999999999
  0
LWPOLYLINE
  5
274
330
B
100
AcDbEntity
  8
LEVEL001
  6
Continuous
 62
     7
100
AcDbPolyline
 90
        4
 70
     0
 43
0.0
 10
1535.0
 20
828.0
 10
1517.0
 20
828.0
 10
1517.0
 20
802.0
 10
1535.0
 20
802.0
  0
LWPOLYLINE
  5
275
330
B
100
AcDbEntity
  8
LEVEL001
  6
Continuous
 62
     7
100
AcDbPolyline
 90
        4
 70
     0
 43
0.0
 10
1517.0
 20
822.0
 10
1503.0
 20
822.0
 10
1503.0
 20
812.0
 10
1517.0
 20
812.0
  0
LWPOLYLINE
  5
276
330
B
100
AcDbEntity
  8
LEVEL001
  6
Continuous
 62
     7
100
AcDbPolyline
 90
        4
 70
     1
 43
0.0
 10
1535.0
 20
828.0
 10
1535.0
 20
790.0
 10
1538.0
 20
790.0
 10
1538.0
 20
828.0
  0
LWPOLYLINE
  5
277
330
B
100
AcDbEntity
  8
LEVEL001
  6
Continuous
 62
     7
100
AcDbPolyline
 90
        4
 70
     0
 43
0.0
 10
1619.5
 20
845.0
 10
1619.5
 20
847.0
 10
1557.5
 20
847.0
 10
1557.5
 20
845.0
  0
LWPOLYLINE
  5
278
330
B
100
AcDbEntity
  8
LEVEL001
  6
Continuous
 62
     7
100
AcDbPolyline
 90
        4
 70
     1
 43
0.0
 10
1878.0
 20
801.9
 10
1890.0
 20
801.9
 10
1890.0
 20
848.9
 10
1878.0
 20
848.9
  0
LWPOLYLINE
  5
279
330
B
100
AcDbEntity
  8
LEVEL001
  6
Continuous
 62
     7
100
AcDbPolyline
 90
        4
 70
     0
 43
0.0
 10
1890.0
 20
842.0
 10
1897.0
 20
839.4522083601799
 10
1897.0
 20
834.54779163982
 10
1890.0
 20
831.99999999996
  0
LWPOLYLINE
  5
27A
330
B
100
AcDbEntity
  8
LEVEL001
  6
Continuous
 62
     7
100
AcDbPolyline
 90
        4
 70
     0
 43
0.0
 10
1878.0
 20
842.0
 10
1860.0
 20
842.0
 10
1860.0
 20
832.0
 10
1878.0
 20
832.0
  0
LWPOLYLINE
  5
27B
330
B
100
AcDbEntity
  8
LEVEL001
  6
Continuous
 62
     7
100
AcDbPolyline
 90
        3
 70
     0
 43
0.0
 10
1536.0
 20
829.0
 10
1528.0
 20
829.0
 10
1528.0
 20
828.0
  0
LWPOLYLINE
  5
27C
330
B
100
AcDbEntity
  8
LEVEL001
  6
Continuous
 62
     7
100
AcDbPolyline
 90
        5
 70
     0
 43
0.0
 10
1528.0
 20
802.0
 10
1528.0
 20
262.0
 10
1908.0
 20
262.0
 10
1908.0
 20
829.0
 10
1890.0
 20
829.0
  0
LINE
  5
27D
330
B
100
AcDbEntity
  8
LEVEL001
  6
Continuous
 62
     7
100
AcDbLine
 10
1526.5
 20
724.5
 30
0.0
 11
1526.5
 21
802.0
 31
0.0
  0
LINE
  5
27E
330
B
100
AcDbEntity
  8
LEVEL001
  6
Continuous
 62
     7
100
AcDbLine
 10
1536.0
 20
832.0
 30
0.0
 11
1875.0
 21
832.0
 31
0.0
  0
LWPOLYLINE
  5
27F
330
B
100
AcDbEntity
  8
LEVEL001
  6
Continuous
 62
     7
100
AcDbPolyline
 90
        4
 70
     0
 43
0.0
 10
1536.0
 20
828.0
 10
1536.0
 20
845.0
 10
1875.0
 20
845.0
 10
1875.0
 20
842.0
  0
LWPOLYLINE
  5
280
330
B
100
AcDbEntity
  8
LEVEL001
  6
Continuous
 62
     7
100
AcDbPolyline
 90
        4
 70
     0
 43
0.0
 10
1875.0
 20
832.0
 10
1875.0
 20
830.0
 10
1538.0
 20
830.0
 10
1538.0
 20
828.0
  0
LWPOLYLINE
  5
281
330
B
100
AcDbEntity
  8
LEVEL001
  6
Continuous
 62
     7
100
AcDbPolyline
 90
        4
 70
     1
 43
0.0
 10
1507.0
 20
734.2
 10
1517.0
 20
734.2
 10
1517.0
 20
757.2
 10
1507.0
 20
757.2
  0
LWPOLYLINE
  5
282
330
B
100
AcDbEntity
  8
LEVEL001
  6
Continuous
 62
     7
100
AcDbPolyline
 90
        4
 70
     0
 43
0.0
 10
1507.0
 20
757.2
 10
1506.5
 20
753.7
 10
1506.5
 20
737.7
 10
1507.0
 20
734.2
  0
LWPOLYLINE
  5
283
330
B
100
AcDbEntity
  8
LEVEL001
  6
Continuous
 62
     7
100
AcDbPolyline
 90
        3
 70
     0
 43
0.0
 10
1508.5
 20
734.2
 10
1509.5
 20
729.45
 10
1519.5
 20
729.45
  0
LWPOLYLINE
  5
284
330
B
100
AcDbEntity
  8
LEVEL001
  6
Continuous
 62
     7
100
AcDbPolyline
 90
        4
 70
     0
 43
0.0
 10
1519.5
 20
758.7
 10
1518.5
 20
758.7
 10
1518.5
 20
732.7
 10
1519.5
 20
732.7
  0
LINE
  5
285
330
B
100
AcDbEntity
  8
LEVEL001
  6
Continuous
 62
     7
100
AcDbLine
 10
1517.0
 20
757.2
 30
0.0
 11
1518.5
 21
758.7
 31
0.0
  0
LINE
  5
286
330
B
100
AcDbEntity
  8
LEVEL001
  6
Continuous
 62
     7
100
AcDbLine
 10
1517.0
 20
734.2
 30
0.0
 11
1518.5
 21
732.7
 31
0.0
  0
LWPOLYLINE
  5
287
330
B
100
AcDbEntity
  8
LEVEL001
  6
Continuous
 62
     7
100
AcDbPolyline
 90
        3
 70
     0
 43
0.0
 10
1508.5
 20
757.2
 10
1509.5
 20
761.95
 10
1519.5
 20
761.95
  0
LWPOLYLINE
  5
288
330
B
100
AcDbEntity
  8
LEVEL001
  6
Continuous
 62
     7
100
AcDbPolyline
 90
        3
 70
     0
 43
0.0
 10
1522.5
 20
774.5
 10
1519.5
 20
774.5
 10
1519.5
 20
713.25
  0
LWPOLYLINE
  5
289
330
B
100
AcDbEntity
  8
LEVEL001
  6
Continuous
 62
     7
100
AcDbPolyline
 90
        4
 70
     0
 43
0.0
 10
1526.5
 20
724.5
 10
1526.5
 20
782.5
 10
1522.5
 20
782.5
 10
1522.5
 20
713.25
  0
TEXT
  5
28A
330
B
100
AcDbEntity
  8
LEVEL001
 62
     7
100
AcDbText
 10
1736.0
 20
112.0
 30
0.0
 40
16.0
  1
SN-12P 承認図
100
AcDbText
  0
TEXT
  5
28B
330
B
100
AcDbEntity
  8
LEVEL001
 62
     7
100
AcDbText
 10
2008.0
 20
112.0
 30
0.0
 40
16.0
  1
SN-12P
 41
0.5
100
AcDbText
  0
TEXT
  5
28C
330
B
100
AcDbEntity
  8
LEVEL001
 62
     7
100
AcDbText
 10
2023.0
 20
40.0
 30
0.0
 40
16.0
  1
14. 2.15
 41
0.5
100
AcDbText
  0
TEXT
  5
28D
330
B
100
AcDbEntity
  8
LEVEL001
 62
     7
100
AcDbText
 10
1941.0
 20
40.0
 30
0.0
 40
16.0
  1
(A2) 1/4
 41
0.5
100
AcDbText
  0
LWPOLYLINE
  5
28E
330
B
100
AcDbEntity
  8
LEVEL001
  6
HIDDEN
 62
     1
100
AcDbPolyline
 90
       25
 70
     1
 43
0.0
 10
915.4999999999999
 20
747.0
 10
915.4999999999999
 20
478.0
 10
912.5
 20
475.0
 10
793.5
 20
475.0
 10
790.5
 20
478.0
 10
790.5
 20
501.7149015407699
 10
793.5
 20
505.0
 10
892.50000000042
 20
505.0
 10
895.5000000004199
 20
508.28509845924
 10
895.4999999996399
 20
690.0
 10
889.9999999996399
 20
702.0
 10
867.9999999996399
 20
716.0
 10
820.0
 20
720.0
 10
783.0
 20
718.0
 10
759.0
 20
711.0
 10
744.0
 20
700.0
 10
739.0
 20
700.0
 10
735.5
 20
702.0
 10
735.5
 20
708.0
 10
741.0
 20
720.0
 10
751.0
 20
731.0
 10
767.0
 20
740.0
 10
785.0
 20
747.0
 10
815.0
 20
750.0
 10
912.5
 20
750.0
  0
LWPOLYLINE
  5
28F
330
B
100
AcDbEntity
  8
LEVEL001
  6
HIDDEN
 62
     1
100
AcDbPolyline
 90
       25
 70
     1
 43
0.0
 10
530.4999999999999
 20
453.0
 10
530.4999999999999
 20
722.0
 10
533.4999999999999
 20
725.0
 10
652.5
 20
725.0
 10
655.4999999999999
 20
722.0
 10
655.4999999999999
 20
698.28509845923
 10
652.5
 20
695.0
 10
553.49999999958
 20
695.0
 10
550.49999999958
 20
691.71490154076
 10
550.50000000036
 20
510.0
 10
556.00000000036
 20
498.0
 10
578.00000000036
 20
484.0
 10
626.0
 20
480.0
 10
663.0
 20
482.0
 10
687.0
 20
489.0
 10
702.0
 20
500.0
 10
707.0
 20
500.0
 10
710.5
 20
498.0
 10
710.5
 20
492.0
 10
705.0
 20
480.0
 10
695.0
 20
469.0
 10
679.0
 20
460.0
 10
661.0
 20
453.0
 10
631.0
 20
450.0
 10
533.4999999999999
 20
450.0
  0
DIMENSION
  5
290
330
B
100
AcDbEntity
  8
LEVEL001
  6
Continuous
 62
     1
100
AcDbDimension
  2
*D0
 10
920.5
 20
375.0
 30
0.0
 11
723.0
 21
375.0
 31
0.0
 71
     5
 42
-1.0
  3
GMM001
100
AcDbAlignedDimension
 13
525.4999999999999
 23
440.0
 33
0.0
 14
920.5
 24
440.0
 34
0.0
100
AcDbRotatedDimension
  0
DIMENSION
  5
291
330
B
100
AcDbEntity
  8
LEVEL001
  6
Continuous
 62
     1
100
AcDbDimension
  2
*D1
 10
1238.0
 20
849.0
 30
0.0
 11
1238.0
 21
519.0
 31
0.0
 71
     5
 42
-1.0
  3
GMM001
100
AcDbAlignedDimension
 13
954.0
 23
189.0
 33
0.0
 14
954.4999999999999
 24
849.0
 34
0.0
 50
90.0
100
AcDbRotatedDimension
  0
DIMENSION
  5
292
330
B
100
AcDbEntity
  8
LEVEL001
  6
Continuous
 62
     1
100
AcDbDimension
  2
*D2
 10
1119.0
 20
936.0
 30
0.0
 11
713.4999999999999
 21
936.0
 31
0.0
 71
     5
 42
-1.0
  3
GMM001
100
AcDbAlignedDimension
 13
308.0
 23
829.0
 33
0.0
 14
1119.0
 24
747.0
 34
0.0
100
AcDbRotatedDimension
  0
DIMENSION
  5
293
330
B
100
AcDbEntity
  8
LEVEL001
  6
Continuous
 62
     1
100
AcDbDimension
  2
*D3
 10
1463.0
 20
936.0
 30
0.0
 11
1685.5
 21
936.0
 31
0.0
 71
     5
 42
-1.0
  3
GMM001
100
AcDbAlignedDimension
 13
1908.0
 23
829.0
 33
0.0
 14
1463.0
 24
555.0
 34
0.0
 50
180.0
100
AcDbRotatedDimension
  0
DIMENSION
  5
294
330
B
100
AcDbEntity
  8
LEVEL001
  6
Continuous
 62
     1
100
AcDbDimension
  2
*D4
 10
423.0
 20
106.0
 30
0.0
 11
365.5
 21
106.0
 31
0.0
 71
     5
 42
-1.0
  3
GMM002
100
AcDbAlignedDimension
 13
308.0
 23
262.0
 33
0.0
 14
423.0
 24
254.0
 34
0.0
100
AcDbRotatedDimension
  0
DIMENSION
  5
295
330
B
100
AcDbEntity
  8
LEVEL001
  6
Continuous
 62
     1
100
AcDbDimension
  2
*D5
 10
1023.0
 20
106.0
 30
0.0
 11
723.0
 21
106.0
 31
0.0
 71
     5
 42
-1.0
  3
GMM002
100
AcDbAlignedDimension
 13
423.0
 23
254.0
 33
0.0
 14
1023.0
 24
225.0
 34
0.0
100
AcDbRotatedDimension
  0
DIMENSION
  5
296
330
B
100
AcDbEntity
  8
LEVEL001
  6
Continuous
 62
     1
100
AcDbDimension
  2
*D6
 10
1119.0
 20
106.0
 30
0.0
 11
1071.0
 21
106.0
 31
0.0
 71
     5
 42
-1.0
  3
GMM001
100
AcDbAlignedDimension
 13
1023.0
 23
225.0
 33
0.0
 14
1119.0
 24
262.0
 34
0.0
100
AcDbRotatedDimension
  0
DIMENSION
  5
297
330
B
100
AcDbEntity
  8
LEVEL001
  6
Continuous
 62
     1
100
AcDbDimension
  2
*D7
 10
1708.0
 20
600.0
 30
0.0
 11
1624.1663560112
 21
546.2604846225501
 31
0.0
 70
   132
 71
     5
 42
-1.0
  3
GMM003
100
AcDbRadialDimension
 15
1573.2993377658
 25
513.65342164473
 35
0.0
 40
0.0
  0
TEXT
  5
298
330
B
100
AcDbEntity
  8
LEVEL001
 62
     1
100
AcDbText
 10
1499.1
 20
1098.0
 30
0.0
 40
16.0
  1
安全カバ－
100
AcDbText
  0
TEXT
  5
299
330
B
100
AcDbEntity
  8
LEVEL001
 62
     1
100
AcDbText
 10
1499.1
 20
1290.0
 30
0.0
 40
16.0
  1
寸法（Ｗ×Ｄ×Ｈ）
100
AcDbText
  0
TEXT
  5
29A
330
B
100
AcDbEntity
  8
LEVEL001
 62
     1
100
AcDbText
 10
1470.1
 20
1153.0
 30
0.0
 40
16.0
  1
材
100
AcDbText
  0
TEXT
  5
29B
330
B
100
AcDbEntity
  8
LEVEL001
 62
     1
100
AcDbText
 10
1470.1
 20
1110.3333333333
 30
0.0
 40
16.0
  1
質
100
AcDbText
  0
TEXT
  5
29C
330
B
100
AcDbEntity
  8
LEVEL001
 62
     1
100
AcDbText
 10
1499.1
 20
1194.0
 30
0.0
 40
16.0
  1
消  費  電  力
100
AcDbText
  0
TEXT
  5
29D
330
B
100
AcDbEntity
  8
LEVEL001
 62
     1
100
AcDbText
 10
1499.1
 20
1226.0
 30
0.0
 40
16.0
  1
電          源
100
AcDbText
  0
TEXT
  5
29E
330
B
100
AcDbEntity
  8
LEVEL001
 62
     1
100
AcDbText
 10
1499.1
 20
1258.0
 30
0.0
 40
16.0
  1
能          力
100
AcDbText
  0
TEXT
  5
29F
330
B
100
AcDbEntity
  8
LEVEL001
 62
     1
100
AcDbText
 10
1499.1
 20
1322.0
 30
0.0
 40
16.0
  1
型          式
100
AcDbText
  0
TEXT
  5
2A0
330
B
100
AcDbEntity
  8
LEVEL001
 62
     1
100
AcDbText
 10
1499.1
 20
1354.0
 30
0.0
 40
16.0
  1
製　  品  　名
100
AcDbText
  0
TEXT
  5
2A1
330
B
100
AcDbEntity
  8
LEVEL001
 62
     1
100
AcDbText
 10
1499.1
 20
1034.0
 30
0.0
 40
16.0
  1
電源プラグ
100
AcDbText
  0
TEXT
  5
2A2
330
B
100
AcDbEntity
  8
LEVEL001
 62
     1
100
AcDbText
 10
1499.1
 20
1002.0
 30
0.0
 40
16.0
  1
製品重量
100
AcDbText
  0
TEXT
  5
2A3
330
B
100
AcDbEntity
  8
LEVEL001
 62
     1
100
AcDbText
 10
1675.1
 20
1034.0
 30
0.0
 40
16.0
  1
２Ｐ１５Ａ（３相２００Ｖ仕様は４Ｐ２０Ａ）
100
AcDbText
  0
TEXT
  5
2A4
330
B
100
AcDbEntity
  8
LEVEL001
 62
     1
100
AcDbText
 10
1499.1
 20
1066.0
 30
0.0
 40
16.0
  1
コ－ド長さ
100
AcDbText
  0
TEXT
  5
2A5
330
B
100
AcDbEntity
  8
LEVEL001
 62
     1
100
AcDbText
 10
1675.1
 20
1066.0
 30
0.0
 40
16.0
  1
３．０ｍ
100
AcDbText
  0
TEXT
  5
2A6
330
B
100
AcDbEntity
  8
LEVEL001
 62
     1
100
AcDbText
 10
1675.1
 20
1354.0
 30
0.0
 40
16.0
  1
手打麺専用ネリ機
100
AcDbText
  0
TEXT
  5
2A7
330
B
100
AcDbEntity
  8
LEVEL001
 62
     1
100
AcDbText
 10
1675.1
 20
1226.0
 30
0.0
 40
16.0
  1
単相１００Ｖ　５０／６０Ｈｚ（３相２００Ｖは受注生産）
100
AcDbText
  0
TEXT
  5
2A8
330
B
100
AcDbEntity
  8
LEVEL001
 62
     1
100
AcDbText
 10
1499.1
 20
1162.0
 30
0.0
 40
16.0
  1
ドラム
100
AcDbText
  0
TEXT
  5
2A9
330
B
100
AcDbEntity
  8
LEVEL001
 62
     1
100
AcDbText
 10
1499.1
 20
1130.0
 30
0.0
 40
16.0
  1
羽根
100
AcDbText
  0
TEXT
  5
2AA
330
B
100
AcDbEntity
  8
LEVEL001
 62
     1
100
AcDbText
 10
1675.1
 20
1162.0
 30
0.0
 40
16.0
  1
ＳＵＳ３０４
100
AcDbText
  0
TEXT
  5
2AB
330
B
100
AcDbEntity
  8
LEVEL001
 62
     1
100
AcDbText
 10
1675.1
 20
1098.0
 30
0.0
 40
16.0
  1
ＳＵＳ３０４
100
AcDbText
  0
TEXT
  5
2AC
330
B
100
AcDbEntity
  8
LEVEL001
 62
     1
100
AcDbText
 10
1675.1
 20
1130.0
 30
0.0
 40
16.0
  1
アルミニウム
100
AcDbText
  0
TEXT
  5
2AD
330
B
100
AcDbEntity
  8
LEVEL001
 62
     1
100
AcDbText
 10
1675.1
 20
1290.0
 30
0.0
 40
16.0
  1
８１１×４４５×６６０
100
AcDbText
  0
TEXT
  5
2AE
330
B
100
AcDbEntity
  8
LEVEL001
 62
     1
100
AcDbText
 10
1675.1
 20
1258.0
 30
0.0
 40
16.0
  1
６ｋｇ～１２ｋｇ／回
100
AcDbText
  0
TEXT
  5
2AF
330
B
100
AcDbEntity
  8
LEVEL001
 62
     1
100
AcDbText
 10
1675.1
 20
1194.0
 30
0.0
 40
16.0
  1
２００Ｗ
100
AcDbText
  0
TEXT
  5
2B0
330
B
100
AcDbEntity
  8
LEVEL001
 62
     1
100
AcDbText
 10
1675.1
 20
1002.0
 30
0.0
 40
16.0
  1
１６０ｋｇ
100
AcDbText
  0
TEXT
  5
2B1
330
B
100
AcDbEntity
  8
LEVEL001
 62
     1
100
AcDbText
 10
1675.1
 20
1322.0
 30
0.0
 40
16.0
  1
ス－パ－ニ－ダ－　ＳＮ－１２Ｐ型
100
AcDbText
  0
ENDSEC
  0
SECTION
  2
OBJECTS
  0
DICTIONARY
  5
52
330
0
100
AcDbDictionary
281
     1
  3
ACAD_COLOR
350
2B7
  3
ACAD_GROUP
350
53
  3
ACAD_LAYOUT
350
2BA
  3
ACAD_MATERIAL
350
2B6
  3
ACAD_MLINESTYLE
350
54
  3
ACAD_PLOTSETTINGS
350
2BB
  3
ACAD_PLOTSTYLENAME
350
2B4
  3
ACAD_TABLESTYLE
350
2B8
  3
ACDBHEADERROUNDTRIPXREC
350
2C6
  3
AcDbVariableDictionary
350
2C1
  0
DICTIONARY
  5
2B7
102
{ACAD_REACTORS
330
52
102
}
330
52
100
AcDbDictionary
281
     1
  0
DICTIONARY
  5
53
102
{ACAD_REACTORS
330
52
102
}
330
0
100
AcDbDictionary
281
     1
  0
DICTIONARY
  5
2BA
102
{ACAD_REACTORS
330
52
102
}
330
52
100
AcDbDictionary
281
     1
  3
Model
350
2BC
  3
レイアウト1
350
2BD
  0
DICTIONARY
  5
2B6
102
{ACAD_REACTORS
330
52
102
}
330
52
100
AcDbDictionary
281
     1
  0
DICTIONARY
  5
54
102
{ACAD_REACTORS
330
52
102
}
330
0
100
AcDbDictionary
281
     1
  3
STANDARD
350
55
  0
DICTIONARY
  5
2BB
102
{ACAD_REACTORS
330
52
102
}
330
52
100
AcDbDictionary
281
     1
  0
ACDBDICTIONARYWDFLT
  5
2B4
102
{ACAD_REACTORS
330
52
102
}
330
52
100
AcDbDictionary
281
     1
  3
Normal
350
2B5
100
AcDbDictionaryWithDefault
340
2B5
  0
DICTIONARY
  5
2B8
102
{ACAD_REACTORS
330
52
102
}
330
52
100
AcDbDictionary
281
     1
  3
Standard
350
2B9
  0
DICTIONARY
  5
2C6
102
{ACAD_REACTORS
330
52
102
}
330
52
100
AcDbDictionary
281
     1
  0
DICTIONARY
  5
2C1
102
{ACAD_REACTORS
330
52
102
}
330
52
100
AcDbDictionary
281
     1
  3
CTABLESTYLE
350
2C2
  3
DIMASSOC
350
2C3
  3
PROJECTNAME
350
2C4
  0
LAYOUT
  5
2BC
102
{ACAD_XDICTIONARY
360
2C7
102
}
102
{ACAD_REACTORS
330
2BA
102
}
330
2BA
100
AcDbPlotSettings
  1

  2
Microsoft XPS Document Writer
  4

  6

 40
0.0
 41
0.0
 42
0.0
 43
0.0
 44
0.0
 45
0.0
 46
0.0
 47
0.0
 48
0.0
 49
0.0
140
0.0
141
0.0
142
1.0
143
1.0
 70
  1712
 72
     0
 73
     0
 74
     0
  7

 75
     0
147
1.0
148
0.0
149
0.0
100
AcDbLayout
  1
Model
 70
     1
 71
     0
 10
0.0
 20
0.0
 11
12.0
 21
9.0
 12
0.0
 22
0.0
 32
0.0
 14
0.0
 24
0.0
 34
0.0
 15
0.0
 25
0.0
 35
0.0
146
0.0
 13
0.0
 23
0.0
 33
0.0
 16
1.0
 26
0.0
 36
0.0
 17
0.0
 27
1.0
 37
0.0
 76
     0
330
B
  0
LAYOUT
  5
2BD
102
{ACAD_XDICTIONARY
360
2C9
102
}
102
{ACAD_REACTORS
330
2BA
102
}
330
2BA
100
AcDbPlotSettings
  1

  2
Microsoft XPS Document Writer
  4

  6

 40
0.0
 41
0.0
 42
0.0
 43
0.0
 44
0.0
 45
0.0
 46
0.0
 47
0.0
 48
0.0
 49
0.0
140
0.0
141
0.0
142
1.0
143
1.0
 70
   688
 72
     0
 73
     0
 74
     5
  7

 75
    16
147
1.0
148
0.0
149
0.0
100
AcDbLayout
  1
レイアウト1
 70
     1
 71
     1
 10
0.0
 20
0.0
 11
12.0
 21
9.0
 12
0.0
 22
0.0
 32
0.0
 14
1.000000000000000E+20
 24
1.000000000000000E+20
 34
1.000000000000000E+20
 15
-1.000000000000000E+20
 25
-1.000000000000000E+20
 35
-1.000000000000000E+20
146
0.0
 13
0.0
 23
0.0
 33
0.0
 16
1.0
 26
0.0
 36
0.0
 17
0.0
 27
1.0
 37
0.0
 76
     0
330
C
  0
MLINESTYLE
  5
55
102
{ACAD_REACTORS
330
54
102
}
330
0
100
AcDbMlineStyle
  2
STANDARD
 70
     0
  3

 62
   256
 51
90.0
 52
90.0
 71
     2
 49
0.5
 62
   256
  6
BYLAYER
 49
-0.5
 62
   256
  6
BYLAYER
  0
ACDBPLACEHOLDER
  5
2B5
102
{ACAD_REACTORS
330
2B4
102
}
330
2B4
  0
TABLESTYLE
  5
2B9
102
{ACAD_REACTORS
330
2B8
102
}
330
2B8
100
AcDbTableStyle
  3
Standard
 70
     0
 71
     0
 40
0.06
 41
0.06
280
     0
281
     0
  7
STANDARD
140
0.18
170
     2
 62
     0
 63
     7
283
     0
274
    -2
284
     1
 64
     0
275
    -2
285
     1
 65
     0
276
    -2
286
     1
 66
     0
277
    -2
287
     1
 67
     0
278
    -2
288
     1
 68
     0
279
    -2
289
     1
 69
     0
  7
STANDARD
140
0.25
170
     5
 62
     0
 63
     7
283
     0
274
    -2
284
     1
 64
     0
275
    -2
285
     1
 65
     0
276
    -2
286
     1
 66
     0
277
    -2
287
     1
 67
     0
278
    -2
288
     1
 68
     0
279
    -2
289
     1
 69
     0
  7
STANDARD
140
0.18
170
     5
 62
     0
 63
     7
283
     0
274
    -2
284
     1
 64
     0
275
    -2
285
     1
 65
     0
276
    -2
286
     1
 66
     0
277
    -2
287
     1
 67
     0
278
    -2
288
     1
 68
     0
279
    -2
289
     1
 69
     0
  0
DICTIONARYVAR
  5
2C2
102
{ACAD_REACTORS
330
2C1
102
}
330
2C1
100
DictionaryVariables
280
     0
  1
STANDARD
  0
DICTIONARYVAR
  5
2C3
102
{ACAD_REACTORS
330
2C1
102
}
330
2C1
100
DictionaryVariables
280
     0
  1
1
  0
DICTIONARYVAR
  5
2C4
102
{ACAD_REACTORS
330
2C1
102
}
330
2C1
100
DictionaryVariables
280
     0
  1

  0
DICTIONARY
  5
2C7
330
2BC
100
AcDbDictionary
280
     1
281
     1
  3
ACAD_XREC_ROUNDTRIP
360
2C8
  0
DICTIONARY
  5
2C9
330
2BD
100
AcDbDictionary
280
     1
281
     1
  3
ACAD_XREC_ROUNDTRIP
360
2CA
  0
XRECORD
  5
2C8
102
{ACAD_REACTORS
330
2C7
102
}
330
2C7
100
AcDbXrecord
280
     1
102
SHADEPLOT
 70
     0
102
SHADEPLOTRESLEVEL
 70
     2
102
SHADEPLOTCUSTOMDPI
 70
   300
  0
XRECORD
  5
2CA
102
{ACAD_REACTORS
330
2C9
102
}
330
2C9
100
AcDbXrecord
280
     1
102
SHADEPLOT
 70
     0
102
SHADEPLOTRESLEVEL
 70
     2
102
SHADEPLOTCUSTOMDPI
 70
   300
  0
ENDSEC
  0
EOF
