   0
SECTION
   2
HEADER
   9
$ACADVER
   1
AC1014
   9
$LIMMIN
  10
0.0
  20
0.0
   9
$LIMMAX
  10
 3564.0000000000
  20
 2520.0000000000
   9
$EXTMIN
  10
0.0
  20
0.0
  30
0.0
   9
$EXTMAX
  10
 3564.0000000000
  20
 2520.0000000000
  30
0.0
   9
$LTSCALE
  40
 71.280000000000
   9
$HANDSEED
   5
4FA
   0
ENDSEC
   0
SECTION
   2
TABLES
  0
TABLE
  2
VPORT
  5
8
100
AcDbSymbolTable
 70
     1
  0
VPORT
  5
4F9
100
AcDbSymbolTableRecord
100
AcDbViewportTableRecord
  2
*ACTIVE
 70
     0
 10
0.0
 20
0.0
 11
1.0
 21
1.0
  12
 1782.0000000000
  22
 1260.0000000000
 13
0.0
 23
0.0
 14
1.0
 24
1.0
 15
0.0
 25
0.0
 16
0.0
 26
0.0
 36
1.0
 17
0.0
 27
0.0
 37
0.0
  40
 3564.0000000000
  41
 1.4787878787879
 42
50.0
 43
0.0
 44
0.0
 50
0.0
 51
0.0
 71
     0
 72
   100
 73
     1
 74
     1
 75
     0
 76
     0
 77
     0
 78
     0
  0
ENDTAB
  0
TABLE
  2
LTYPE
  5
5
100
AcDbSymbolTable
 70
    25
  0
LTYPE
  5
12
100
AcDbSymbolTableRecord
100
AcDbLinetypeTableRecord
  2
BYBLOCK
 70
     0
  3

 72
    65
 73
     0
 40
0.0
  0
LTYPE
  5
13
100
AcDbSymbolTableRecord
100
AcDbLinetypeTableRecord
  2
BYLAYER
 70
     0
  3

 72
    65
 73
     0
 40
0.0
  0
LTYPE
  5
14
100
AcDbSymbolTableRecord
100
AcDbLinetypeTableRecord
  2
CONTINUOUS
 70
     0
  3
Solid line
 72
    65
 73
     0
 40
0.0
  0
LTYPE
  5
20
100
AcDbSymbolTableRecord
100
AcDbLinetypeTableRecord
  2
BORDER
 70
     0
  3
__ __ . __ __ . __ __ . __ __ . __ __ . __ __ .
 72
    65
 73
     6
 40
1.75
 49
0.5
 74
     0
 49
-0.25
 74
     0
 49
0.5
 74
     0
 49
-0.25
 74
     0
 49
0.0
 74
     0
 49
-0.25
 74
     0
  0
LTYPE
  5
21
100
AcDbSymbolTableRecord
100
AcDbLinetypeTableRecord
  2
BORDER2
 70
     0
  3
__.__.__.__.__.__.__.__.__.__.__.__.__.__.__.__
 72
    65
 73
     6
 40
0.875
 49
0.25
 74
     0
 49
-0.125
 74
     0
 49
0.25
 74
     0
 49
-0.125
 74
     0
 49
0.0
 74
     0
 49
-0.125
 74
     0
  0
LTYPE
  5
22
100
AcDbSymbolTableRecord
100
AcDbLinetypeTableRecord
  2
BORDERX2
 70
     0
  3
____  ____  .  ____  ____  .  ____  ____  .  __
 72
    65
 73
     6
 40
3.5
 49
1.0
 74
     0
 49
-0.5
 74
     0
 49
1.0
 74
     0
 49
-0.5
 74
     0
 49
0.0
 74
     0
 49
-0.5
 74
     0
  0
LTYPE
  5
23
100
AcDbSymbolTableRecord
100
AcDbLinetypeTableRecord
  2
CENTER
 70
     0
  3
____ _ ____ _ ____ _ ____ _ ____ _ ____ _ ____ 
 72
    65
 73
     4
 40
2.0
 49
1.25
 74
     0
 49
-0.25
 74
     0
 49
0.25
 74
     0
 49
-0.25
 74
     0
  0
LTYPE
  5
24
100
AcDbSymbolTableRecord
100
AcDbLinetypeTableRecord
  2
CENTER2
 70
     0
  3
___ _ ___ _ ___ _ ___ _ ___ _ ___ _ ___ _ ___ _
 72
    65
 73
     4
 40
1.125
 49
0.75
 74
     0
 49
-0.125
 74
     0
 49
0.125
 74
     0
 49
-0.125
 74
     0
  0
LTYPE
  5
25
100
AcDbSymbolTableRecord
100
AcDbLinetypeTableRecord
  2
CENTERX2
 70
     0
  3
________  __  ________  __  ________  __  _____
 72
    65
 73
     4
 40
4.0
 49
2.5
 74
     0
 49
-0.5
 74
     0
 49
0.5
 74
     0
 49
-0.5
 74
     0
  0
LTYPE
  5
26
100
AcDbSymbolTableRecord
100
AcDbLinetypeTableRecord
  2
DASHDOT
 70
     0
  3
__ . __ . __ . __ . __ . __ . __ . __ . __ . __
 72
    65
 73
     4
 40
1.0
 49
0.5
 74
     0
 49
-0.25
 74
     0
 49
0.0
 74
     0
 49
-0.25
 74
     0
  0
LTYPE
  5
27
100
AcDbSymbolTableRecord
100
AcDbLinetypeTableRecord
  2
DASHDOT2
 70
     0
  3
_._._._._._._._._._._._._._._._._._._._._._._._
 72
    65
 73
     4
 40
0.5
 49
0.25
 74
     0
 49
-0.125
 74
     0
 49
0.0
 74
     0
 49
-0.125
 74
     0
  0
LTYPE
  5
28
100
AcDbSymbolTableRecord
100
AcDbLinetypeTableRecord
  2
DASHDOTX2
 70
     0
  3
____  .  ____  .  ____  .  ____  .  ____  .  __
 72
    65
 73
     4
 40
2.0
 49
1.0
 74
     0
 49
-0.5
 74
     0
 49
0.0
 74
     0
 49
-0.5
 74
     0
  0
LTYPE
  5
29
100
AcDbSymbolTableRecord
100
AcDbLinetypeTableRecord
  2
DASHED
 70
     0
  3
__ __ __ __ __ __ __ __ __ __ __ __ __ __ __ __
 72
    65
 73
     2
 40
0.75
 49
0.5
 74
     0
 49
-0.25
 74
     0
  0
LTYPE
  5
2A
100
AcDbSymbolTableRecord
100
AcDbLinetypeTableRecord
  2
DASHED2
 70
     0
  3
_ _ _ _ _ _ _ _ _ _ _ _ _ _ _ _ _ _ _ _ _ _ _ _
 72
    65
 73
     2
 40
0.375
 49
0.25
 74
     0
 49
-0.125
 74
     0
  0
LTYPE
  5
2B
100
AcDbSymbolTableRecord
100
AcDbLinetypeTableRecord
  2
DASHEDX2
 70
     0
  3
____  ____  ____  ____  ____  ____  ____  ____ 
 72
    65
 73
     2
 40
1.5
 49
1.0
 74
     0
 49
-0.5
 74
     0
  0
LTYPE
  5
2C
100
AcDbSymbolTableRecord
100
AcDbLinetypeTableRecord
  2
DIVIDE
 70
     0
  3
____ . . ____ . . ____ . . ____ . . ____ . . __
 72
    65
 73
     6
 40
1.25
 49
0.5
 74
     0
 49
-0.25
 74
     0
 49
0.0
 74
     0
 49
-0.25
 74
     0
 49
0.0
 74
     0
 49
-0.25
 74
     0
  0
LTYPE
  5
2D
100
AcDbSymbolTableRecord
100
AcDbLinetypeTableRecord
  2
DIVIDE2
 70
     0
  3
__..__..__..__..__..__..__..__..__..__..__..__.
 72
    65
 73
     6
 40
0.625
 49
0.25
 74
     0
 49
-0.125
 74
     0
 49
0.0
 74
     0
 49
-0.125
 74
     0
 49
0.0
 74
     0
 49
-0.125
 74
     0
  0
LTYPE
  5
2E
100
AcDbSymbolTableRecord
100
AcDbLinetypeTableRecord
  2
DIVIDEX2
 70
     0
  3
________  .  .  ________  .  .  ________  .  . 
 72
    65
 73
     6
 40
2.5
 49
1.0
 74
     0
 49
-0.5
 74
     0
 49
0.0
 74
     0
 49
-0.5
 74
     0
 49
0.0
 74
     0
 49
-0.5
 74
     0
  0
LTYPE
  5
2F
100
AcDbSymbolTableRecord
100
AcDbLinetypeTableRecord
  2
DOT
 70
     0
  3
. . . . . . . . . . . . . . . . . . . . . . . .
 72
    65
 73
     2
 40
0.25
 49
0.0
 74
     0
 49
-0.25
 74
     0
  0
LTYPE
  5
30
100
AcDbSymbolTableRecord
100
AcDbLinetypeTableRecord
  2
DOT2
 70
     0
  3
...............................................
 72
    65
 73
     2
 40
0.125
 49
0.0
 74
     0
 49
-0.125
 74
     0
  0
LTYPE
  5
31
100
AcDbSymbolTableRecord
100
AcDbLinetypeTableRecord
  2
DOTX2
 70
     0
  3
.  .  .  .  .  .  .  .  .  .  .  .  .  .  .  . 
 72
    65
 73
     2
 40
0.5
 49
0.0
 74
     0
 49
-0.5
 74
     0
  0
LTYPE
  5
32
100
AcDbSymbolTableRecord
100
AcDbLinetypeTableRecord
  2
HIDDEN
 70
     0
  3
__ __ __ __ __ __ __ __ __ __ __ __ __ __ __ __
 72
    65
 73
     2
 40
0.375
 49
0.25
 74
     0
 49
-0.125
 74
     0
  0
LTYPE
  5
33
100
AcDbSymbolTableRecord
100
AcDbLinetypeTableRecord
  2
HIDDEN2
 70
     0
  3
_ _ _ _ _ _ _ _ _ _ _ _ _ _ _ _ _ _ _ _ _ _ _ _
 72
    65
 73
     2
 40
0.1875
 49
0.125
 74
     0
 49
-0.0625
 74
     0
  0
LTYPE
  5
34
100
AcDbSymbolTableRecord
100
AcDbLinetypeTableRecord
  2
HIDDENX2
 70
     0
  3
____ ____ ____ ____ ____ ____ ____ ____ ____ __
 72
    65
 73
     2
 40
0.75
 49
0.5
 74
     0
 49
-0.25
 74
     0
  0
LTYPE
  5
35
100
AcDbSymbolTableRecord
100
AcDbLinetypeTableRecord
  2
PHANTOM
 70
     0
  3
______  __  __  ______  __  __  ______  __  __ 
 72
    65
 73
     6
 40
2.5
 49
1.25
 74
     0
 49
-0.25
 74
     0
 49
0.25
 74
     0
 49
-0.25
 74
     0
 49
0.25
 74
     0
 49
-0.25
 74
     0
  0
LTYPE
  5
36
100
AcDbSymbolTableRecord
100
AcDbLinetypeTableRecord
  2
PHANTOM2
 70
     0
  3
___ _ _ ___ _ _ ___ _ _ ___ _ _ ___ _ _ ___ _ _
 72
    65
 73
     6
 40
1.25
 49
0.625
 74
     0
 49
-0.125
 74
     0
 49
0.125
 74
     0
 49
-0.125
 74
     0
 49
0.125
 74
     0
 49
-0.125
 74
     0
  0
LTYPE
  5
37
100
AcDbSymbolTableRecord
100
AcDbLinetypeTableRecord
  2
PHANTOMX2
 70
     0
  3
____________    ____    ____    ____________   
 72
    65
 73
     6
 40
5.0
 49
2.5
 74
     0
 49
-0.5
 74
     0
 49
0.5
 74
     0
 49
-0.5
 74
     0
 49
0.5
 74
     0
 49
-0.5
 74
     0
  0
ENDTAB
   0
TABLE
   2
LAYER
   5
2
 100
AcDbSymbolTable
  70
5
   0
LAYER
   5
E
 100
AcDbSymbolTableRecord
 100
AcDbLayerTableRecord
   2
0
  70
0
  62
7
   6
CONTINUOUS
   0
LAYER
   5
39
 100
AcDbSymbolTableRecord
 100
AcDbLayerTableRecord
   2
LEVEL001
  70
0
  62
7
   6
CONTINUOUS
   0
LAYER
   5
3A
 100
AcDbSymbolTableRecord
 100
AcDbLayerTableRecord
   2
内図枠(作図領域)
  70
0
  62
7
   6
CONTINUOUS
   0
LAYER
   5
3B
 100
AcDbSymbolTableRecord
 100
AcDbLayerTableRecord
   2
外図枠(出力紙領域)
  70
0
  62
7
   6
CONTINUOUS
   0
LAYER
   5
3C
 100
AcDbSymbolTableRecord
 100
AcDbLayerTableRecord
   2
部品表金額表示用
  70
0
  62
7
   6
CONTINUOUS
   0
ENDTAB
  0
TABLE
  2
STYLE
  5
3
100
AcDbSymbolTable
  70
3
  0
STYLE
  5
F
100
AcDbSymbolTableRecord
100
AcDbTextStyleTableRecord
  2
STANDARD
 70
     0
 40
0.0
 41
1.0
 50
0.0
 71
     0
 42
0.2
  3
TXT
  4
BIGFONT
  0
STYLE
  5
38
100
AcDbSymbolTableRecord
100
AcDbTextStyleTableRecord
  2
STANDARD1
 70
     4
 40
0.0
 41
1.0
 50
0.0
 71
     0
 42
0.2
  3
TXT
  4
BIGFONT
   0
STYLE
   5
3D
 100
AcDbSymbolTableRecord
 100
AcDbTextStyleTableRecord
   2
GMM001
  70
0
  40
0.0
  41
 1.0000000000000
  50
0.0
  71
     0
  42
1.0
   3
txt.shx
   4
bigfont.shx
   0
ENDTAB
  0
TABLE
  2
VIEW
  5
6
100
AcDbSymbolTable
 70
     0
  0
ENDTAB
  0
TABLE
  2
UCS
  5
7
100
AcDbSymbolTable
 70
     0
  0
ENDTAB
  0
TABLE
  2
APPID
  5
9
100
AcDbSymbolTable
 70
     1
  0
APPID
  5
10
100
AcDbSymbolTableRecord
100
AcDbRegAppTableRecord
  2
ACAD
 70
     0
  0
ENDTAB
   0
TABLE
   2
DIMSTYLE
   5
A
 100
AcDbSymbolTable
  70
6
  0
DIMSTYLE
105
1D
100
AcDbSymbolTableRecord
100
AcDbDimStyleTableRecord
  2
STANDARD
 70
     0
  3

  4

  5

  6

  7

 40
1.0
 41
0.18
 42
0.0625
 43
0.38
 44
0.18
 45
0.0
 46
0.0
 47
0.0
 48
0.0
140
0.18
141
0.09
142
0.0
143
25.4
144
1.0
145
0.0
146
1.0
147
0.09
 71
     0
 72
     0
 73
     1
 74
     1
 75
     0
 76
     0
 77
     0
 78
     0
170
     0
171
     2
172
     0
173
     0
174
     0
175
     0
176
     0
177
     0
178
     0
270
     2
271
     4
272
     4
273
     2
274
     2
340
F
275
     0
280
     0
281
     0
282
     0
283
     1
284
     0
285
     0
286
     0
287
     3
288
     0
   0
DIMSTYLE
 105
3E
 100
AcDbSymbolTableRecord
 100
AcDbDimStyleTableRecord
   2
GMM001
  70
0
   3

   4

   5

   6
_OPEN30
   7
_OPEN30
  40
 1.0000000000000
  41
 18.000000000000
  42
0.0
  43
 48.000000000000
  44
 12.000000000000
  45
0.0
  46
0.0
  47
0.0
  48
0.0
 140
 24.000000000000
 141
 6.0000000000000
 142
0.0
 143
 0.39400000000000E-1
 144
 1.0000000000000
 145
0.0
 146
 0.62500000000000
 147
 6.0000000000000
  71
0
  72
0
  73
0
  74
0
  75
0
  76
0
  77
3
  78
8
 170
0
 171
2
 172
1
 173
1
 174
0
 175
0
 176
1
 177
1
 178
7
 270
2
 271
6
 272
0
 273
2
 274
2
 340
3D
 275
0
 280
0
 281
0
 282
0
 283
1
 284
0
 285
0
 286
0
 287
5
 288
1
   0
DIMSTYLE
 105
3F
 100
AcDbSymbolTableRecord
 100
AcDbDimStyleTableRecord
   2
GMM002
  70
0
   3
%%c<>
   4

   5

   6
_OPEN30
   7
_OPEN30
  40
 1.0000000000000
  41
 18.000000000000
  42
0.0
  43
 48.000000000000
  44
 12.000000000000
  45
0.0
  46
0.0
  47
0.0
  48
0.0
 140
 24.000000000000
 141
 6.0000000000000
 142
0.0
 143
 0.39400000000000E-1
 144
 1.0000000000000
 145
0.0
 146
 0.62500000000000
 147
 23.325789436377
  71
0
  72
0
  73
0
  74
0
  75
0
  76
0
  77
3
  78
8
 170
0
 171
2
 172
1
 173
1
 174
0
 175
0
 176
1
 177
1
 178
7
 270
2
 271
6
 272
0
 273
2
 274
2
 340
3D
 275
0
 280
0
 281
0
 282
0
 283
1
 284
0
 285
0
 286
0
 287
0
 288
1
   0
DIMSTYLE
 105
40
 100
AcDbSymbolTableRecord
 100
AcDbDimStyleTableRecord
   2
GMM003
  70
0
   3

   4

   5

   6
_OPEN30
   7
_OPEN30
  40
 1.0000000000000
  41
 18.000000000000
  42
0.0
  43
 48.000000000000
  44
 12.000000000000
  45
0.0
  46
0.0
  47
0.0
  48
0.0
 140
 24.000000000000
 141
 6.0000000000000
 142
0.0
 143
 0.39400000000000E-1
 144
 1.0000000000000
 145
0.0
 146
 0.62500000000000
 147
 10.285714285714
  71
0
  72
0
  73
0
  74
0
  75
0
  76
0
  77
3
  78
8
 170
0
 171
2
 172
1
 173
1
 174
0
 175
0
 176
1
 177
1
 178
7
 270
2
 271
6
 272
0
 273
2
 274
2
 340
3D
 275
0
 280
0
 281
0
 282
0
 283
1
 284
0
 285
0
 286
0
 287
5
 288
1
   0
DIMSTYLE
 105
41
 100
AcDbSymbolTableRecord
 100
AcDbDimStyleTableRecord
   2
GMM004
  70
0
   3

   4

   5

   6
_OPEN30
   7
_OPEN30
  40
 1.0000000000000
  41
 18.000000000000
  42
0.0
  43
 48.000000000000
  44
 12.000000000000
  45
0.0
  46
0.0
  47
0.0
  48
0.0
 140
 24.000000000000
 141
 6.0000000000000
 142
0.0
 143
 0.39400000000000E-1
 144
 1.0000000000000
 145
0.0
 146
 0.62500000000000
 147
 6.0000000000000
  71
0
  72
0
  73
0
  74
0
  75
0
  76
0
  77
3
  78
8
 170
0
 171
2
 172
1
 173
1
 174
0
 175
0
 176
1
 177
1
 178
7
 270
2
 271
6
 272
0
 273
2
 274
2
 340
3D
 275
0
 280
0
 281
0
 282
0
 283
1
 284
0
 285
0
 286
0
 287
3
 288
0
   0
ENDTAB
  0
TABLE
  2
BLOCK_RECORD
  5
1
100
AcDbSymbolTable
 70
     0
  0
BLOCK_RECORD
  5
18
100
AcDbSymbolTableRecord
100
AcDbBlockTableRecord
  2
*MODEL_SPACE
  0
BLOCK_RECORD
  5
15
100
AcDbSymbolTableRecord
100
AcDbBlockTableRecord
  2
*PAPER_SPACE
   0
BLOCK_RECORD
   5
42
 100
AcDbSymbolTableRecord
 100
AcDbBlockTableRecord
   2
A2
   0
BLOCK_RECORD
   5
43
 100
AcDbSymbolTableRecord
 100
AcDbBlockTableRecord
   2
BLOCK001
   0
BLOCK_RECORD
   5
44
 100
AcDbSymbolTableRecord
 100
AcDbBlockTableRecord
   2
BLOCK002
   0
BLOCK_RECORD
   5
45
 100
AcDbSymbolTableRecord
 100
AcDbBlockTableRecord
   2
BLOCK003
   0
BLOCK_RECORD
   5
46
 100
AcDbSymbolTableRecord
 100
AcDbBlockTableRecord
   2
EGF11M8
   0
BLOCK_RECORD
   5
47
 100
AcDbSymbolTableRecord
 100
AcDbBlockTableRecord
   2
BLOCK004
   0
BLOCK_RECORD
   5
48
 100
AcDbSymbolTableRecord
 100
AcDbBlockTableRecord
   2
BLOCK005
   0
BLOCK_RECORD
   5
49
 100
AcDbSymbolTableRecord
 100
AcDbBlockTableRecord
   2
BLOCK006
   0
BLOCK_RECORD
   5
4A
 100
AcDbSymbolTableRecord
 100
AcDbBlockTableRecord
   2
BLOCK007
   0
BLOCK_RECORD
   5
4B
 100
AcDbSymbolTableRecord
 100
AcDbBlockTableRecord
   2
BLOCK008
   0
BLOCK_RECORD
   5
4C
 100
AcDbSymbolTableRecord
 100
AcDbBlockTableRecord
   2
*D1
   0
BLOCK_RECORD
   5
4D
 100
AcDbSymbolTableRecord
 100
AcDbBlockTableRecord
   2
*D2
   0
BLOCK_RECORD
   5
4E
 100
AcDbSymbolTableRecord
 100
AcDbBlockTableRecord
   2
*D3
   0
BLOCK_RECORD
   5
4F
 100
AcDbSymbolTableRecord
 100
AcDbBlockTableRecord
   2
*D4
   0
BLOCK_RECORD
   5
50
 100
AcDbSymbolTableRecord
 100
AcDbBlockTableRecord
   2
*D5
   0
BLOCK_RECORD
   5
51
 100
AcDbSymbolTableRecord
 100
AcDbBlockTableRecord
   2
*D6
   0
BLOCK_RECORD
   5
52
 100
AcDbSymbolTableRecord
 100
AcDbBlockTableRecord
   2
*D7
   0
BLOCK_RECORD
   5
53
 100
AcDbSymbolTableRecord
 100
AcDbBlockTableRecord
   2
*D8
   0
BLOCK_RECORD
   5
54
 100
AcDbSymbolTableRecord
 100
AcDbBlockTableRecord
   2
*D9
   0
BLOCK_RECORD
   5
55
 100
AcDbSymbolTableRecord
 100
AcDbBlockTableRecord
   2
_ARCHTICK
   0
BLOCK_RECORD
   5
56
 100
AcDbSymbolTableRecord
 100
AcDbBlockTableRecord
   2
_BOXBLANK
   0
BLOCK_RECORD
   5
57
 100
AcDbSymbolTableRecord
 100
AcDbBlockTableRecord
   2
_BOXFILLED
   0
BLOCK_RECORD
   5
58
 100
AcDbSymbolTableRecord
 100
AcDbBlockTableRecord
   2
_CLOSED
   0
BLOCK_RECORD
   5
59
 100
AcDbSymbolTableRecord
 100
AcDbBlockTableRecord
   2
_CLOSEDBLANK
   0
BLOCK_RECORD
   5
5A
 100
AcDbSymbolTableRecord
 100
AcDbBlockTableRecord
   2
_DATUMBLANK
   0
BLOCK_RECORD
   5
5B
 100
AcDbSymbolTableRecord
 100
AcDbBlockTableRecord
   2
_DATUMFILLED
   0
BLOCK_RECORD
   5
5C
 100
AcDbSymbolTableRecord
 100
AcDbBlockTableRecord
   2
_DOT
   0
BLOCK_RECORD
   5
5D
 100
AcDbSymbolTableRecord
 100
AcDbBlockTableRecord
   2
_DOTBLANK
   0
BLOCK_RECORD
   5
5E
 100
AcDbSymbolTableRecord
 100
AcDbBlockTableRecord
   2
_DOTSMALL
   0
BLOCK_RECORD
   5
5F
 100
AcDbSymbolTableRecord
 100
AcDbBlockTableRecord
   2
_INTEGRAL
   0
BLOCK_RECORD
   5
60
 100
AcDbSymbolTableRecord
 100
AcDbBlockTableRecord
   2
_NONE
   0
BLOCK_RECORD
   5
61
 100
AcDbSymbolTableRecord
 100
AcDbBlockTableRecord
   2
_OBLIQUE
   0
BLOCK_RECORD
   5
62
 100
AcDbSymbolTableRecord
 100
AcDbBlockTableRecord
   2
_OPEN
   0
BLOCK_RECORD
   5
63
 100
AcDbSymbolTableRecord
 100
AcDbBlockTableRecord
   2
_OPEN30
   0
BLOCK_RECORD
   5
64
 100
AcDbSymbolTableRecord
 100
AcDbBlockTableRecord
   2
_OPEN90
   0
BLOCK_RECORD
   5
65
 100
AcDbSymbolTableRecord
 100
AcDbBlockTableRecord
   2
_ORIGIN
   0
ENDTAB
   0
ENDSEC
  0
SECTION
  2
BLOCKS
  0
BLOCK
  5
19
100
AcDbEntity
  8
0
100
AcDbBlockBegin
  2
*MODEL_SPACE
 70
     0
 10
0.0
 20
0.0
 30
0.0
  3
*MODEL_SPACE
  1

  0
ENDBLK
  5
1A
100
AcDbEntity
  8
0
100
AcDbBlockEnd
  0
BLOCK
  5
16
100
AcDbEntity
 67
     1
  8
0
100
AcDbBlockBegin
  2
*PAPER_SPACE
 70
     0
 10
0.0
 20
0.0
 30
0.0
  3
*PAPER_SPACE
  1

  0
ENDBLK
  5
17
100
AcDbEntity
 67
     1
  8
0
100
AcDbBlockEnd
   0
BLOCK
   5
66
 100
AcDbEntity
   8
0
 100
AcDbBlockBegin
   2
_ARCHTICK
  70
0
  10
0.0
  20
0.0
  30
0.0
   3
_ARCHTICK
   0
POLYLINE
   5
67
 100
AcDbEntity
   8
0
   6
BYBLOCK
  62
0
 100
AcDb2dPolyline
  66
1
  10
0.0
  20
0.0
  30
0.0
  70
1
  40
 0.15000000000000
  41
 0.15000000000000
   0
VERTEX
   5
68
 100
AcDbEntity
   8
0
   6
BYBLOCK
  62
0
 100
AcDbVertex
 100
AcDb2dVertex
  10
-0.50000000000000
  20
-0.50000000000000
  30
0.0
  40
 0.15000000000000
  41
 0.15000000000000
   0
VERTEX
   5
69
 100
AcDbEntity
   8
0
   6
BYBLOCK
  62
0
 100
AcDbVertex
 100
AcDb2dVertex
  10
 0.50000000000000
  20
 0.50000000000000
  30
0.0
  40
 0.15000000000000
  41
 0.15000000000000
   0
SEQEND
   5
6A
 100
AcDbEntity
   8
0
   6
BYBLOCK
  62
0
   0
ENDBLK
   5
6B
 100
AcDbEntity
   8
0
 100
AcDbBlockEnd
   0
BLOCK
   5
6C
 100
AcDbEntity
   8
0
 100
AcDbBlockBegin
   2
_OBLIQUE
  70
0
  10
0.0
  20
0.0
  30
0.0
   3
_OBLIQUE
   0
LINE
   5
6D
 100
AcDbEntity
   8
0
 100
AcDbLine
   6
BYBLOCK
  62
0
  10
-0.50000000000000
  20
-0.50000000000000
  30
0.0
  11
 0.50000000000000
  21
 0.50000000000000
  31
0.0
   0
ENDBLK
   5
6E
 100
AcDbEntity
   8
0
 100
AcDbBlockEnd
   0
BLOCK
   5
6F
 100
AcDbEntity
   8
0
 100
AcDbBlockBegin
   2
_BOXBLANK
  70
0
  10
0.0
  20
0.0
  30
0.0
   3
_BOXBLANK
   0
LINE
   5
70
 100
AcDbEntity
   8
0
 100
AcDbLine
   6
BYBLOCK
  62
0
  10
-0.50000000000000
  20
-0.50000000000000
  30
0.0
  11
 0.50000000000000
  21
-0.50000000000000
  31
0.0
   0
LINE
   5
71
 100
AcDbEntity
   8
0
 100
AcDbLine
   6
BYBLOCK
  62
0
  10
 0.50000000000000
  20
-0.50000000000000
  30
0.0
  11
 0.50000000000000
  21
 0.50000000000000
  31
0.0
   0
LINE
   5
72
 100
AcDbEntity
   8
0
 100
AcDbLine
   6
BYBLOCK
  62
0
  10
 0.50000000000000
  20
 0.50000000000000
  30
0.0
  11
-0.50000000000000
  21
 0.50000000000000
  31
0.0
   0
LINE
   5
73
 100
AcDbEntity
   8
0
 100
AcDbLine
   6
BYBLOCK
  62
0
  10
-0.50000000000000
  20
 0.50000000000000
  30
0.0
  11
-0.50000000000000
  21
-0.50000000000000
  31
0.0
   0
LINE
   5
74
 100
AcDbEntity
   8
0
 100
AcDbLine
   6
BYBLOCK
  62
0
  10
-0.50000000000000
  20
0.0
  30
0.0
  11
-1.0000000000000
  21
0.0
  31
0.0
   0
ENDBLK
   5
75
 100
AcDbEntity
   8
0
 100
AcDbBlockEnd
   0
BLOCK
   5
76
 100
AcDbEntity
   8
0
 100
AcDbBlockBegin
   2
_BOXFILLED
  70
0
  10
0.0
  20
0.0
  30
0.0
   3
_BOXFILLED
   0
SOLID
   5
77
 100
AcDbEntity
   8
0
 100
AcDbTrace
   6
BYBLOCK
  62
0
  10
-0.50000000000000
  20
 0.50000000000000
  30
0.0
  11
 0.50000000000000
  21
 0.50000000000000
  31
0.0
  12
-0.50000000000000
  22
-0.50000000000000
  32
0.0
  13
 0.50000000000000
  23
-0.50000000000000
  33
0.0
   0
LINE
   5
78
 100
AcDbEntity
   8
0
 100
AcDbLine
   6
BYBLOCK
  62
0
  10
-0.50000000000000
  20
0.0
  30
0.0
  11
-1.0000000000000
  21
0.0
  31
0.0
   0
ENDBLK
   5
79
 100
AcDbEntity
   8
0
 100
AcDbBlockEnd
   0
BLOCK
   5
7A
 100
AcDbEntity
   8
0
 100
AcDbBlockBegin
   2
_CLOSED
  70
0
  10
0.0
  20
0.0
  30
0.0
   3
_CLOSED
   0
LINE
   5
7B
 100
AcDbEntity
   8
0
 100
AcDbLine
   6
BYBLOCK
  62
0
  10
-1.0000000000000
  20
 0.16666666666667
  30
0.0
  11
0.0
  21
0.0
  31
0.0
   0
LINE
   5
7C
 100
AcDbEntity
   8
0
 100
AcDbLine
   6
BYBLOCK
  62
0
  10
0.0
  20
0.0
  30
0.0
  11
-1.0000000000000
  21
-0.16666666666667
  31
0.0
   0
LINE
   5
7D
 100
AcDbEntity
   8
0
 100
AcDbLine
   6
BYBLOCK
  62
0
  10
-1.0000000000000
  20
 0.16666666666667
  30
0.0
  11
-1.0000000000000
  21
-0.16666666666667
  31
0.0
   0
LINE
   5
7E
 100
AcDbEntity
   8
0
 100
AcDbLine
   6
BYBLOCK
  62
0
  10
0.0
  20
0.0
  30
0.0
  11
-1.0000000000000
  21
0.0
  31
0.0
   0
ENDBLK
   5
7F
 100
AcDbEntity
   8
0
 100
AcDbBlockEnd
   0
BLOCK
   5
80
 100
AcDbEntity
   8
0
 100
AcDbBlockBegin
   2
_OPEN
  70
0
  10
0.0
  20
0.0
  30
0.0
   3
_OPEN
   0
LINE
   5
81
 100
AcDbEntity
   8
0
 100
AcDbLine
   6
BYBLOCK
  62
0
  10
-1.0000000000000
  20
 0.16666666666667
  30
0.0
  11
0.0
  21
0.0
  31
0.0
   0
LINE
   5
82
 100
AcDbEntity
   8
0
 100
AcDbLine
   6
BYBLOCK
  62
0
  10
0.0
  20
0.0
  30
0.0
  11
-1.0000000000000
  21
-0.16666666666667
  31
0.0
   0
LINE
   5
83
 100
AcDbEntity
   8
0
 100
AcDbLine
   6
BYBLOCK
  62
0
  10
0.0
  20
0.0
  30
0.0
  11
-1.0000000000000
  21
0.0
  31
0.0
   0
ENDBLK
   5
84
 100
AcDbEntity
   8
0
 100
AcDbBlockEnd
   0
BLOCK
   5
85
 100
AcDbEntity
   8
0
 100
AcDbBlockBegin
   2
_OPEN30
  70
0
  10
0.0
  20
0.0
  30
0.0
   3
_OPEN30
   0
LINE
   5
86
 100
AcDbEntity
   8
0
 100
AcDbLine
   6
BYBLOCK
  62
0
  10
-1.0000000000000
  20
 0.26794919243110
  30
0.0
  11
0.0
  21
0.0
  31
0.0
   0
LINE
   5
87
 100
AcDbEntity
   8
0
 100
AcDbLine
   6
BYBLOCK
  62
0
  10
0.0
  20
0.0
  30
0.0
  11
-1.0000000000000
  21
-0.26794919243110
  31
0.0
   0
LINE
   5
88
 100
AcDbEntity
   8
0
 100
AcDbLine
   6
BYBLOCK
  62
0
  10
0.0
  20
0.0
  30
0.0
  11
-1.0000000000000
  21
0.0
  31
0.0
   0
ENDBLK
   5
89
 100
AcDbEntity
   8
0
 100
AcDbBlockEnd
   0
BLOCK
   5
8A
 100
AcDbEntity
   8
0
 100
AcDbBlockBegin
   2
_OPEN90
  70
0
  10
0.0
  20
0.0
  30
0.0
   3
_OPEN90
   0
LINE
   5
8B
 100
AcDbEntity
   8
0
 100
AcDbLine
   6
BYBLOCK
  62
0
  10
-0.50000000000000
  20
 0.50000000000000
  30
0.0
  11
0.0
  21
0.0
  31
0.0
   0
LINE
   5
8C
 100
AcDbEntity
   8
0
 100
AcDbLine
   6
BYBLOCK
  62
0
  10
0.0
  20
0.0
  30
0.0
  11
-0.50000000000000
  21
-0.50000000000000
  31
0.0
   0
LINE
   5
8D
 100
AcDbEntity
   8
0
 100
AcDbLine
   6
BYBLOCK
  62
0
  10
0.0
  20
0.0
  30
0.0
  11
-1.0000000000000
  21
0.0
  31
0.0
   0
ENDBLK
   5
8E
 100
AcDbEntity
   8
0
 100
AcDbBlockEnd
   0
BLOCK
   5
8F
 100
AcDbEntity
   8
0
 100
AcDbBlockBegin
   2
_CLOSEDBLANK
  70
0
  10
0.0
  20
0.0
  30
0.0
   3
_CLOSEDBLANK
   0
LINE
   5
90
 100
AcDbEntity
   8
0
 100
AcDbLine
   6
BYBLOCK
  62
0
  10
-1.0000000000000
  20
 0.16666666666667
  30
0.0
  11
0.0
  21
0.0
  31
0.0
   0
LINE
   5
91
 100
AcDbEntity
   8
0
 100
AcDbLine
   6
BYBLOCK
  62
0
  10
0.0
  20
0.0
  30
0.0
  11
-1.0000000000000
  21
-0.16666666666667
  31
0.0
   0
LINE
   5
92
 100
AcDbEntity
   8
0
 100
AcDbLine
   6
BYBLOCK
  62
0
  10
-1.0000000000000
  20
 0.16666666666667
  30
0.0
  11
-1.0000000000000
  21
-0.16666666666667
  31
0.0
   0
ENDBLK
   5
93
 100
AcDbEntity
   8
0
 100
AcDbBlockEnd
   0
BLOCK
   5
94
 100
AcDbEntity
   8
0
 100
AcDbBlockBegin
   2
_DOT
  70
0
  10
0.0
  20
0.0
  30
0.0
   3
_DOT
   0
POLYLINE
   5
95
 100
AcDbEntity
   8
0
   6
BYBLOCK
  62
0
 100
AcDb2dPolyline
  66
1
  10
0.0
  20
0.0
  30
0.0
  70
1
  40
 0.50000000000000
  41
 0.50000000000000
   0
VERTEX
   5
96
 100
AcDbEntity
   8
0
   6
BYBLOCK
  62
0
 100
AcDbVertex
 100
AcDb2dVertex
  10
-0.25000000000000
  20
0.0
  30
0.0
  42
 1.0000000000000
  40
 0.50000000000000
  41
 0.50000000000000
   0
VERTEX
   5
97
 100
AcDbEntity
   8
0
   6
BYBLOCK
  62
0
 100
AcDbVertex
 100
AcDb2dVertex
  10
 0.25000000000000
  20
0.0
  30
0.0
  42
 1.0000000000000
  40
 0.50000000000000
  41
 0.50000000000000
   0
SEQEND
   5
98
 100
AcDbEntity
   8
0
   6
BYBLOCK
  62
0
   0
LINE
   5
99
 100
AcDbEntity
   8
0
 100
AcDbLine
   6
BYBLOCK
  62
0
  10
-0.50000000000000
  20
0.0
  30
0.0
  11
-1.0000000000000
  21
0.0
  31
0.0
   0
ENDBLK
   5
9A
 100
AcDbEntity
   8
0
 100
AcDbBlockEnd
   0
BLOCK
   5
9B
 100
AcDbEntity
   8
0
 100
AcDbBlockBegin
   2
_DOTSMALL
  70
0
  10
0.0
  20
0.0
  30
0.0
   3
_DOTSMALL
   0
POLYLINE
   5
9C
 100
AcDbEntity
   8
0
   6
BYBLOCK
  62
0
 100
AcDb2dPolyline
  66
1
  10
0.0
  20
0.0
  30
0.0
  70
1
  40
 0.50000000000000
  41
 0.50000000000000
   0
VERTEX
   5
9D
 100
AcDbEntity
   8
0
   6
BYBLOCK
  62
0
 100
AcDbVertex
 100
AcDb2dVertex
  10
-0.62500000000000E-1
  20
0.0
  30
0.0
  42
 1.0000000000000
  40
 0.50000000000000
  41
 0.50000000000000
   0
VERTEX
   5
9E
 100
AcDbEntity
   8
0
   6
BYBLOCK
  62
0
 100
AcDbVertex
 100
AcDb2dVertex
  10
 0.62500000000000E-1
  20
0.0
  30
0.0
  42
 1.0000000000000
  40
 0.50000000000000
  41
 0.50000000000000
   0
SEQEND
   5
9F
 100
AcDbEntity
   8
0
   6
BYBLOCK
  62
0
   0
ENDBLK
   5
A0
 100
AcDbEntity
   8
0
 100
AcDbBlockEnd
   0
BLOCK
   5
A1
 100
AcDbEntity
   8
0
 100
AcDbBlockBegin
   2
_DATUMBLANK
  70
0
  10
0.0
  20
0.0
  30
0.0
   3
_DATUMBLANK
   0
LINE
   5
A2
 100
AcDbEntity
   8
0
 100
AcDbLine
   6
BYBLOCK
  62
0
  10
0.0
  20
 0.57735027000000
  30
0.0
  11
-1.0000000000000
  21
0.0
  31
0.0
   0
LINE
   5
A3
 100
AcDbEntity
   8
0
 100
AcDbLine
   6
BYBLOCK
  62
0
  10
-1.0000000000000
  20
0.0
  30
0.0
  11
0.0
  21
-0.57735027000000
  31
0.0
   0
LINE
   5
A4
 100
AcDbEntity
   8
0
 100
AcDbLine
   6
BYBLOCK
  62
0
  10
0.0
  20
-0.57735027000000
  30
0.0
  11
0.0
  21
 0.57735027000000
  31
0.0
   0
ENDBLK
   5
A5
 100
AcDbEntity
   8
0
 100
AcDbBlockEnd
   0
BLOCK
   5
A6
 100
AcDbEntity
   8
0
 100
AcDbBlockBegin
   2
_DATUMFILLED
  70
0
  10
0.0
  20
0.0
  30
0.0
   3
_DATUMFILLED
   0
SOLID
   5
A7
 100
AcDbEntity
   8
0
 100
AcDbTrace
   6
BYBLOCK
  62
0
  10
0.0
  20
 0.57735027000000
  30
0.0
  11
-1.0000000000000
  21
0.0
  31
0.0
  12
0.0
  22
-0.57735027000000
  32
0.0
  13
0.0
  23
-0.57735027000000
  33
0.0
   0
ENDBLK
   5
A8
 100
AcDbEntity
   8
0
 100
AcDbBlockEnd
   0
BLOCK
   5
A9
 100
AcDbEntity
   8
0
 100
AcDbBlockBegin
   2
_ORIGIN
  70
0
  10
0.0
  20
0.0
  30
0.0
   3
_ORIGIN
   0
CIRCLE
   5
AA
 100
AcDbEntity
   8
0
 100
AcDbCircle
   6
BYBLOCK
  62
0
  10
0.0
  20
0.0
  30
0.0
  40
 0.50000000000000
   0
LINE
   5
AB
 100
AcDbEntity
   8
0
 100
AcDbLine
   6
BYBLOCK
  62
0
  10
0.0
  20
0.0
  30
0.0
  11
-1.0000000000000
  21
0.0
  31
0.0
   0
ENDBLK
   5
AC
 100
AcDbEntity
   8
0
 100
AcDbBlockEnd
   0
BLOCK
   5
AD
 100
AcDbEntity
   8
0
 100
AcDbBlockBegin
   2
_NONE
  70
0
  10
0.0
  20
0.0
  30
0.0
   3
_NONE
   0
CIRCLE
   5
AE
 100
AcDbEntity
   8
0
 100
AcDbCircle
   6
BYBLOCK
  62
0
  10
0.0
  20
0.0
  30
0.0
  40
 0.25000000000000
   0
ENDBLK
   5
AF
 100
AcDbEntity
   8
0
 100
AcDbBlockEnd
   0
BLOCK
   5
B0
 100
AcDbEntity
   8
0
 100
AcDbBlockBegin
   2
_DOTBLANK
  70
0
  10
0.0
  20
0.0
  30
0.0
   3
_DOTBLANK
   0
CIRCLE
   5
B1
 100
AcDbEntity
   8
0
 100
AcDbCircle
   6
BYBLOCK
  62
0
  10
0.0
  20
0.0
  30
0.0
  40
 0.50000000000000
   0
LINE
   5
B2
 100
AcDbEntity
   8
0
 100
AcDbLine
   6
BYBLOCK
  62
0
  10
-0.50000000000000
  20
0.0
  30
0.0
  11
-1.0000000000000
  21
0.0
  31
0.0
   0
ENDBLK
   5
B3
 100
AcDbEntity
   8
0
 100
AcDbBlockEnd
   0
BLOCK
   5
B4
 100
AcDbEntity
   8
0
 100
AcDbBlockBegin
   2
_INTEGRAL
  70
0
  10
0.0
  20
0.0
  30
0.0
   3
_INTEGRAL
   0
ARC
   5
B5
 100
AcDbEntity
   8
0
   6
BYBLOCK
  62
0
 100
AcDbCircle
  10
 0.44488800000000
  20
-0.91335000000000E-1
  30
0.0
  40
 0.45416700000000
 100
AcDbArc
  50
 102.00000000000
  51
 168.00000000000
   0
ARC
   5
B6
 100
AcDbEntity
   8
0
   6
BYBLOCK
  62
0
 100
AcDbCircle
  10
-0.44488800000000
  20
 0.91335000000000E-1
  30
0.0
  40
 0.45416700000000
 100
AcDbArc
  50
 282.00000000000
  51
 348.00000000000
   0
ENDBLK
   5
B7
 100
AcDbEntity
   8
0
 100
AcDbBlockEnd
   0
BLOCK
   5
B8
 100
AcDbEntity
   8
0
 100
AcDbBlockBegin
   2
A2
  70
64
  10
0.0
  20
0.0
  30
0.0
   3
A2
   0
LWPOLYLINE
   5
B9
 100
AcDbEntity
   8
内図枠(作図領域)
   6
CONTINUOUS
  62
7
 100
AcDbPolyline
  90
4
  70
1
  10
 0.14210854715202E-13
  20
0.0
  10
 544.00000000000
  20
0.0
  10
 544.00000000000
  20
 378.00000000000
  10
 0.14210854715202E-13
  20
 378.00000000000
   0
ENDBLK
   5
BA
 100
AcDbEntity
   8
0
 100
AcDbBlockEnd
   0
BLOCK
   5
BB
 100
AcDbEntity
   8
0
 100
AcDbBlockBegin
   2
BLOCK001
  70
64
  10
0.0
  20
0.0
  30
0.0
   3
BLOCK001
   0
LINE
   5
BC
 100
AcDbEntity
   8
LEVEL001
 100
AcDbLine
   6
CONTINUOUS
  62
7
  10
 2448.0000000000
  20
 216.00000000000
  30
0.0
  11
 3264.0000000000
  21
 216.00000000000
  31
0.0
   0
LINE
   5
BD
 100
AcDbEntity
   8
LEVEL001
 100
AcDbLine
   6
CONTINUOUS
  62
7
  10
 2448.0000000000
  20
 144.00000000000
  30
0.0
  11
 3264.0000000000
  21
 144.00000000000
  31
0.0
   0
LINE
   5
BE
 100
AcDbEntity
   8
LEVEL001
 100
AcDbLine
   6
CONTINUOUS
  62
7
  10
 2448.0000000000
  20
 216.00000000000
  30
0.0
  11
 2448.0000000000
  21
 144.00000000000
  31
0.0
   0
LINE
   5
BF
 100
AcDbEntity
   8
LEVEL001
 100
AcDbLine
   6
CONTINUOUS
  62
7
  10
 2496.0000000000
  20
 216.00000000000
  30
0.0
  11
 2496.0000000000
  21
 144.00000000000
  31
0.0
   0
LINE
   5
C0
 100
AcDbEntity
   8
LEVEL001
 100
AcDbLine
   6
CONTINUOUS
  62
7
  10
 2856.0000000000
  20
 216.00000000000
  30
0.0
  11
 2856.0000000000
  21
 144.00000000000
  31
0.0
   0
LINE
   5
C1
 100
AcDbEntity
   8
LEVEL001
 100
AcDbLine
   6
CONTINUOUS
  62
7
  10
 2904.0000000000
  20
 216.00000000000
  30
0.0
  11
 2904.0000000000
  21
 144.00000000000
  31
0.0
   0
LINE
   5
C2
 100
AcDbEntity
   8
LEVEL001
 100
AcDbLine
   6
CONTINUOUS
  62
7
  10
 3264.0000000000
  20
 216.00000000000
  30
0.0
  11
 3264.0000000000
  21
 144.00000000000
  31
0.0
   0
ENDBLK
   5
C3
 100
AcDbEntity
   8
0
 100
AcDbBlockEnd
   0
BLOCK
   5
C4
 100
AcDbEntity
   8
0
 100
AcDbBlockBegin
   2
BLOCK002
  70
64
  10
0.0
  20
0.0
  30
0.0
   3
BLOCK002
   0
LINE
   5
C5
 100
AcDbEntity
   8
LEVEL001
 100
AcDbLine
   6
CONTINUOUS
  62
7
  10
 2448.0000000000
  20
 144.00000000000
  30
0.0
  11
 3264.0000000000
  21
 144.00000000000
  31
0.0
   0
LINE
   5
C6
 100
AcDbEntity
   8
LEVEL001
 100
AcDbLine
   6
CONTINUOUS
  62
7
  10
 2676.0000000000
  20
 96.000000000000
  30
0.0
  11
 3264.0000000000
  21
 96.000000000000
  31
0.0
   0
LINE
   5
C7
 100
AcDbEntity
   8
LEVEL001
 100
AcDbLine
   6
CONTINUOUS
  62
7
  10
 2448.0000000000
  20
 48.000000000000
  30
0.0
  11
 3264.0000000000
  21
 48.000000000000
  31
0.0
   0
LINE
   5
C8
 100
AcDbEntity
   8
LEVEL001
 100
AcDbLine
   6
CONTINUOUS
  62
7
  10
 2448.0000000000
  20
0.0
  30
0.0
  11
 3264.0000000000
  21
0.0
  31
0.0
   0
LINE
   5
C9
 100
AcDbEntity
   8
LEVEL001
 100
AcDbLine
   6
CONTINUOUS
  62
7
  10
 2448.0000000000
  20
 144.00000000000
  30
0.0
  11
 2448.0000000000
  21
0.0
  31
0.0
   0
LINE
   5
CA
 100
AcDbEntity
   8
LEVEL001
 100
AcDbLine
   6
CONTINUOUS
  62
7
  10
 2496.0000000000
  20
 144.00000000000
  30
0.0
  11
 2496.0000000000
  21
 48.000000000000
  31
0.0
   0
LINE
   5
CB
 100
AcDbEntity
   8
LEVEL001
 100
AcDbLine
   6
CONTINUOUS
  62
7
  10
 2676.0000000000
  20
 144.00000000000
  30
0.0
  11
 2676.0000000000
  21
 48.000000000000
  31
0.0
   0
LINE
   5
CC
 100
AcDbEntity
   8
LEVEL001
 100
AcDbLine
   6
CONTINUOUS
  62
7
  10
 2856.0000000000
  20
 144.00000000000
  30
0.0
  11
 2856.0000000000
  21
 48.000000000000
  31
0.0
   0
LINE
   5
CD
 100
AcDbEntity
   8
LEVEL001
 100
AcDbLine
   6
CONTINUOUS
  62
7
  10
 2904.0000000000
  20
 144.00000000000
  30
0.0
  11
 2904.0000000000
  21
 48.000000000000
  31
0.0
   0
LINE
   5
CE
 100
AcDbEntity
   8
LEVEL001
 100
AcDbLine
   6
CONTINUOUS
  62
7
  10
 3024.0000000000
  20
 144.00000000000
  30
0.0
  11
 3024.0000000000
  21
 48.000000000000
  31
0.0
   0
LINE
   5
CF
 100
AcDbEntity
   8
LEVEL001
 100
AcDbLine
   6
CONTINUOUS
  62
7
  10
 3066.0000000000
  20
 144.00000000000
  30
0.0
  11
 3066.0000000000
  21
 48.000000000000
  31
0.0
   0
LINE
   5
D0
 100
AcDbEntity
   8
LEVEL001
 100
AcDbLine
   6
CONTINUOUS
  62
7
  10
 3102.0000000000
  20
 144.00000000000
  30
0.0
  11
 3102.0000000000
  21
 48.000000000000
  31
0.0
   0
LINE
   5
D1
 100
AcDbEntity
   8
LEVEL001
 100
AcDbLine
   6
CONTINUOUS
  62
7
  10
 3144.0000000000
  20
 144.00000000000
  30
0.0
  11
 3144.0000000000
  21
 48.000000000000
  31
0.0
   0
LINE
   5
D2
 100
AcDbEntity
   8
LEVEL001
 100
AcDbLine
   6
CONTINUOUS
  62
7
  10
 3264.0000000000
  20
 144.00000000000
  30
0.0
  11
 3264.0000000000
  21
0.0
  31
0.0
   0
ENDBLK
   5
D3
 100
AcDbEntity
   8
0
 100
AcDbBlockEnd
   0
BLOCK
   5
D4
 100
AcDbEntity
   8
0
 100
AcDbBlockBegin
   2
BLOCK003
  70
64
  10
0.0
  20
0.0
  30
0.0
   3
BLOCK003
   0
TEXT
   5
D5
 100
AcDbEntity
   8
LEVEL001
  62
7
 100
AcDbText
  10
 2671.2000274658
  20
 12.000000000000
  30
0.0
  40
 24.000000000000
   1
さぬき麺機株式会社
   7
STANDARD
 100
AcDbText
   0
TEXT
   5
D6
 100
AcDbEntity
   8
LEVEL001
  62
7
 100
AcDbText
  10
 2472.0000000000
  20
 210.66664123535
  30
0.0
  40
 24.000000000000
   1
名称
   7
STANDARD1
 100
AcDbText
   0
TEXT
   5
D7
 100
AcDbEntity
   8
LEVEL001
  62
7
 100
AcDbText
  10
 2880.0000000000
  20
 210.66659545898
  30
0.0
  40
 24.000000000000
   1
図番
   7
STANDARD1
 100
AcDbText
   0
TEXT
   5
D8
 100
AcDbEntity
   8
LEVEL001
  62
7
 100
AcDbText
  10
 2472.0000000000
  20
 130.66666698456
  30
0.0
  40
 24.000000000000
   1
画法
   7
STANDARD1
 100
AcDbText
   0
TEXT
   5
D9
 100
AcDbEntity
   8
LEVEL001
  62
7
 100
AcDbText
  10
 2512.8000004292
  20
 84.000000000000
  30
0.0
  40
 24.000000000000
   1
第三角法
   7
STANDARD
 100
AcDbText
   0
TEXT
   5
DA
 100
AcDbEntity
   8
LEVEL001
  62
7
 100
AcDbText
  10
 2692.8000004292
  20
 108.00000000000
  30
0.0
  40
 24.000000000000
   1
共通機種
   7
STANDARD
 100
AcDbText
   0
TEXT
   5
DB
 100
AcDbEntity
   8
LEVEL001
  62
7
 100
AcDbText
  10
 2860.7999997168
  20
 108.00000000000
  30
0.0
  40
 24.000000000000
   1
個数
  41
 0.80000001192093
   7
STANDARD
 100
AcDbText
   0
TEXT
   5
DC
 100
AcDbEntity
   8
LEVEL001
  62
7
 100
AcDbText
  10
 2928.0000000000
  20
 108.00000000000
  30
0.0
  40
 24.000000000000
   1
尺度
   7
STANDARD
 100
AcDbText
   0
TEXT
   5
DD
 100
AcDbEntity
   8
LEVEL001
  62
7
 100
AcDbText
  10
 3036.0000000000
  20
 108.00000000000
  30
0.0
  40
 24.000000000000
   1
年月日
   7
STANDARD
 100
AcDbText
   0
TEXT
   5
DE
 100
AcDbEntity
   8
LEVEL001
  62
7
 100
AcDbText
  10
 3168.0000000000
  20
 108.00000000000
  30
0.0
  40
 24.000000000000
   1
製図
   7
STANDARD
 100
AcDbText
   0
ENDBLK
   5
DF
 100
AcDbEntity
   8
0
 100
AcDbBlockEnd
   0
BLOCK
   5
E0
 100
AcDbEntity
   8
0
 100
AcDbBlockBegin
   2
EGF11M8
  70
64
  10
0.0
  20
0.0
  30
0.0
   3
EGF11M8
   0
ARC
   5
E1
 100
AcDbEntity
   8
LEVEL001
   6
CONTINUOUS
  62
7
 100
AcDbCircle
  10
-3.9649632847015
  20
0.0
  30
0.0
  40
 10.464963284702
 100
AcDbArc
  50
 338.98551792465
  51
 21.014482075347
   0
ARC
   5
E2
 100
AcDbEntity
   8
LEVEL001
   6
CONTINUOUS
  62
7
 100
AcDbCircle
  10
 3.6227491896609
  20
-5.6291651245601
  30
0.0
  40
 2.8772508103391
 100
AcDbArc
  50
0.0
  51
 40.703617335147
   0
LWPOLYLINE
   5
E3
 100
AcDbEntity
   8
LEVEL001
   6
CONTINUOUS
  62
7
 100
AcDbPolyline
  90
6
  70
1
  10
0.0
  20
-7.5055534994393
  10
 5.8039733625086
  20
-7.5055534994393
  10
 6.5000000000000
  20
-6.3000000000000
  10
 6.5000000000000
  20
 6.3000000000000
  10
 5.8039733625086
  20
 7.5055534994393
  10
0.0
  20
 7.5055534994393
   0
LINE
   5
E4
 100
AcDbEntity
   8
LEVEL001
 100
AcDbLine
   6
CONTINUOUS
  62
7
  10
0.0
  20
-3.7527767496809
  30
0.0
  11
 5.8039733625086
  21
-3.7527767496809
  31
0.0
   0
ARC
   5
E5
 100
AcDbEntity
   8
LEVEL001
   6
CONTINUOUS
  62
7
 100
AcDbCircle
  10
 3.6227491896609
  20
 5.6291651245601
  30
0.0
  40
 2.8772508103391
 100
AcDbArc
  50
 319.29638266485
  51
0.0
   0
LINE
   5
E6
 100
AcDbEntity
   8
LEVEL001
 100
AcDbLine
   6
CONTINUOUS
  62
7
  10
0.0
  20
 3.7527767496809
  30
0.0
  11
 5.8039733625086
  21
 3.7527767496809
  31
0.0
   0
ENDBLK
   5
E7
 100
AcDbEntity
   8
0
 100
AcDbBlockEnd
   0
BLOCK
   5
E8
 100
AcDbEntity
   8
0
 100
AcDbBlockBegin
   2
BLOCK004
  70
64
  10
0.0
  20
0.0
  30
0.0
   3
BLOCK004
   0
ARC
   5
E9
 100
AcDbEntity
   8
LEVEL001
   6
CONTINUOUS
  62
7
 100
AcDbCircle
  10
 270.00000000000
  20
 937.10906329633
  30
0.0
  40
 101.00000000000
 100
AcDbArc
  50
 78.578813725001
  51
 101.42118627500
   0
LWPOLYLINE
   5
EA
 100
AcDbEntity
   8
LEVEL001
   6
CONTINUOUS
  62
7
 100
AcDbPolyline
  90
4
  70
0
  10
 250.00000000000
  20
 1036.1090632963
  10
 250.00000000000
  20
 1032.1090632963
  10
 290.00000000000
  20
 1032.1090632963
  10
 290.00000000000
  20
 1036.1090632963
   0
LWPOLYLINE
   5
EB
 100
AcDbEntity
   8
LEVEL001
   6
CONTINUOUS
  62
7
 100
AcDbPolyline
  90
6
  70
1
  10
 287.00000000000
  20
 1013.6090632963
  10
 287.00000000000
  20
 1019.6090632963
  10
 285.00000000000
  20
 1025.6090632963
  10
 255.00000000000
  20
 1025.6090632963
  10
 253.00000000000
  20
 1019.6090632963
  10
 253.00000000000
  20
 1013.6090632963
   0
LINE
   5
EC
 100
AcDbEntity
   8
LEVEL001
 100
AcDbLine
   6
CONTINUOUS
  62
7
  10
 287.00000000000
  20
 1019.6090632963
  30
0.0
  11
 253.00000000000
  21
 1019.6090632963
  31
0.0
   0
LINE
   5
ED
 100
AcDbEntity
   8
LEVEL001
 100
AcDbLine
   6
CONTINUOUS
  62
7
  10
 257.50000000000
  20
 1025.6090632963
  30
0.0
  11
 257.50000000000
  21
 1032.1090632963
  31
0.0
   0
LINE
   5
EE
 100
AcDbEntity
   8
LEVEL001
 100
AcDbLine
   6
CONTINUOUS
  62
7
  10
 282.50000000000
  20
 1025.6090632963
  30
0.0
  11
 282.50000000000
  21
 1032.1090632963
  31
0.0
   0
ENDBLK
   5
EF
 100
AcDbEntity
   8
0
 100
AcDbBlockEnd
   0
BLOCK
   5
F0
 100
AcDbEntity
   8
0
 100
AcDbBlockBegin
   2
BLOCK005
  70
64
  10
0.0
  20
0.0
  30
0.0
   3
BLOCK005
   0
ARC
   5
F1
 100
AcDbEntity
   8
LEVEL001
   6
CONTINUOUS
  62
7
 100
AcDbCircle
  10
 270.00000000000
  20
 878.60906329633
  30
0.0
  40
 4.0000000000000
 100
AcDbArc
  50
0.0
  51
 180.00000000000
   0
ARC
   5
F2
 100
AcDbEntity
   8
LEVEL001
   6
CONTINUOUS
  62
7
 100
AcDbCircle
  10
 270.00000000000
  20
 878.60906329633
  30
0.0
  40
 6.5000000000000
 100
AcDbArc
  50
 307.97987244485
  51
 232.02012755515
   0
LINE
   5
F3
 100
AcDbEntity
   8
LEVEL001
 100
AcDbLine
   6
CONTINUOUS
  62
7
  10
 266.00000000000
  20
 878.60906329633
  30
0.0
  11
 266.00000000000
  21
 873.60906329631
  31
0.0
   0
ARC
   5
F4
 100
AcDbEntity
   8
LEVEL001
   6
CONTINUOUS
  62
7
 100
AcDbCircle
  10
 270.00000000000
  20
 873.60906329631
  30
0.0
  40
 4.0000000000000
 100
AcDbArc
  50
 180.00000000000
  51
0.0
   0
CIRCLE
   5
F5
 100
AcDbEntity
   8
LEVEL001
 100
AcDbCircle
   6
CONTINUOUS
  62
7
  10
 270.00000000000
  20
 878.60906329633
  30
0.0
  40
 9.0000000000000
   0
POINT
   5
F6
 100
AcDbEntity
   8
LEVEL001
 100
AcDbPoint
  62
7
  10
 270.00000000000
  20
 878.60906329633
  30
0.0
   0
LINE
   5
F7
 100
AcDbEntity
   8
LEVEL001
 100
AcDbLine
   6
CONTINUOUS
  62
7
  10
 274.00000000000
  20
 878.60906329633
  30
0.0
  11
 274.00000000000
  21
 873.60906329631
  31
0.0
   0
ENDBLK
   5
F8
 100
AcDbEntity
   8
0
 100
AcDbBlockEnd
   0
BLOCK
   5
F9
 100
AcDbEntity
   8
0
 100
AcDbBlockBegin
   2
BLOCK006
  70
64
  10
0.0
  20
0.0
  30
0.0
   3
BLOCK006
   0
LWPOLYLINE
   5
FA
 100
AcDbEntity
   8
LEVEL001
   6
CONTINUOUS
  62
7
 100
AcDbPolyline
  90
6
  70
1
  10
 1704.0000000000
  20
 2132.7260765024
  10
 1702.7371809106
  20
 2132.7260765024
  10
 1701.6000000000
  20
 2133.8089802711
  10
 1701.6000000000
  20
 2147.8089802711
  10
 1702.7371809106
  20
 2148.8918840399
  10
 1704.0000000000
  20
 2148.8918840397
   0
LINE
   5
FB
 100
AcDbEntity
   8
LEVEL001
 100
AcDbLine
   6
CONTINUOUS
  62
7
  10
 1702.7371809106
  20
 2144.8504321554
  30
0.0
  11
 1704.0000000000
  21
 2144.8504321554
  31
0.0
   0
LINE
   5
FC
 100
AcDbEntity
   8
LEVEL001
 100
AcDbLine
   6
CONTINUOUS
  62
7
  10
 1702.7371809106
  20
 2136.7675283867
  30
0.0
  11
 1704.0000000000
  21
 2136.7675283867
  31
0.0
   0
ARC
   5
FD
 100
AcDbEntity
   8
LEVEL001
   6
CONTINUOUS
  62
7
 100
AcDbCircle
  10
 1709.3500921763
  20
 2140.8089802710
  30
0.0
  40
 7.7500921762708
 100
AcDbArc
  50
 148.56899400481
  51
 211.43100599519
   0
ARC
   5
FE
 100
AcDbEntity
   8
LEVEL001
   6
CONTINUOUS
  62
7
 100
AcDbCircle
  10
 1703.9639658855
  20
 2134.7468024445
  30
0.0
  40
 2.3639658855270
 100
AcDbArc
  50
 121.26198422362
  51
 180.00000000000
   0
ARC
   5
FF
 100
AcDbEntity
   8
LEVEL001
   6
CONTINUOUS
  62
7
 100
AcDbCircle
  10
 1703.9639658857
  20
 2146.8711580976
  30
0.0
  40
 2.3639658857093
 100
AcDbArc
  50
 180.00000000248
  51
 238.73801577389
   0
ENDBLK
   5
100
 100
AcDbEntity
   8
0
 100
AcDbBlockEnd
   0
BLOCK
   5
101
 100
AcDbEntity
   8
0
 100
AcDbBlockBegin
   2
BLOCK007
  70
64
  10
0.0
  20
0.0
  30
0.0
   3
BLOCK007
   0
LINE
   5
102
 100
AcDbEntity
   8
LEVEL001
 100
AcDbLine
   6
DASHDOT
  62
1
  10
 1909.0000000000
  20
 1019.4000122224
  30
0.0
  11
 1909.0000000000
  21
 1006.1048547120
  31
0.0
   0
POINT
   5
103
 100
AcDbEntity
   8
LEVEL001
 100
AcDbPoint
  62
7
  10
 2304.0000000000
  20
 1013.6090632963
  30
0.0
   0
LINE
   5
104
 100
AcDbEntity
   8
LEVEL001
 100
AcDbLine
   6
HIDDEN
  62
1
  10
 1996.0000000000
  20
 1013.6090632963
  30
0.0
  11
 1996.0000000000
  21
 1015.1090632963
  31
0.0
   0
POINT
   5
105
 100
AcDbEntity
   8
LEVEL001
 100
AcDbPoint
  62
1
  10
 1995.1339745962
  20
 1015.1090632963
  30
0.0
   0
LINE
   5
106
 100
AcDbEntity
   8
LEVEL001
 100
AcDbLine
   6
DASHDOT
  62
1
  10
 2084.0000000000
  20
 1019.4000122224
  30
0.0
  11
 2084.0000000000
  21
 1006.1048547120
  31
0.0
   0
POINT
   5
107
 100
AcDbEntity
   8
LEVEL001
 100
AcDbPoint
  62
7
  10
 2304.0000000000
  20
 1013.6090632963
  30
0.0
   0
POINT
   5
108
 100
AcDbEntity
   8
LEVEL001
 100
AcDbPoint
  62
1
  10
 2302.5000000000
  20
 1015.1090632963
  30
0.0
   0
POINT
   5
109
 100
AcDbEntity
   8
LEVEL001
 100
AcDbPoint
  62
7
  10
 1996.0000000000
  20
 1013.6090632963
  30
0.0
   0
POINT
   5
10A
 100
AcDbEntity
   8
LEVEL001
 100
AcDbPoint
  62
1
  10
 2301.0000000000
  20
 1016.6090632963
  30
0.0
   0
POINT
   5
10B
 100
AcDbEntity
   8
LEVEL001
 100
AcDbPoint
  62
7
  10
 2304.0000000000
  20
 1013.6090632963
  30
0.0
   0
LINE
   5
10C
 100
AcDbEntity
   8
LEVEL001
 100
AcDbLine
   6
CONTINUOUS
  62
7
  10
 2134.0000000000
  20
 1013.6090632963
  30
0.0
  11
 1854.0000000000
  21
 1013.6090632963
  31
0.0
   0
ARC
   5
10D
 100
AcDbEntity
   8
LEVEL001
   6
CONTINUOUS
  62
7
 100
AcDbCircle
  10
 1974.0000000000
  20
 1193.6090632963
  30
0.0
  40
 16.500000000000
 100
AcDbArc
  50
 180.00000000000
  51
0.0
   0
LINE
   5
10E
 100
AcDbEntity
   8
LEVEL001
 100
AcDbLine
   6
DASHDOT
  62
1
  10
 1953.0920732886
  20
 1193.6090632963
  30
0.0
  11
 1997.4734503454
  21
 1193.6090632963
  31
0.0
   0
LINE
   5
10F
 100
AcDbEntity
   8
LEVEL001
 100
AcDbLine
   6
DASHDOT
  62
1
  10
 1974.0000000000
  20
 1203.3274183271
  30
0.0
  11
 1974.0000000000
  21
 1169.9524580176
  31
0.0
   0
ARC
   5
110
 100
AcDbEntity
   8
LEVEL001
   6
CONTINUOUS
  62
7
 100
AcDbCircle
  10
 2184.0000000000
  20
 1193.6090632963
  30
0.0
  40
 16.500000000000
 100
AcDbArc
  50
 180.00000000000
  51
0.0
   0
LINE
   5
111
 100
AcDbEntity
   8
LEVEL001
 100
AcDbLine
   6
DASHDOT
  62
1
  10
 2163.0920732886
  20
 1193.6090632963
  30
0.0
  11
 2207.4734503453
  21
 1193.6090632963
  31
0.0
   0
LINE
   5
112
 100
AcDbEntity
   8
LEVEL001
 100
AcDbLine
   6
DASHDOT
  62
1
  10
 2184.0000000000
  20
 1203.3274183271
  30
0.0
  11
 2184.0000000000
  21
 1169.9524580176
  31
0.0
   0
POINT
   5
113
 100
AcDbEntity
   8
LEVEL001
 100
AcDbPoint
  62
7
  10
 1854.0000000000
  20
 1193.6090632963
  30
0.0
   0
POINT
   5
114
 100
AcDbEntity
   8
LEVEL001
 100
AcDbPoint
  62
7
  10
 1854.0000000000
  20
 1193.6090632963
  30
0.0
   0
POINT
   5
115
 100
AcDbEntity
   8
LEVEL001
 100
AcDbPoint
  62
7
  10
 1854.0000000000
  20
 1193.6090632963
  30
0.0
   0
POINT
   5
116
 100
AcDbEntity
   8
LEVEL001
 100
AcDbPoint
  62
7
  10
 1854.0000000000
  20
 1193.6090632963
  30
0.0
   0
POINT
   5
117
 100
AcDbEntity
   8
LEVEL001
 100
AcDbPoint
  62
7
  10
 1854.0000000000
  20
 1193.6090632963
  30
0.0
   0
ARC
   5
118
 100
AcDbEntity
   8
LEVEL001
   6
CONTINUOUS
  62
7
 100
AcDbCircle
  10
 1958.0312805773
  20
 1192.6090632963
  30
0.0
  40
 1.0000000000000
 100
AcDbArc
  50
 3.5833216984719
  51
 90.000000000000
   0
ARC
   5
119
 100
AcDbEntity
   8
LEVEL001
   6
CONTINUOUS
  62
7
 100
AcDbCircle
  10
 1989.9687194227
  20
 1192.6090632963
  30
0.0
  40
 1.0000000000000
 100
AcDbArc
  50
 90.000000000026
  51
 176.41667830153
   0
ARC
   5
11A
 100
AcDbEntity
   8
LEVEL001
   6
CONTINUOUS
  62
7
 100
AcDbCircle
  10
 1974.0000000000
  20
 1193.6090632963
  30
0.0
  40
 15.000000000000
 100
AcDbArc
  50
 183.58332169846
  51
 356.41667830154
   0
LINE
   5
11B
 100
AcDbEntity
   8
LEVEL001
 100
AcDbLine
   6
CONTINUOUS
  62
7
  10
 1989.9687194227
  20
 1193.6090632963
  30
0.0
  11
 2168.0312805773
  21
 1193.6090632963
  31
0.0
   0
ARC
   5
11C
 100
AcDbEntity
   8
LEVEL001
   6
CONTINUOUS
  62
7
 100
AcDbCircle
  10
 2168.0312805773
  20
 1192.6090632963
  30
0.0
  40
 1.0000000000000
 100
AcDbArc
  50
 3.5833216984719
  51
 90.000000000000
   0
ARC
   5
11D
 100
AcDbEntity
   8
LEVEL001
   6
CONTINUOUS
  62
7
 100
AcDbCircle
  10
 2199.9687194227
  20
 1192.6090632963
  30
0.0
  40
 1.0000000000000
 100
AcDbArc
  50
 90.000000000026
  51
 176.41667830153
   0
ARC
   5
11E
 100
AcDbEntity
   8
LEVEL001
   6
CONTINUOUS
  62
7
 100
AcDbCircle
  10
 2184.0000000000
  20
 1193.6090632963
  30
0.0
  40
 15.000000000000
 100
AcDbArc
  50
 183.58332169846
  51
 356.41667830154
   0
POINT
   5
11F
 100
AcDbEntity
   8
LEVEL001
 100
AcDbPoint
  62
1
  10
 1994.2679491924
  20
 1015.1090632963
  30
0.0
   0
LINE
   5
120
 100
AcDbEntity
   8
LEVEL001
 100
AcDbLine
   6
CONTINUOUS
  62
7
  10
 2119.0000000000
  20
 1015.1090633153
  30
0.0
  11
 2119.0000000000
  21
 1013.6090632963
  31
0.0
   0
LINE
   5
121
 100
AcDbEntity
   8
LEVEL001
 100
AcDbLine
   6
HIDDEN
  62
1
  10
 1904.0000000000
  20
 1015.1090633153
  30
0.0
  11
 1904.0000000000
  21
 1013.6090632963
  31
0.0
   0
LINE
   5
122
 100
AcDbEntity
   8
LEVEL001
 100
AcDbLine
   6
HIDDEN
  62
1
  10
 1914.0000000000
  20
 1015.1090633153
  30
0.0
  11
 1914.0000000000
  21
 1013.6090632963
  31
0.0
   0
LINE
   5
123
 100
AcDbEntity
   8
LEVEL001
 100
AcDbLine
   6
HIDDEN
  62
1
  10
 2079.0000000000
  20
 1015.1090633153
  30
0.0
  11
 2079.0000000000
  21
 1013.6090632963
  31
0.0
   0
LINE
   5
124
 100
AcDbEntity
   8
LEVEL001
 100
AcDbLine
   6
HIDDEN
  62
1
  10
 2089.0000000000
  20
 1015.1090633153
  30
0.0
  11
 2089.0000000000
  21
 1013.6090632963
  31
0.0
   0
LINE
   5
125
 100
AcDbEntity
   8
LEVEL001
 100
AcDbLine
   6
CONTINUOUS
  62
7
  10
 1869.0000000000
  20
 1015.1090633153
  30
0.0
  11
 1869.0000000000
  21
 1013.6090632963
  31
0.0
   0
LINE
   5
126
 100
AcDbEntity
   8
LEVEL001
 100
AcDbLine
   6
CONTINUOUS
  62
7
  10
 2134.0000000000
  20
 1015.1090633153
  30
0.0
  11
 2134.0000000000
  21
 1013.6090632963
  31
0.0
   0
LINE
   5
127
 100
AcDbEntity
   8
LEVEL001
 100
AcDbLine
   6
HIDDEN
  62
1
  10
 2252.5000000000
  20
 1015.1090632963
  30
0.0
  11
 1997.7320508076
  21
 1015.1090632963
  31
0.0
   0
ARC
   5
128
 100
AcDbEntity
   8
LEVEL001
   6
HIDDEN
  62
1
 100
AcDbCircle
  10
 2252.5000000000
  20
 1065.1090632963
  30
0.0
  40
 50.000000000000
 100
AcDbArc
  50
 270.00000000000
  51
0.0
   0
POINT
   5
129
 100
AcDbEntity
   8
LEVEL001
 100
AcDbPoint
  62
1
  10
 2302.5000000000
  20
 1015.1090632963
  30
0.0
   0
LINE
   5
12A
 100
AcDbEntity
   8
LEVEL001
 100
AcDbLine
   6
HIDDEN
  62
1
  10
 2302.5000000000
  20
 1128.6090632963
  30
0.0
  11
 2302.5000000000
  21
 1065.1090632963
  31
0.0
   0
LINE
   5
12B
 100
AcDbEntity
   8
LEVEL001
 100
AcDbLine
   6
CONTINUOUS
  62
7
  10
 2134.0000000000
  20
 1013.6090632963
  30
0.0
  11
 2252.5000000000
  21
 1013.6090632963
  31
0.0
   0
ARC
   5
12C
 100
AcDbEntity
   8
LEVEL001
   6
CONTINUOUS
  62
7
 100
AcDbCircle
  10
 2252.5000000000
  20
 1065.1090632963
  30
0.0
  40
 51.500000000000
 100
AcDbArc
  50
 270.00000000000
  51
0.0
   0
LINE
   5
12D
 100
AcDbEntity
   8
LEVEL001
 100
AcDbLine
   6
CONTINUOUS
  62
7
  10
 2304.0000000000
  20
 1128.6090632963
  30
0.0
  11
 2304.0000000000
  21
 1065.1090632963
  31
0.0
   0
POINT
   5
12E
 100
AcDbEntity
   8
LEVEL001
 100
AcDbPoint
  62
7
  10
 2297.5000000000
  20
 1020.1090632963
  30
0.0
   0
LINE
   5
12F
 100
AcDbEntity
   8
LEVEL001
 100
AcDbLine
   6
HIDDEN
  62
1
  10
 1855.5000000000
  20
 1013.6051678724
  30
0.0
  11
 1855.5000000000
  21
 1113.6090632963
  31
0.0
   0
ARC
   5
130
 100
AcDbEntity
   8
LEVEL001
   6
CONTINUOUS
  62
7
 100
AcDbCircle
  10
 1949.0000000000
  20
 1113.6090632963
  30
0.0
  40
 80.000000000000
 100
AcDbArc
  50
 90.000000000000
  51
 180.00000000000
   0
LINE
   5
131
 100
AcDbEntity
   8
LEVEL001
 100
AcDbLine
   6
CONTINUOUS
  62
7
  10
 1869.0000000000
  20
 1113.6090632963
  30
0.0
  11
 1854.0000000000
  21
 1113.6090632963
  31
0.0
   0
LINE
   5
132
 100
AcDbEntity
   8
LEVEL001
 100
AcDbLine
   6
CONTINUOUS
  62
7
  10
 1869.0000000000
  20
 1113.6090632963
  30
0.0
  11
 1869.0000000000
  21
 1013.6090632963
  31
0.0
   0
LINE
   5
133
 100
AcDbEntity
   8
LEVEL001
 100
AcDbLine
   6
CONTINUOUS
  62
7
  10
 1869.0000000000
  20
 1015.1090633153
  30
0.0
  11
 2134.0000000000
  21
 1015.1090633153
  31
0.0
   0
LINE
   5
134
 100
AcDbEntity
   8
LEVEL001
 100
AcDbLine
   6
CONTINUOUS
  62
7
  10
 2019.0000000000
  20
 1015.1090633153
  30
0.0
  11
 2019.0000000000
  21
 1193.6090632963
  31
0.0
   0
LINE
   5
135
 100
AcDbEntity
   8
LEVEL001
 100
AcDbLine
   6
CONTINUOUS
  62
7
  10
 1949.0000000000
  20
 1193.6090632963
  30
0.0
  11
 1958.0312805773
  21
 1193.6090632963
  31
0.0
   0
ARC
   5
136
 100
AcDbEntity
   8
LEVEL001
   6
CONTINUOUS
  62
7
 100
AcDbCircle
  10
 2259.0000000000
  20
 1163.6090632963
  30
0.0
  40
 30.000000000000
 100
AcDbArc
  50
0.0
  51
 90.000000000000
   0
LINE
   5
137
 100
AcDbEntity
   8
LEVEL001
 100
AcDbLine
   6
CONTINUOUS
  62
7
  10
 2304.0000000000
  20
 1128.6090632963
  30
0.0
  11
 2289.0000000000
  21
 1128.6090632963
  31
0.0
   0
LINE
   5
138
 100
AcDbEntity
   8
LEVEL001
 100
AcDbLine
   6
CONTINUOUS
  62
7
  10
 2289.0000000000
  20
 1163.6090632963
  30
0.0
  11
 2289.0000000000
  21
 1065.1090632963
  31
0.0
   0
LINE
   5
139
 100
AcDbEntity
   8
LEVEL001
 100
AcDbLine
   6
CONTINUOUS
  62
7
  10
 2199.9687194227
  20
 1193.6090632963
  30
0.0
  11
 2260.2362165475
  21
 1193.6090632963
  31
0.0
   0
LINE
   5
13A
 100
AcDbEntity
   8
LEVEL001
 100
AcDbLine
   6
CONTINUOUS
  62
7
  10
 2289.0000000000
  20
 1065.1090632963
  30
0.0
  11
 2304.0000000000
  21
 1065.1090632963
  31
0.0
   0
CIRCLE
   5
13B
 100
AcDbEntity
   8
LEVEL001
 100
AcDbCircle
   6
CONTINUOUS
  62
7
  10
 1882.0000000000
  20
 1064.1090632963
  30
0.0
  40
 3.5000000000000
   0
LINE
   5
13C
 100
AcDbEntity
   8
LEVEL001
 100
AcDbLine
   6
DASHDOT
  62
1
  10
 1882.0000000000
  20
 1069.9032773603
  30
0.0
  11
 1882.0000000000
  21
 1057.6030884802
  31
0.0
   0
CIRCLE
   5
13D
 100
AcDbEntity
   8
LEVEL001
 100
AcDbCircle
   6
CONTINUOUS
  62
7
  10
 1912.0000000000
  20
 1064.1090632963
  30
0.0
  40
 3.5000000000000
   0
LINE
   5
13E
 100
AcDbEntity
   8
LEVEL001
 100
AcDbLine
   6
DASHDOT
  62
1
  10
 1912.0000000000
  20
 1069.9032773603
  30
0.0
  11
 1912.0000000000
  21
 1057.6030884802
  31
0.0
   0
CIRCLE
   5
13F
 100
AcDbEntity
   8
LEVEL001
 100
AcDbCircle
   6
CONTINUOUS
  62
7
  10
 1942.0000000000
  20
 1064.1090632963
  30
0.0
  40
 3.5000000000000
   0
LINE
   5
140
 100
AcDbEntity
   8
LEVEL001
 100
AcDbLine
   6
DASHDOT
  62
1
  10
 1942.0000000000
  20
 1069.9032773603
  30
0.0
  11
 1942.0000000000
  21
 1057.6030884802
  31
0.0
   0
CIRCLE
   5
141
 100
AcDbEntity
   8
LEVEL001
 100
AcDbCircle
   6
CONTINUOUS
  62
7
  10
 1972.0000000000
  20
 1064.1090632963
  30
0.0
  40
 3.5000000000000
   0
LINE
   5
142
 100
AcDbEntity
   8
LEVEL001
 100
AcDbLine
   6
DASHDOT
  62
1
  10
 1972.0000000000
  20
 1069.9032773603
  30
0.0
  11
 1972.0000000000
  21
 1057.6030884802
  31
0.0
   0
LINE
   5
143
 100
AcDbEntity
   8
LEVEL001
 100
AcDbLine
   6
DASHDOT
  62
1
  10
 1979.4222662984
  20
 1064.1090632963
  30
0.0
  11
 1865.4537272410
  21
 1064.1090632963
  31
0.0
   0
CIRCLE
   5
144
 100
AcDbEntity
   8
LEVEL001
 100
AcDbCircle
   6
CONTINUOUS
  62
7
  10
 1999.0000000000
  20
 1050.0825758021
  30
0.0
  40
 3.5000000000000
   0
LINE
   5
145
 100
AcDbEntity
   8
LEVEL001
 100
AcDbLine
   6
DASHDOT
  62
1
  10
 1999.0000000000
  20
 1055.8767898661
  30
0.0
  11
 1999.0000000000
  21
 1043.5766009860
  31
0.0
   0
LINE
   5
146
 100
AcDbEntity
   8
LEVEL001
 100
AcDbLine
   6
DASHDOT
  62
1
  10
 1992.5006709307
  20
 1050.1090632963
  30
0.0
  11
 2006.0404137289
  21
 1050.1090632963
  31
0.0
   0
LINE
   5
147
 100
AcDbEntity
   8
LEVEL001
 100
AcDbLine
   6
CONTINUOUS
  62
7
  10
 1854.0000000000
  20
 1013.6090632963
  30
0.0
  11
 1854.0000000000
  21
 1113.6090632963
  31
0.0
   0
LINE
   5
148
 100
AcDbEntity
   8
LEVEL001
 100
AcDbLine
   6
HIDDEN
  62
1
  10
 1855.5000000000
  20
 988.60906329633
  30
0.0
  11
 1854.0000000000
  21
 988.60906329633
  31
0.0
   0
LINE
   5
149
 100
AcDbEntity
   8
LEVEL001
 100
AcDbLine
   6
HIDDEN
  62
1
  10
 1854.0000000000
  20
 988.60906329633
  30
0.0
  11
 1854.0000000000
  21
 1013.6090632963
  31
0.0
   0
LINE
   5
14A
 100
AcDbEntity
   8
LEVEL001
 100
AcDbLine
   6
HIDDEN
  62
1
  10
 1855.5000000000
  20
 988.60906329633
  30
0.0
  11
 1855.5000000000
  21
 1013.6051678724
  31
0.0
   0
LINE
   5
14B
 100
AcDbEntity
   8
LEVEL001
 100
AcDbLine
   6
HIDDEN
  62
1
  10
 1995.1339745962
  20
 1012.1090632963
  30
0.0
  11
 1974.0000000000
  21
 975.50394552985
  31
0.0
   0
ARC
   5
14C
 100
AcDbEntity
   8
LEVEL001
   6
HIDDEN
  62
1
 100
AcDbCircle
  10
 1997.7320508075
  20
 1010.6090632963
  30
0.0
  40
 3.0000000000000
 100
AcDbArc
  50
 90.000000000009
  51
 149.99999999999
   0
LINE
   5
14D
 100
AcDbEntity
   8
LEVEL001
 100
AcDbLine
   6
HIDDEN
  62
1
  10
 1974.0000000000
  20
 975.50394552985
  30
0.0
  11
 1972.7009618943
  21
 976.25394552987
  31
0.0
   0
LINE
   5
14E
 100
AcDbEntity
   8
LEVEL001
 100
AcDbLine
   6
HIDDEN
  62
1
  10
 1983.0000000000
  20
 991.09240279797
  30
0.0
  11
 1981.7009618943
  21
 991.84240279798
  31
0.0
   0
LINE
   5
14F
 100
AcDbEntity
   8
LEVEL001
 100
AcDbLine
   6
HIDDEN
  62
1
  10
 1972.7009618943
  20
 976.25394552984
  30
0.0
  11
 1995.1339745962
  21
 1015.1090632963
  31
0.0
   0
ENDBLK
   5
150
 100
AcDbEntity
   8
0
 100
AcDbBlockEnd
   0
BLOCK
   5
151
 100
AcDbEntity
   8
0
 100
AcDbBlockBegin
   2
BLOCK008
  70
64
  10
0.0
  20
0.0
  30
0.0
   3
BLOCK008
   0
CIRCLE
   5
152
 100
AcDbEntity
   8
LEVEL001
 100
AcDbCircle
   6
CONTINUOUS
  62
7
  10
 1909.0000000000
  20
 1732.8089802711
  30
0.0
  40
 5.0000000000000
   0
LINE
   5
153
 100
AcDbEntity
   8
LEVEL001
 100
AcDbLine
   6
DASHDOT
  62
1
  10
 1909.0000000000
  20
 2078.8248755910
  30
0.0
  11
 1909.0000000000
  21
 1719.4654624445
  31
0.0
   0
LINE
   5
154
 100
AcDbEntity
   8
LEVEL001
 100
AcDbLine
   6
DASHDOT
  62
1
  10
 2095.5033579311
  20
 2068.8089802711
  30
0.0
  11
 1899.4537574363
  21
 2068.8089802711
  31
0.0
   0
CIRCLE
   5
155
 100
AcDbEntity
   8
LEVEL001
 100
AcDbCircle
   6
CONTINUOUS
  62
7
  10
 1909.0000000000
  20
 2068.8089802711
  30
0.0
  40
 5.0000000000000
   0
CIRCLE
   5
156
 100
AcDbEntity
   8
LEVEL001
 100
AcDbCircle
   6
CONTINUOUS
  62
7
  10
 2084.0000000000
  20
 1732.8089802711
  30
0.0
  40
 5.0000000000000
   0
CIRCLE
   5
157
 100
AcDbEntity
   8
LEVEL001
 100
AcDbCircle
   6
CONTINUOUS
  62
7
  10
 2084.0000000000
  20
 2068.8089802711
  30
0.0
  40
 5.0000000000000
   0
LINE
   5
158
 100
AcDbEntity
   8
LEVEL001
 100
AcDbLine
   6
DASHDOT
  62
1
  10
 2084.0000000000
  20
 2076.6799315406
  30
0.0
  11
 2084.0000000000
  21
 1721.6022371598
  31
0.0
   0
LINE
   5
159
 100
AcDbEntity
   8
LEVEL001
 100
AcDbLine
   6
DASHDOT
  62
1
  10
 2093.0449548906
  20
 1732.8089802711
  30
0.0
  11
 1900.2083448451
  21
 1732.8089802711
  31
0.0
   0
LINE
   5
15A
 100
AcDbEntity
   8
LEVEL001
 100
AcDbLine
   6
DASHDOT
  62
1
  10
 1845.5000000000
  20
 1900.8089802711
  30
0.0
  11
 2326.1965248498
  21
 1900.8089802711
  31
0.0
   0
LINE
   5
15B
 100
AcDbEntity
   8
LEVEL001
 100
AcDbLine
   6
CONTINUOUS
  62
7
  10
 2199.0000000000
  20
 1768.3089802711
  30
0.0
  11
 2199.0000000000
  21
 1748.3089802711
  31
0.0
   0
LINE
   5
15C
 100
AcDbEntity
   8
LEVEL001
 100
AcDbLine
   6
CONTINUOUS
  62
7
  10
 2169.0000000000
  20
 1768.3089802711
  30
0.0
  11
 2169.0000000000
  21
 1748.3089802711
  31
0.0
   0
LINE
   5
15D
 100
AcDbEntity
   8
LEVEL001
 100
AcDbLine
   6
CONTINUOUS
  62
7
  10
 1989.0000000000
  20
 1768.3089802711
  30
0.0
  11
 1989.0000000000
  21
 1748.3089802711
  31
0.0
   0
LINE
   5
15E
 100
AcDbEntity
   8
LEVEL001
 100
AcDbLine
   6
CONTINUOUS
  62
7
  10
 1959.0000000000
  20
 1768.3089802711
  30
0.0
  11
 1959.0000000000
  21
 1748.3089802711
  31
0.0
   0
LINE
   5
15F
 100
AcDbEntity
   8
LEVEL001
 100
AcDbLine
   6
CONTINUOUS
  62
7
  10
 2199.0000000000
  20
 2033.3089802711
  30
0.0
  11
 2199.0000000000
  21
 2053.3089802711
  31
0.0
   0
LINE
   5
160
 100
AcDbEntity
   8
LEVEL001
 100
AcDbLine
   6
CONTINUOUS
  62
7
  10
 2169.0000000000
  20
 2033.3089802711
  30
0.0
  11
 2169.0000000000
  21
 2053.3089802711
  31
0.0
   0
LINE
   5
161
 100
AcDbEntity
   8
LEVEL001
 100
AcDbLine
   6
CONTINUOUS
  62
7
  10
 1989.0000000000
  20
 2033.3089802711
  30
0.0
  11
 1989.0000000000
  21
 2053.3089802711
  31
0.0
   0
LINE
   5
162
 100
AcDbEntity
   8
LEVEL001
 100
AcDbLine
   6
CONTINUOUS
  62
7
  10
 1959.0000000000
  20
 2033.3089802711
  30
0.0
  11
 1959.0000000000
  21
 2053.3089802711
  31
0.0
   0
LINE
   5
163
 100
AcDbEntity
   8
LEVEL001
 100
AcDbLine
   6
CONTINUOUS
  62
7
  10
 1971.4019237886
  20
 1791.3089802711
  30
0.0
  11
 1971.4019237886
  21
 2010.3089802711
  31
0.0
   0
LINE
   5
164
 100
AcDbEntity
   8
LEVEL001
 100
AcDbLine
   6
CONTINUOUS
  62
7
  10
 1995.1339745962
  20
 1768.3089802711
  30
0.0
  11
 1980.4019237886
  21
 1791.3089802711
  31
0.0
   0
LINE
   5
165
 100
AcDbEntity
   8
LEVEL001
 100
AcDbLine
   6
CONTINUOUS
  62
7
  10
 1971.4019237886
  20
 1791.3089802711
  30
0.0
  11
 1980.4019237886
  21
 1791.3089802711
  31
0.0
   0
LINE
   5
166
 100
AcDbEntity
   8
LEVEL001
 100
AcDbLine
   6
CONTINUOUS
  62
7
  10
 1980.4019237886
  20
 2010.3089802711
  30
0.0
  11
 1995.1339745962
  21
 2033.3089802711
  31
0.0
   0
LINE
   5
167
 100
AcDbEntity
   8
LEVEL001
 100
AcDbLine
   6
CONTINUOUS
  62
7
  10
 1971.4019237886
  20
 2010.3089802711
  30
0.0
  11
 1980.4019237886
  21
 2010.3089802711
  31
0.0
   0
LINE
   5
168
 100
AcDbEntity
   8
LEVEL001
 100
AcDbLine
   6
CONTINUOUS
  62
7
  10
 1995.1339745962
  20
 2019.7115125560
  30
0.0
  11
 1995.1339745962
  21
 1779.4637561467
  31
0.0
   0
LINE
   5
169
 100
AcDbEntity
   8
LEVEL001
 100
AcDbLine
   6
CONTINUOUS
  62
7
  10
 2200.5000000000
  20
 1748.3089802711
  30
0.0
  11
 2167.5000000000
  21
 1748.3089802711
  31
0.0
   0
LINE
   5
16A
 100
AcDbEntity
   8
LEVEL001
 100
AcDbLine
   6
CONTINUOUS
  62
7
  10
 1990.5000000000
  20
 1748.3089802711
  30
0.0
  11
 1957.5000000000
  21
 1748.3089802711
  31
0.0
   0
LINE
   5
16B
 100
AcDbEntity
   8
LEVEL001
 100
AcDbLine
   6
CONTINUOUS
  62
7
  10
 1990.5000000000
  20
 2053.3089802711
  30
0.0
  11
 1957.5000000000
  21
 2053.3089802711
  31
0.0
   0
LINE
   5
16C
 100
AcDbEntity
   8
LEVEL001
 100
AcDbLine
   6
CONTINUOUS
  62
7
  10
 2200.5000000000
  20
 2053.3089802711
  30
0.0
  11
 2167.5000000000
  21
 2053.3089802711
  31
0.0
   0
LINE
   5
16D
 100
AcDbEntity
   8
LEVEL001
 100
AcDbLine
   6
DASHDOT
  62
1
  10
 2184.0000000000
  20
 2060.6676427825
  30
0.0
  11
 2184.0000000000
  21
 1738.4622656353
  31
0.0
   0
LINE
   5
16E
 100
AcDbEntity
   8
LEVEL001
 100
AcDbLine
   6
DASHDOT
  62
1
  10
 1974.0000000000
  20
 2060.6676427825
  30
0.0
  11
 1974.0000000000
  21
 1738.4622656353
  31
0.0
   0
POINT
   5
16F
 100
AcDbEntity
   8
LEVEL001
 100
AcDbPoint
  62
7
  10
 2302.5000000000
  20
 2033.3089802711
  30
0.0
   0
POINT
   5
170
 100
AcDbEntity
   8
LEVEL001
 100
AcDbPoint
  62
7
  10
 2302.5000000000
  20
 1768.3089802711
  30
0.0
   0
ARC
   5
171
 100
AcDbEntity
   8
LEVEL001
   6
CONTINUOUS
  62
7
 100
AcDbCircle
  10
 2297.5000000000
  20
 1773.3089802711
  30
0.0
  40
 5.0000000000000
 100
AcDbArc
  50
 270.00000000000
  51
0.0
   0
POINT
   5
172
 100
AcDbEntity
   8
LEVEL001
 100
AcDbPoint
  62
7
  10
 2302.5000000000
  20
 1768.3089802711
  30
0.0
   0
ARC
   5
173
 100
AcDbEntity
   8
LEVEL001
   6
CONTINUOUS
  62
7
 100
AcDbCircle
  10
 2297.5000000000
  20
 2028.3089802711
  30
0.0
  40
 5.0000000000000
 100
AcDbArc
  50
0.0
  51
 90.000000000000
   0
LINE
   5
174
 100
AcDbEntity
   8
LEVEL001
 100
AcDbLine
   6
CONTINUOUS
  62
7
  10
 2200.5000000000
  20
 1766.8089802711
  30
0.0
  11
 2200.5000000000
  21
 1748.3089802711
  31
0.0
   0
LINE
   5
175
 100
AcDbEntity
   8
LEVEL001
 100
AcDbLine
   6
CONTINUOUS
  62
7
  10
 2167.5000000000
  20
 1748.3089802711
  30
0.0
  11
 2167.5000000000
  21
 1766.8089802711
  31
0.0
   0
LINE
   5
176
 100
AcDbEntity
   8
LEVEL001
 100
AcDbLine
   6
CONTINUOUS
  62
7
  10
 1957.5000000000
  20
 1748.3089802711
  30
0.0
  11
 1957.5000000000
  21
 1766.8089802711
  31
0.0
   0
LINE
   5
177
 100
AcDbEntity
   8
LEVEL001
 100
AcDbLine
   6
CONTINUOUS
  62
7
  10
 1990.5000000000
  20
 1766.8089802711
  30
0.0
  11
 1990.5000000000
  21
 1748.3089802711
  31
0.0
   0
LINE
   5
178
 100
AcDbEntity
   8
LEVEL001
 100
AcDbLine
   6
HIDDEN
  62
1
  10
 2169.0000000000
  20
 1766.8089802711
  30
0.0
  11
 2199.0000000000
  21
 1766.8089802711
  31
0.0
   0
LINE
   5
179
 100
AcDbEntity
   8
LEVEL001
 100
AcDbLine
   6
CONTINUOUS
  62
7
  10
 1989.0000000000
  20
 1766.8089802711
  30
0.0
  11
 2169.0000000000
  21
 1766.8089802711
  31
0.0
   0
LINE
   5
17A
 100
AcDbEntity
   8
LEVEL001
 100
AcDbLine
   6
HIDDEN
  62
1
  10
 1959.0000000000
  20
 1766.8089802711
  30
0.0
  11
 1989.0000000000
  21
 1766.8089802711
  31
0.0
   0
POINT
   5
17B
 100
AcDbEntity
   8
LEVEL001
 100
AcDbPoint
  62
7
  10
 1855.5000000000
  20
 1768.3089802711
  30
0.0
   0
POINT
   5
17C
 100
AcDbEntity
   8
LEVEL001
 100
AcDbPoint
  62
7
  10
 1855.5000000000
  20
 2033.3089802711
  30
0.0
   0
ARC
   5
17D
 100
AcDbEntity
   8
LEVEL001
   6
CONTINUOUS
  62
7
 100
AcDbCircle
  10
 1860.5000000000
  20
 1773.3089802711
  30
0.0
  40
 5.0000000000000
 100
AcDbArc
  50
 180.00000000000
  51
 270.00000000000
   0
POINT
   5
17E
 100
AcDbEntity
   8
LEVEL001
 100
AcDbPoint
  62
7
  10
 1855.5000000000
  20
 1768.3089802711
  30
0.0
   0
ARC
   5
17F
 100
AcDbEntity
   8
LEVEL001
   6
CONTINUOUS
  62
7
 100
AcDbCircle
  10
 1860.5000000000
  20
 2028.3089802711
  30
0.0
  40
 5.0000000000000
 100
AcDbArc
  50
 90.000000000000
  51
 180.00000000000
   0
LINE
   5
180
 100
AcDbEntity
   8
LEVEL001
 100
AcDbLine
   6
CONTINUOUS
  62
7
  10
 1957.5000000000
  20
 2053.3089802711
  30
0.0
  11
 1957.5000000000
  21
 2034.8089802711
  31
0.0
   0
LINE
   5
181
 100
AcDbEntity
   8
LEVEL001
 100
AcDbLine
   6
CONTINUOUS
  62
7
  10
 1990.5000000000
  20
 2034.8089802711
  30
0.0
  11
 1990.5000000000
  21
 2053.3089802711
  31
0.0
   0
LINE
   5
182
 100
AcDbEntity
   8
LEVEL001
 100
AcDbLine
   6
CONTINUOUS
  62
7
  10
 2167.5000000000
  20
 2053.3089802711
  30
0.0
  11
 2167.5000000000
  21
 2034.8089802711
  31
0.0
   0
LINE
   5
183
 100
AcDbEntity
   8
LEVEL001
 100
AcDbLine
   6
CONTINUOUS
  62
7
  10
 2200.5000000000
  20
 2034.8089802711
  30
0.0
  11
 2200.5000000000
  21
 2053.3089802711
  31
0.0
   0
LINE
   5
184
 100
AcDbEntity
   8
LEVEL001
 100
AcDbLine
   6
HIDDEN
  62
1
  10
 1959.0000000000
  20
 2034.8089802711
  30
0.0
  11
 1989.0000000000
  21
 2034.8089802711
  31
0.0
   0
LINE
   5
185
 100
AcDbEntity
   8
LEVEL001
 100
AcDbLine
   6
CONTINUOUS
  62
7
  10
 1989.0000000000
  20
 2034.8089802711
  30
0.0
  11
 2169.0000000000
  21
 2034.8089802711
  31
0.0
   0
LINE
   5
186
 100
AcDbEntity
   8
LEVEL001
 100
AcDbLine
   6
HIDDEN
  62
1
  10
 2169.0000000000
  20
 2034.8089802711
  30
0.0
  11
 2199.0000000000
  21
 2034.8089802711
  31
0.0
   0
LINE
   5
187
 100
AcDbEntity
   8
LEVEL001
 100
AcDbLine
   6
CONTINUOUS
  62
7
  10
 2199.0000000000
  20
 2034.8089802711
  30
0.0
  11
 2297.5000000000
  21
 2034.8089802711
  31
0.0
   0
ARC
   5
188
 100
AcDbEntity
   8
LEVEL001
   6
CONTINUOUS
  62
7
 100
AcDbCircle
  10
 2297.5000000000
  20
 2028.3089802711
  30
0.0
  40
 6.5000000000000
 100
AcDbArc
  50
0.0
  51
 90.000000000000
   0
POINT
   5
189
 100
AcDbEntity
   8
LEVEL001
 100
AcDbPoint
  62
7
  10
 2304.0000000000
  20
 2034.8089802711
  30
0.0
   0
LINE
   5
18A
 100
AcDbEntity
   8
LEVEL001
 100
AcDbLine
   6
CONTINUOUS
  62
7
  10
 2199.0000000000
  20
 1766.8089802711
  30
0.0
  11
 2297.5000000000
  21
 1766.8089802711
  31
0.0
   0
ARC
   5
18B
 100
AcDbEntity
   8
LEVEL001
   6
CONTINUOUS
  62
7
 100
AcDbCircle
  10
 2297.5000000000
  20
 1773.3089802711
  30
0.0
  40
 6.5000000000000
 100
AcDbArc
  50
 270.00000000000
  51
0.0
   0
POINT
   5
18C
 100
AcDbEntity
   8
LEVEL001
 100
AcDbPoint
  62
7
  10
 2304.0000000000
  20
 1766.8089802711
  30
0.0
   0
LINE
   5
18D
 100
AcDbEntity
   8
LEVEL001
 100
AcDbLine
   6
CONTINUOUS
  62
7
  10
 2304.0000000000
  20
 2028.3089802711
  30
0.0
  11
 2304.0000000000
  21
 1773.3089802711
  31
0.0
   0
LINE
   5
18E
 100
AcDbEntity
   8
LEVEL001
 100
AcDbLine
   6
CONTINUOUS
  62
7
  10
 2302.5000000000
  20
 2028.3089802711
  30
0.0
  11
 2302.5000000000
  21
 1773.3089802711
  31
0.0
   0
LINE
   5
18F
 100
AcDbEntity
   8
LEVEL001
 100
AcDbLine
   6
CONTINUOUS
  62
7
  10
 1860.5000000000
  20
 2033.3089802711
  30
0.0
  11
 2297.5000000000
  21
 2033.3089802711
  31
0.0
   0
ARC
   5
190
 100
AcDbEntity
   8
LEVEL001
   6
CONTINUOUS
  62
7
 100
AcDbCircle
  10
 1860.5000000000
  20
 2028.3089802711
  30
0.0
  40
 6.5000000000000
 100
AcDbArc
  50
 90.000000000000
  51
 180.00000000000
   0
POINT
   5
191
 100
AcDbEntity
   8
LEVEL001
 100
AcDbPoint
  62
7
  10
 1854.0000000000
  20
 2034.8089802711
  30
0.0
   0
LINE
   5
192
 100
AcDbEntity
   8
LEVEL001
 100
AcDbLine
   6
CONTINUOUS
  62
7
  10
 1860.5000000000
  20
 2034.8089802711
  30
0.0
  11
 1959.0000000000
  21
 2034.8089802711
  31
0.0
   0
LINE
   5
193
 100
AcDbEntity
   8
LEVEL001
 100
AcDbLine
   6
CONTINUOUS
  62
7
  10
 1860.5000000000
  20
 1768.3089802711
  30
0.0
  11
 2297.5000000000
  21
 1768.3089802711
  31
0.0
   0
LINE
   5
194
 100
AcDbEntity
   8
LEVEL001
 100
AcDbLine
   6
CONTINUOUS
  62
7
  10
 1855.5000000000
  20
 2028.3089802711
  30
0.0
  11
 1855.5000000000
  21
 1773.3089802711
  31
0.0
   0
LINE
   5
195
 100
AcDbEntity
   8
LEVEL001
 100
AcDbLine
   6
CONTINUOUS
  62
7
  10
 1854.0000000000
  20
 2028.3089802711
  30
0.0
  11
 1854.0000000000
  21
 1773.3089802711
  31
0.0
   0
ARC
   5
196
 100
AcDbEntity
   8
LEVEL001
   6
CONTINUOUS
  62
7
 100
AcDbCircle
  10
 1860.5000000000
  20
 1773.3089802711
  30
0.0
  40
 6.5000000000000
 100
AcDbArc
  50
 180.00000000000
  51
 270.00000000000
   0
POINT
   5
197
 100
AcDbEntity
   8
LEVEL001
 100
AcDbPoint
  62
7
  10
 1854.0000000000
  20
 1766.8089802711
  30
0.0
   0
LINE
   5
198
 100
AcDbEntity
   8
LEVEL001
 100
AcDbLine
   6
CONTINUOUS
  62
7
  10
 1860.5000000000
  20
 1766.8089802711
  30
0.0
  11
 1959.0000000000
  21
 1766.8089802711
  31
0.0
   0
POINT
   5
199
 100
AcDbEntity
   8
LEVEL001
 100
AcDbPoint
  62
7
  10
 2104.0000000000
  20
 1761.8089802711
  30
0.0
   0
LINE
   5
19A
 100
AcDbEntity
   8
LEVEL001
 100
AcDbLine
   6
CONTINUOUS
  62
7
  10
 2094.0000000000
  20
 2039.8089802711
  30
0.0
  11
 2104.0000000000
  21
 2049.8089802711
  31
0.0
   0
POINT
   5
19B
 100
AcDbEntity
   8
LEVEL001
 100
AcDbPoint
  62
7
  10
 2104.0000000000
  20
 2039.8089802711
  30
0.0
   0
LINE
   5
19C
 100
AcDbEntity
   8
LEVEL001
 100
AcDbLine
   6
CONTINUOUS
  62
7
  10
 2094.0000000000
  20
 1761.8089802711
  30
0.0
  11
 2104.0000000000
  21
 1751.8089802711
  31
0.0
   0
LINE
   5
19D
 100
AcDbEntity
   8
LEVEL001
 100
AcDbLine
   6
CONTINUOUS
  62
7
  10
 2094.0000000000
  20
 1719.8089802711
  30
0.0
  11
 2104.0000000000
  21
 1729.8089802711
  31
0.0
   0
LINE
   5
19E
 100
AcDbEntity
   8
LEVEL001
 100
AcDbLine
   6
CONTINUOUS
  62
7
  10
 2104.0000000000
  20
 1751.8089802711
  30
0.0
  11
 2104.0000000000
  21
 1729.8089802711
  31
0.0
   0
LINE
   5
19F
 100
AcDbEntity
   8
LEVEL001
 100
AcDbLine
   6
CONTINUOUS
  62
7
  10
 2094.0000000000
  20
 2081.8089802711
  30
0.0
  11
 2104.0000000000
  21
 2071.8089802711
  31
0.0
   0
LINE
   5
1A0
 100
AcDbEntity
   8
LEVEL001
 100
AcDbLine
   6
CONTINUOUS
  62
7
  10
 2104.0000000000
  20
 2049.8089802711
  30
0.0
  11
 2104.0000000000
  21
 2071.8089802711
  31
0.0
   0
LINE
   5
1A1
 100
AcDbEntity
   8
LEVEL001
 100
AcDbLine
   6
CONTINUOUS
  62
7
  10
 2019.0000000000
  20
 2034.8089802711
  30
0.0
  11
 2019.0000000000
  21
 2039.8089802711
  31
0.0
   0
LINE
   5
1A2
 100
AcDbEntity
   8
LEVEL001
 100
AcDbLine
   6
CONTINUOUS
  62
7
  10
 2019.0000000000
  20
 2039.8089802711
  30
0.0
  11
 2094.0000000000
  21
 2039.8089802711
  31
0.0
   0
LINE
   5
1A3
 100
AcDbEntity
   8
LEVEL001
 100
AcDbLine
   6
CONTINUOUS
  62
7
  10
 2019.0000000000
  20
 1766.8089802711
  30
0.0
  11
 2019.0000000000
  21
 1761.8089802711
  31
0.0
   0
LINE
   5
1A4
 100
AcDbEntity
   8
LEVEL001
 100
AcDbLine
   6
CONTINUOUS
  62
7
  10
 2019.0000000000
  20
 1761.8089802711
  30
0.0
  11
 2094.0000000000
  21
 1761.8089802711
  31
0.0
   0
LINE
   5
1A5
 100
AcDbEntity
   8
LEVEL001
 100
AcDbLine
   6
CONTINUOUS
  62
7
  10
 2019.0000000000
  20
 1765.3089802711
  30
0.0
  11
 1990.5000000000
  21
 1765.3089802711
  31
0.0
   0
LINE
   5
1A6
 100
AcDbEntity
   8
LEVEL001
 100
AcDbLine
   6
CONTINUOUS
  62
7
  10
 1869.0000000000
  20
 2071.8089802711
  30
0.0
  11
 1879.0000000000
  21
 2081.8089802711
  31
0.0
   0
LINE
   5
1A7
 100
AcDbEntity
   8
LEVEL001
 100
AcDbLine
   6
CONTINUOUS
  62
7
  10
 2094.0000000000
  20
 2081.8089802711
  30
0.0
  11
 1879.0000000000
  21
 2081.8089802711
  31
0.0
   0
LINE
   5
1A8
 100
AcDbEntity
   8
LEVEL001
 100
AcDbLine
   6
CONTINUOUS
  62
7
  10
 1869.0000000000
  20
 2034.8089802711
  30
0.0
  11
 1869.0000000000
  21
 2033.3089802711
  31
0.0
   0
LINE
   5
1A9
 100
AcDbEntity
   8
LEVEL001
 100
AcDbLine
   6
CONTINUOUS
  62
7
  10
 1869.0000000000
  20
 2034.8089802711
  30
0.0
  11
 1869.0000000000
  21
 2071.8089802711
  31
0.0
   0
LINE
   5
1AA
 100
AcDbEntity
   8
LEVEL001
 100
AcDbLine
   6
CONTINUOUS
  62
7
  10
 1869.0000000000
  20
 1729.8089802711
  30
0.0
  11
 1879.0000000000
  21
 1719.8089802711
  31
0.0
   0
LINE
   5
1AB
 100
AcDbEntity
   8
LEVEL001
 100
AcDbLine
   6
CONTINUOUS
  62
7
  10
 2094.0000000000
  20
 1719.8089802711
  30
0.0
  11
 1879.0000000000
  21
 1719.8089802711
  31
0.0
   0
LINE
   5
1AC
 100
AcDbEntity
   8
LEVEL001
 100
AcDbLine
   6
CONTINUOUS
  62
7
  10
 1869.0000000000
  20
 1768.3089802711
  30
0.0
  11
 1869.0000000000
  21
 1729.8089802711
  31
0.0
   0
LINE
   5
1AD
 100
AcDbEntity
   8
LEVEL001
 100
AcDbLine
   6
CONTINUOUS
  62
7
  10
 1869.0000000000
  20
 1765.3089802711
  30
0.0
  11
 1957.5000000000
  21
 1765.3089802711
  31
0.0
   0
LINE
   5
1AE
 100
AcDbEntity
   8
LEVEL001
 100
AcDbLine
   6
HIDDEN
  62
1
  10
 1957.5000000000
  20
 1765.3089802711
  30
0.0
  11
 1990.5000000000
  21
 1765.3089802711
  31
0.0
   0
LINE
   5
1AF
 100
AcDbEntity
   8
LEVEL001
 100
AcDbLine
   6
CONTINUOUS
  62
7
  10
 1869.0000000000
  20
 2036.3089802711
  30
0.0
  11
 1957.5000000000
  21
 2036.3089802711
  31
0.0
   0
LINE
   5
1B0
 100
AcDbEntity
   8
LEVEL001
 100
AcDbLine
   6
HIDDEN
  62
1
  10
 1957.5000000000
  20
 2036.3089802711
  30
0.0
  11
 1990.5000000000
  21
 2036.3089802711
  31
0.0
   0
LINE
   5
1B1
 100
AcDbEntity
   8
LEVEL001
 100
AcDbLine
   6
CONTINUOUS
  62
7
  10
 2019.0000000000
  20
 2036.3089802711
  30
0.0
  11
 1990.5000000000
  21
 2036.3089802711
  31
0.0
   0
LINE
   5
1B2
 100
AcDbEntity
   8
LEVEL001
 100
AcDbLine
   6
CONTINUOUS
  62
7
  10
 2289.0000000000
  20
 1768.3089802711
  30
0.0
  11
 2289.0000000000
  21
 1766.8089802711
  31
0.0
   0
LINE
   5
1B3
 100
AcDbEntity
   8
LEVEL001
 100
AcDbLine
   6
CONTINUOUS
  62
7
  10
 2289.0000000000
  20
 2033.3089802711
  30
0.0
  11
 2289.0000000000
  21
 2034.8089802711
  31
0.0
   0
ENDBLK
   5
1B4
 100
AcDbEntity
   8
0
 100
AcDbBlockEnd
   0
BLOCK
   5
1B5
 100
AcDbEntity
   8
0
 100
AcDbBlockBegin
   2
*D1
  70
65
  10
0.0
  20
0.0
  30
0.0
   3
*D1
   0
LINE
   5
1B6
 100
AcDbEntity
   8
LEVEL001
 100
AcDbLine
   6
CONTINUOUS
  62
1
  10
 1443.0000000000
  20
 73.609063296334
  30
0.0
  11
 1127.8140661440
  21
 73.609063296334
  31
0.0
   0
LINE
   5
1B7
 100
AcDbEntity
   8
LEVEL001
 100
AcDbLine
   6
CONTINUOUS
  62
1
  10
 1854.0000000000
  20
 1198.6090632963
  30
0.0
  11
 1127.8140661440
  21
 1198.6090632963
  31
0.0
   0
LINE
   5
1B8
 100
AcDbEntity
   8
LEVEL001
 100
AcDbLine
   6
CONTINUOUS
  62
1
  10
 1139.8140661440
  20
 73.609063296334
  30
0.0
  11
 1139.8140661440
  21
 636.10906329633
  31
0.0
   0
LINE
   5
1B9
 100
AcDbEntity
   8
LEVEL001
 100
AcDbLine
   6
CONTINUOUS
  62
1
  10
 1139.8140661440
  20
 1198.6090632963
  30
0.0
  11
 1139.8140661440
  21
 636.10906329633
  31
0.0
   0
INSERT
   5
1BA
 100
AcDbEntity
   8
LEVEL001
   6
CONTINUOUS
  62
1
 100
AcDbBlockReference
   2
_OPEN30
  10
 1139.8140661440
  20
 73.609063296334
  30
0.0
  41
 18.000000000000
  42
 18.000000000000
  43
 18.000000000000
  50
 270.00000000000
   0
INSERT
   5
1BB
 100
AcDbEntity
   8
LEVEL001
   6
CONTINUOUS
  62
1
 100
AcDbBlockReference
   2
_OPEN30
  10
 1139.8140661440
  20
 1198.6090632963
  30
0.0
  41
 18.000000000000
  42
 18.000000000000
  43
 18.000000000000
  50
 90.000000000000
   0
MTEXT
   5
1BC
 100
AcDbEntity
   8
LEVEL001
  62
7
 100
AcDbMText
  10
 1133.8140661440
  20
 636.10906329633
  30
0.0
  40
 24.000000000000
  41
0.0
  71
8
  72
1
   1
\A1;1125
   7
GMM001
  11
0.0
  21
 1.0000000000000
  31
0.0
   0
ENDBLK
   5
1BD
 100
AcDbEntity
   8
0
 100
AcDbBlockEnd
   0
BLOCK
   5
1BE
 100
AcDbEntity
   8
0
 100
AcDbBlockBegin
   2
*D2
  70
65
  10
0.0
  20
0.0
  30
0.0
   3
*D2
   0
LINE
   5
1BF
 100
AcDbEntity
   8
LEVEL001
 100
AcDbLine
   6
CONTINUOUS
  62
1
  10
 1878.2625417919
  20
 959.63080241708
  30
0.0
  11
 1811.0000000000
  21
 913.60906329633
  31
0.0
   0
LINE
   5
1C0
 100
AcDbEntity
   8
LEVEL001
 100
AcDbLine
   6
CONTINUOUS
  62
1
  10
 1811.0000000000
  20
 913.60906329633
  30
0.0
  11
 1743.7374582081
  21
 867.58732417559
  31
0.0
   0
INSERT
   5
1C1
 100
AcDbEntity
   8
LEVEL001
   6
CONTINUOUS
  62
1
 100
AcDbBlockReference
   2
_OPEN30
  10
 1878.2625417919
  20
 959.63080241708
  30
0.0
  41
 18.000000000000
  42
 18.000000000000
  43
 18.000000000000
  50
 34.380344723843
   0
INSERT
   5
1C2
 100
AcDbEntity
   8
LEVEL001
   6
CONTINUOUS
  62
1
 100
AcDbBlockReference
   2
_OPEN30
  10
 1743.7374582081
  20
 867.58732417559
  30
0.0
  41
 18.000000000000
  42
 18.000000000000
  43
 18.000000000000
  50
 214.38034472384
   0
MTEXT
   5
1C3
 100
AcDbEntity
   8
LEVEL001
  62
7
 100
AcDbMText
  10
 1796.0000000000
  20
 931.60906329634
  30
0.0
  40
 24.000000000000
  41
0.0
  71
8
  72
1
   1
\A1;%%c163
   7
GMM001
  11
 0.82530726124985
  21
 0.56468391559197
  31
0.0
   0
ENDBLK
   5
1C4
 100
AcDbEntity
   8
0
 100
AcDbBlockEnd
   0
BLOCK
   5
1C5
 100
AcDbEntity
   8
0
 100
AcDbBlockBegin
   2
*D3
  70
65
  10
0.0
  20
0.0
  30
0.0
   3
*D3
   0
LINE
   5
1C6
 100
AcDbEntity
   8
LEVEL001
 100
AcDbLine
   6
CONTINUOUS
  62
1
  10
 400.00000000000
  20
 913.60906329633
  30
0.0
  11
 400.00000000000
  21
 942.60906329633
  31
0.0
   0
LINE
   5
1C7
 100
AcDbEntity
   8
LEVEL001
 100
AcDbLine
   6
CONTINUOUS
  62
1
  10
 620.00000000000
  20
 913.60906329633
  30
0.0
  11
 620.00000000000
  21
 942.60906329633
  31
0.0
   0
LINE
   5
1C8
 100
AcDbEntity
   8
LEVEL001
 100
AcDbLine
   6
CONTINUOUS
  62
1
  10
 400.00000000000
  20
 930.60906329633
  30
0.0
  11
 510.00000000000
  21
 930.60906329633
  31
0.0
   0
LINE
   5
1C9
 100
AcDbEntity
   8
LEVEL001
 100
AcDbLine
   6
CONTINUOUS
  62
1
  10
 620.00000000000
  20
 930.60906329633
  30
0.0
  11
 510.00000000000
  21
 930.60906329633
  31
0.0
   0
INSERT
   5
1CA
 100
AcDbEntity
   8
LEVEL001
   6
CONTINUOUS
  62
1
 100
AcDbBlockReference
   2
_OPEN30
  10
 400.00000000000
  20
 930.60906329633
  30
0.0
  41
 18.000000000000
  42
 18.000000000000
  43
 18.000000000000
  50
 180.00000000000
   0
INSERT
   5
1CB
 100
AcDbEntity
   8
LEVEL001
   6
CONTINUOUS
  62
1
 100
AcDbBlockReference
   2
_OPEN30
  10
 620.00000000000
  20
 930.60906329633
  30
0.0
  41
 18.000000000000
  42
 18.000000000000
  43
 18.000000000000
  50
0.0
   0
MTEXT
   5
1CC
 100
AcDbEntity
   8
LEVEL001
  62
7
 100
AcDbMText
  10
 510.00000000000
  20
 940.89477758205
  30
0.0
  40
 24.000000000000
  41
0.0
  71
8
  72
1
   1
\A1;220
   7
GMM001
   0
ENDBLK
   5
1CD
 100
AcDbEntity
   8
0
 100
AcDbBlockEnd
   0
BLOCK
   5
1CE
 100
AcDbEntity
   8
0
 100
AcDbBlockBegin
   2
*D4
  70
65
  10
0.0
  20
0.0
  30
0.0
   3
*D4
   0
LINE
   5
1CF
 100
AcDbEntity
   8
LEVEL001
 100
AcDbLine
   6
CONTINUOUS
  62
1
  10
 1660.5000000000
  20
 73.609063296334
  30
0.0
  11
 1275.0000000000
  21
 73.609063296334
  31
0.0
   0
LINE
   5
1D0
 100
AcDbEntity
   8
LEVEL001
 100
AcDbLine
   6
CONTINUOUS
  62
1
  10
 1521.0000000000
  20
 495.60906329633
  30
0.0
  11
 1275.0000000000
  21
 495.60906329633
  31
0.0
   0
LINE
   5
1D1
 100
AcDbEntity
   8
LEVEL001
 100
AcDbLine
   6
CONTINUOUS
  62
1
  10
 1287.0000000000
  20
 73.609063296334
  30
0.0
  11
 1287.0000000000
  21
 284.60906329633
  31
0.0
   0
LINE
   5
1D2
 100
AcDbEntity
   8
LEVEL001
 100
AcDbLine
   6
CONTINUOUS
  62
1
  10
 1287.0000000000
  20
 495.60906329633
  30
0.0
  11
 1287.0000000000
  21
 284.60906329633
  31
0.0
   0
INSERT
   5
1D3
 100
AcDbEntity
   8
LEVEL001
   6
CONTINUOUS
  62
1
 100
AcDbBlockReference
   2
_OPEN30
  10
 1287.0000000000
  20
 73.609063296334
  30
0.0
  41
 18.000000000000
  42
 18.000000000000
  43
 18.000000000000
  50
 270.00000000000
   0
INSERT
   5
1D4
 100
AcDbEntity
   8
LEVEL001
   6
CONTINUOUS
  62
1
 100
AcDbBlockReference
   2
_OPEN30
  10
 1287.0000000000
  20
 495.60906329633
  30
0.0
  41
 18.000000000000
  42
 18.000000000000
  43
 18.000000000000
  50
 90.000000000000
   0
MTEXT
   5
1D5
 100
AcDbEntity
   8
LEVEL001
  62
7
 100
AcDbMText
  10
 1276.7142857143
  20
 284.60906329633
  30
0.0
  40
 24.000000000000
  41
0.0
  71
8
  72
1
   1
\A1;422
   7
GMM001
  11
0.0
  21
 1.0000000000000
  31
0.0
   0
ENDBLK
   5
1D6
 100
AcDbEntity
   8
0
 100
AcDbBlockEnd
   0
BLOCK
   5
1D7
 100
AcDbEntity
   8
0
 100
AcDbBlockBegin
   2
*D5
  70
65
  10
0.0
  20
0.0
  30
0.0
   3
*D5
   0
LINE
   5
1D8
 100
AcDbEntity
   8
LEVEL001
 100
AcDbLine
   6
CONTINUOUS
  62
1
  10
 1660.5000000000
  20
 73.609063296334
  30
0.0
  11
 1204.0000000000
  21
 73.609063296334
  31
0.0
   0
LINE
   5
1D9
 100
AcDbEntity
   8
LEVEL001
 100
AcDbLine
   6
CONTINUOUS
  62
1
  10
 1804.0000000000
  20
 1013.6090632963
  30
0.0
  11
 1204.0000000000
  21
 1013.6090632963
  31
0.0
   0
LINE
   5
1DA
 100
AcDbEntity
   8
LEVEL001
 100
AcDbLine
   6
CONTINUOUS
  62
1
  10
 1216.0000000000
  20
 73.609063296334
  30
0.0
  11
 1216.0000000000
  21
 543.60906329633
  31
0.0
   0
LINE
   5
1DB
 100
AcDbEntity
   8
LEVEL001
 100
AcDbLine
   6
CONTINUOUS
  62
1
  10
 1216.0000000000
  20
 1013.6090632963
  30
0.0
  11
 1216.0000000000
  21
 543.60906329633
  31
0.0
   0
INSERT
   5
1DC
 100
AcDbEntity
   8
LEVEL001
   6
CONTINUOUS
  62
1
 100
AcDbBlockReference
   2
_OPEN30
  10
 1216.0000000000
  20
 73.609063296334
  30
0.0
  41
 18.000000000000
  42
 18.000000000000
  43
 18.000000000000
  50
 270.00000000000
   0
INSERT
   5
1DD
 100
AcDbEntity
   8
LEVEL001
   6
CONTINUOUS
  62
1
 100
AcDbBlockReference
   2
_OPEN30
  10
 1216.0000000000
  20
 1013.6090632963
  30
0.0
  41
 18.000000000000
  42
 18.000000000000
  43
 18.000000000000
  50
 90.000000000000
   0
MTEXT
   5
1DE
 100
AcDbEntity
   8
LEVEL001
  62
7
 100
AcDbMText
  10
 1205.7142857143
  20
 543.60906329633
  30
0.0
  40
 24.000000000000
  41
0.0
  71
8
  72
1
   1
\A1;940
   7
GMM001
  11
0.0
  21
 1.0000000000000
  31
0.0
   0
ENDBLK
   5
1DF
 100
AcDbEntity
   8
0
 100
AcDbBlockEnd
   0
BLOCK
   5
1E0
 100
AcDbEntity
   8
0
 100
AcDbBlockBegin
   2
*D6
  70
65
  10
0.0
  20
0.0
  30
0.0
   3
*D6
   0
LINE
   5
1E1
 100
AcDbEntity
   8
LEVEL001
 100
AcDbLine
   6
CONTINUOUS
  62
1
  10
 232.50000000000
  20
 955.60906329633
  30
0.0
  11
 232.50000000000
  21
 1310.4662061535
  31
0.0
   0
LINE
   5
1E2
 100
AcDbEntity
   8
LEVEL001
 100
AcDbLine
   6
CONTINUOUS
  62
1
  10
 762.50000000000
  20
 955.60906329633
  30
0.0
  11
 762.50000000000
  21
 1310.4662061535
  31
0.0
   0
LINE
   5
1E3
 100
AcDbEntity
   8
LEVEL001
 100
AcDbLine
   6
CONTINUOUS
  62
1
  10
 232.50000000000
  20
 1298.4662061535
  30
0.0
  11
 497.50000000000
  21
 1298.4662061535
  31
0.0
   0
LINE
   5
1E4
 100
AcDbEntity
   8
LEVEL001
 100
AcDbLine
   6
CONTINUOUS
  62
1
  10
 762.50000000000
  20
 1298.4662061535
  30
0.0
  11
 497.50000000000
  21
 1298.4662061535
  31
0.0
   0
INSERT
   5
1E5
 100
AcDbEntity
   8
LEVEL001
   6
CONTINUOUS
  62
1
 100
AcDbBlockReference
   2
_OPEN30
  10
 232.50000000000
  20
 1298.4662061535
  30
0.0
  41
 18.000000000000
  42
 18.000000000000
  43
 18.000000000000
  50
 180.00000000000
   0
INSERT
   5
1E6
 100
AcDbEntity
   8
LEVEL001
   6
CONTINUOUS
  62
1
 100
AcDbBlockReference
   2
_OPEN30
  10
 762.50000000000
  20
 1298.4662061535
  30
0.0
  41
 18.000000000000
  42
 18.000000000000
  43
 18.000000000000
  50
0.0
   0
MTEXT
   5
1E7
 100
AcDbEntity
   8
LEVEL001
  62
7
 100
AcDbMText
  10
 497.50000000000
  20
 1308.7519204392
  30
0.0
  40
 24.000000000000
  41
0.0
  71
8
  72
1
   1
\A1;530
   7
GMM001
   0
ENDBLK
   5
1E8
 100
AcDbEntity
   8
0
 100
AcDbBlockEnd
   0
BLOCK
   5
1E9
 100
AcDbEntity
   8
0
 100
AcDbBlockBegin
   2
*D7
  70
65
  10
0.0
  20
0.0
  30
0.0
   3
*D7
   0
LINE
   5
1EA
 100
AcDbEntity
   8
LEVEL001
 100
AcDbLine
   6
CONTINUOUS
  62
1
  10
 232.50000000000
  20
 955.60906329633
  30
0.0
  11
 232.50000000000
  21
 1372.7519204392
  31
0.0
   0
LINE
   5
1EB
 100
AcDbEntity
   8
LEVEL001
 100
AcDbLine
   6
CONTINUOUS
  62
1
  10
 882.50000000000
  20
 941.10906329633
  30
0.0
  11
 882.50000000000
  21
 1372.7519204392
  31
0.0
   0
LINE
   5
1EC
 100
AcDbEntity
   8
LEVEL001
 100
AcDbLine
   6
CONTINUOUS
  62
1
  10
 232.50000000000
  20
 1360.7519204392
  30
0.0
  11
 557.50000000000
  21
 1360.7519204392
  31
0.0
   0
LINE
   5
1ED
 100
AcDbEntity
   8
LEVEL001
 100
AcDbLine
   6
CONTINUOUS
  62
1
  10
 882.50000000000
  20
 1360.7519204392
  30
0.0
  11
 557.50000000000
  21
 1360.7519204392
  31
0.0
   0
INSERT
   5
1EE
 100
AcDbEntity
   8
LEVEL001
   6
CONTINUOUS
  62
1
 100
AcDbBlockReference
   2
_OPEN30
  10
 232.50000000000
  20
 1360.7519204392
  30
0.0
  41
 18.000000000000
  42
 18.000000000000
  43
 18.000000000000
  50
 180.00000000000
   0
INSERT
   5
1EF
 100
AcDbEntity
   8
LEVEL001
   6
CONTINUOUS
  62
1
 100
AcDbBlockReference
   2
_OPEN30
  10
 882.50000000000
  20
 1360.7519204392
  30
0.0
  41
 18.000000000000
  42
 18.000000000000
  43
 18.000000000000
  50
0.0
   0
MTEXT
   5
1F0
 100
AcDbEntity
   8
LEVEL001
  62
7
 100
AcDbMText
  10
 557.50000000000
  20
 1371.0376347249
  30
0.0
  40
 24.000000000000
  41
0.0
  71
8
  72
1
   1
\A1;650
   7
GMM001
   0
ENDBLK
   5
1F1
 100
AcDbEntity
   8
0
 100
AcDbBlockEnd
   0
BLOCK
   5
1F2
 100
AcDbEntity
   8
0
 100
AcDbBlockBegin
   2
*D8
  70
65
  10
0.0
  20
0.0
  30
0.0
   3
*D8
   0
LINE
   5
1F3
 100
AcDbEntity
   8
LEVEL001
 100
AcDbLine
   6
CONTINUOUS
  62
1
  10
 2136.6000000000
  20
 968.60906329633
  30
0.0
  11
 2136.6000000000
  21
 1310.4662061535
  31
0.0
   0
LINE
   5
1F4
 100
AcDbEntity
   8
LEVEL001
 100
AcDbLine
   6
CONTINUOUS
  62
1
  10
 1404.0000000000
  20
 464.60906329633
  30
0.0
  11
 1404.0000000000
  21
 1310.4662061535
  31
0.0
   0
LINE
   5
1F5
 100
AcDbEntity
   8
LEVEL001
 100
AcDbLine
   6
CONTINUOUS
  62
1
  10
 2136.6000000000
  20
 1298.4662061535
  30
0.0
  11
 1770.3000000000
  21
 1298.4662061535
  31
0.0
   0
LINE
   5
1F6
 100
AcDbEntity
   8
LEVEL001
 100
AcDbLine
   6
CONTINUOUS
  62
1
  10
 1404.0000000000
  20
 1298.4662061535
  30
0.0
  11
 1770.3000000000
  21
 1298.4662061535
  31
0.0
   0
INSERT
   5
1F7
 100
AcDbEntity
   8
LEVEL001
   6
CONTINUOUS
  62
1
 100
AcDbBlockReference
   2
_OPEN30
  10
 2136.6000000000
  20
 1298.4662061535
  30
0.0
  41
 18.000000000000
  42
 18.000000000000
  43
 18.000000000000
  50
0.0
   0
INSERT
   5
1F8
 100
AcDbEntity
   8
LEVEL001
   6
CONTINUOUS
  62
1
 100
AcDbBlockReference
   2
_OPEN30
  10
 1404.0000000000
  20
 1298.4662061535
  30
0.0
  41
 18.000000000000
  42
 18.000000000000
  43
 18.000000000000
  50
 180.00000000000
   0
MTEXT
   5
1F9
 100
AcDbEntity
   8
LEVEL001
  62
7
 100
AcDbMText
  10
 1770.3000000000
  20
 1304.4662061535
  30
0.0
  40
 24.000000000000
  41
0.0
  71
8
  72
1
   1
\A1;732.6
   7
GMM001
   0
ENDBLK
   5
1FA
 100
AcDbEntity
   8
0
 100
AcDbBlockEnd
   0
BLOCK
   5
1FB
 100
AcDbEntity
   8
0
 100
AcDbBlockBegin
   2
*D9
  70
65
  10
0.0
  20
0.0
  30
0.0
   3
*D9
   0
LINE
   5
1FC
 100
AcDbEntity
   8
LEVEL001
 100
AcDbLine
   6
CONTINUOUS
  62
1
  10
 1404.0000000000
  20
 464.60906329633
  30
0.0
  11
 1404.0000000000
  21
 1372.7519204392
  31
0.0
   0
LINE
   5
1FD
 100
AcDbEntity
   8
LEVEL001
 100
AcDbLine
   6
CONTINUOUS
  62
1
  10
 2304.0000000000
  20
 1204.9032238933
  30
0.0
  11
 2304.0000000000
  21
 1372.7519204392
  31
0.0
   0
LINE
   5
1FE
 100
AcDbEntity
   8
LEVEL001
 100
AcDbLine
   6
CONTINUOUS
  62
1
  10
 1404.0000000000
  20
 1360.7519204392
  30
0.0
  11
 1854.0000000000
  21
 1360.7519204392
  31
0.0
   0
LINE
   5
1FF
 100
AcDbEntity
   8
LEVEL001
 100
AcDbLine
   6
CONTINUOUS
  62
1
  10
 2304.0000000000
  20
 1360.7519204392
  30
0.0
  11
 1854.0000000000
  21
 1360.7519204392
  31
0.0
   0
INSERT
   5
200
 100
AcDbEntity
   8
LEVEL001
   6
CONTINUOUS
  62
1
 100
AcDbBlockReference
   2
_OPEN30
  10
 1404.0000000000
  20
 1360.7519204392
  30
0.0
  41
 18.000000000000
  42
 18.000000000000
  43
 18.000000000000
  50
 180.00000000000
   0
INSERT
   5
201
 100
AcDbEntity
   8
LEVEL001
   6
CONTINUOUS
  62
1
 100
AcDbBlockReference
   2
_OPEN30
  10
 2304.0000000000
  20
 1360.7519204392
  30
0.0
  41
 18.000000000000
  42
 18.000000000000
  43
 18.000000000000
  50
0.0
   0
MTEXT
   5
202
 100
AcDbEntity
   8
LEVEL001
  62
7
 100
AcDbMText
  10
 1854.0000000000
  20
 1366.7519204392
  30
0.0
  40
 24.000000000000
  41
0.0
  71
8
  72
1
   1
\A1;900
   7
GMM001
   0
ENDBLK
   5
203
 100
AcDbEntity
   8
0
 100
AcDbBlockEnd
   0
ENDSEC
   0
SECTION
   2
ENTITIES
   0
INSERT
   5
204
 100
AcDbEntity
   8
0
 100
AcDbBlockReference
   2
A2
  10
0.0
  20
0.0
  30
0.0
  41
 6.0000000000000
  42
 6.0000000000000
   0
LINE
   5
205
 100
AcDbEntity
   8
LEVEL001
 100
AcDbLine
   6
CONTINUOUS
  62
7
  10
 184.00000000000
  20
 2165.0000000000
  30
0.0
  11
 1144.0000000000
  21
 2165.0000000000
  31
0.0
   0
LINE
   5
206
 100
AcDbEntity
   8
LEVEL001
 100
AcDbLine
   6
CONTINUOUS
  62
7
  10
 184.00000000000
  20
 2117.0000000000
  30
0.0
  11
 1144.0000000000
  21
 2117.0000000000
  31
0.0
   0
LINE
   5
207
 100
AcDbEntity
   8
LEVEL001
 100
AcDbLine
   6
CONTINUOUS
  62
7
  10
 184.00000000000
  20
 2069.0000000000
  30
0.0
  11
 1144.0000000000
  21
 2069.0000000000
  31
0.0
   0
LINE
   5
208
 100
AcDbEntity
   8
LEVEL001
 100
AcDbLine
   6
CONTINUOUS
  62
7
  10
 184.00000000000
  20
 2021.0000000000
  30
0.0
  11
 1144.0000000000
  21
 2021.0000000000
  31
0.0
   0
LINE
   5
209
 100
AcDbEntity
   8
LEVEL001
 100
AcDbLine
   6
CONTINUOUS
  62
7
  10
 184.00000000000
  20
 1973.0000000000
  30
0.0
  11
 1144.0000000000
  21
 1973.0000000000
  31
0.0
   0
LINE
   5
20A
 100
AcDbEntity
   8
LEVEL001
 100
AcDbLine
   6
CONTINUOUS
  62
7
  10
 184.00000000000
  20
 1925.0000000000
  30
0.0
  11
 1144.0000000000
  21
 1925.0000000000
  31
0.0
   0
LINE
   5
20B
 100
AcDbEntity
   8
LEVEL001
 100
AcDbLine
   6
CONTINUOUS
  62
7
  10
 184.00000000000
  20
 1877.0000000000
  30
0.0
  11
 1144.0000000000
  21
 1877.0000000000
  31
0.0
   0
LINE
   5
20C
 100
AcDbEntity
   8
LEVEL001
 100
AcDbLine
   6
CONTINUOUS
  62
7
  10
 184.00000000000
  20
 1685.0000000000
  30
0.0
  11
 1144.0000000000
  21
 1685.0000000000
  31
0.0
   0
LINE
   5
20D
 100
AcDbEntity
   8
LEVEL001
 100
AcDbLine
   6
CONTINUOUS
  62
7
  10
 232.00000000000
  20
 1877.0000000000
  30
0.0
  11
 232.00000000000
  21
 1685.0000000000
  31
0.0
   0
LINE
   5
20E
 100
AcDbEntity
   8
LEVEL001
 100
AcDbLine
   6
CONTINUOUS
  62
7
  10
 232.00000000000
  20
 1829.0000000000
  30
0.0
  11
 1144.0000000000
  21
 1829.0000000000
  31
0.0
   0
LINE
   5
20F
 100
AcDbEntity
   8
LEVEL001
 100
AcDbLine
   6
CONTINUOUS
  62
7
  10
 232.00000000000
  20
 1781.0000000000
  30
0.0
  11
 1144.0000000000
  21
 1781.0000000000
  31
0.0
   0
LINE
   5
210
 100
AcDbEntity
   8
LEVEL001
 100
AcDbLine
   6
CONTINUOUS
  62
7
  10
 232.00000000000
  20
 1733.0000000000
  30
0.0
  11
 1144.0000000000
  21
 1733.0000000000
  31
0.0
   0
TEXT
   5
211
 100
AcDbEntity
   8
LEVEL001
  62
7
 100
AcDbText
  10
 3180.0000000000
  20
 60.000000000000
  30
0.0
  40
 24.000000000000
   1
井上
   7
STANDARD
 100
AcDbText
   0
TEXT
   5
212
 100
AcDbEntity
   8
LEVEL001
  62
7
 100
AcDbText
  10
 2918.0000000000
  20
 60.000000000000
  30
0.0
  40
 24.000000000000
   1
(A2) 1/6
  41
 0.50000000000000
   7
STANDARD
 100
AcDbText
   0
TEXT
   5
213
 100
AcDbEntity
   8
LEVEL001
  62
1
 100
AcDbText
  10
 239.00000000000
  20
 1837.0000000000
  30
0.0
  40
 24.000000000000
   1
凹凸ロ－ル、平ロ－ル
   7
STANDARD
 100
AcDbText
   0
TEXT
   5
214
 100
AcDbEntity
   8
LEVEL001
  62
1
 100
AcDbText
  10
 239.00000000000
  20
 1789.0000000000
  30
0.0
  40
 24.000000000000
   1
ベルトコンベア－
   7
STANDARD
 100
AcDbText
   0
TEXT
   5
215
 100
AcDbEntity
   8
LEVEL001
  62
1
 100
AcDbText
  10
 239.00000000000
  20
 1693.0000000000
  30
0.0
  40
 24.000000000000
   1
安全カバ－類
   7
STANDARD
 100
AcDbText
   0
TEXT
   5
216
 100
AcDbEntity
   8
LEVEL001
  62
1
 100
AcDbText
  10
 196.00000000000
  20
 1804.0000000000
  30
0.0
  40
 24.000000000000
   1
材
   7
STANDARD
 100
AcDbText
   0
TEXT
   5
217
 100
AcDbEntity
   8
LEVEL001
  62
1
 100
AcDbText
  10
 196.00000000000
  20
 1740.0000000000
  30
0.0
  40
 24.000000000000
   1
質
   7
STANDARD
 100
AcDbText
   0
TEXT
   5
218
 100
AcDbEntity
   8
LEVEL001
  62
1
 100
AcDbText
  10
 238.00000000000
  20
 2124.0000000000
  30
0.0
  40
 24.000000000000
   1
製　　品　　名
   7
STANDARD
 100
AcDbText
   0
TEXT
   5
219
 100
AcDbEntity
   8
LEVEL001
  62
1
 100
AcDbText
  10
 238.00000000000
  20
 2076.0000000000
  30
0.0
  40
 24.000000000000
   1
型　　　　　式
   7
STANDARD
 100
AcDbText
   0
TEXT
   5
21A
 100
AcDbEntity
   8
LEVEL001
  62
1
 100
AcDbText
  10
 238.00000000000
  20
 2028.0000000000
  30
0.0
  40
 24.000000000000
   1
寸法(Ｗ×Ｄ×Ｈ）
   7
STANDARD
 100
AcDbText
   0
TEXT
   5
21B
 100
AcDbEntity
   8
LEVEL001
  62
1
 100
AcDbText
  10
 238.00000000000
  20
 1980.0000000000
  30
0.0
  40
 24.000000000000
   1
能　　　　　力
   7
STANDARD
 100
AcDbText
   0
TEXT
   5
21C
 100
AcDbEntity
   8
LEVEL001
  62
1
 100
AcDbText
  10
 238.00000000000
  20
 1932.0000000000
  30
0.0
  40
 24.000000000000
   1
電　　　　　源
   7
STANDARD
 100
AcDbText
   0
TEXT
   5
21D
 100
AcDbEntity
   8
LEVEL001
  62
1
 100
AcDbText
  10
 238.00000000000
  20
 1884.0000000000
  30
0.0
  40
 24.000000000000
   1
消　費　電　力
   7
STANDARD
 100
AcDbText
   0
TEXT
   5
21E
 100
AcDbEntity
   8
LEVEL001
  62
1
 100
AcDbText
  10
 500.00000000000
  20
 2124.0000000000
  30
0.0
  40
 24.000000000000
   1
中華麺・日本そば用製麺機
   7
STANDARD
 100
AcDbText
   0
TEXT
   5
21F
 100
AcDbEntity
   8
LEVEL001
  62
1
 100
AcDbText
  10
 500.00000000000
  20
 1836.0000000000
  30
0.0
  40
 24.000000000000
   1
ＳＵＳ３０４（長さ２２０）
   7
STANDARD
 100
AcDbText
   0
TEXT
   5
220
 100
AcDbEntity
   8
LEVEL001
  62
1
 100
AcDbText
  10
 500.00000000000
  20
 1788.0000000000
  30
0.0
  40
 24.000000000000
   1
食品ベルト　ＦＡＢ－５Ｅ
   7
STANDARD
 100
AcDbText
   0
TEXT
   5
221
 100
AcDbEntity
   8
LEVEL001
  62
1
 100
AcDbText
  10
 500.00000000000
  20
 1740.0000000000
  30
0.0
  40
 24.000000000000
   1
ＳＵＳ３０３
   7
STANDARD
 100
AcDbText
   0
TEXT
   5
222
 100
AcDbEntity
   8
LEVEL001
  62
1
 100
AcDbText
  10
 239.00000000000
  20
 1741.0000000000
  30
0.0
  40
 24.000000000000
   1
切り刃 （スリッタ－）
   7
STANDARD
 100
AcDbText
   0
TEXT
   5
223
 100
AcDbEntity
   8
LEVEL001
  62
1
 100
AcDbText
  10
 500.00000000000
  20
 1884.0000000000
  30
0.0
  40
 24.000000000000
   1
６４０Ｗ
   7
STANDARD
 100
AcDbText
   0
TEXT
   5
224
 100
AcDbEntity
   8
LEVEL001
  62
1
 100
AcDbText
  10
 500.00000000000
  20
 2028.0000000000
  30
0.0
  40
 24.000000000000
   1
６５０×９００×１，１２５
   7
STANDARD
 100
AcDbText
   0
TEXT
   5
225
 100
AcDbEntity
   8
LEVEL001
  62
1
 100
AcDbText
  10
 500.00000000000
  20
 1692.0000000000
  30
0.0
  40
 24.000000000000
   1
ＳＵＳ３０４
   7
STANDARD
 100
AcDbText
   0
LINE
   5
226
 100
AcDbEntity
   8
LEVEL001
 100
AcDbLine
   6
CONTINUOUS
  62
7
  10
 1144.0000000000
  20
 2165.0000000000
  30
0.0
  11
 1144.0000000000
  21
 1637.0000000000
  31
0.0
   0
LINE
   5
227
 100
AcDbEntity
   8
LEVEL001
 100
AcDbLine
   6
CONTINUOUS
  62
7
  10
 1144.0000000000
  20
 1637.0000000000
  30
0.0
  11
 184.00000000000
  21
 1637.0000000000
  31
0.0
   0
LINE
   5
228
 100
AcDbEntity
   8
LEVEL001
 100
AcDbLine
   6
CONTINUOUS
  62
7
  10
 184.00000000000
  20
 1637.0000000000
  30
0.0
  11
 184.00000000000
  21
 2165.0000000000
  31
0.0
   0
LINE
   5
229
 100
AcDbEntity
   8
LEVEL001
 100
AcDbLine
   6
CONTINUOUS
  62
7
  10
 494.00000000000
  20
 2165.0000000000
  30
0.0
  11
 494.00000000000
  21
 1637.0000000000
  31
0.0
   0
TEXT
   5
22A
 100
AcDbEntity
   8
LEVEL001
  62
1
 100
AcDbText
  10
 238.00000000000
  20
 1644.0000000000
  30
0.0
  40
 24.000000000000
   1
製品重量
   7
STANDARD
 100
AcDbText
   0
INSERT
   5
22B
 100
AcDbEntity
   8
LEVEL001
 100
AcDbBlockReference
   2
BLOCK001
  10
0.0
  20
0.0
  30
0.0
   0
INSERT
   5
22C
 100
AcDbEntity
   8
LEVEL001
 100
AcDbBlockReference
   2
BLOCK002
  10
0.0
  20
0.0
  30
0.0
   0
INSERT
   5
22D
 100
AcDbEntity
   8
0
 100
AcDbBlockReference
   2
BLOCK003
  10
0.0
  20
0.0
  30
0.0
   0
TEXT
   5
22E
 100
AcDbEntity
   8
LEVEL001
  62
1
 100
AcDbText
  10
 500.00000000000
  20
 1980.0000000000
  30
0.0
  40
 24.000000000000
   1
１５０～２５０食／時
   7
STANDARD
 100
AcDbText
   0
POINT
   5
22F
 100
AcDbEntity
   8
LEVEL001
 100
AcDbPoint
  62
7
  10
 2084.0000000000
  20
 1013.6090632963
  30
0.0
   0
LWPOLYLINE
   5
230
 100
AcDbEntity
   8
LEVEL001
   6
CONTINUOUS
  62
7
 100
AcDbPolyline
  90
7
  70
1
  10
 2134.0000000000
  20
 515.60906329633
  10
 1804.0000000000
  20
 515.60906329633
  10
 1804.0000000000
  20
 784.60906329633
  10
 1701.0000000000
  20
 850.60906329633
  10
 1701.0000000000
  20
 977.60906329633
  10
 1804.0000000000
  20
 1013.6090632963
  10
 2134.0000000000
  20
 1013.6090632963
   0
LWPOLYLINE
   5
231
 100
AcDbEntity
   8
LEVEL001
   6
CONTINUOUS
  62
7
 100
AcDbPolyline
  90
4
  70
0
  10
 2134.0000000000
  20
 516.60906329633
  10
 2135.0000000000
  20
 516.60906329633
  10
 2135.0000000000
  20
 1013.6090632963
  10
 2134.0000000000
  20
 1013.6090632963
   0
INSERT
   5
232
 100
AcDbEntity
   8
0
 100
AcDbBlockReference
   2
EGF11M8
  10
 1461.9680885173
  20
 467.87168589029
  30
0.0
  50
 180.00000000000
   0
LWPOLYLINE
   5
233
 100
AcDbEntity
   8
LEVEL001
   6
CONTINUOUS
  62
7
 100
AcDbPolyline
  90
4
  70
1
  10
 2105.6000000000
  20
 186.60906329633
  10
 2135.6000000000
  20
 186.60906329633
  10
 2135.6000000000
  20
 510.60906329633
  10
 2105.6000000000
  20
 510.60906329633
   0
CIRCLE
   5
234
 100
AcDbEntity
   8
LEVEL001
 100
AcDbCircle
   6
CONTINUOUS
  62
7
  10
 1660.5000000000
  20
 111.10906329633
  30
0.0
  40
 5.0000000000000
   0
LINE
   5
235
 100
AcDbEntity
   8
LEVEL001
 100
AcDbLine
   6
CONTINUOUS
  62
7
  10
 1725.0000000000
  20
 172.60906329633
  30
0.0
  11
 1674.7949948362
  21
 101.01435564167
  31
0.0
   0
LINE
   5
236
 100
AcDbEntity
   8
LEVEL001
 100
AcDbLine
   6
CONTINUOUS
  62
7
  10
 1643.0000000000
  20
 174.60906329633
  30
0.0
  11
 1643.0000000000
  21
 111.10906329633
  31
0.0
   0
ARC
   5
237
 100
AcDbEntity
   8
LEVEL001
   6
CONTINUOUS
  62
7
 100
AcDbCircle
  10
 1660.5000000000
  20
 111.10906329633
  30
0.0
  40
 17.500000000000
 100
AcDbArc
  50
 180.00000000000
  51
 324.77137870369
   0
ARC
   5
238
 100
AcDbEntity
   8
LEVEL001
   6
CONTINUOUS
  62
7
 100
AcDbCircle
  10
 1660.5000000000
  20
 111.10906329633
  30
0.0
  40
 37.500000000000
 100
AcDbArc
  50
 117.81813928465
  51
 27.142386627725
   0
LWPOLYLINE
   5
239
 100
AcDbEntity
   8
LEVEL001
   6
CONTINUOUS
  62
7
 100
AcDbPolyline
  90
3
  70
0
  10
 1643.0000000000
  20
 172.60906329633
  10
 1725.0000000000
  20
 172.60906329633
  10
 1725.0000000000
  20
 174.60906329633
   0
POINT
   5
23A
 100
AcDbEntity
   8
LEVEL001
 100
AcDbPoint
  62
7
  10
 1786.1396930027
  20
 478.93905559565
  30
0.0
   0
POINT
   5
23B
 100
AcDbEntity
   8
LEVEL001
 100
AcDbPoint
  62
7
  10
 1771.4850821331
  20
 450.49186978994
  30
0.0
   0
LWPOLYLINE
   5
23C
 100
AcDbEntity
   8
LEVEL001
   6
CONTINUOUS
  62
7
 100
AcDbPolyline
  90
4
  70
0
  10
 1678.9778510189
  20
 270.91900939189
  10
 1670.9770800110
  20
 275.04061869898
  10
 1747.9137870763
  20
 424.38834417866
  10
 1755.9145580842
  20
 420.26673487157
   0
LWPOLYLINE
   5
23D
 100
AcDbEntity
   8
LEVEL001
   6
CONTINUOUS
  62
7
 100
AcDbPolyline
  90
4
  70
0
  10
 1639.0000000000
  20
 183.60906329633
  10
 1639.0000000000
  20
 174.60906329633
  10
 1729.0000000000
  20
 174.60906329633
  10
 1729.0000000000
  20
 183.60906329633
   0
LWPOLYLINE
   5
23E
 100
AcDbEntity
   8
LEVEL001
   6
CONTINUOUS
  62
7
 100
AcDbPolyline
  90
4
  70
0
  10
 2014.0000000000
  20
 183.60906329633
  10
 2014.0000000000
  20
 174.60906329633
  10
 2117.0000000000
  20
 174.60906329633
  10
 2117.0000000000
  20
 183.60906329633
   0
LWPOLYLINE
   5
23F
 100
AcDbEntity
   8
LEVEL001
   6
CONTINUOUS
  62
7
 100
AcDbPolyline
  90
3
  70
0
  10
 1903.0000000000
  20
 183.60906329633
  10
 1903.0000000000
  20
 174.60906329633
  10
 2014.0000000000
  20
 174.60906329633
   0
LWPOLYLINE
   5
240
 100
AcDbEntity
   8
LEVEL001
   6
CONTINUOUS
  62
7
 100
AcDbPolyline
  90
5
  70
1
  10
 1762.7390560084
  20
 433.62453369239
  10
 1734.3309110021
  20
 448.35468295495
  10
 1760.1086722115
  20
 498.06893671608
  10
 1790.9663621287
  20
 497.83877813387
  10
 1794.9612575203
  20
 495.76735089381
   0
LINE
   5
241
 100
AcDbEntity
   8
LEVEL001
 100
AcDbLine
   6
CONTINUOUS
  62
7
  10
 1758.7441606169
  20
 435.69596093245
  30
0.0
  11
 1790.9663621287
  21
 497.83877813387
  31
0.0
   0
POINT
   5
242
 100
AcDbEntity
   8
LEVEL001
 100
AcDbPoint
  62
7
  10
 1771.4850821331
  20
 450.49186978994
  30
0.0
   0
POINT
   5
243
 100
AcDbEntity
   8
LEVEL001
 100
AcDbPoint
  62
7
  10
 1786.2152313956
  20
 478.90001479631
  30
0.0
   0
LWPOLYLINE
   5
244
 100
AcDbEntity
   8
LEVEL001
   6
CONTINUOUS
  62
7
 100
AcDbPolyline
  90
4
  70
1
  10
 1461.9680885173
  20
 457.87168589029
  10
 1511.9680885173
  20
 457.87168589029
  10
 1511.9680885173
  20
 477.87168589029
  10
 1461.9680885173
  20
 477.87168589029
   0
POINT
   5
245
 100
AcDbEntity
   8
LEVEL001
 100
AcDbPoint
  62
7
  10
 1425.0790012208
  20
 463.98259859380
  30
0.0
   0
LINE
   5
246
 100
AcDbEntity
   8
LEVEL001
 100
AcDbLine
   6
CONTINUOUS
  62
7
  10
 1435.3123772875
  20
 471.87168589029
  30
0.0
  11
 1455.4680885173
  21
 471.87168589029
  31
0.0
   0
LINE
   5
247
 100
AcDbEntity
   8
LEVEL001
 100
AcDbLine
   6
CONTINUOUS
  62
7
  10
 1435.3123772875
  20
 463.87168589029
  30
0.0
  11
 1455.4680885173
  21
 463.87168589029
  31
0.0
   0
LINE
   5
248
 100
AcDbEntity
   8
LEVEL001
 100
AcDbLine
   6
CONTINUOUS
  62
7
  10
 2134.0000000000
  20
 515.60906329633
  30
0.0
  11
 2134.0000000000
  21
 510.60906329633
  31
0.0
   0
LWPOLYLINE
   5
249
 100
AcDbEntity
   8
LEVEL001
   6
CONTINUOUS
  62
7
 100
AcDbPolyline
  90
4
  70
0
  10
 1804.0000000000
  20
 513.60906329633
  10
 1634.0000000000
  20
 183.60906329633
  10
 2134.0000000000
  20
 183.60906329633
  10
 2134.0000000000
  20
 186.60906329633
   0
LWPOLYLINE
   5
24A
 100
AcDbEntity
   8
LEVEL001
   6
CONTINUOUS
  62
7
 100
AcDbPolyline
  90
3
  70
0
  10
 1757.8837387840
  20
 493.77799367732
  10
 1543.5454702556
  20
 493.77799367732
  10
 1541.6018869342
  20
 492.87168589029
   0
LINE
   5
24B
 100
AcDbEntity
   8
LEVEL001
 100
AcDbLine
   6
CONTINUOUS
  62
7
  10
 1543.2572671942
  20
 495.07799367732
  30
0.0
  11
 1758.5578128581
  21
 495.07799367732
  31
0.0
   0
LINE
   5
24C
 100
AcDbEntity
   8
LEVEL001
 100
AcDbLine
   6
CONTINUOUS
  62
7
  10
 1428.9680885173
  20
 446.07168589029
  30
0.0
  11
 1466.9680885173
  21
 446.07168589029
  31
0.0
   0
LINE
   5
24D
 100
AcDbEntity
   8
LEVEL001
 100
AcDbLine
   6
CONTINUOUS
  62
7
  10
 1543.5454702556
  20
 493.77799367732
  30
0.0
  11
 1524.2571438763
  21
 492.87168589029
  31
0.0
   0
LINE
   5
24E
 100
AcDbEntity
   8
LEVEL001
 100
AcDbLine
   6
CONTINUOUS
  62
7
  10
 1466.9680885173
  20
 490.17982367465
  30
0.0
  11
 1428.0059089406
  21
 488.34909320817
  31
0.0
   0
LINE
   5
24F
 100
AcDbEntity
   8
LEVEL001
 100
AcDbLine
   6
CONTINUOUS
  62
7
  10
 1543.2572671942
  20
 495.07799367732
  30
0.0
  11
 1496.4066252139
  21
 492.87168589029
  31
0.0
   0
LINE
   5
250
 100
AcDbEntity
   8
LEVEL001
 100
AcDbLine
   6
CONTINUOUS
  62
7
  10
 1466.9680885173
  20
 491.48535541526
  30
0.0
  11
 1427.9426113082
  21
 489.64755318631
  31
0.0
   0
ARC
   5
251
 100
AcDbEntity
   8
LEVEL001
   6
CONTINUOUS
  62
7
 100
AcDbCircle
  10
 1428.9680885173
  20
 467.87168589029
  30
0.0
  40
 21.800000000000
 100
AcDbArc
  50
 185.72615742216
  51
 270.00000000000
   0
ARC
   5
252
 100
AcDbEntity
   8
LEVEL001
   6
CONTINUOUS
  62
7
 100
AcDbCircle
  10
 1428.9680885173
  20
 467.87168589029
  30
0.0
  40
 20.500000000000
 100
AcDbArc
  50
 299.43730323520
  51
 348.74815227073
   0
LWPOLYLINE
   5
253
 100
AcDbEntity
   8
LEVEL001
   6
CONTINUOUS
  62
7
 100
AcDbPolyline
  90
3
  70
0
  10
 1757.4138014130
  20
 492.87168589029
  10
 1466.9680885173
  20
 492.87168589029
  10
 1466.9680885173
  20
 477.87168589029
   0
LWPOLYLINE
   5
254
 100
AcDbEntity
   8
LEVEL001
   6
CONTINUOUS
  62
7
 100
AcDbPolyline
  90
3
  70
0
  10
 1466.9680885173
  20
 457.87168589029
  10
 1466.9680885173
  20
 442.87168589029
  10
 1744.9052624839
  20
 442.87168589029
   0
LWPOLYLINE
   5
255
 100
AcDbEntity
   8
LEVEL001
   6
CONTINUOUS
  62
7
 100
AcDbPolyline
  90
4
  70
0
  10
 2105.6000000000
  20
 508.60906329633
  10
 1814.5000000000
  20
 508.60906329633
  10
 1645.5000000000
  20
 188.60906329633
  10
 2105.6000000000
  20
 188.60906329633
   0
CIRCLE
   5
256
 100
AcDbEntity
   8
LEVEL001
 100
AcDbCircle
   6
CONTINUOUS
  62
7
  10
 2065.5000000000
  20
 111.10906329633
  30
0.0
  40
 5.0000000000000
   0
LWPOLYLINE
   5
257
 100
AcDbEntity
   8
LEVEL001
   6
CONTINUOUS
  62
7
 100
AcDbPolyline
  90
4
  70
0
  10
 2024.5000000000
  20
 174.60906329633
  10
 2024.5000000000
  20
 172.60906329633
  10
 2106.5000000000
  20
 172.60906329633
  10
 2106.5000000000
  20
 174.60906329633
   0
LINE
   5
258
 100
AcDbEntity
   8
LEVEL001
 100
AcDbLine
   6
CONTINUOUS
  62
7
  10
 2034.4284398390
  20
 172.60906329633
  30
0.0
  11
 2048.3882271224
  21
 107.44338068778
  31
0.0
   0
LINE
   5
259
 100
AcDbEntity
   8
LEVEL001
 100
AcDbLine
   6
CONTINUOUS
  62
7
  10
 2096.5715601610
  20
 172.60906329633
  30
0.0
  11
 2082.6117728776
  21
 107.44338068778
  31
0.0
   0
ARC
   5
25A
 100
AcDbEntity
   8
LEVEL001
   6
CONTINUOUS
  62
7
 100
AcDbCircle
  10
 2065.5000000000
  20
 111.10906329633
  30
0.0
  40
 17.500000000000
 100
AcDbArc
  50
 192.09115276742
  51
 347.90884723258
   0
ARC
   5
25B
 100
AcDbEntity
   8
LEVEL001
   6
CONTINUOUS
  62
7
 100
AcDbCircle
  10
 2065.5000000000
  20
 111.10906329633
  30
0.0
  40
 37.500000000000
 100
AcDbArc
  50
 129.90929205207
  51
 50.090707947929
   0
LINE
   5
25C
 100
AcDbEntity
   8
LEVEL001
 100
AcDbLine
   6
CONTINUOUS
  62
7
  10
 1369.0000000000
  20
 73.609063296334
  30
0.0
  11
 2221.0000000000
  21
 73.609063296334
  31
0.0
   0
LWPOLYLINE
   5
25D
 100
AcDbEntity
   8
LEVEL001
   6
CONTINUOUS
  62
7
 100
AcDbPolyline
  90
4
  70
0
  10
 1800.5000000000
  20
 796.35906329633
  10
 1778.5000000000
  20
 796.85906329633
  10
 1778.5000000000
  20
 819.35906329633
  10
 1800.5000000000
  20
 819.85906329633
   0
LWPOLYLINE
   5
25E
 100
AcDbEntity
   8
LEVEL001
   6
CONTINUOUS
  62
7
 100
AcDbPolyline
  90
4
  70
1
  10
 1800.5000000000
  20
 790.60906329633
  10
 1803.5000000000
  20
 790.60906329633
  10
 1803.5000000000
  20
 825.60906329633
  10
 1800.5000000000
  20
 825.60906329633
   0
LINE
   5
25F
 100
AcDbEntity
   8
LEVEL001
 100
AcDbLine
   6
CONTINUOUS
  62
7
  10
 1803.5000000000
  20
 825.60906329633
  30
0.0
  11
 1807.5000000000
  21
 825.60906329633
  31
0.0
   0
LINE
   5
260
 100
AcDbEntity
   8
LEVEL001
 100
AcDbLine
   6
CONTINUOUS
  62
7
  10
 1803.5000000000
  20
 790.60906329633
  30
0.0
  11
 1807.5000000000
  21
 790.60906329633
  31
0.0
   0
LWPOLYLINE
   5
261
 100
AcDbEntity
   8
LEVEL001
   6
CONTINUOUS
  62
7
 100
AcDbPolyline
  90
4
  70
0
  10
 1798.5000000000
  20
 883.85906329633
  10
 1797.5000000000
  20
 883.85906329633
  10
 1797.5000000000
  20
 862.35906329633
  10
 1798.5000000000
  20
 862.35906329633
   0
LWPOLYLINE
   5
262
 100
AcDbEntity
   8
LEVEL001
   6
CONTINUOUS
  62
7
 100
AcDbPolyline
  90
6
  70
1
  10
 1807.5000000000
  20
 887.35906329633
  10
 1802.5000000000
  20
 887.35906329633
  10
 1798.5000000000
  20
 886.10906329633
  10
 1798.5000000000
  20
 860.10906329633
  10
 1802.5000000000
  20
 858.85906329633
  10
 1807.5000000000
  20
 858.85906329633
   0
LINE
   5
263
 100
AcDbEntity
   8
LEVEL001
 100
AcDbLine
   6
CONTINUOUS
  62
7
  10
 1802.5000000000
  20
 887.35906329633
  30
0.0
  11
 1802.5000000000
  21
 858.85906329633
  31
0.0
   0
POINT
   5
264
 100
AcDbEntity
   8
LEVEL001
 100
AcDbPoint
  62
7
  10
 1864.0000000000
  20
 773.60906329633
  30
0.0
   0
LWPOLYLINE
   5
265
 100
AcDbEntity
   8
LEVEL001
   6
CONTINUOUS
  62
7
 100
AcDbPolyline
  90
4
  70
1
  10
 1670.5000000000
  20
 878.85906329633
  10
 1667.5000000000
  20
 878.85906329633
  10
 1667.5000000000
  20
 948.35906329633
  10
 1670.5000000000
  20
 948.35906329633
   0
LINE
   5
266
 100
AcDbEntity
   8
LEVEL001
 100
AcDbLine
   6
CONTINUOUS
  62
7
  10
 1593.5000000000
  20
 945.10906329633
  30
0.0
  11
 1593.5000000000
  21
 882.10906329633
  31
0.0
   0
LINE
   5
267
 100
AcDbEntity
   8
LEVEL001
 100
AcDbLine
   6
CONTINUOUS
  62
7
  10
 1612.5000000000
  20
 882.10906329633
  30
0.0
  11
 1612.5000000000
  21
 945.10906329633
  31
0.0
   0
LWPOLYLINE
   5
268
 100
AcDbEntity
   8
LEVEL001
   6
CONTINUOUS
  62
7
 100
AcDbPolyline
  90
4
  70
0
  10
 1618.5000000000
  20
 931.10906329633
  10
 1633.5000000000
  20
 931.10906329633
  10
 1633.5000000000
  20
 896.10906329633
  10
 1618.5000000000
  20
 896.10906329633
   0
LWPOLYLINE
   5
269
 100
AcDbEntity
   8
LEVEL001
   6
CONTINUOUS
  62
7
 100
AcDbPolyline
  90
4
  70
0
  10
 1612.5000000000
  20
 941.10906329633
  10
 1618.5000000000
  20
 938.60906329633
  10
 1618.5000000000
  20
 888.60906329633
  10
 1612.5000000000
  20
 886.10906329633
   0
ARC
   5
26A
 100
AcDbEntity
   8
LEVEL001
   6
CONTINUOUS
  62
7
 100
AcDbCircle
  10
 1603.0000000000
  20
 945.10906329633
  30
0.0
  40
 9.5000000000000
 100
AcDbArc
  50
0.0
  51
 180.00000000000
   0
ARC
   5
26B
 100
AcDbEntity
   8
LEVEL001
   6
CONTINUOUS
  62
7
 100
AcDbCircle
  10
 1603.0000000000
  20
 882.10906329633
  30
0.0
  40
 9.5000000000000
 100
AcDbArc
  50
 180.00000000000
  51
0.0
   0
LWPOLYLINE
   5
26C
 100
AcDbEntity
   8
LEVEL001
   6
CONTINUOUS
  62
7
 100
AcDbPolyline
  90
4
  70
0
  10
 1667.5000000000
  20
 948.35906329633
  10
 1664.5000000000
  20
 948.35906329633
  10
 1664.5000000000
  20
 878.85906329633
  10
 1667.5000000000
  20
 878.85906329633
   0
LWPOLYLINE
   5
26D
 100
AcDbEntity
   8
LEVEL001
   6
CONTINUOUS
  62
7
 100
AcDbPolyline
  90
4
  70
0
  10
 1664.5000000000
  20
 925.60906329633
  10
 1649.5000000000
  20
 923.60906329633
  10
 1649.5000000000
  20
 903.60906329633
  10
 1664.5000000000
  20
 901.60906329633
   0
LINE
   5
26E
 100
AcDbEntity
   8
LEVEL001
 100
AcDbLine
   6
CONTINUOUS
  62
7
  10
 1664.5000000000
  20
 925.60906329633
  30
0.0
  11
 1652.0997903497
  21
 940.10853917062
  31
0.0
   0
LINE
   5
26F
 100
AcDbEntity
   8
LEVEL001
 100
AcDbLine
   6
CONTINUOUS
  62
7
  10
 1664.5000000000
  20
 901.60906329633
  30
0.0
  11
 1652.0997903497
  21
 887.10958742205
  31
0.0
   0
LINE
   5
270
 100
AcDbEntity
   8
LEVEL001
 100
AcDbLine
   6
CONTINUOUS
  62
7
  10
 1649.5000000000
  20
 903.60906329633
  30
0.0
  11
 1644.5000000000
  21
 903.60906329633
  31
0.0
   0
LINE
   5
271
 100
AcDbEntity
   8
LEVEL001
 100
AcDbLine
   6
CONTINUOUS
  62
7
  10
 1649.5000000000
  20
 923.60906329633
  30
0.0
  11
 1644.5000000000
  21
 923.60906329633
  31
0.0
   0
ARC
   5
272
 100
AcDbEntity
   8
LEVEL001
   6
CONTINUOUS
  62
7
 100
AcDbCircle
  10
 1644.5000000000
  20
 933.60906329633
  30
0.0
  40
 10.000000000000
 100
AcDbArc
  50
 40.537650306988
  51
 269.99999999999
   0
ARC
   5
273
 100
AcDbEntity
   8
LEVEL001
   6
CONTINUOUS
  62
7
 100
AcDbCircle
  10
 1644.5000000000
  20
 893.60906329633
  30
0.0
  40
 10.000000000000
 100
AcDbArc
  50
 89.999999999996
  51
 319.46234969303
   0
LWPOLYLINE
   5
274
 100
AcDbEntity
   8
LEVEL001
   6
CONTINUOUS
  62
7
 100
AcDbPolyline
  90
4
  70
0
  10
 1649.5000000000
  20
 920.60906329633
  10
 1633.5000000000
  20
 920.60906329633
  10
 1633.5000000000
  20
 906.60906329633
  10
 1649.5000000000
  20
 906.60906329633
   0
LWPOLYLINE
   5
275
 100
AcDbEntity
   8
LEVEL001
   6
CONTINUOUS
  62
7
 100
AcDbPolyline
  90
4
  70
0
  10
 1688.0000000000
  20
 928.60906329633
  10
 1683.0000000000
  20
 928.60906329633
  10
 1683.0000000000
  20
 898.60906329633
  10
 1688.0000000000
  20
 898.60906329633
   0
POINT
   5
276
 100
AcDbEntity
   8
LEVEL001
 100
AcDbPoint
  62
7
  10
 1909.0000000000
  20
 1013.6090632963
  30
0.0
   0
LWPOLYLINE
   5
277
 100
AcDbEntity
   8
LEVEL001
   6
CONTINUOUS
  62
7
 100
AcDbPolyline
  90
4
  70
1
  10
 1792.0000000000
  20
 633.60906329633
  10
 1804.0000000000
  20
 633.60906329633
  10
 1804.0000000000
  20
 698.60906329633
  10
 1792.0000000000
  20
 698.60906329633
   0
LWPOLYLINE
   5
278
 100
AcDbEntity
   8
LEVEL001
   6
CONTINUOUS
  62
7
 100
AcDbPolyline
  90
4
  70
0
  10
 1760.0000000000
  20
 693.10906329633
  10
 1779.0000000000
  20
 693.10906329633
  10
 1779.0000000000
  20
 674.10906329633
  10
 1760.0000000000
  20
 674.10906329633
   0
LWPOLYLINE
   5
279
 100
AcDbEntity
   8
LEVEL001
   6
CONTINUOUS
  62
7
 100
AcDbPolyline
  90
4
  70
1
  10
 1744.0000000000
  20
 663.60906329633
  10
 1760.0000000000
  20
 663.60906329633
  10
 1760.0000000000
  20
 708.60906329633
  10
 1744.0000000000
  20
 708.60906329633
   0
LINE
   5
27A
 100
AcDbEntity
   8
LEVEL001
 100
AcDbLine
   6
CONTINUOUS
  62
7
  10
 1744.0000000000
  20
 671.10906329633
  30
0.0
  11
 1760.0000000000
  21
 671.10906329633
  31
0.0
   0
LWPOLYLINE
   5
27B
 100
AcDbEntity
   8
LEVEL001
   6
CONTINUOUS
  62
7
 100
AcDbPolyline
  90
4
  70
1
  10
 1708.2473626036
  20
 980.09564020760
  10
 1755.4402804219
  20
 996.61316144401
  10
 1752.4671265994
  20
 1005.1078866513
  10
 1705.2742087811
  20
 988.59036541490
   0
LWPOLYLINE
   5
27C
 100
AcDbEntity
   8
LEVEL001
   6
CONTINUOUS
  62
7
 100
AcDbPolyline
  90
4
  70
0
  10
 1666.6366775213
  20
 1135.8217389131
  10
 1757.5582532926
  20
 997.35445194873
  10
 1768.1742179436
  20
 1004.3251975708
  10
 1677.2526421723
  20
 1142.7924845352
   0
ARC
   5
27D
 100
AcDbEntity
   8
LEVEL001
   6
CONTINUOUS
  62
7
 100
AcDbCircle
  10
 1671.9446598468
  20
 1139.3071117241
  30
0.0
  40
 6.3500000000000
 100
AcDbArc
  50
 33.290046219188
  51
 213.29004621919
   0
POINT
   5
27E
 100
AcDbEntity
   8
LEVEL001
 100
AcDbPoint
  62
7
  10
 1894.0000000000
  20
 913.60906329633
  30
0.0
   0
LWPOLYLINE
   5
27F
 100
AcDbEntity
   8
LEVEL001
   6
CONTINUOUS
  62
7
 100
AcDbPolyline
  90
4
  70
1
  10
 1809.0000000000
  20
 736.10906329633
  10
 1919.0000000000
  20
 736.10906329633
  10
 1919.0000000000
  20
 936.10906329633
  10
 1809.0000000000
  20
 936.10906329633
   0
LINE
   5
280
 100
AcDbEntity
   8
LEVEL001
 100
AcDbLine
   6
CONTINUOUS
  62
7
  10
 1869.0000000000
  20
 736.10906329633
  30
0.0
  11
 1869.0000000000
  21
 936.10906329633
  31
0.0
   0
LINE
   5
281
 100
AcDbEntity
   8
LEVEL001
 100
AcDbLine
   6
CONTINUOUS
  62
7
  10
 1872.0000000000
  20
 736.10906329633
  30
0.0
  11
 1872.0000000000
  21
 936.10906329633
  31
0.0
   0
POINT
   5
282
 100
AcDbEntity
   8
LEVEL001
 100
AcDbPoint
  62
7
  10
 1894.0000000000
  20
 913.60906329633
  30
0.0
   0
LWPOLYLINE
   5
283
 100
AcDbEntity
   8
LEVEL001
   6
CONTINUOUS
  62
7
 100
AcDbPolyline
  90
3
  70
0
  10
 2134.0000000000
  20
 513.60906329633
  10
 1804.0000000000
  20
 513.60906329633
  10
 1804.0000000000
  20
 515.60906329633
   0
LWPOLYLINE
   5
284
 100
AcDbEntity
   8
LEVEL001
   6
CONTINUOUS
  62
7
 100
AcDbPolyline
  90
4
  70
0
  10
 1804.0000000000
  20
 631.60906329633
  10
 1803.0000000000
  20
 631.60906329633
  10
 1803.0000000000
  20
 538.60906329633
  10
 1804.0000000000
  20
 538.60906329633
   0
LWPOLYLINE
   5
285
 100
AcDbEntity
   8
LEVEL001
   6
CONTINUOUS
  62
7
 100
AcDbPolyline
  90
4
  70
0
  10
 1703.8611111111
  20
 978.60906329633
  10
 1688.0000000000
  20
 978.60906329633
  10
 1688.0000000000
  20
 848.60906329633
  10
 1704.1212121212
  20
 848.60906329633
   0
LINE
   5
286
 100
AcDbEntity
   8
LEVEL001
 100
AcDbLine
   6
CONTINUOUS
  62
7
  10
 1779.0000000000
  20
 688.60906329633
  30
0.0
  11
 1792.0000000000
  21
 688.60906329633
  31
0.0
   0
LINE
   5
287
 100
AcDbEntity
   8
LEVEL001
 100
AcDbLine
   6
CONTINUOUS
  62
7
  10
 1792.0000000000
  20
 678.60906329633
  30
0.0
  11
 1779.0000000000
  21
 678.60906329633
  31
0.0
   0
LWPOLYLINE
   5
288
 100
AcDbEntity
   8
LEVEL001
   6
CONTINUOUS
  62
7
 100
AcDbPolyline
  90
4
  70
0
  10
 1809.0000000000
  20
 933.10906329633
  10
 1807.5000000000
  20
 933.10906329633
  10
 1807.5000000000
  20
 739.10906329633
  10
 1809.0000000000
  20
 739.10906329633
   0
LINE
   5
289
 100
AcDbEntity
   8
LEVEL001
 100
AcDbLine
   6
CONTINUOUS
  62
7
  10
 1670.5000000000
  20
 925.60906329633
  30
0.0
  11
 1683.0000000000
  21
 925.60906329633
  31
0.0
   0
LINE
   5
28A
 100
AcDbEntity
   8
LEVEL001
 100
AcDbLine
   6
CONTINUOUS
  62
7
  10
 1683.0000000000
  20
 901.60906329633
  30
0.0
  11
 1670.5000000000
  21
 901.60906329633
  31
0.0
   0
LWPOLYLINE
   5
28B
 100
AcDbEntity
   8
LEVEL001
   6
CONTINUOUS
  62
7
 100
AcDbPolyline
  90
4
  70
0
  10
 1804.0000000000
  20
 535.60906329633
  10
 1791.0000000000
  20
 535.60906329633
  10
 1791.0000000000
  20
 532.60906329633
  10
 1804.0000000000
  20
 532.60906329633
   0
POINT
   5
28C
 100
AcDbEntity
   8
LEVEL001
 100
AcDbPoint
  62
7
  10
 1894.0000000000
  20
 758.60906329633
  30
0.0
   0
ARC
   5
28D
 100
AcDbEntity
   8
LEVEL001
   6
CONTINUOUS
  62
7
 100
AcDbCircle
  10
 1684.9714368811
  20
 873.60906329636
  30
0.0
  40
 4.0000000000000
 100
AcDbArc
  50
 105.29876403154
  51
 285.29876403154
   0
LINE
   5
28E
 100
AcDbEntity
   8
LEVEL001
 100
AcDbLine
   6
CONTINUOUS
  62
7
  10
 1688.0000000000
  20
 878.58446938364
  30
0.0
  11
 1683.9160279102
  21
 877.46731573807
  31
0.0
   0
LINE
   5
28F
 100
AcDbEntity
   8
LEVEL001
 100
AcDbLine
   6
CONTINUOUS
  62
7
  10
 1688.0000000000
  20
 870.29055899716
  30
0.0
  11
 1686.0268458521
  21
 869.75081085464
  31
0.0
   0
CIRCLE
   5
290
 100
AcDbEntity
   8
LEVEL001
 100
AcDbCircle
   6
HIDDEN
  62
1
  10
 1974.0000000000
  20
 893.60906329633
  30
0.0
  40
 81.500000000000
   0
CIRCLE
   5
291
 100
AcDbEntity
   8
LEVEL001
 100
AcDbCircle
   6
HIDDEN
  62
1
  10
 1811.0000000000
  20
 913.60906329633
  30
0.0
  40
 81.500000000000
   0
CIRCLE
   5
292
 100
AcDbEntity
   8
LEVEL001
 100
AcDbCircle
   6
HIDDEN
  62
1
  10
 1974.0000000000
  20
 893.60906329633
  30
0.0
  40
 95.000000000000
   0
LINE
   5
293
 100
AcDbEntity
   8
LEVEL001
 100
AcDbLine
   6
HIDDEN
  62
1
  10
 1829.0000000000
  20
 737.40906329633
  30
0.0
  11
 1829.0000000000
  21
 668.60906329633
  31
0.0
   0
LWPOLYLINE
   5
294
 100
AcDbEntity
   8
LEVEL001
   6
HIDDEN
  62
1
 100
AcDbPolyline
  90
4
  70
0
  10
 1804.0000000000
  20
 737.40906329633
  10
 1944.0000000000
  20
 737.40906329633
  10
 1944.0000000000
  20
 668.60906329633
  10
 1804.0000000000
  20
 668.60906329633
   0
CIRCLE
   5
295
 100
AcDbEntity
   8
LEVEL001
 100
AcDbCircle
   6
HIDDEN
  62
1
  10
 1866.5000000000
  20
 703.00906329633
  30
0.0
  40
 20.000000000000
   0
CIRCLE
   5
296
 100
AcDbEntity
   8
LEVEL001
 100
AcDbCircle
   6
HIDDEN
  62
1
  10
 1906.5000000000
  20
 703.00906329633
  30
0.0
  40
 20.000000000000
   0
LINE
   5
297
 100
AcDbEntity
   8
LEVEL001
 100
AcDbLine
   6
DASHDOT
  62
1
  10
 1811.0000000000
  20
 1007.6090632963
  30
0.0
  11
 1811.0000000000
  21
 819.60906329633
  31
0.0
   0
LINE
   5
298
 100
AcDbEntity
   8
LEVEL001
 100
AcDbLine
   6
DASHDOT
  62
1
  10
 1974.0000000000
  20
 1000.6090632963
  30
0.0
  11
 1974.0000000000
  21
 786.60906329633
  31
0.0
   0
LINE
   5
299
 100
AcDbEntity
   8
LEVEL001
 100
AcDbLine
   6
DASHDOT
  62
1
  10
 2087.0000000000
  20
 893.60906329633
  30
0.0
  11
 1861.0000000000
  21
 893.60906329633
  31
0.0
   0
LINE
   5
29A
 100
AcDbEntity
   8
LEVEL001
 100
AcDbLine
   6
DASHDOT
  62
1
  10
 1908.0000000000
  20
 913.60906329633
  30
0.0
  11
 1564.0000000000
  21
 913.60906329633
  31
0.0
   0
LWPOLYLINE
   5
29B
 100
AcDbEntity
   8
LEVEL001
   6
CONTINUOUS
  62
7
 100
AcDbPolyline
  90
4
  70
1
  10
 2136.5000000000
  20
 899.60906329633
  10
 2136.5000000000
  20
 963.60906329633
  10
 2120.0000000000
  20
 963.60906329633
  10
 2120.0000000000
  20
 899.60906329633
   0
LWPOLYLINE
   5
29C
 100
AcDbEntity
   8
LEVEL001
   6
CONTINUOUS
  62
7
 100
AcDbPolyline
  90
4
  70
1
  10
 2136.5000000000
  20
 586.60906329633
  10
 2136.5000000000
  20
 650.60906329633
  10
 2120.0000000000
  20
 650.60906329633
  10
 2120.0000000000
  20
 586.60906329633
   0
LWPOLYLINE
   5
29D
 100
AcDbEntity
   8
LEVEL001
   6
CONTINUOUS
  62
7
 100
AcDbPolyline
  90
4
  70
1
  10
 2135.0000000000
  20
 571.60906329633
  10
 2300.0000000000
  20
 571.60906329633
  10
 2300.0000000000
  20
 821.60906329633
  10
 2135.0000000000
  20
 821.60906329633
   0
LWPOLYLINE
   5
29E
 100
AcDbEntity
   8
LEVEL001
   6
CONTINUOUS
  62
7
 100
AcDbPolyline
  90
4
  70
0
  10
 755.00000000000
  20
 510.60906329633
  10
 759.10000000000
  20
 510.60906329633
  10
 759.10000000000
  20
 186.60906329633
  10
 755.00000000000
  20
 186.60906329633
   0
LWPOLYLINE
   5
29F
 100
AcDbEntity
   8
LEVEL001
   6
CONTINUOUS
  62
7
 100
AcDbPolyline
  90
4
  70
0
  10
 240.00000000000
  20
 510.60906329633
  10
 235.90000000000
  20
 510.60906329633
  10
 235.90000000000
  20
 186.60906329633
  10
 240.00000000000
  20
 186.60906329633
   0
LWPOLYLINE
   5
2A0
 100
AcDbEntity
   8
LEVEL001
   6
CONTINUOUS
  62
7
 100
AcDbPolyline
  90
4
  70
1
  10
 779.10000000000
  20
 739.10906329633
  10
 874.10000000000
  20
 739.10906329633
  10
 874.10000000000
  20
 933.10906329633
  10
 779.10000000000
  20
 933.10906329633
   0
CIRCLE
   5
2A1
 100
AcDbEntity
   8
LEVEL001
 100
AcDbCircle
   6
CONTINUOUS
  62
7
  10
 826.60000000000
  20
 808.10906329633
  30
0.0
  40
 17.500000000000
   0
CIRCLE
   5
2A2
 100
AcDbEntity
   8
LEVEL001
 100
AcDbCircle
   6
CONTINUOUS
  62
7
  10
 826.60000000000
  20
 808.10906329633
  30
0.0
  40
 11.250000000000
   0
CIRCLE
   5
2A3
 100
AcDbEntity
   8
LEVEL001
 100
AcDbCircle
   6
CONTINUOUS
  62
7
  10
 826.60000000000
  20
 808.10906329633
  30
0.0
  40
 9.0000000000000
   0
CIRCLE
   5
2A4
 100
AcDbEntity
   8
LEVEL001
 100
AcDbCircle
   6
CONTINUOUS
  62
7
  10
 826.60000000000
  20
 808.10906329633
  30
0.0
  40
 11.750000000000
   0
LINE
   5
2A5
 100
AcDbEntity
   8
LEVEL001
 100
AcDbLine
   6
CONTINUOUS
  62
7
  10
 826.10000000000
  20
 819.84842017821
  30
0.0
  11
 826.10000000000
  21
 825.60191898087
  31
0.0
   0
LINE
   5
2A6
 100
AcDbEntity
   8
LEVEL001
 100
AcDbLine
   6
CONTINUOUS
  62
7
  10
 827.10000000000
  20
 825.60191898087
  30
0.0
  11
 827.10000000000
  21
 819.84842017821
  31
0.0
   0
CIRCLE
   5
2A7
 100
AcDbEntity
   8
LEVEL001
 100
AcDbCircle
   6
CONTINUOUS
  62
7
  10
 846.60000000000
  20
 873.10906329633
  30
0.0
  40
 14.250000000000
   0
CIRCLE
   5
2A8
 100
AcDbEntity
   8
LEVEL001
 100
AcDbCircle
   6
CONTINUOUS
  62
7
  10
 846.60000000000
  20
 873.10906329633
  30
0.0
  40
 13.000000000000
   0
CIRCLE
   5
2A9
 100
AcDbEntity
   8
LEVEL001
 100
AcDbCircle
   6
CONTINUOUS
  62
7
  10
 846.60000000000
  20
 873.10906329633
  30
0.0
  40
 10.750000000000
   0
ARC
   5
2AA
 100
AcDbEntity
   8
LEVEL001
   6
CONTINUOUS
  62
7
 100
AcDbCircle
  10
 826.60000000000
  20
 808.10906329634
  30
0.0
  40
 28.000000000000
 100
AcDbArc
  50
 299.99999999991
  51
 240.00000000018
   0
ARC
   5
2AB
 100
AcDbEntity
   8
LEVEL001
   6
CONTINUOUS
  62
7
 100
AcDbCircle
  10
 826.60000000000
  20
 808.10906329633
  30
0.0
  40
 19.000000000000
 100
AcDbArc
  50
 299.99999999986
  51
 240.00000000025
   0
LINE
   5
2AC
 100
AcDbEntity
   8
LEVEL001
 100
AcDbLine
   6
CONTINUOUS
  62
7
  10
 802.35128869409
  20
 794.10906329625
  30
0.0
  11
 810.14551732815
  21
 798.60906329625
  31
0.0
   0
LINE
   5
2AD
 100
AcDbEntity
   8
LEVEL001
 100
AcDbLine
   6
CONTINUOUS
  62
7
  10
 798.60000000000
  20
 808.10906329633
  30
0.0
  11
 807.60000000000
  21
 808.10906329633
  31
0.0
   0
LINE
   5
2AE
 100
AcDbEntity
   8
LEVEL001
 100
AcDbLine
   6
CONTINUOUS
  62
7
  10
 802.35128869402
  20
 822.10906329630
  30
0.0
  11
 810.14551732808
  21
 817.60906329630
  31
0.0
   0
LINE
   5
2AF
 100
AcDbEntity
   8
LEVEL001
 100
AcDbLine
   6
CONTINUOUS
  62
7
  10
 812.60000000004
  20
 832.35777460232
  30
0.0
  11
 817.10000000004
  21
 824.56354596826
  31
0.0
   0
LINE
   5
2B0
 100
AcDbEntity
   8
LEVEL001
 100
AcDbLine
   6
CONTINUOUS
  62
7
  10
 826.60000000000
  20
 836.10906329633
  30
0.0
  11
 826.60000000000
  21
 827.10906329633
  31
0.0
   0
LINE
   5
2B1
 100
AcDbEntity
   8
LEVEL001
 100
AcDbLine
   6
CONTINUOUS
  62
7
  10
 840.60000000007
  20
 832.35777460226
  30
0.0
  11
 836.10000000007
  21
 824.56354596820
  31
0.0
   0
LINE
   5
2B2
 100
AcDbEntity
   8
LEVEL001
 100
AcDbLine
   6
CONTINUOUS
  62
7
  10
 850.84871130602
  20
 822.10906329625
  30
0.0
  11
 843.05448267196
  21
 817.60906329625
  31
0.0
   0
LINE
   5
2B3
 100
AcDbEntity
   8
LEVEL001
 100
AcDbLine
   6
CONTINUOUS
  62
7
  10
 854.60000000000
  20
 808.10906329633
  30
0.0
  11
 845.60000000000
  21
 808.10906329633
  31
0.0
   0
LINE
   5
2B4
 100
AcDbEntity
   8
LEVEL001
 100
AcDbLine
   6
CONTINUOUS
  62
7
  10
 850.84871130595
  20
 794.10906329630
  30
0.0
  11
 843.05448267188
  21
 798.60906329630
  31
0.0
   0
LINE
   5
2B5
 100
AcDbEntity
   8
LEVEL001
 100
AcDbLine
   6
CONTINUOUS
  62
7
  10
 808.60194692878
  20
 786.65981888900
  30
0.0
  11
 811.49449117237
  21
 790.10701888303
  31
0.0
   0
LINE
   5
2B6
 100
AcDbEntity
   8
LEVEL001
 100
AcDbLine
   6
CONTINUOUS
  62
7
  10
 805.15075559266
  20
 790.11101022512
  30
0.0
  11
 808.59795558669
  21
 793.00355446871
  31
0.0
   0
LINE
   5
2B7
 100
AcDbEntity
   8
LEVEL001
 100
AcDbLine
   6
CONTINUOUS
  62
7
  10
 800.28860661800
  20
 798.53249928320
  30
0.0
  11
 804.51722341154
  21
 800.07158992817
  31
0.0
   0
LINE
   5
2B8
 100
AcDbEntity
   8
LEVEL001
 100
AcDbLine
   6
CONTINUOUS
  62
7
  10
 799.02538291566
  20
 803.24691432166
  30
0.0
  11
 803.45701780421
  21
 804.02833112116
  31
0.0
   0
LINE
   5
2B9
 100
AcDbEntity
   8
LEVEL001
 100
AcDbLine
   6
CONTINUOUS
  62
7
  10
 799.02538291566
  20
 812.97121227102
  30
0.0
  11
 803.45701780422
  21
 812.18979547152
  31
0.0
   0
LINE
   5
2BA
 100
AcDbEntity
   8
LEVEL001
 100
AcDbLine
   6
CONTINUOUS
  62
7
  10
 800.28860661800
  20
 817.68562730946
  30
0.0
  11
 804.51722341153
  21
 816.14653666450
  31
0.0
   0
LINE
   5
2BB
 100
AcDbEntity
   8
LEVEL001
 100
AcDbLine
   6
CONTINUOUS
  62
7
  10
 805.15075559263
  20
 826.10711636751
  30
0.0
  11
 808.59795558666
  21
 823.21457212392
  31
0.0
   0
LINE
   5
2BC
 100
AcDbEntity
   8
LEVEL001
 100
AcDbLine
   6
CONTINUOUS
  62
7
  10
 808.60194692881
  20
 829.55830770369
  30
0.0
  11
 811.49449117240
  21
 826.11110770966
  31
0.0
   0
LINE
   5
2BD
 100
AcDbEntity
   8
LEVEL001
 100
AcDbLine
   6
CONTINUOUS
  62
7
  10
 817.02343598691
  20
 834.42045667835
  30
0.0
  11
 818.56252663188
  21
 830.19183988481
  31
0.0
   0
LINE
   5
2BE
 100
AcDbEntity
   8
LEVEL001
 100
AcDbLine
   6
CONTINUOUS
  62
7
  10
 821.73785102534
  20
 835.68368038068
  30
0.0
  11
 822.51926782484
  21
 831.25204549212
  31
0.0
   0
LINE
   5
2BF
 100
AcDbEntity
   8
LEVEL001
 100
AcDbLine
   6
CONTINUOUS
  62
7
  10
 831.46214897466
  20
 835.68368038068
  30
0.0
  11
 830.68073217516
  21
 831.25204549212
  31
0.0
   0
LINE
   5
2C0
 100
AcDbEntity
   8
LEVEL001
 100
AcDbLine
   6
CONTINUOUS
  62
7
  10
 836.17656401308
  20
 834.42045667835
  30
0.0
  11
 834.63747336812
  21
 830.19183988482
  31
0.0
   0
LINE
   5
2C1
 100
AcDbEntity
   8
LEVEL001
 100
AcDbLine
   6
CONTINUOUS
  62
7
  10
 844.59805307123
  20
 829.55830770366
  30
0.0
  11
 841.70550882764
  21
 826.11110770962
  31
0.0
   0
LINE
   5
2C2
 100
AcDbEntity
   8
LEVEL001
 100
AcDbLine
   6
CONTINUOUS
  62
7
  10
 848.04924440732
  20
 826.10711636757
  30
0.0
  11
 844.60204441328
  21
 823.21457212398
  31
0.0
   0
LINE
   5
2C3
 100
AcDbEntity
   8
LEVEL001
 100
AcDbLine
   6
CONTINUOUS
  62
7
  10
 852.91139338201
  20
 817.68562730944
  30
0.0
  11
 848.68277658847
  21
 816.14653666448
  31
0.0
   0
LINE
   5
2C4
 100
AcDbEntity
   8
LEVEL001
 100
AcDbLine
   6
CONTINUOUS
  62
7
  10
 854.17461708434
  20
 812.97121227101
  30
0.0
  11
 849.74298219579
  21
 812.18979547150
  31
0.0
   0
LINE
   5
2C5
 100
AcDbEntity
   8
LEVEL001
 100
AcDbLine
   6
CONTINUOUS
  62
7
  10
 854.17461708434
  20
 803.24691432167
  30
0.0
  11
 849.74298219579
  21
 804.02833112117
  31
0.0
   0
LINE
   5
2C6
 100
AcDbEntity
   8
LEVEL001
 100
AcDbLine
   6
CONTINUOUS
  62
7
  10
 852.91139338201
  20
 798.53249928322
  30
0.0
  11
 848.68277658847
  21
 800.07158992819
  31
0.0
   0
LINE
   5
2C7
 100
AcDbEntity
   8
LEVEL001
 100
AcDbLine
   6
CONTINUOUS
  62
7
  10
 848.04924440729
  20
 790.11101022506
  30
0.0
  11
 844.60204441326
  21
 793.00355446865
  31
0.0
   0
LINE
   5
2C8
 100
AcDbEntity
   8
LEVEL001
 100
AcDbLine
   6
CONTINUOUS
  62
7
  10
 844.59805307125
  20
 786.65981888903
  30
0.0
  11
 841.70550882766
  21
 790.10701888306
  31
0.0
   0
LINE
   5
2C9
 100
AcDbEntity
   8
LEVEL001
 100
AcDbLine
   6
CONTINUOUS
  62
7
  10
 812.60000000007
  20
 783.86035199033
  30
0.0
  11
 817.85000000007
  21
 792.95361873006
  31
0.0
   0
LINE
   5
2CA
 100
AcDbEntity
   8
LEVEL001
 100
AcDbLine
   6
CONTINUOUS
  62
7
  10
 840.59999999996
  20
 783.86035199035
  30
0.0
  11
 835.34999999996
  21
 792.95361873008
  31
0.0
   0
CIRCLE
   5
2CB
 100
AcDbEntity
   8
LEVEL001
 100
AcDbCircle
   6
CONTINUOUS
  62
7
  10
 806.60000000000
  20
 873.10906329633
  30
0.0
  40
 14.250000000000
   0
CIRCLE
   5
2CC
 100
AcDbEntity
   8
LEVEL001
 100
AcDbCircle
   6
CONTINUOUS
  62
7
  10
 806.60000000000
  20
 873.10906329633
  30
0.0
  40
 13.000000000000
   0
CIRCLE
   5
2CD
 100
AcDbEntity
   8
LEVEL001
 100
AcDbCircle
   6
CONTINUOUS
  62
7
  10
 806.60000000000
  20
 873.10906329633
  30
0.0
  40
 10.750000000000
   0
LWPOLYLINE
   5
2CE
 100
AcDbEntity
   8
LEVEL001
   6
CONTINUOUS
  62
7
 100
AcDbPolyline
  90
4
  70
0
  10
 663.00000000000
  20
 174.60906329633
  10
 663.00000000000
  20
 172.60906329633
  10
 745.00000000000
  20
 172.60906329633
  10
 745.00000000000
  20
 174.60906329633
   0
LWPOLYLINE
   5
2CF
 100
AcDbEntity
   8
LEVEL001
   6
CONTINUOUS
  62
7
 100
AcDbPolyline
  90
4
  70
1
  10
 688.00000000000
  20
 73.609063296334
  10
 720.00000000000
  20
 73.609063296334
  10
 720.00000000000
  20
 148.60906329633
  10
 688.00000000000
  20
 148.60906329633
   0
LWPOLYLINE
   5
2D0
 100
AcDbEntity
   8
LEVEL001
   6
CONTINUOUS
  62
7
 100
AcDbPolyline
  90
8
  70
0
  10
 681.00000000000
  20
 172.60906329633
  10
 681.00000000000
  20
 93.609063296334
  10
 686.00000000000
  20
 93.609063296334
  10
 686.00000000000
  20
 153.60906329633
  10
 722.00000000000
  20
 153.60906329633
  10
 722.00000000000
  20
 93.609063296334
  10
 727.00000000000
  20
 93.609063296334
  10
 727.00000000000
  20
 172.60906329633
   0
LWPOLYLINE
   5
2D1
 100
AcDbEntity
   8
LEVEL001
   6
CONTINUOUS
  62
7
 100
AcDbPolyline
  90
4
  70
1
  10
 240.00000000000
  20
 183.60906329633
  10
 755.00000000000
  20
 183.60906329633
  10
 755.00000000000
  20
 513.60906329633
  10
 240.00000000000
  20
 513.60906329633
   0
LWPOLYLINE
   5
2D2
 100
AcDbEntity
   8
LEVEL001
   6
CONTINUOUS
  62
7
 100
AcDbPolyline
  90
4
  70
0
  10
 749.00000000000
  20
 183.60906329633
  10
 749.00000000000
  20
 174.60906329633
  10
 659.00000000000
  20
 174.60906329633
  10
 659.00000000000
  20
 183.60906329633
   0
LWPOLYLINE
   5
2D3
 100
AcDbEntity
   8
LEVEL001
   6
CONTINUOUS
  62
7
 100
AcDbPolyline
  90
4
  70
0
  10
 336.00000000000
  20
 183.60906329633
  10
 336.00000000000
  20
 174.60906329633
  10
 246.00000000000
  20
 174.60906329633
  10
 246.00000000000
  20
 183.60906329633
   0
LINE
   5
2D4
 100
AcDbEntity
   8
LEVEL001
 100
AcDbLine
   6
CONTINUOUS
  62
7
  10
 290.00000000000
  20
 233.60906329633
  30
0.0
  11
 705.00000000000
  21
 233.60906329633
  31
0.0
   0
LWPOLYLINE
   5
2D5
 100
AcDbEntity
   8
LEVEL001
   6
CONTINUOUS
  62
7
 100
AcDbPolyline
  90
3
  70
0
  10
 336.00000000000
  20
 174.60906329633
  10
 346.00000000000
  20
 174.60906329633
  10
 346.00000000000
  20
 183.60906329633
   0
LINE
   5
2D6
 100
AcDbEntity
   8
LEVEL001
 100
AcDbLine
   6
CONTINUOUS
  62
7
  10
 240.00000000000
  20
 424.38834417866
  30
0.0
  11
 755.00000000000
  21
 424.38834417866
  31
0.0
   0
LINE
   5
2D7
 100
AcDbEntity
   8
LEVEL001
 100
AcDbLine
   6
CONTINUOUS
  62
7
  10
 240.00000000000
  20
 275.04061869898
  30
0.0
  11
 755.00000000000
  21
 275.04061869898
  31
0.0
   0
LINE
   5
2D8
 100
AcDbEntity
   8
LEVEL001
 100
AcDbLine
   6
CONTINUOUS
  62
7
  10
 755.00000000000
  20
 270.91900939189
  30
0.0
  11
 240.00000000000
  21
 270.91900939189
  31
0.0
   0
POINT
   5
2D9
 100
AcDbEntity
   8
LEVEL001
 100
AcDbPoint
  62
7
  10
 265.00000000000
  20
 478.93905559565
  30
0.0
   0
POINT
   5
2DA
 100
AcDbEntity
   8
LEVEL001
 100
AcDbPoint
  62
7
  10
 265.00000000000
  20
 450.49186978994
  30
0.0
   0
POINT
   5
2DB
 100
AcDbEntity
   8
LEVEL001
 100
AcDbPoint
  62
7
  10
 730.00000000000
  20
 478.93905559565
  30
0.0
   0
POINT
   5
2DC
 100
AcDbEntity
   8
LEVEL001
 100
AcDbPoint
  62
7
  10
 730.00000000000
  20
 450.49186978994
  30
0.0
   0
LINE
   5
2DD
 100
AcDbEntity
   8
LEVEL001
 100
AcDbLine
   6
CONTINUOUS
  62
7
  10
 643.00000000000
  20
 848.60906329633
  30
0.0
  11
 755.00000000000
  21
 848.60906329633
  31
0.0
   0
LINE
   5
2DE
 100
AcDbEntity
   8
LEVEL001
 100
AcDbLine
   6
CONTINUOUS
  62
7
  10
 377.00000000000
  20
 848.60906329633
  30
0.0
  11
 240.00000000000
  21
 848.60906329633
  31
0.0
   0
LINE
   5
2DF
 100
AcDbEntity
   8
LEVEL001
 100
AcDbLine
   6
CONTINUOUS
  62
7
  10
 240.00000000000
  20
 783.60906329633
  30
0.0
  11
 377.00000000000
  21
 783.60906329633
  31
0.0
   0
LINE
   5
2E0
 100
AcDbEntity
   8
LEVEL001
 100
AcDbLine
   6
CONTINUOUS
  62
7
  10
 643.00000000000
  20
 783.60906329633
  30
0.0
  11
 755.00000000000
  21
 783.60906329633
  31
0.0
   0
POINT
   5
2E1
 100
AcDbEntity
   8
LEVEL001
 100
AcDbPoint
  62
7
  10
 352.00000000000
  20
 648.60906329633
  30
0.0
   0
POINT
   5
2E2
 100
AcDbEntity
   8
LEVEL001
 100
AcDbPoint
  62
7
  10
 668.00000000000
  20
 648.60906329633
  30
0.0
   0
POINT
   5
2E3
 100
AcDbEntity
   8
LEVEL001
 100
AcDbPoint
  62
7
  10
 356.00000000000
  20
 588.60906329633
  30
0.0
   0
POINT
   5
2E4
 100
AcDbEntity
   8
LEVEL001
 100
AcDbPoint
  62
7
  10
 664.00000000000
  20
 588.60906329633
  30
0.0
   0
CIRCLE
   5
2E5
 100
AcDbEntity
   8
LEVEL001
 100
AcDbCircle
   6
CONTINUOUS
  62
7
  10
 672.00000000000
  20
 913.60906329633
  30
0.0
  40
 30.000000000000
   0
CIRCLE
   5
2E6
 100
AcDbEntity
   8
LEVEL001
 100
AcDbCircle
   6
CONTINUOUS
  62
7
  10
 672.00000000000
  20
 913.60906329633
  30
0.0
  40
 17.500000000000
   0
ARC
   5
2E7
 100
AcDbEntity
   8
LEVEL001
   6
CONTINUOUS
  62
7
 100
AcDbCircle
  10
 695.42512284336
  20
 954.18256623458
  30
0.0
  40
 12.850245686730
 100
AcDbArc
  50
 184.33151896033
  51
 295.66848103967
   0
ARC
   5
2E8
 100
AcDbEntity
   8
LEVEL001
   6
CONTINUOUS
  62
7
 100
AcDbCircle
  10
 648.57487715664
  20
 954.18256623458
  30
0.0
  40
 12.850245686730
 100
AcDbArc
  50
 244.33151896033
  51
 355.66848103967
   0
ARC
   5
2E9
 100
AcDbEntity
   8
LEVEL001
   6
CONTINUOUS
  62
7
 100
AcDbCircle
  10
 625.14975431327
  20
 913.60906329633
  30
0.0
  40
 12.850245686730
 100
AcDbArc
  50
 304.33151896033
  51
 55.668481039668
   0
ARC
   5
2EA
 100
AcDbEntity
   8
LEVEL001
   6
CONTINUOUS
  62
7
 100
AcDbCircle
  10
 648.57487715664
  20
 873.03556035808
  30
0.0
  40
 12.850245686730
 100
AcDbArc
  50
 4.3315189603307
  51
 115.66848103967
   0
ARC
   5
2EB
 100
AcDbEntity
   8
LEVEL001
   6
CONTINUOUS
  62
7
 100
AcDbCircle
  10
 695.42512284336
  20
 873.03556035808
  30
0.0
  40
 12.850245686730
 100
AcDbArc
  50
 64.331518960330
  51
 175.66848103967
   0
ARC
   5
2EC
 100
AcDbEntity
   8
LEVEL001
   6
CONTINUOUS
  62
7
 100
AcDbCircle
  10
 718.85024568673
  20
 913.60906329633
  30
0.0
  40
 12.850245686730
 100
AcDbArc
  50
 124.33151896033
  51
 235.66848103967
   0
ARC
   5
2ED
 100
AcDbEntity
   8
LEVEL001
   6
CONTINUOUS
  62
7
 100
AcDbCircle
  10
 672.00000000000
  20
 913.60906329634
  30
0.0
  40
 41.000000000000
 100
AcDbArc
  50
 135.00000000000
  51
 165.00000000000
   0
ARC
   5
2EE
 100
AcDbEntity
   8
LEVEL001
   6
CONTINUOUS
  62
7
 100
AcDbCircle
  10
 672.00000000000
  20
 913.60906329633
  30
0.0
  40
 41.000000000000
 100
AcDbArc
  50
 195.00000000000
  51
 225.00000000000
   0
ARC
   5
2EF
 100
AcDbEntity
   8
LEVEL001
   6
CONTINUOUS
  62
7
 100
AcDbCircle
  10
 672.00000000000
  20
 913.60906329633
  30
0.0
  40
 41.000000000000
 100
AcDbArc
  50
 255.00000000000
  51
 285.00000000000
   0
ARC
   5
2F0
 100
AcDbEntity
   8
LEVEL001
   6
CONTINUOUS
  62
7
 100
AcDbCircle
  10
 672.00000000000
  20
 913.60906329633
  30
0.0
  40
 41.000000000000
 100
AcDbArc
  50
 315.00000000000
  51
 345.00000000000
   0
ARC
   5
2F1
 100
AcDbEntity
   8
LEVEL001
   6
CONTINUOUS
  62
7
 100
AcDbCircle
  10
 672.00000000000
  20
 913.60906329633
  30
0.0
  40
 41.000000000000
 100
AcDbArc
  50
 15.000000000001
  51
 45.000000000001
   0
ARC
   5
2F2
 100
AcDbEntity
   8
LEVEL001
   6
CONTINUOUS
  62
7
 100
AcDbCircle
  10
 672.00000000000
  20
 913.60906329633
  30
0.0
  40
 41.000000000000
 100
AcDbArc
  50
 74.999999999994
  51
 105.00000000000
   0
CIRCLE
   5
2F3
 100
AcDbEntity
   8
LEVEL001
 100
AcDbCircle
   6
CONTINUOUS
  62
7
  10
 348.00000000000
  20
 913.60906329633
  30
0.0
  40
 30.000000000000
   0
CIRCLE
   5
2F4
 100
AcDbEntity
   8
LEVEL001
 100
AcDbCircle
   6
CONTINUOUS
  62
7
  10
 348.00000000000
  20
 913.60906329633
  30
0.0
  40
 17.500000000000
   0
ARC
   5
2F5
 100
AcDbEntity
   8
LEVEL001
   6
CONTINUOUS
  62
7
 100
AcDbCircle
  10
 371.42512284336
  20
 954.18256623458
  30
0.0
  40
 12.850245686730
 100
AcDbArc
  50
 184.33151896033
  51
 295.66848103967
   0
ARC
   5
2F6
 100
AcDbEntity
   8
LEVEL001
   6
CONTINUOUS
  62
7
 100
AcDbCircle
  10
 324.57487715664
  20
 954.18256623458
  30
0.0
  40
 12.850245686730
 100
AcDbArc
  50
 244.33151896033
  51
 355.66848103967
   0
ARC
   5
2F7
 100
AcDbEntity
   8
LEVEL001
   6
CONTINUOUS
  62
7
 100
AcDbCircle
  10
 301.14975431327
  20
 913.60906329633
  30
0.0
  40
 12.850245686730
 100
AcDbArc
  50
 304.33151896033
  51
 55.668481039668
   0
ARC
   5
2F8
 100
AcDbEntity
   8
LEVEL001
   6
CONTINUOUS
  62
7
 100
AcDbCircle
  10
 324.57487715664
  20
 873.03556035808
  30
0.0
  40
 12.850245686730
 100
AcDbArc
  50
 4.3315189603307
  51
 115.66848103967
   0
ARC
   5
2F9
 100
AcDbEntity
   8
LEVEL001
   6
CONTINUOUS
  62
7
 100
AcDbCircle
  10
 371.42512284336
  20
 873.03556035808
  30
0.0
  40
 12.850245686730
 100
AcDbArc
  50
 64.331518960330
  51
 175.66848103967
   0
ARC
   5
2FA
 100
AcDbEntity
   8
LEVEL001
   6
CONTINUOUS
  62
7
 100
AcDbCircle
  10
 394.85024568673
  20
 913.60906329633
  30
0.0
  40
 12.850245686730
 100
AcDbArc
  50
 124.33151896033
  51
 235.66848103967
   0
ARC
   5
2FB
 100
AcDbEntity
   8
LEVEL001
   6
CONTINUOUS
  62
7
 100
AcDbCircle
  10
 348.00000000000
  20
 913.60906329634
  30
0.0
  40
 41.000000000000
 100
AcDbArc
  50
 135.00000000000
  51
 165.00000000000
   0
ARC
   5
2FC
 100
AcDbEntity
   8
LEVEL001
   6
CONTINUOUS
  62
7
 100
AcDbCircle
  10
 348.00000000000
  20
 913.60906329633
  30
0.0
  40
 41.000000000000
 100
AcDbArc
  50
 195.00000000000
  51
 225.00000000000
   0
ARC
   5
2FD
 100
AcDbEntity
   8
LEVEL001
   6
CONTINUOUS
  62
7
 100
AcDbCircle
  10
 348.00000000000
  20
 913.60906329633
  30
0.0
  40
 41.000000000000
 100
AcDbArc
  50
 255.00000000000
  51
 285.00000000000
   0
ARC
   5
2FE
 100
AcDbEntity
   8
LEVEL001
   6
CONTINUOUS
  62
7
 100
AcDbCircle
  10
 348.00000000000
  20
 913.60906329633
  30
0.0
  40
 41.000000000000
 100
AcDbArc
  50
 315.00000000000
  51
 345.00000000000
   0
ARC
   5
2FF
 100
AcDbEntity
   8
LEVEL001
   6
CONTINUOUS
  62
7
 100
AcDbCircle
  10
 348.00000000000
  20
 913.60906329633
  30
0.0
  40
 41.000000000000
 100
AcDbArc
  50
 15.000000000001
  51
 45.000000000001
   0
ARC
   5
300
 100
AcDbEntity
   8
LEVEL001
   6
CONTINUOUS
  62
7
 100
AcDbCircle
  10
 348.00000000000
  20
 913.60906329633
  30
0.0
  40
 41.000000000000
 100
AcDbArc
  50
 74.999999999994
  51
 105.00000000000
   0
POINT
   5
301
 100
AcDbEntity
   8
LEVEL001
 100
AcDbPoint
  62
7
  10
 342.00000000000
  20
 1013.6090632963
  30
0.0
   0
POINT
   5
302
 100
AcDbEntity
   8
LEVEL001
 100
AcDbPoint
  62
7
  10
 678.00000000000
  20
 1013.6090632963
  30
0.0
   0
POINT
   5
303
 100
AcDbEntity
   8
LEVEL001
 100
AcDbPoint
  62
7
  10
 352.00000000000
  20
 648.60906329633
  30
0.0
   0
ARC
   5
304
 100
AcDbEntity
   8
LEVEL001
   6
CONTINUOUS
  62
7
 100
AcDbCircle
  10
 367.00000000000
  20
 698.60906329633
  30
0.0
  40
 35.000000000000
 100
AcDbArc
  50
 231.78678929826
  51
 308.21321070174
   0
ARC
   5
305
 100
AcDbEntity
   8
LEVEL001
   6
CONTINUOUS
  62
7
 100
AcDbCircle
  10
 379.99038105677
  20
 676.10906329633
  30
0.0
  40
 35.000000000000
 100
AcDbArc
  50
 111.78678929826
  51
 188.21321070174
   0
ARC
   5
306
 100
AcDbEntity
   8
LEVEL001
   6
CONTINUOUS
  62
7
 100
AcDbCircle
  10
 354.00961894323
  20
 676.10906329633
  30
0.0
  40
 35.000000000000
 100
AcDbArc
  50
 351.78678929826
  51
 68.213210701738
   0
CIRCLE
   5
307
 100
AcDbEntity
   8
LEVEL001
 100
AcDbCircle
   6
CONTINUOUS
  62
7
  10
 367.00000000000
  20
 683.60906329633
  30
0.0
  40
 7.5000000000000
   0
POINT
   5
308
 100
AcDbEntity
   8
LEVEL001
 100
AcDbPoint
  62
7
  10
 668.00000000000
  20
 648.60906329633
  30
0.0
   0
ARC
   5
309
 100
AcDbEntity
   8
LEVEL001
   6
CONTINUOUS
  62
7
 100
AcDbCircle
  10
 653.00000000000
  20
 698.60906329633
  30
0.0
  40
 35.000000000000
 100
AcDbArc
  50
 231.78678929826
  51
 308.21321070174
   0
ARC
   5
30A
 100
AcDbEntity
   8
LEVEL001
   6
CONTINUOUS
  62
7
 100
AcDbCircle
  10
 640.00961894323
  20
 676.10906329633
  30
0.0
  40
 35.000000000000
 100
AcDbArc
  50
 351.78678929826
  51
 68.213210701738
   0
ARC
   5
30B
 100
AcDbEntity
   8
LEVEL001
   6
CONTINUOUS
  62
7
 100
AcDbCircle
  10
 665.99038105677
  20
 676.10906329633
  30
0.0
  40
 35.000000000000
 100
AcDbArc
  50
 111.78678929826
  51
 188.21321070174
   0
CIRCLE
   5
30C
 100
AcDbEntity
   8
LEVEL001
 100
AcDbCircle
   6
CONTINUOUS
  62
7
  10
 653.00000000000
  20
 683.60906329633
  30
0.0
  40
 7.5000000000000
   0
POINT
   5
30D
 100
AcDbEntity
   8
LEVEL001
 100
AcDbPoint
  62
7
  10
 304.00000000000
  20
 773.60906329633
  30
0.0
   0
LWPOLYLINE
   5
30E
 100
AcDbEntity
   8
LEVEL001
   6
CONTINUOUS
  62
7
 100
AcDbPolyline
  90
4
  70
1
  10
 341.00000000000
  20
 980.09564020760
  10
 373.00000000000
  20
 980.09564020760
  10
 373.00000000000
  20
 1005.1078866513
  10
 341.00000000000
  20
 1005.1078866513
   0
LINE
   5
30F
 100
AcDbEntity
   8
LEVEL001
 100
AcDbLine
   6
CONTINUOUS
  62
7
  10
 341.00000000000
  20
 988.59036541490
  30
0.0
  11
 373.00000000000
  21
 988.59036541490
  31
0.0
   0
LWPOLYLINE
   5
310
 100
AcDbEntity
   8
LEVEL001
   6
CONTINUOUS
  62
7
 100
AcDbPolyline
  90
4
  70
1
  10
 679.00000000000
  20
 980.09564020760
  10
 647.00000000000
  20
 980.09564020760
  10
 647.00000000000
  20
 1005.1078866513
  10
 679.00000000000
  20
 1005.1078866513
   0
LINE
   5
311
 100
AcDbEntity
   8
LEVEL001
 100
AcDbLine
   6
CONTINUOUS
  62
7
  10
 679.00000000000
  20
 988.59036541490
  30
0.0
  11
 647.00000000000
  21
 988.59036541490
  31
0.0
   0
LWPOLYLINE
   5
312
 100
AcDbEntity
   8
LEVEL001
   6
CONTINUOUS
  62
7
 100
AcDbPolyline
  90
4
  70
1
  10
 240.00000000000
  20
 515.60906329633
  10
 238.40000000000
  20
 515.60906329633
  10
 238.40000000000
  20
 1013.6090632963
  10
 240.00000000000
  20
 1013.6090632963
   0
LWPOLYLINE
   5
313
 100
AcDbEntity
   8
LEVEL001
   6
CONTINUOUS
  62
7
 100
AcDbPolyline
  90
4
  70
0
  10
 238.40000000000
  20
 963.60906329633
  10
 236.90000000000
  20
 963.60906329633
  10
 236.90000000000
  20
 899.60906329633
  10
 238.40000000000
  20
 899.60906329633
   0
LWPOLYLINE
   5
314
 100
AcDbEntity
   8
LEVEL001
   6
CONTINUOUS
  62
7
 100
AcDbPolyline
  90
4
  70
0
  10
 238.40000000000
  20
 650.60906329633
  10
 236.90000000000
  20
 650.60906329633
  10
 236.90000000000
  20
 586.60906329633
  10
 238.40000000000
  20
 586.60906329633
   0
LWPOLYLINE
   5
315
 100
AcDbEntity
   8
LEVEL001
   6
CONTINUOUS
  62
7
 100
AcDbPolyline
  90
4
  70
1
  10
 755.00000000000
  20
 515.60906329633
  10
 756.60000000000
  20
 515.60906329633
  10
 756.60000000000
  20
 1013.6090632963
  10
 755.00000000000
  20
 1013.6090632963
   0
LWPOLYLINE
   5
316
 100
AcDbEntity
   8
LEVEL001
   6
CONTINUOUS
  62
7
 100
AcDbPolyline
  90
4
  70
0
  10
 756.60000000000
  20
 650.60906329633
  10
 758.10000000000
  20
 650.60906329633
  10
 758.10000000000
  20
 586.60906329633
  10
 756.60000000000
  20
 586.60906329633
   0
LWPOLYLINE
   5
317
 100
AcDbEntity
   8
LEVEL001
   6
CONTINUOUS
  62
7
 100
AcDbPolyline
  90
4
  70
1
  10
 756.60000000000
  20
 736.10906329633
  10
 876.60000000000
  20
 736.10906329633
  10
 876.60000000000
  20
 936.10906329633
  10
 756.60000000000
  20
 936.10906329633
   0
LINE
   5
318
 100
AcDbEntity
   8
LEVEL001
 100
AcDbLine
   6
CONTINUOUS
  62
7
  10
 776.60000000000
  20
 936.10906329633
  30
0.0
  11
 776.60000000000
  21
 736.10906329633
  31
0.0
   0
POINT
   5
319
 100
AcDbEntity
   8
LEVEL001
 100
AcDbPoint
  62
7
  10
 786.10000000000
  20
 745.60906329633
  30
0.0
   0
POINT
   5
31A
 100
AcDbEntity
   8
LEVEL001
 100
AcDbPoint
  62
7
  10
 867.10000000000
  20
 745.60906329633
  30
0.0
   0
POINT
   5
31B
 100
AcDbEntity
   8
LEVEL001
 100
AcDbPoint
  62
7
  10
 867.10000000000
  20
 926.60906329633
  30
0.0
   0
POINT
   5
31C
 100
AcDbEntity
   8
LEVEL001
 100
AcDbPoint
  62
7
  10
 786.10000000000
  20
 926.60906329633
  30
0.0
   0
POINT
   5
31D
 100
AcDbEntity
   8
LEVEL001
 100
AcDbPoint
  62
7
  10
 826.60000000000
  20
 736.10906329633
  30
0.0
   0
POINT
   5
31E
 100
AcDbEntity
   8
LEVEL001
 100
AcDbPoint
  62
7
  10
 356.00000000000
  20
 588.60906329633
  30
0.0
   0
LINE
   5
31F
 100
AcDbEntity
   8
LEVEL001
 100
AcDbLine
   6
CONTINUOUS
  62
7
  10
 378.00000000000
  20
 631.60906329633
  30
0.0
  11
 378.00000000000
  21
 538.60906329633
  31
0.0
   0
POINT
   5
320
 100
AcDbEntity
   8
LEVEL001
 100
AcDbPoint
  62
7
  10
 664.00000000000
  20
 588.60906329633
  30
0.0
   0
LINE
   5
321
 100
AcDbEntity
   8
LEVEL001
 100
AcDbLine
   6
CONTINUOUS
  62
7
  10
 642.00000000000
  20
 631.60906329633
  30
0.0
  11
 642.00000000000
  21
 538.60906329633
  31
0.0
   0
LINE
   5
322
 100
AcDbEntity
   8
LEVEL001
 100
AcDbLine
   6
CONTINUOUS
  62
7
  10
 637.50000000000
  20
 535.60906329633
  30
0.0
  11
 382.50000000000
  21
 535.60906329633
  31
0.0
   0
LINE
   5
323
 100
AcDbEntity
   8
LEVEL001
 100
AcDbLine
   6
CONTINUOUS
  62
7
  10
 669.00000000000
  20
 448.99193483264
  30
0.0
  11
 685.00000000000
  21
 448.99193483264
  31
0.0
   0
POINT
   5
324
 100
AcDbEntity
   8
LEVEL001
 100
AcDbPoint
  62
7
  10
 677.00000000000
  20
 461.71985689398
  30
0.0
   0
LINE
   5
325
 100
AcDbEntity
   8
LEVEL001
 100
AcDbLine
   6
CONTINUOUS
  62
7
  10
 335.00000000000
  20
 448.99193483264
  30
0.0
  11
 351.00000000000
  21
 448.99193483264
  31
0.0
   0
POINT
   5
326
 100
AcDbEntity
   8
LEVEL001
 100
AcDbPoint
  62
7
  10
 343.00000000000
  20
 461.71985689398
  30
0.0
   0
LINE
   5
327
 100
AcDbEntity
   8
LEVEL001
 100
AcDbLine
   6
CONTINUOUS
  62
7
  10
 680.50000000000
  20
 435.69596093245
  30
0.0
  11
 754.00000000000
  21
 435.69596093245
  31
0.0
   0
POINT
   5
328
 100
AcDbEntity
   8
LEVEL001
 100
AcDbPoint
  62
7
  10
 730.00000000000
  20
 478.90001479631
  30
0.0
   0
POINT
   5
329
 100
AcDbEntity
   8
LEVEL001
 100
AcDbPoint
  62
7
  10
 730.00000000000
  20
 450.49186978994
  30
0.0
   0
LINE
   5
32A
 100
AcDbEntity
   8
LEVEL001
 100
AcDbLine
   6
CONTINUOUS
  62
7
  10
 339.50000000000
  20
 435.69596093245
  30
0.0
  11
 241.00000000000
  21
 435.69596093245
  31
0.0
   0
POINT
   5
32B
 100
AcDbEntity
   8
LEVEL001
 100
AcDbPoint
  62
7
  10
 265.00000000000
  20
 478.90001479631
  30
0.0
   0
POINT
   5
32C
 100
AcDbEntity
   8
LEVEL001
 100
AcDbPoint
  62
7
  10
 265.00000000000
  20
 450.49186978994
  30
0.0
   0
LWPOLYLINE
   5
32D
 100
AcDbEntity
   8
LEVEL001
   6
CONTINUOUS
  62
7
 100
AcDbPolyline
  90
4
  70
0
  10
 250.00000000000
  20
 174.60906329633
  10
 250.00000000000
  20
 172.60906329633
  10
 332.00000000000
  20
 172.60906329633
  10
 332.00000000000
  20
 174.60906329633
   0
LWPOLYLINE
   5
32E
 100
AcDbEntity
   8
LEVEL001
   6
CONTINUOUS
  62
7
 100
AcDbPolyline
  90
4
  70
1
  10
 275.00000000000
  20
 73.609063296334
  10
 307.00000000000
  20
 73.609063296334
  10
 307.00000000000
  20
 148.60906329633
  10
 275.00000000000
  20
 148.60906329633
   0
LWPOLYLINE
   5
32F
 100
AcDbEntity
   8
LEVEL001
   6
CONTINUOUS
  62
7
 100
AcDbPolyline
  90
8
  70
0
  10
 268.00000000000
  20
 172.60906329633
  10
 268.00000000000
  20
 93.609063296334
  10
 273.00000000000
  20
 93.609063296334
  10
 273.00000000000
  20
 153.60906329633
  10
 309.00000000000
  20
 153.60906329633
  10
 309.00000000000
  20
 93.609063296334
  10
 314.00000000000
  20
 93.609063296334
  10
 314.00000000000
  20
 172.60906329633
   0
LINE
   5
330
 100
AcDbEntity
   8
LEVEL001
 100
AcDbLine
   6
CONTINUOUS
  62
7
  10
 158.00000000000
  20
 73.609063296334
  30
0.0
  11
 874.00000000000
  21
 73.609063296334
  31
0.0
   0
LWPOLYLINE
   5
331
 100
AcDbEntity
   8
LEVEL001
   6
CONTINUOUS
  62
7
 100
AcDbPolyline
  90
4
  70
0
  10
 620.00000000000
  20
 761.10906329633
  10
 641.00000000000
  20
 761.10906329633
  10
 641.00000000000
  20
 786.10906329633
  10
 620.00000000000
  20
 786.10906329633
   0
LWPOLYLINE
   5
332
 100
AcDbEntity
   8
LEVEL001
   6
CONTINUOUS
  62
7
 100
AcDbPolyline
  90
4
  70
0
  10
 400.00000000000
  20
 786.10906329633
  10
 379.00000000000
  20
 786.10906329633
  10
 379.00000000000
  20
 761.10906329633
  10
 400.00000000000
  20
 761.10906329633
   0
LINE
   5
333
 100
AcDbEntity
   8
LEVEL001
 100
AcDbLine
   6
CONTINUOUS
  62
7
  10
 392.00000000000
  20
 893.60906329633
  30
0.0
  11
 400.00000000000
  21
 893.60906329633
  31
0.0
   0
LINE
   5
334
 100
AcDbEntity
   8
LEVEL001
 100
AcDbLine
   6
CONTINUOUS
  62
7
  10
 628.00000000000
  20
 893.60906329633
  30
0.0
  11
 620.00000000000
  21
 893.60906329633
  31
0.0
   0
LINE
   5
335
 100
AcDbEntity
   8
LEVEL001
 100
AcDbLine
   6
CONTINUOUS
  62
7
  10
 655.00000000000
  20
 978.60906329633
  30
0.0
  11
 655.00000000000
  21
 980.09564020760
  31
0.0
   0
LINE
   5
336
 100
AcDbEntity
   8
LEVEL001
 100
AcDbLine
   6
CONTINUOUS
  62
7
  10
 655.00000000000
  20
 1005.1078866513
  30
0.0
  11
 655.00000000000
  21
 1013.6090632963
  31
0.0
   0
LINE
   5
337
 100
AcDbEntity
   8
LEVEL001
 100
AcDbLine
   6
CONTINUOUS
  62
7
  10
 365.00000000000
  20
 978.60906329633
  30
0.0
  11
 365.00000000000
  21
 980.09564020760
  31
0.0
   0
LINE
   5
338
 100
AcDbEntity
   8
LEVEL001
 100
AcDbLine
   6
CONTINUOUS
  62
7
  10
 365.00000000000
  20
 1005.1078866513
  30
0.0
  11
 365.00000000000
  21
 1013.6090632963
  31
0.0
   0
LINE
   5
339
 100
AcDbEntity
   8
LEVEL001
 100
AcDbLine
   6
CONTINUOUS
  62
7
  10
 318.00000000000
  20
 978.60906329633
  30
0.0
  11
 240.00000000000
  21
 978.60906329633
  31
0.0
   0
LINE
   5
33A
 100
AcDbEntity
   8
LEVEL001
 100
AcDbLine
   6
CONTINUOUS
  62
7
  10
 702.00000000000
  20
 978.60906329633
  30
0.0
  11
 755.00000000000
  21
 978.60906329633
  31
0.0
   0
LWPOLYLINE
   5
33B
 100
AcDbEntity
   8
LEVEL001
   6
CONTINUOUS
  62
7
 100
AcDbPolyline
  90
6
  70
0
  10
 318.00000000000
  20
 941.55544052130
  10
 318.00000000000
  20
 978.60906329633
  10
 392.00000000000
  20
 978.60906329633
  10
 392.00000000000
  20
 848.60906329633
  10
 318.00000000000
  20
 848.60906329633
  10
 318.00000000000
  20
 885.66268607137
   0
LWPOLYLINE
   5
33C
 100
AcDbEntity
   8
LEVEL001
   6
CONTINUOUS
  62
7
 100
AcDbPolyline
  90
6
  70
0
  10
 702.00000000000
  20
 941.55544052130
  10
 702.00000000000
  20
 978.60906329633
  10
 628.00000000000
  20
 978.60906329633
  10
 628.00000000000
  20
 848.60906329633
  10
 702.00000000000
  20
 848.60906329633
  10
 702.00000000000
  20
 885.66268607137
   0
LWPOLYLINE
   5
33D
 100
AcDbEntity
   8
LEVEL001
   6
CONTINUOUS
  62
7
 100
AcDbPolyline
  90
5
  70
0
  10
 643.00000000000
  20
 665.06804363384
  10
 643.00000000000
  20
 633.60906329633
  10
 681.00000000000
  20
 633.60906329633
  10
 681.00000000000
  20
 698.60906329633
  10
 666.81913218014
  20
 698.60906329633
   0
LWPOLYLINE
   5
33E
 100
AcDbEntity
   8
LEVEL001
   6
CONTINUOUS
  62
7
 100
AcDbPolyline
  90
5
  70
0
  10
 377.00000000000
  20
 665.06804363384
  10
 377.00000000000
  20
 633.60906329633
  10
 339.00000000000
  20
 633.60906329633
  10
 339.00000000000
  20
 698.60906329633
  10
 353.18086781986
  20
 698.60906329633
   0
LINE
   5
33F
 100
AcDbEntity
   8
LEVEL001
 100
AcDbLine
   6
CONTINUOUS
  62
7
  10
 377.00000000000
  20
 702.49925804485
  30
0.0
  11
 377.00000000000
  21
 848.60906329633
  31
0.0
   0
LINE
   5
340
 100
AcDbEntity
   8
LEVEL001
 100
AcDbLine
   6
CONTINUOUS
  62
7
  10
 643.00000000000
  20
 848.60906329633
  30
0.0
  11
 643.00000000000
  21
 702.49925804485
  31
0.0
   0
LWPOLYLINE
   5
341
 100
AcDbEntity
   8
LEVEL001
   6
CONTINUOUS
  62
7
 100
AcDbPolyline
  90
4
  70
0
  10
 637.50000000000
  20
 696.43879982292
  10
 637.50000000000
  20
 731.61975476560
  10
 382.50000000000
  20
 731.61975476560
  10
 382.50000000000
  20
 696.43879982292
   0
LINE
   5
342
 100
AcDbEntity
   8
LEVEL001
 100
AcDbLine
   6
CONTINUOUS
  62
7
  10
 631.92374833453
  20
 684.13804423840
  30
0.0
  11
 388.07625166547
  21
 684.13804423840
  31
0.0
   0
LINE
   5
343
 100
AcDbEntity
   8
LEVEL001
 100
AcDbLine
   6
CONTINUOUS
  62
7
  10
 377.00000000000
  20
 631.60906329633
  30
0.0
  11
 377.00000000000
  21
 665.06804363384
  31
0.0
   0
LINE
   5
344
 100
AcDbEntity
   8
LEVEL001
 100
AcDbLine
   6
CONTINUOUS
  62
7
  10
 643.00000000000
  20
 665.06804363384
  30
0.0
  11
 643.00000000000
  21
 631.60906329633
  31
0.0
   0
LINE
   5
345
 100
AcDbEntity
   8
LEVEL001
 100
AcDbLine
   6
CONTINUOUS
  62
7
  10
 382.50000000000
  20
 667.22833672731
  30
0.0
  11
 382.50000000000
  21
 631.60906329633
  31
0.0
   0
LWPOLYLINE
   5
346
 100
AcDbEntity
   8
LEVEL001
   6
CONTINUOUS
  62
7
 100
AcDbPolyline
  90
4
  70
0
  10
 382.50000000000
  20
 538.60906329633
  10
 382.50000000000
  20
 532.60906329633
  10
 637.50000000000
  20
 532.60906329633
  10
 637.50000000000
  20
 538.60906329633
   0
LINE
   5
347
 100
AcDbEntity
   8
LEVEL001
 100
AcDbLine
   6
CONTINUOUS
  62
7
  10
 637.50000000000
  20
 631.60906329633
  30
0.0
  11
 637.50000000000
  21
 667.22833672731
  31
0.0
   0
LWPOLYLINE
   5
348
 100
AcDbEntity
   8
LEVEL001
   6
CONTINUOUS
  62
7
 100
AcDbPolyline
  90
4
  70
0
  10
 676.00000000000
  20
 497.83877813387
  10
 676.00000000000
  20
 498.06893671608
  10
 680.50000000000
  20
 498.06893671608
  10
 680.50000000000
  20
 477.87168589029
   0
LINE
   5
349
 100
AcDbEntity
   8
LEVEL001
 100
AcDbLine
   6
CONTINUOUS
  62
7
  10
 680.50000000000
  20
 445.45640092668
  30
0.0
  11
 680.50000000000
  21
 435.69596093245
  31
0.0
   0
LINE
   5
34A
 100
AcDbEntity
   8
LEVEL001
 100
AcDbLine
   6
CONTINUOUS
  62
7
  10
 676.00000000000
  20
 497.83877813387
  30
0.0
  11
 676.00000000000
  21
 492.87168589029
  31
0.0
   0
LWPOLYLINE
   5
34B
 100
AcDbEntity
   8
LEVEL001
   6
CONTINUOUS
  62
7
 100
AcDbPolyline
  90
5
  70
0
  10
 676.00000000000
  20
 442.87168589029
  10
 676.00000000000
  20
 433.62453369239
  10
 754.00000000000
  20
 433.62453369239
  10
 754.00000000000
  20
 497.83877813387
  10
 680.50000000000
  20
 497.83877813387
   0
LWPOLYLINE
   5
34C
 100
AcDbEntity
   8
LEVEL001
   6
CONTINUOUS
  62
7
 100
AcDbPolyline
  90
4
  70
0
  10
 685.00000000000
  20
 472.68001200241
  10
 685.00000000000
  20
 477.27620608009
  10
 669.00000000000
  20
 477.27620608009
  10
 669.00000000000
  20
 472.68001200241
   0
LWPOLYLINE
   5
34D
 100
AcDbEntity
   8
LEVEL001
   6
CONTINUOUS
  62
7
 100
AcDbPolyline
  90
4
  70
0
  10
 676.00000000000
  20
 477.27620608009
  10
 676.00000000000
  20
 492.87168589029
  10
 670.00000000000
  20
 492.87168589029
  10
 670.00000000000
  20
 477.27620608009
   0
LWPOLYLINE
   5
34E
 100
AcDbEntity
   8
LEVEL001
   6
CONTINUOUS
  62
7
 100
AcDbPolyline
  90
4
  70
0
  10
 670.00000000000
  20
 445.45640092668
  10
 670.00000000000
  20
 442.87168589029
  10
 676.00000000000
  20
 442.87168589029
  10
 676.00000000000
  20
 445.45640092668
   0
LINE
   5
34F
 100
AcDbEntity
   8
LEVEL001
 100
AcDbLine
   6
CONTINUOUS
  62
7
  10
 705.00000000000
  20
 497.83877813387
  30
0.0
  11
 705.00000000000
  21
 513.60906329633
  31
0.0
   0
LINE
   5
350
 100
AcDbEntity
   8
LEVEL001
 100
AcDbLine
   6
CONTINUOUS
  62
7
  10
 290.00000000000
  20
 497.83877813387
  30
0.0
  11
 290.00000000000
  21
 513.60906329633
  31
0.0
   0
LINE
   5
351
 100
AcDbEntity
   8
LEVEL001
 100
AcDbLine
   6
CONTINUOUS
  62
7
  10
 669.00000000000
  20
 475.37168589029
  30
0.0
  11
 662.50000000000
  21
 475.37168589029
  31
0.0
   0
LWPOLYLINE
   5
352
 100
AcDbEntity
   8
LEVEL001
   6
CONTINUOUS
  62
7
 100
AcDbPolyline
  90
3
  70
0
  10
 662.50000000000
  20
 472.68001200241
  10
 662.50000000000
  20
 488.37168589029
  10
 657.50000000000
  20
 488.37168589029
   0
LWPOLYLINE
   5
353
 100
AcDbEntity
   8
LEVEL001
   6
CONTINUOUS
  62
7
 100
AcDbPolyline
  90
3
  70
0
  10
 362.50000000000
  20
 488.37168589029
  10
 357.50000000000
  20
 488.37168589029
  10
 357.50000000000
  20
 472.68001200241
   0
LWPOLYLINE
   5
354
 100
AcDbEntity
   8
LEVEL001
   6
CONTINUOUS
  62
7
 100
AcDbPolyline
  90
4
  70
0
  10
 351.00000000000
  20
 472.68001200241
  10
 351.00000000000
  20
 477.27620608009
  10
 335.00000000000
  20
 477.27620608009
  10
 335.00000000000
  20
 472.68001200241
   0
LINE
   5
355
 100
AcDbEntity
   8
LEVEL001
 100
AcDbLine
   6
CONTINUOUS
  62
7
  10
 357.50000000000
  20
 475.37168589029
  30
0.0
  11
 351.00000000000
  21
 475.37168589029
  31
0.0
   0
LINE
   5
356
 100
AcDbEntity
   8
LEVEL001
 100
AcDbLine
   6
CONTINUOUS
  62
7
  10
 339.50000000000
  20
 445.45640092668
  30
0.0
  11
 339.50000000000
  21
 435.69596093245
  31
0.0
   0
LWPOLYLINE
   5
357
 100
AcDbEntity
   8
LEVEL001
   6
CONTINUOUS
  62
7
 100
AcDbPolyline
  90
4
  70
0
  10
 350.00000000000
  20
 445.45640092668
  10
 350.00000000000
  20
 442.87168589029
  10
 344.00000000000
  20
 442.87168589029
  10
 344.00000000000
  20
 445.45640092668
   0
LWPOLYLINE
   5
358
 100
AcDbEntity
   8
LEVEL001
   6
CONTINUOUS
  62
7
 100
AcDbPolyline
  90
4
  70
0
  10
 344.00000000000
  20
 477.27620608009
  10
 344.00000000000
  20
 492.87168589029
  10
 350.00000000000
  20
 492.87168589029
  10
 350.00000000000
  20
 477.27620608009
   0
LINE
   5
359
 100
AcDbEntity
   8
LEVEL001
 100
AcDbLine
   6
CONTINUOUS
  62
7
  10
 344.00000000000
  20
 497.83877813387
  30
0.0
  11
 344.00000000000
  21
 477.27620608009
  31
0.0
   0
LWPOLYLINE
   5
35A
 100
AcDbEntity
   8
LEVEL001
   6
CONTINUOUS
  62
7
 100
AcDbPolyline
  90
5
  70
0
  10
 344.00000000000
  20
 445.45640092668
  10
 344.00000000000
  20
 433.62453369239
  10
 241.00000000000
  20
 433.62453369239
  10
 241.00000000000
  20
 497.83877813387
  10
 339.50000000000
  20
 497.83877813387
   0
LINE
   5
35B
 100
AcDbEntity
   8
LEVEL001
 100
AcDbLine
   6
CONTINUOUS
  62
7
  10
 705.00000000000
  20
 183.60906329633
  30
0.0
  11
 705.00000000000
  21
 270.91900939189
  31
0.0
   0
LINE
   5
35C
 100
AcDbEntity
   8
LEVEL001
 100
AcDbLine
   6
CONTINUOUS
  62
7
  10
 705.00000000000
  20
 424.38834417866
  30
0.0
  11
 705.00000000000
  21
 433.62453369239
  31
0.0
   0
LINE
   5
35D
 100
AcDbEntity
   8
LEVEL001
 100
AcDbLine
   6
CONTINUOUS
  62
7
  10
 290.00000000000
  20
 183.60906329633
  30
0.0
  11
 290.00000000000
  21
 270.91900939189
  31
0.0
   0
LINE
   5
35E
 100
AcDbEntity
   8
LEVEL001
 100
AcDbLine
   6
CONTINUOUS
  62
7
  10
 290.00000000000
  20
 424.38834417866
  30
0.0
  11
 290.00000000000
  21
 433.62453369239
  31
0.0
   0
CIRCLE
   5
35F
 100
AcDbEntity
   8
LEVEL001
 100
AcDbCircle
   6
CONTINUOUS
  62
7
  10
 312.00000000000
  20
 1086.3989864693
  30
0.0
  40
 15.000000000000
   0
LINE
   5
360
 100
AcDbEntity
   8
LEVEL001
 100
AcDbLine
   6
CONTINUOUS
  62
7
  10
 303.78622858895
  20
 1013.6090632963
  30
0.0
  11
 305.30461796447
  21
 1072.9761753107
  31
0.0
   0
LINE
   5
361
 100
AcDbEntity
   8
LEVEL001
 100
AcDbLine
   6
CONTINUOUS
  62
7
  10
 318.00046617629
  20
 1072.6514628498
  30
0.0
  11
 316.49038173484
  21
 1013.6090632963
  31
0.0
   0
INSERT
   5
362
 100
AcDbEntity
   8
LEVEL001
 100
AcDbBlockReference
   2
BLOCK004
  10
0.0
  20
0.0
  30
0.0
   0
INSERT
   5
363
 100
AcDbEntity
   8
0
 100
AcDbBlockReference
   2
BLOCK005
  10
0.0
  20
0.0
  30
0.0
   0
LINE
   5
364
 100
AcDbEntity
   8
LEVEL001
 100
AcDbLine
   6
DASHDOT
  62
1
  10
 510.00000000000
  20
 1279.6090632963
  30
0.0
  11
 510.00000000000
  21
 374.60906329633
  31
0.0
   0
LINE
   5
365
 100
AcDbEntity
   8
LEVEL001
 100
AcDbLine
   6
DASHDOT
  62
1
  10
 672.00000000000
  20
 913.60906329633
  30
0.0
  11
 348.00000000000
  21
 913.60906329633
  31
0.0
   0
LWPOLYLINE
   5
366
 100
AcDbEntity
   8
LEVEL001
   6
CONTINUOUS
  62
7
 100
AcDbPolyline
  90
3
  70
0
  10
 756.60000000000
  20
 963.60906329633
  10
 758.10000000000
  20
 963.60906329633
  10
 758.10000000000
  20
 936.10906329633
   0
ELLIPSE
   5
367
 100
AcDbEntity
   8
LEVEL001
   6
CONTINUOUS
  62
7
 100
AcDbEllipse
  10
 647.00000000000
  20
 1000.8398247598
  30
0.0
  11
-6.3500000000000
  21
0.0
  31
0.0
  40
 0.54887760803306
  41
-0.24492127076448E-15
  42
 1.5707963267949
   0
ARC
   5
368
 100
AcDbEntity
   8
LEVEL001
   6
CONTINUOUS
  62
7
 100
AcDbCircle
  10
 647.00000000000
  20
 1139.3071117243
  30
0.0
  40
 6.3500000000000
 100
AcDbArc
  50
0.0
  51
 180.00000000000
   0
LINE
   5
369
 100
AcDbEntity
   8
LEVEL001
 100
AcDbLine
   6
CONTINUOUS
  62
7
  10
 640.65000000000
  20
 1139.3071117243
  30
0.0
  11
 640.65000000000
  21
 1000.8398247598
  31
0.0
   0
LINE
   5
36A
 100
AcDbEntity
   8
LEVEL001
 100
AcDbLine
   6
CONTINUOUS
  62
7
  10
 653.35000000000
  20
 1139.3071117243
  30
0.0
  11
 653.35000000000
  21
 1005.1078866513
  31
0.0
   0
LWPOLYLINE
   5
36B
 100
AcDbEntity
   8
LEVEL001
   6
CONTINUOUS
  62
7
 100
AcDbPolyline
  90
5
  70
0
  10
 643.00000000000
  20
 538.60906329633
  10
 643.00000000000
  20
 513.60906329633
  10
 755.00000000000
  20
 513.60906329633
  10
 755.00000000000
  20
 1013.6090632963
  10
 653.35000000000
  20
 1013.6090632963
   0
LINE
   5
36C
 100
AcDbEntity
   8
LEVEL001
 100
AcDbLine
   6
CONTINUOUS
  62
7
  10
 643.00000000000
  20
 998.13287858853
  30
0.0
  11
 643.00000000000
  21
 978.60906329633
  31
0.0
   0
ARC
   5
36D
 100
AcDbEntity
   8
LEVEL001
   6
CONTINUOUS
  62
7
 100
AcDbCircle
  10
 373.00000000000
  20
 1139.3071117243
  30
0.0
  40
 6.3500000000000
 100
AcDbArc
  50
0.0
  51
 180.00000000000
   0
ELLIPSE
   5
36E
 100
AcDbEntity
   8
LEVEL001
   6
CONTINUOUS
  62
7
 100
AcDbEllipse
  10
 373.00000000000
  20
 1000.8398247598
  30
0.0
  11
-6.3500000000000
  21
0.0
  31
0.0
  40
 0.54887760803306
  41
 1.5707963267949
  42
 3.1415926535898
   0
LINE
   5
36F
 100
AcDbEntity
   8
LEVEL001
 100
AcDbLine
   6
CONTINUOUS
  62
7
  10
 366.65000000000
  20
 1005.1078866513
  30
0.0
  11
 366.65000000000
  21
 1139.3071117243
  31
0.0
   0
LINE
   5
370
 100
AcDbEntity
   8
LEVEL001
 100
AcDbLine
   6
CONTINUOUS
  62
7
  10
 379.35000000000
  20
 1000.8398247598
  30
0.0
  11
 379.35000000000
  21
 1139.3071117243
  31
0.0
   0
LWPOLYLINE
   5
371
 100
AcDbEntity
   8
LEVEL001
   6
CONTINUOUS
  62
7
 100
AcDbPolyline
  90
5
  70
0
  10
 366.65000000000
  20
 1013.6090632963
  10
 240.00000000000
  20
 1013.6090632963
  10
 240.00000000000
  20
 513.60906329633
  10
 377.00000000000
  20
 513.60906329633
  10
 377.00000000000
  20
 538.60906329633
   0
LINE
   5
372
 100
AcDbEntity
   8
LEVEL001
 100
AcDbLine
   6
CONTINUOUS
  62
7
  10
 377.00000000000
  20
 978.60906329633
  30
0.0
  11
 377.00000000000
  21
 998.13287858853
  31
0.0
   0
LWPOLYLINE
   5
373
 100
AcDbEntity
   8
LEVEL001
   6
CONTINUOUS
  62
7
 100
AcDbPolyline
  90
5
  70
1
  10
 343.00000000000
  20
 538.60906329633
  10
 405.00000000000
  20
 538.60906329633
  10
 405.00000000000
  20
 631.60906329633
  10
 373.00000000000
  20
 631.60906329633
  10
 343.00000000000
  20
 625.60906329633
   0
LWPOLYLINE
   5
374
 100
AcDbEntity
   8
LEVEL001
   6
CONTINUOUS
  62
7
 100
AcDbPolyline
  90
5
  70
1
  10
 677.00000000000
  20
 538.60906329633
  10
 615.00000000000
  20
 538.60906329633
  10
 615.00000000000
  20
 631.60906329633
  10
 647.00000000000
  20
 631.60906329633
  10
 677.00000000000
  20
 625.60906329633
   0
LWPOLYLINE
   5
375
 100
AcDbEntity
   8
LEVEL001
   6
CONTINUOUS
  62
7
 100
AcDbPolyline
  90
3
  70
0
  10
 620.00000000000
  20
 798.60906329633
  10
 628.00000000000
  20
 798.60906329633
  10
 628.00000000000
  20
 848.60906329633
   0
LINE
   5
376
 100
AcDbEntity
   8
LEVEL001
 100
AcDbLine
   6
CONTINUOUS
  62
7
  10
 620.00000000000
  20
 731.61975476560
  30
0.0
  11
 620.00000000000
  21
 832.10906329633
  31
0.0
   0
LWPOLYLINE
   5
377
 100
AcDbEntity
   8
LEVEL001
   6
CONTINUOUS
  62
7
 100
AcDbPolyline
  90
3
  70
0
  10
 392.00000000000
  20
 848.60906329633
  10
 392.00000000000
  20
 798.60906329633
  10
 400.00000000000
  20
 798.60906329633
   0
LINE
   5
378
 100
AcDbEntity
   8
LEVEL001
 100
AcDbLine
   6
CONTINUOUS
  62
7
  10
 400.00000000000
  20
 832.10906329633
  30
0.0
  11
 400.00000000000
  21
 731.61975476560
  31
0.0
   0
LINE
   5
379
 100
AcDbEntity
   8
LEVEL001
 100
AcDbLine
   6
CONTINUOUS
  62
7
  10
 670.00000000000
  20
 493.77799367732
  30
0.0
  11
 657.50000000000
  21
 493.77799367732
  31
0.0
   0
LINE
   5
37A
 100
AcDbEntity
   8
LEVEL001
 100
AcDbLine
   6
CONTINUOUS
  62
7
  10
 362.50000000000
  20
 493.77799367732
  30
0.0
  11
 350.00000000000
  21
 493.77799367732
  31
0.0
   0
LWPOLYLINE
   5
37B
 100
AcDbEntity
   8
LEVEL001
   6
CONTINUOUS
  62
7
 100
AcDbPolyline
  90
4
  70
0
  10
 344.00000000000
  20
 497.83877813387
  10
 344.00000000000
  20
 498.06893671608
  10
 339.50000000000
  20
 498.06893671608
  10
 339.50000000000
  20
 477.87168589029
   0
LINE
   5
37C
 100
AcDbEntity
   8
LEVEL001
 100
AcDbLine
   6
CONTINUOUS
  62
7
  10
 620.50000000000
  20
 954.60906329633
  30
0.0
  11
 628.00000000000
  21
 954.60906329633
  31
0.0
   0
LINE
   5
37D
 100
AcDbEntity
   8
LEVEL001
 100
AcDbLine
   6
CONTINUOUS
  62
7
  10
 399.50000000000
  20
 954.60906329633
  30
0.0
  11
 392.00000000000
  21
 954.60906329633
  31
0.0
   0
LINE
   5
37E
 100
AcDbEntity
   8
LEVEL001
 100
AcDbLine
   6
HIDDEN
  62
1
  10
 1937.3895993400
  20
 595.14977371427
  30
0.0
  11
 1956.5407104180
  21
 611.21946395643
  31
0.0
   0
LINE
   5
37F
 100
AcDbEntity
   8
LEVEL001
 100
AcDbLine
   6
HIDDEN
  62
1
  10
 1956.5407104180
  20
 611.21946395643
  30
0.0
  11
 1972.6104006601
  21
 592.06835287846
  31
0.0
   0
LINE
   5
380
 100
AcDbEntity
   8
LEVEL001
 100
AcDbLine
   6
HIDDEN
  62
1
  10
 1953.4592895821
  20
 575.99866263630
  30
0.0
  11
 1937.3895993400
  21
 595.14977371427
  31
0.0
   0
LINE
   5
381
 100
AcDbEntity
   8
LEVEL001
 100
AcDbLine
   6
HIDDEN
  62
1
  10
 1915.1570674262
  20
 543.85928215200
  30
0.0
  11
 1921.0659139443
  21
 544.90117121801
  31
0.0
   0
LINE
   5
382
 100
AcDbEntity
   8
LEVEL001
 100
AcDbLine
   6
HIDDEN
  62
1
  10
 1921.0659139443
  20
 544.90117121801
  30
0.0
  11
 1982.1992079204
  21
 596.19809564597
  31
0.0
   0
LINE
   5
383
 100
AcDbEntity
   8
LEVEL001
 100
AcDbLine
   6
HIDDEN
  62
1
  10
 1982.1992079204
  20
 596.19809564597
  30
0.0
  11
 1980.2708450913
  21
 598.49622897533
  31
0.0
   0
LINE
   5
384
 100
AcDbEntity
   8
LEVEL001
 100
AcDbLine
   6
HIDDEN
  62
1
  10
 1980.2708450913
  20
 598.49622897533
  30
0.0
  11
 1915.1570674262
  21
 543.85928215199
  31
0.0
   0
LINE
   5
385
 100
AcDbEntity
   8
LEVEL001
 100
AcDbLine
   6
DASHDOT
  62
1
  10
 1933.1894230769
  20
 593.60906329633
  30
0.0
  11
 1977.0000000000
  21
 593.60906329633
  31
0.0
   0
LINE
   5
386
 100
AcDbEntity
   8
LEVEL001
 100
AcDbLine
   6
DASHDOT
  62
1
  10
 1955.0000000000
  20
 614.60906329633
  30
0.0
  11
 1955.0000000000
  21
 570.60906329633
  31
0.0
   0
LINE
   5
387
 100
AcDbEntity
   8
LEVEL001
 100
AcDbLine
   6
HIDDEN
  62
1
  10
 1855.3895993400
  20
 600.14977371427
  30
0.0
  11
 1874.5407104180
  21
 616.21946395643
  31
0.0
   0
LINE
   5
388
 100
AcDbEntity
   8
LEVEL001
 100
AcDbLine
   6
DASHDOT
  62
1
  10
 1851.1894230769
  20
 598.60906329633
  30
0.0
  11
 1895.0000000000
  21
 598.60906329633
  31
0.0
   0
LINE
   5
389
 100
AcDbEntity
   8
LEVEL001
 100
AcDbLine
   6
DASHDOT
  62
1
  10
 1873.0000000000
  20
 619.60906329633
  30
0.0
  11
 1873.0000000000
  21
 575.60906329633
  31
0.0
   0
LINE
   5
38A
 100
AcDbEntity
   8
LEVEL001
 100
AcDbLine
   6
HIDDEN
  62
1
  10
 1871.4592895821
  20
 580.99866263630
  30
0.0
  11
 1890.6104006601
  21
 597.06835287846
  31
0.0
   0
LINE
   5
38B
 100
AcDbEntity
   8
LEVEL001
 100
AcDbLine
   6
HIDDEN
  62
1
  10
 1845.6152679821
  20
 650.69146389674
  30
0.0
  11
 1890.6104006601
  21
 597.06835287846
  31
0.0
   0
LINE
   5
38C
 100
AcDbEntity
   8
LEVEL001
 100
AcDbLine
   6
HIDDEN
  62
1
  10
 1873.1318783652
  20
 616.34272078986
  30
0.0
  11
 1854.7468117303
  21
 600.91581815739
  31
0.0
   0
LINE
   5
38D
 100
AcDbEntity
   8
LEVEL001
 100
AcDbLine
   6
HIDDEN
  62
1
  10
 1844.8492235390
  20
 650.04867628706
  30
0.0
  11
 1873.1318783652
  21
 616.34272078986
  31
0.0
   0
LINE
   5
38E
 100
AcDbEntity
   8
LEVEL001
 100
AcDbLine
   6
HIDDEN
  62
1
  10
 1871.4592895821
  20
 580.99866263630
  30
0.0
  11
 1854.7468117303
  21
 600.91581815739
  31
0.0
   0
CIRCLE
   5
38F
 100
AcDbEntity
   8
LEVEL001
 100
AcDbCircle
   6
CONTINUOUS
  62
7
  10
 1953.5721716998
  20
 1034.6090632963
  30
0.0
  40
 12.500000000000
   0
ARC
   5
390
 100
AcDbEntity
   8
LEVEL001
   6
CONTINUOUS
  62
7
 100
AcDbCircle
  10
 1953.5721716998
  20
 1034.6090632963
  30
0.0
  40
 20.500000000000
 100
AcDbArc
  50
 304.68098000000
  51
 235.31902000000
   0
LINE
   5
391
 100
AcDbEntity
   8
LEVEL001
 100
AcDbLine
   6
CONTINUOUS
  62
7
  10
 1962.9597510551
  20
 1020.6090632963
  30
0.0
  11
 1944.1845923445
  21
 1020.6090632963
  31
0.0
   0
ARC
   5
392
 100
AcDbEntity
   8
LEVEL001
   6
CONTINUOUS
  62
7
 100
AcDbCircle
  10
 1967.5128326998
  20
 1014.4619052963
  30
0.0
  40
 4.0000000000000
 100
AcDbArc
  50
 124.68098000000
  51
 185.00000000001
   0
LINE
   5
393
 100
AcDbEntity
   8
LEVEL001
 100
AcDbLine
   6
CONTINUOUS
  62
7
  10
 1963.5721716998
  20
 1013.6090632963
  30
0.0
  11
 1962.9597510551
  21
 1020.6090632963
  31
0.0
   0
LINE
   5
394
 100
AcDbEntity
   8
LEVEL001
 100
AcDbLine
   6
CONTINUOUS
  62
7
  10
 1962.9597510551
  20
 1020.6090632963
  30
0.0
  11
 1953.5721716998
  21
 1022.1090632963
  31
0.0
   0
ARC
   5
395
 100
AcDbEntity
   8
LEVEL001
   6
CONTINUOUS
  62
7
 100
AcDbCircle
  10
 1939.6315106998
  20
 1014.4619052963
  30
0.0
  40
 4.0000000000000
 100
AcDbArc
  50
 354.99999999999
  51
 55.319019999999
   0
LINE
   5
396
 100
AcDbEntity
   8
LEVEL001
 100
AcDbLine
   6
CONTINUOUS
  62
7
  10
 1943.5721716998
  20
 1013.6090632963
  30
0.0
  11
 1944.1845923445
  21
 1020.6090632963
  31
0.0
   0
LINE
   5
397
 100
AcDbEntity
   8
LEVEL001
 100
AcDbLine
   6
CONTINUOUS
  62
7
  10
 1944.1845923445
  20
 1020.6090632963
  30
0.0
  11
 1953.5721716998
  21
 1022.1090632963
  31
0.0
   0
LINE
   5
398
 100
AcDbEntity
   8
LEVEL001
 100
AcDbLine
   6
CONTINUOUS
  62
7
  10
 1963.5721716998
  20
 1013.6090632963
  30
0.0
  11
 1943.5721716998
  21
 1013.6090632963
  31
0.0
   0
LINE
   5
399
 100
AcDbEntity
   8
LEVEL001
 100
AcDbLine
   6
CONTINUOUS
  62
7
  10
 734.38757935532
  20
 1020.6090632963
  30
0.0
  11
 729.00000000000
  21
 1020.6090632963
  31
0.0
   0
LINE
   5
39A
 100
AcDbEntity
   8
LEVEL001
 100
AcDbLine
   6
CONTINUOUS
  62
7
  10
 735.00000000000
  20
 1013.6090632963
  30
0.0
  11
 734.38757935532
  21
 1020.6090632963
  31
0.0
   0
LINE
   5
39B
 100
AcDbEntity
   8
LEVEL001
 100
AcDbLine
   6
CONTINUOUS
  62
7
  10
 734.38757935532
  20
 1020.6090632963
  30
0.0
  11
 729.00000035532
  21
 1021.4699212963
  31
0.0
   0
LINE
   5
39C
 100
AcDbEntity
   8
LEVEL001
 100
AcDbLine
   6
CONTINUOUS
  62
7
  10
 715.61242064468
  20
 1020.6090632963
  30
0.0
  11
 721.00000000000
  21
 1020.6090632963
  31
0.0
   0
LINE
   5
39D
 100
AcDbEntity
   8
LEVEL001
 100
AcDbLine
   6
CONTINUOUS
  62
7
  10
 715.00000000000
  20
 1013.6090632963
  30
0.0
  11
 715.61242064468
  21
 1020.6090632963
  31
0.0
   0
LINE
   5
39E
 100
AcDbEntity
   8
LEVEL001
 100
AcDbLine
   6
CONTINUOUS
  62
7
  10
 715.61242064468
  20
 1020.6090632963
  30
0.0
  11
 720.99999964468
  21
 1021.4699212963
  31
0.0
   0
ARC
   5
39F
 100
AcDbEntity
   8
LEVEL001
   6
CONTINUOUS
  62
7
 100
AcDbCircle
  10
 725.00000000000
  20
 1051.1090632963
  30
0.0
  40
 4.0000000000000
 100
AcDbArc
  50
0.0
  51
 180.00000000000
   0
LINE
   5
3A0
 100
AcDbEntity
   8
LEVEL001
 100
AcDbLine
   6
CONTINUOUS
  62
7
  10
 735.00000000000
  20
 1013.6090632963
  30
0.0
  11
 715.00000000000
  21
 1013.6090632963
  31
0.0
   0
ARC
   5
3A1
 100
AcDbEntity
   8
LEVEL001
   6
CONTINUOUS
  62
7
 100
AcDbCircle
  10
 295.00000000000
  20
 1051.1090632963
  30
0.0
  40
 4.0000000000000
 100
AcDbArc
  50
0.0
  51
 180.00000000000
   0
LINE
   5
3A2
 100
AcDbEntity
   8
LEVEL001
 100
AcDbLine
   6
CONTINUOUS
  62
7
  10
 286.61335500588
  20
 1020.7689982787
  30
0.0
  11
 290.99999964468
  21
 1021.4699212963
  31
0.0
   0
LINE
   5
3A3
 100
AcDbEntity
   8
LEVEL001
 100
AcDbLine
   6
CONTINUOUS
  62
7
  10
 286.66666666667
  20
 1020.6090632963
  30
0.0
  11
 291.00000000000
  21
 1020.6090632963
  31
0.0
   0
LINE
   5
3A4
 100
AcDbEntity
   8
LEVEL001
 100
AcDbLine
   6
CONTINUOUS
  62
7
  10
 303.96698135662
  20
 1020.6762688356
  30
0.0
  11
 299.00000035532
  21
 1021.4699212963
  31
0.0
   0
LINE
   5
3A5
 100
AcDbEntity
   8
LEVEL001
 100
AcDbLine
   6
CONTINUOUS
  62
7
  10
 303.96698135662
  20
 1020.6090632963
  30
0.0
  11
 299.00000000000
  21
 1020.6090632963
  31
0.0
   0
LINE
   5
3A6
 100
AcDbEntity
   8
LEVEL001
 100
AcDbLine
   6
CONTINUOUS
  62
7
  10
 291.00000000000
  20
 1013.6090632963
  30
0.0
  11
 291.00000000000
  21
 1051.1090632963
  31
0.0
   0
LINE
   5
3A7
 100
AcDbEntity
   8
LEVEL001
 100
AcDbLine
   6
CONTINUOUS
  62
7
  10
 299.00000000000
  20
 1013.6090632963
  30
0.0
  11
 299.00000000000
  21
 1051.1090632963
  31
0.0
   0
LINE
   5
3A8
 100
AcDbEntity
   8
LEVEL001
 100
AcDbLine
   6
CONTINUOUS
  62
7
  10
 729.00000000000
  20
 1013.6090632963
  30
0.0
  11
 729.00000000000
  21
 1051.1090632963
  31
0.0
   0
LINE
   5
3A9
 100
AcDbEntity
   8
LEVEL001
 100
AcDbLine
   6
CONTINUOUS
  62
7
  10
 721.00000000000
  20
 1013.6090632963
  30
0.0
  11
 721.00000000000
  21
 1051.1090632963
  31
0.0
   0
CIRCLE
   5
3AA
 100
AcDbEntity
   8
LEVEL001
 100
AcDbCircle
   6
CONTINUOUS
  62
7
  10
 1428.9680885173
  20
 467.87168589029
  30
0.0
  40
 7.5000000000000
   0
ARC
   5
3AB
 100
AcDbEntity
   8
LEVEL001
   6
CONTINUOUS
  62
7
 100
AcDbCircle
  10
 1428.9680885173
  20
 467.87168589029
  30
0.0
  40
 20.500000000000
 100
AcDbArc
  50
 182.68774237945
  51
 299.43730323520
   0
LINE
   5
3AC
 100
AcDbEntity
   8
LEVEL001
 100
AcDbLine
   6
CONTINUOUS
  62
7
  10
 1429.7514434794
  20
 447.37168589029
  30
0.0
  11
 1466.9680885173
  21
 447.37168589029
  31
0.0
   0
ARC
   5
3AD
 100
AcDbEntity
   8
LEVEL001
   6
CONTINUOUS
  62
7
 100
AcDbCircle
  10
 1428.9680885173
  20
 467.87168589030
  30
0.0
  40
 20.500000000000
 100
AcDbArc
  50
 11.251847729275
  51
 182.68774237945
   0
ARC
   5
3AE
 100
AcDbEntity
   8
LEVEL001
   6
CONTINUOUS
  62
7
 100
AcDbCircle
  10
 1428.9680885173
  20
 467.87168589029
  30
0.0
  40
 21.800000000000
 100
AcDbArc
  50
 92.696202135528
  51
 185.72615742216
   0
LWPOLYLINE
   5
3AF
 100
AcDbEntity
   8
LEVEL001
   6
CONTINUOUS
  62
7
 100
AcDbPolyline
  90
4
  70
0
  10
 669.00000000000
  20
 472.68001200241
  10
 669.00000000000
  20
 445.45640092668
  10
 685.00000000000
  20
 445.45640092668
  10
 685.00000000000
  20
 472.68001200241
   0
LWPOLYLINE
   5
3B0
 100
AcDbEntity
   8
LEVEL001
   6
CONTINUOUS
  62
7
 100
AcDbPolyline
  90
5
  70
0
  10
 685.00000000000
  20
 457.87168589029
  10
 696.00000000000
  20
 457.87168589029
  10
 696.00000000000
  20
 477.87168589029
  10
 676.00000000000
  20
 477.87168589029
  10
 676.00000000000
  20
 477.27620608009
   0
LWPOLYLINE
   5
3B1
 100
AcDbEntity
   8
LEVEL001
   6
CONTINUOUS
  62
7
 100
AcDbPolyline
  90
3
  70
0
  10
 657.50000000000
  20
 447.37168589029
  10
 662.50000000000
  20
 447.37168589029
  10
 662.50000000000
  20
 472.68001200241
   0
LWPOLYLINE
   5
3B2
 100
AcDbEntity
   8
LEVEL001
   6
CONTINUOUS
  62
7
 100
AcDbPolyline
  90
4
  70
0
  10
 657.50000000000
  20
 452.88102212914
  10
 657.50000000000
  20
 495.07799367732
  10
 362.50000000000
  20
 495.07799367732
  10
 362.50000000000
  20
 483.28661372010
   0
LINE
   5
3B3
 100
AcDbEntity
   8
LEVEL001
 100
AcDbLine
   6
CONTINUOUS
  62
7
  10
 662.50000000000
  20
 460.37168589029
  30
0.0
  11
 669.00000000000
  21
 460.37168589029
  31
0.0
   0
LWPOLYLINE
   5
3B4
 100
AcDbEntity
   8
LEVEL001
   6
CONTINUOUS
  62
7
 100
AcDbPolyline
  90
4
  70
0
  10
 685.00000000000
  20
 460.37168589029
  10
 695.00000000000
  20
 460.37168589029
  10
 695.00000000000
  20
 475.37168589029
  10
 685.00000000000
  20
 475.37168589029
   0
LWPOLYLINE
   5
3B5
 100
AcDbEntity
   8
LEVEL001
   6
CONTINUOUS
  62
7
 100
AcDbPolyline
  90
4
  70
0
  10
 362.50000000000
  20
 483.28661372010
  10
 362.50000000000
  20
 446.07168589029
  10
 657.50000000000
  20
 446.07168589029
  10
 657.50000000000
  20
 452.88102212914
   0
LWPOLYLINE
   5
3B6
 100
AcDbEntity
   8
LEVEL001
   6
CONTINUOUS
  62
7
 100
AcDbPolyline
  90
3
  70
0
  10
 357.50000000000
  20
 472.68001200241
  10
 357.50000000000
  20
 447.37168589029
  10
 362.50000000000
  20
 447.37168589029
   0
LWPOLYLINE
   5
3B7
 100
AcDbEntity
   8
LEVEL001
   6
CONTINUOUS
  62
7
 100
AcDbPolyline
  90
4
  70
0
  10
 335.00000000000
  20
 472.68001200241
  10
 335.00000000000
  20
 445.45640092668
  10
 351.00000000000
  20
 445.45640092668
  10
 351.00000000000
  20
 472.68001200241
   0
LWPOLYLINE
   5
3B8
 100
AcDbEntity
   8
LEVEL001
   6
CONTINUOUS
  62
7
 100
AcDbPolyline
  90
5
  70
0
  10
 335.00000000000
  20
 457.87168589029
  10
 324.00000000000
  20
 457.87168589029
  10
 324.00000000000
  20
 477.87168589029
  10
 344.00000000000
  20
 477.87168589029
  10
 344.00000000000
  20
 477.27620608009
   0
LWPOLYLINE
   5
3B9
 100
AcDbEntity
   8
LEVEL001
   6
CONTINUOUS
  62
7
 100
AcDbPolyline
  90
4
  70
0
  10
 335.00000000000
  20
 475.37168589029
  10
 325.00000000000
  20
 475.37168589029
  10
 325.00000000000
  20
 460.37168589029
  10
 335.00000000000
  20
 460.37168589029
   0
LINE
   5
3BA
 100
AcDbEntity
   8
LEVEL001
 100
AcDbLine
   6
CONTINUOUS
  62
7
  10
 351.00000000000
  20
 460.37168589029
  30
0.0
  11
 357.50000000000
  21
 460.37168589029
  31
0.0
   0
INSERT
   5
3BB
 100
AcDbEntity
   8
0
 100
AcDbBlockReference
   2
EGF11M8
  10
 1461.9680885173
  20
 1724.8089802711
  30
0.0
  50
 180.00000000000
   0
INSERT
   5
3BC
 100
AcDbEntity
   8
0
 100
AcDbBlockReference
   2
EGF11M8
  10
 1461.9680885173
  20
 2076.8089802711
  30
0.0
  50
 180.00000000000
   0
LWPOLYLINE
   5
3BD
 100
AcDbEntity
   8
LEVEL001
   6
CONTINUOUS
  62
7
 100
AcDbPolyline
  90
4
  70
1
  10
 1809.0000000000
  20
 1631.7089802711
  10
 1807.5000000000
  20
 1631.7089802711
  10
 1807.5000000000
  20
 1536.7089802711
  10
 1809.0000000000
  20
 1536.7089802711
   0
LWPOLYLINE
   5
3BE
 100
AcDbEntity
   8
LEVEL001
   6
CONTINUOUS
  62
7
 100
AcDbPolyline
  90
4
  70
0
  10
 1798.5000000000
  20
 1614.9589802711
  10
 1797.5000000000
  20
 1614.9589802711
  10
 1797.5000000000
  20
 1593.4589802711
  10
 1798.5000000000
  20
 1593.4589802711
   0
LWPOLYLINE
   5
3BF
 100
AcDbEntity
   8
LEVEL001
   6
CONTINUOUS
  62
7
 100
AcDbPolyline
  90
6
  70
1
  10
 1807.5000000000
  20
 1618.4589802711
  10
 1802.5000000000
  20
 1618.4589802711
  10
 1798.5000000000
  20
 1617.2089802711
  10
 1798.5000000000
  20
 1591.2089802711
  10
 1802.5000000000
  20
 1589.9589802711
  10
 1807.5000000000
  20
 1589.9589802711
   0
LINE
   5
3C0
 100
AcDbEntity
   8
LEVEL001
 100
AcDbLine
   6
CONTINUOUS
  62
7
  10
 1802.5000000000
  20
 1618.4589802711
  30
0.0
  11
 1802.5000000000
  21
 1589.9589802711
  31
0.0
   0
LWPOLYLINE
   5
3C1
 100
AcDbEntity
   8
LEVEL001
   6
CONTINUOUS
  62
7
 100
AcDbPolyline
  90
4
  70
0
  10
 1798.5000000000
  20
 1574.9589802711
  10
 1797.5000000000
  20
 1574.9589802711
  10
 1797.5000000000
  20
 1553.4589802711
  10
 1798.5000000000
  20
 1553.4589802711
   0
LWPOLYLINE
   5
3C2
 100
AcDbEntity
   8
LEVEL001
   6
CONTINUOUS
  62
7
 100
AcDbPolyline
  90
6
  70
1
  10
 1807.5000000000
  20
 1578.4589802711
  10
 1802.5000000000
  20
 1578.4589802711
  10
 1798.5000000000
  20
 1577.2089802711
  10
 1798.5000000000
  20
 1551.2089802711
  10
 1802.5000000000
  20
 1549.9589802711
  10
 1807.5000000000
  20
 1549.9589802711
   0
LINE
   5
3C3
 100
AcDbEntity
   8
LEVEL001
 100
AcDbLine
   6
CONTINUOUS
  62
7
  10
 1802.5000000000
  20
 1578.4589802711
  30
0.0
  11
 1802.5000000000
  21
 1549.9589802711
  31
0.0
   0
LINE
   5
3C4
 100
AcDbEntity
   8
LEVEL001
 100
AcDbLine
   6
CONTINUOUS
  62
7
  10
 1804.0000000000
  20
 2170.8089802711
  30
0.0
  11
 1804.0000000000
  21
 2033.8089802711
  31
0.0
   0
LINE
   5
3C5
 100
AcDbEntity
   8
LEVEL001
 100
AcDbLine
   6
CONTINUOUS
  62
7
  10
 1804.0000000000
  20
 1767.8089802711
  30
0.0
  11
 1804.0000000000
  21
 1655.8089802711
  31
0.0
   0
POINT
   5
3C6
 100
AcDbEntity
   8
LEVEL001
 100
AcDbPoint
  62
7
  10
 2084.0000000000
  20
 2068.8089802711
  30
0.0
   0
POINT
   5
3C7
 100
AcDbEntity
   8
LEVEL001
 100
AcDbPoint
  62
7
  10
 2084.0000000000
  20
 1732.8089802711
  30
0.0
   0
LINE
   5
3C8
 100
AcDbEntity
   8
LEVEL001
 100
AcDbLine
   6
CONTINUOUS
  62
7
  10
 1988.7200883283
  20
 2035.3089802711
  30
0.0
  11
 1988.7200883283
  21
 2009.3089802711
  31
0.0
   0
LINE
   5
3C9
 100
AcDbEntity
   8
LEVEL001
 100
AcDbLine
   6
CONTINUOUS
  62
7
  10
 1988.7200883283
  20
 1766.3089802711
  30
0.0
  11
 1988.7200883283
  21
 1792.3089802711
  31
0.0
   0
LWPOLYLINE
   5
3CA
 100
AcDbEntity
   8
LEVEL001
   6
CONTINUOUS
  62
7
 100
AcDbPolyline
  90
4
  70
0
  10
 1989.0000000000
  20
 2009.3089802711
  10
 1952.4976148025
  20
 2009.3089802711
  10
 1952.4976148025
  20
 1792.3089802711
  10
 1989.0000000000
  20
 1792.3089802711
   0
LINE
   5
3CB
 100
AcDbEntity
   8
LEVEL001
 100
AcDbLine
   6
CONTINUOUS
  62
7
  10
 1989.0000000000
  20
 1766.3089802711
  30
0.0
  11
 1989.0000000000
  21
 2035.3089802711
  31
0.0
   0
POINT
   5
3CC
 100
AcDbEntity
   8
LEVEL001
 100
AcDbPoint
  62
7
  10
 2084.0000000000
  20
 2068.8089802711
  30
0.0
   0
POINT
   5
3CD
 100
AcDbEntity
   8
LEVEL001
 100
AcDbPoint
  62
7
  10
 2084.0000000000
  20
 1732.8089802711
  30
0.0
   0
ARC
   5
3CE
 100
AcDbEntity
   8
LEVEL001
   6
CONTINUOUS
  62
7
 100
AcDbCircle
  10
 1671.9446598468
  20
 2037.8089802711
  30
0.0
  40
 6.3499999999999
 100
AcDbArc
  50
 90.000000000000
  51
 270.00000000000
   0
LINE
   5
3CF
 100
AcDbEntity
   8
LEVEL001
 100
AcDbLine
   6
CONTINUOUS
  62
7
  10
 1671.9446598468
  20
 2044.1589802711
  30
0.0
  11
 1762.8662356181
  21
 2044.1589802711
  31
0.0
   0
LINE
   5
3D0
 100
AcDbEntity
   8
LEVEL001
 100
AcDbLine
   6
CONTINUOUS
  62
7
  10
 1671.9446598468
  20
 2031.4589802711
  30
0.0
  11
 1762.8662356181
  21
 2031.4589802711
  31
0.0
   0
ELLIPSE
   5
3D1
 100
AcDbEntity
   8
LEVEL001
   6
CONTINUOUS
  62
7
 100
AcDbEllipse
  10
 1762.8662356181
  20
 2037.8089802711
  30
0.0
  11
0.0
  21
-6.3499999999999
  31
0.0
  40
 0.83590272842431
  41
0.0
  42
 3.1415926535898
   0
ARC
   5
3D2
 100
AcDbEntity
   8
LEVEL001
   6
CONTINUOUS
  62
7
 100
AcDbCircle
  10
 1671.9446598468
  20
 1763.8089802711
  30
0.0
  40
 6.3499999999999
 100
AcDbArc
  50
 90.000000000000
  51
 270.00000000000
   0
LINE
   5
3D3
 100
AcDbEntity
   8
LEVEL001
 100
AcDbLine
   6
CONTINUOUS
  62
7
  10
 1671.9446598468
  20
 1757.4589802711
  30
0.0
  11
 1762.8662356181
  21
 1757.4589802711
  31
0.0
   0
LINE
   5
3D4
 100
AcDbEntity
   8
LEVEL001
 100
AcDbLine
   6
CONTINUOUS
  62
7
  10
 1671.9446598468
  20
 1770.1589802711
  30
0.0
  11
 1762.8662356181
  21
 1770.1589802711
  31
0.0
   0
ELLIPSE
   5
3D5
 100
AcDbEntity
   8
LEVEL001
   6
CONTINUOUS
  62
7
 100
AcDbEllipse
  10
 1762.8662356181
  20
 1763.8089802711
  30
0.0
  11
0.0
  21
-6.3499999999999
  31
0.0
  40
 0.83590272842431
  41
0.0
  42
 3.1415926535898
   0
LWPOLYLINE
   5
3D6
 100
AcDbEntity
   8
LEVEL001
   6
CONTINUOUS
  62
7
 100
AcDbPolyline
  90
4
  70
1
  10
 1701.0000000000
  20
 2170.8089802711
  10
 1701.0000000000
  20
 2172.4089802711
  10
 2134.0000000000
  20
 2172.4089802711
  10
 2134.0000000000
  20
 2170.8089802711
   0
LWPOLYLINE
   5
3D7
 100
AcDbEntity
   8
LEVEL001
   6
CONTINUOUS
  62
7
 100
AcDbPolyline
  90
4
  70
1
  10
 1701.0000000000
  20
 1655.8089802711
  10
 1701.0000000000
  20
 1654.2089802711
  10
 2134.0000000000
  20
 1654.2089802711
  10
 2134.0000000000
  20
 1655.8089802711
   0
LWPOLYLINE
   5
3D8
 100
AcDbEntity
   8
LEVEL001
   6
CONTINUOUS
  62
7
 100
AcDbPolyline
  90
4
  70
1
  10
 1869.0000000000
  20
 1534.2089802711
  10
 1869.0000000000
  20
 1634.2089802711
  10
 1809.0000000000
  20
 1634.2089802711
  10
 1809.0000000000
  20
 1534.2089802711
   0
LWPOLYLINE
   5
3D9
 100
AcDbEntity
   8
LEVEL001
   6
CONTINUOUS
  62
7
 100
AcDbPolyline
  90
6
  70
1
  10
 1869.0000000000
  20
 1654.2089802711
  10
 1919.0000000000
  20
 1654.2089802711
  10
 1919.0000000000
  20
 1651.2089802711
  10
 1872.0000000000
  20
 1651.2089802711
  10
 1872.0000000000
  20
 1534.2089802711
  10
 1869.0000000000
  20
 1534.2089802711
   0
POINT
   5
3DA
 100
AcDbEntity
   8
LEVEL001
 100
AcDbPoint
  62
7
  10
 1834.0000000000
  20
 1584.2089802711
  30
0.0
   0
LWPOLYLINE
   5
3DB
 100
AcDbEntity
   8
LEVEL001
   6
CONTINUOUS
  62
7
 100
AcDbPolyline
  90
4
  70
1
  10
 1461.9680885173
  20
 1734.8089802711
  10
 1461.9680885173
  20
 1714.8089802711
  10
 1511.9680885173
  20
 1714.8089802711
  10
 1511.9680885173
  20
 1734.8089802711
   0
LWPOLYLINE
   5
3DC
 100
AcDbEntity
   8
LEVEL001
   6
CONTINUOUS
  62
7
 100
AcDbPolyline
  90
4
  70
1
  10
 1461.9680885173
  20
 2066.8089802711
  10
 1461.9680885173
  20
 2086.8089802711
  10
 1511.9680885173
  20
 2086.8089802711
  10
 1511.9680885173
  20
 2066.8089802711
   0
LINE
   5
3DD
 100
AcDbEntity
   8
LEVEL001
 100
AcDbLine
   6
CONTINUOUS
  62
7
  10
 1436.4680885173
  20
 1720.8089802711
  30
0.0
  11
 1455.4680885173
  21
 1720.8089802711
  31
0.0
   0
LINE
   5
3DE
 100
AcDbEntity
   8
LEVEL001
 100
AcDbLine
   6
CONTINUOUS
  62
7
  10
 1436.4680885173
  20
 2080.8089802711
  30
0.0
  11
 1455.4680885173
  21
 2080.8089802711
  31
0.0
   0
LINE
   5
3DF
 100
AcDbEntity
   8
LEVEL001
 100
AcDbLine
   6
CONTINUOUS
  62
7
  10
 1877.5000000000
  20
 1767.8089802711
  30
0.0
  11
 1988.7200883283
  21
 1767.8089802711
  31
0.0
   0
LINE
   5
3E0
 100
AcDbEntity
   8
LEVEL001
 100
AcDbLine
   6
CONTINUOUS
  62
7
  10
 1831.0000000000
  20
 2010.8089802711
  30
0.0
  11
 1831.0000000000
  21
 2033.8089802711
  31
0.0
   0
LINE
   5
3E1
 100
AcDbEntity
   8
LEVEL001
 100
AcDbLine
   6
CONTINUOUS
  62
7
  10
 1791.0000000000
  20
 2033.8089802711
  30
0.0
  11
 1791.0000000000
  21
 2010.8089802711
  31
0.0
   0
LINE
   5
3E2
 100
AcDbEntity
   8
LEVEL001
 100
AcDbLine
   6
CONTINUOUS
  62
7
  10
 1831.0000000000
  20
 1790.8089802711
  30
0.0
  11
 1831.0000000000
  21
 1767.8089802711
  31
0.0
   0
LINE
   5
3E3
 100
AcDbEntity
   8
LEVEL001
 100
AcDbLine
   6
CONTINUOUS
  62
7
  10
 1791.0000000000
  20
 1767.8089802711
  30
0.0
  11
 1791.0000000000
  21
 1790.8089802711
  31
0.0
   0
LWPOLYLINE
   5
3E4
 100
AcDbEntity
   8
LEVEL001
   6
CONTINUOUS
  62
7
 100
AcDbPolyline
  90
4
  70
0
  10
 1704.0000000000
  20
 2031.4589802711
  10
 1704.0000000000
  20
 2018.8089802711
  10
 1688.0000000000
  20
 2018.8089802711
  10
 1688.0000000000
  20
 2031.4589802711
   0
LINE
   5
3E5
 100
AcDbEntity
   8
LEVEL001
 100
AcDbLine
   6
CONTINUOUS
  62
7
  10
 1704.0000000000
  20
 2170.8089802711
  30
0.0
  11
 1704.0000000000
  21
 2044.1589802711
  31
0.0
   0
LWPOLYLINE
   5
3E6
 100
AcDbEntity
   8
LEVEL001
   6
CONTINUOUS
  62
7
 100
AcDbPolyline
  90
3
  70
0
  10
 1688.0000000000
  20
 2044.1589802711
  10
 1688.0000000000
  20
 2092.8089802711
  10
 1704.0000000000
  20
 2092.8089802711
   0
LWPOLYLINE
   5
3E7
 100
AcDbEntity
   8
LEVEL001
   6
CONTINUOUS
  62
7
 100
AcDbPolyline
  90
3
  70
0
  10
 1704.0000000000
  20
 2018.8089802711
  10
 1779.0000000000
  20
 2018.8089802711
  10
 1779.0000000000
  20
 2033.8089802711
   0
LWPOLYLINE
   5
3E8
 100
AcDbEntity
   8
LEVEL001
   6
CONTINUOUS
  62
7
 100
AcDbPolyline
  90
4
  70
0
  10
 1755.4402804219
  20
 2044.1589802711
  10
 1755.4402804219
  20
 2069.8089802711
  10
 1705.2742087811
  20
 2069.8089802711
  10
 1705.2742087811
  20
 2044.1589802711
   0
LINE
   5
3E9
 100
AcDbEntity
   8
LEVEL001
 100
AcDbLine
   6
CONTINUOUS
  62
7
  10
 1752.4671265994
  20
 2044.1589802711
  30
0.0
  11
 1752.4671265994
  21
 2069.8089802711
  31
0.0
   0
LWPOLYLINE
   5
3EA
 100
AcDbEntity
   8
LEVEL001
   6
CONTINUOUS
  62
7
 100
AcDbPolyline
  90
3
  70
0
  10
 1704.0000000000
  20
 1782.8089802711
  10
 1779.0000000000
  20
 1782.8089802711
  10
 1779.0000000000
  20
 1767.8089802711
   0
LINE
   5
3EB
 100
AcDbEntity
   8
LEVEL001
 100
AcDbLine
   6
CONTINUOUS
  62
7
  10
 1704.0000000000
  20
 1757.4589802711
  30
0.0
  11
 1704.0000000000
  21
 1655.8089802711
  31
0.0
   0
LWPOLYLINE
   5
3EC
 100
AcDbEntity
   8
LEVEL001
   6
CONTINUOUS
  62
7
 100
AcDbPolyline
  90
4
  70
0
  10
 1755.4402804219
  20
 1757.4589802711
  10
 1755.4402804219
  20
 1731.8089802711
  10
 1705.2742087811
  20
 1731.8089802711
  10
 1705.2742087811
  20
 1757.4589802711
   0
LINE
   5
3ED
 100
AcDbEntity
   8
LEVEL001
 100
AcDbLine
   6
CONTINUOUS
  62
7
  10
 1752.4671265994
  20
 1757.4589802711
  30
0.0
  11
 1752.4671265994
  21
 1731.8089802711
  31
0.0
   0
LWPOLYLINE
   5
3EE
 100
AcDbEntity
   8
LEVEL001
   6
CONTINUOUS
  62
7
 100
AcDbPolyline
  90
3
  70
0
  10
 1645.5000000000
  20
 1655.8089802711
  10
 1645.5000000000
  20
 1654.2089802711
  10
 1701.0000000000
  20
 1654.2089802711
   0
LWPOLYLINE
   5
3EF
 100
AcDbEntity
   8
LEVEL001
   6
CONTINUOUS
  62
7
 100
AcDbPolyline
  90
3
  70
0
  10
 1645.5000000000
  20
 2170.8089802711
  10
 1645.5000000000
  20
 2172.4089802711
  10
 1701.0000000000
  20
 2172.4089802711
   0
LWPOLYLINE
   5
3F0
 100
AcDbEntity
   8
LEVEL001
   6
CONTINUOUS
  62
7
 100
AcDbPolyline
  90
4
  70
0
  10
 1704.0000000000
  20
 1770.1589802711
  10
 1704.0000000000
  20
 1782.8089802711
  10
 1688.0000000000
  20
 1782.8089802711
  10
 1688.0000000000
  20
 1770.1589802711
   0
LWPOLYLINE
   5
3F1
 100
AcDbEntity
   8
LEVEL001
   6
CONTINUOUS
  62
7
 100
AcDbPolyline
  90
3
  70
0
  10
 1688.0000000000
  20
 1757.4589802711
  10
 1688.0000000000
  20
 1708.8089802711
  10
 1704.0000000000
  20
 1708.8089802711
   0
LINE
   5
3F2
 100
AcDbEntity
   8
LEVEL001
 100
AcDbLine
   6
CONTINUOUS
  62
7
  10
 1543.5454702556
  20
 2059.3089802711
  30
0.0
  11
 1543.5454702556
  21
 2048.3089802711
  31
0.0
   0
LINE
   5
3F3
 100
AcDbEntity
   8
LEVEL001
 100
AcDbLine
   6
CONTINUOUS
  62
7
  10
 1543.5454702556
  20
 1753.3089802711
  30
0.0
  11
 1543.5454702556
  21
 1742.3089802711
  31
0.0
   0
CIRCLE
   5
3F4
 100
AcDbEntity
   8
LEVEL001
 100
AcDbCircle
   6
CONTINUOUS
  62
7
  10
 2078.0000000000
  20
 2140.8089802711
  30
0.0
  40
 20.000000000000
   0
INSERT
   5
3F5
 100
AcDbEntity
   8
LEVEL001
 100
AcDbBlockReference
   2
BLOCK006
  10
0.0
  20
0.0
  30
0.0
   0
LINE
   5
3F6
 100
AcDbEntity
   8
LEVEL001
 100
AcDbLine
   6
CONTINUOUS
  62
7
  10
 1692.6000000000
  20
 2136.8089802711
  30
0.0
  11
 1692.6000000000
  21
 2144.8089802711
  31
0.0
   0
LINE
   5
3F7
 100
AcDbEntity
   8
LEVEL001
 100
AcDbLine
   6
CONTINUOUS
  62
7
  10
 1697.6000000000
  20
 2134.3089802711
  30
0.0
  11
 1697.6000000000
  21
 2147.3089802711
  31
0.0
   0
ARC
   5
3F8
 100
AcDbEntity
   8
LEVEL001
   6
CONTINUOUS
  62
7
 100
AcDbCircle
  10
 1684.9714368811
  20
 2140.8089802711
  30
0.0
  40
 4.0000000000000
 100
AcDbArc
  50
 90.000000000000
  51
 270.00000000000
   0
LWPOLYLINE
   5
3F9
 100
AcDbEntity
   8
LEVEL001
   6
CONTINUOUS
  62
7
 100
AcDbPolyline
  90
12
  70
0
  10
 1684.9714368811
  20
 2136.8089802711
  10
 1692.6000000000
  20
 2136.8089802711
  10
 1692.6000000000
  20
 2134.3089802711
  10
 1697.6000000000
  20
 2134.3089802711
  10
 1697.6000000000
  20
 2131.8089802711
  10
 1701.6000000000
  20
 2131.8089802711
  10
 1701.6000000000
  20
 2149.8089802711
  10
 1697.6000000000
  20
 2149.8089802711
  10
 1697.6000000000
  20
 2147.3089802711
  10
 1692.6000000000
  20
 2147.3089802711
  10
 1692.6000000000
  20
 2144.8089802711
  10
 1684.9714368811
  20
 2144.8089802711
   0
LINE
   5
3FA
 100
AcDbEntity
   8
LEVEL001
 100
AcDbLine
   6
CONTINUOUS
  62
7
  10
 1800.5000000000
  20
 1590.5839802711
  30
0.0
  11
 1800.5000000000
  21
 1577.8339802711
  31
0.0
   0
LINE
   5
3FB
 100
AcDbEntity
   8
LEVEL001
 100
AcDbLine
   6
CONTINUOUS
  62
7
  10
 1803.5000000000
  20
 1578.4589802711
  30
0.0
  11
 1803.5000000000
  21
 1589.9589802711
  31
0.0
   0
LWPOLYLINE
   5
3FC
 100
AcDbEntity
   8
LEVEL001
   6
CONTINUOUS
  62
7
 100
AcDbPolyline
  90
4
  70
0
  10
 1797.5000000000
  20
 1572.5271620892
  10
 1778.5000000000
  20
 1572.9589802711
  10
 1778.5000000000
  20
 1595.4589802711
  10
 1797.5000000000
  20
 1595.8907984529
   0
LWPOLYLINE
   5
3FD
 100
AcDbEntity
   8
LEVEL001
   6
HIDDEN
  62
1
 100
AcDbPolyline
  90
4
  70
1
  10
 1879.0000000000
  20
 2018.8089802711
  10
 1879.0000000000
  20
 2010.8089802711
  10
 2069.0000000000
  20
 2010.8089802711
  10
 2069.0000000000
  20
 2018.8089802711
   0
LWPOLYLINE
   5
3FE
 100
AcDbEntity
   8
LEVEL001
   6
HIDDEN
  62
1
 100
AcDbPolyline
  90
4
  70
1
  10
 1879.0000000000
  20
 1790.8089802711
  10
 1879.0000000000
  20
 1782.8089802711
  10
 2069.0000000000
  20
 1782.8089802711
  10
 2069.0000000000
  20
 1790.8089802711
   0
LINE
   5
3FF
 100
AcDbEntity
   8
LEVEL001
 100
AcDbLine
   6
HIDDEN
  62
1
  10
 2055.5000000000
  20
 2010.8089802711
  30
0.0
  11
 2055.5000000000
  21
 1790.8089802711
  31
0.0
   0
LINE
   5
400
 100
AcDbEntity
   8
LEVEL001
 100
AcDbLine
   6
DASHDOT
  62
1
  10
 1811.0000000000
  20
 2064.8089802711
  30
0.0
  11
 1811.0000000000
  21
 1736.8089802711
  31
0.0
   0
LINE
   5
401
 100
AcDbEntity
   8
LEVEL001
 100
AcDbLine
   6
DASHDOT
  62
1
  10
 1974.0000000000
  20
 2064.8089802711
  30
0.0
  11
 1974.0000000000
  21
 1736.8089802711
  31
0.0
   0
POINT
   5
402
 100
AcDbEntity
   8
LEVEL001
 100
AcDbPoint
  62
7
  10
 1909.0000000000
  20
 2068.8089802711
  30
0.0
   0
POINT
   5
403
 100
AcDbEntity
   8
LEVEL001
 100
AcDbPoint
  62
7
  10
 1909.0000000000
  20
 1732.8089802711
  30
0.0
   0
LINE
   5
404
 100
AcDbEntity
   8
LEVEL001
 100
AcDbLine
   6
CONTINUOUS
  62
7
  10
 1892.5000000000
  20
 2010.8089802711
  30
0.0
  11
 1892.5000000000
  21
 1790.8089802711
  31
0.0
   0
LWPOLYLINE
   5
405
 100
AcDbEntity
   8
LEVEL001
   6
CONTINUOUS
  62
7
 100
AcDbPolyline
  90
4
  70
0
  10
 1509.1057743482
  20
 2048.3089802711
  10
 1509.1057743482
  20
 2059.3089802711
  10
 1543.9680885173
  20
 2059.3089802711
  10
 1543.9680885173
  20
 2060.8089802711
   0
LWPOLYLINE
   5
406
 100
AcDbEntity
   8
LEVEL001
   6
CONTINUOUS
  62
7
 100
AcDbPolyline
  90
4
  70
0
  10
 1543.9680885173
  20
 1740.8089802711
  10
 1543.9680885173
  20
 1742.3089802711
  10
 1509.1057743482
  20
 1742.3089802711
  10
 1509.1057743482
  20
 1753.3089802711
   0
LINE
   5
407
 100
AcDbEntity
   8
LEVEL001
 100
AcDbLine
   6
CONTINUOUS
  62
7
  10
 1866.0000000000
  20
 1767.8089802711
  30
0.0
  11
 1766.9887278772
  21
 1767.8089802711
  31
0.0
   0
LWPOLYLINE
   5
408
 100
AcDbEntity
   8
LEVEL001
   6
CONTINUOUS
  62
7
 100
AcDbPolyline
  90
4
  70
0
  10
 1421.4680885173
  20
 1748.3089802711
  10
 1421.4680885173
  20
 1715.8089802711
  10
 1436.4680885173
  20
 1715.8089802711
  10
 1436.4680885173
  20
 1748.3089802711
   0
LINE
   5
409
 100
AcDbEntity
   8
LEVEL001
 100
AcDbLine
   6
CONTINUOUS
  62
7
  10
 1436.4680885173
  20
 1728.8089802711
  30
0.0
  11
 1455.4680885173
  21
 1728.8089802711
  31
0.0
   0
LWPOLYLINE
   5
40A
 100
AcDbEntity
   8
LEVEL001
   6
CONTINUOUS
  62
7
 100
AcDbPolyline
  90
4
  70
0
  10
 1436.4680885173
  20
 2053.3089802711
  10
 1436.4680885173
  20
 2085.8089802711
  10
 1421.4680885173
  20
 2085.8089802711
  10
 1421.4680885173
  20
 2053.3089802711
   0
LINE
   5
40B
 100
AcDbEntity
   8
LEVEL001
 100
AcDbLine
   6
CONTINUOUS
  62
7
  10
 1436.4680885173
  20
 2072.8089802711
  30
0.0
  11
 1455.4680885173
  21
 2072.8089802711
  31
0.0
   0
LWPOLYLINE
   5
40C
 100
AcDbEntity
   8
LEVEL001
   6
CONTINUOUS
  62
7
 100
AcDbPolyline
  90
3
  70
0
  10
 1449.4680885173
  20
 2048.3089802711
  10
 1449.4680885173
  20
 2053.3089802711
  10
 1407.5355105391
  20
 2053.3089802711
   0
LWPOLYLINE
   5
40D
 100
AcDbEntity
   8
LEVEL001
   6
CONTINUOUS
  62
7
 100
AcDbPolyline
  90
3
  70
0
  10
 1407.5355105391
  20
 1748.3089802711
  10
 1449.4680885173
  20
 1748.3089802711
  10
 1449.4680885173
  20
 1753.3089802711
   0
LINE
   5
40E
 100
AcDbEntity
   8
LEVEL001
 100
AcDbLine
   6
CONTINUOUS
  62
7
  10
 1407.5355105391
  20
 1748.3089802711
  30
0.0
  11
 1407.5355105391
  21
 1753.3089802711
  31
0.0
   0
LINE
   5
40F
 100
AcDbEntity
   8
LEVEL001
 100
AcDbLine
   6
CONTINUOUS
  62
7
  10
 1406.2355105391
  20
 1753.3089802711
  30
0.0
  11
 1406.2355105391
  21
 2048.3089802711
  31
0.0
   0
LINE
   5
410
 100
AcDbEntity
   8
LEVEL001
 100
AcDbLine
   6
CONTINUOUS
  62
7
  10
 1407.5355105391
  20
 2053.3089802711
  30
0.0
  11
 1407.5355105391
  21
 2048.3089802711
  31
0.0
   0
LINE
   5
411
 100
AcDbEntity
   8
LEVEL001
 100
AcDbLine
   6
CONTINUOUS
  62
7
  10
 1670.9770800110
  20
 1718.8089802711
  30
0.0
  11
 1670.9770800110
  21
 1655.8089802711
  31
0.0
   0
LINE
   5
412
 100
AcDbEntity
   8
LEVEL001
 100
AcDbLine
   6
CONTINUOUS
  62
7
  10
 1406.2355105391
  20
 1753.3089802711
  30
0.0
  11
 1628.0240724050
  21
 1753.3089802711
  31
0.0
   0
LWPOLYLINE
   5
413
 100
AcDbEntity
   8
LEVEL001
   6
CONTINUOUS
  62
7
 100
AcDbPolyline
  90
4
  70
0
  10
 1628.0240724050
  20
 1740.8089802711
  10
 1466.9680885173
  20
 1740.8089802711
  10
 1466.9680885173
  20
 1734.8089802711
  10
 1628.0240724050
  20
 1734.8089802711
   0
POINT
   5
414
 100
AcDbEntity
   8
LEVEL001
 100
AcDbPoint
  62
3
  10
 1675.8240804050
  20
 1738.8089802711
  30
0.0
   0
LINE
   5
415
 100
AcDbEntity
   8
LEVEL001
 100
AcDbLine
   6
CONTINUOUS
  62
7
  10
 1688.0000000000
  20
 1718.8089802711
  30
0.0
  11
 1669.0000000000
  21
 1718.8089802711
  31
0.0
   0
LINE
   5
416
 100
AcDbEntity
   8
LEVEL001
 100
AcDbLine
   6
CONTINUOUS
  62
7
  10
 1660.8240804050
  20
 1770.8089802711
  30
0.0
  11
 1645.6074414050
  21
 1770.8089802711
  31
0.0
   0
LINE
   5
417
 100
AcDbEntity
   8
LEVEL001
 100
AcDbLine
   6
CONTINUOUS
  62
7
  10
 1660.8240804050
  20
 1706.8089802711
  30
0.0
  11
 1645.7049114050
  21
 1706.8089802711
  31
0.0
   0
LINE
   5
418
 100
AcDbEntity
   8
LEVEL001
 100
AcDbLine
   6
CONTINUOUS
  62
7
  10
 1628.0240724050
  20
 1713.9089762711
  30
0.0
  11
 1628.0240724050
  21
 1763.7089842711
  31
0.0
   0
LINE
   5
419
 100
AcDbEntity
   8
LEVEL001
 100
AcDbLine
   6
CONTINUOUS
  62
7
  10
 1643.8240804050
  20
 1770.8089802711
  30
0.0
  11
 1643.8240804050
  21
 1705.4890342711
  31
0.0
   0
LINE
   5
41A
 100
AcDbEntity
   8
LEVEL001
 100
AcDbLine
   6
CONTINUOUS
  62
7
  10
 1628.8240804050
  20
 1771.3089802711
  30
0.0
  11
 1628.8240804050
  21
 1706.3089822711
  31
0.0
   0
ARC
   5
41B
 100
AcDbEntity
   8
LEVEL001
   6
CONTINUOUS
  62
7
 100
AcDbCircle
  10
 1636.3240804050
  20
 1706.8089802711
  30
0.0
  40
 7.5000000000000
 100
AcDbArc
  50
 179.99999999999
  51
0.0
   0
ARC
   5
41C
 100
AcDbEntity
   8
LEVEL001
   6
CONTINUOUS
  62
7
 100
AcDbCircle
  10
 1631.0240724050
  20
 1713.9089762711
  30
0.0
  40
 3.0000000000000
 100
AcDbArc
  50
 179.99999999997
  51
 222.83364199996
   0
ARC
   5
41D
 100
AcDbEntity
   8
LEVEL001
   6
CONTINUOUS
  62
7
 100
AcDbCircle
  10
 1645.6074414050
  20
 1704.8089802711
  30
0.0
  40
 2.0000000000000
 100
AcDbArc
  50
 89.999999999987
  51
 170.91527999998
   0
ARC
   5
41E
 100
AcDbEntity
   8
LEVEL001
   6
CONTINUOUS
  62
7
 100
AcDbCircle
  10
 1645.7049114050
  20
 1704.8089802711
  30
0.0
  40
 2.0000000000000
 100
AcDbArc
  50
 89.999999999980
  51
 170.91527999998
   0
ARC
   5
41F
 100
AcDbEntity
   8
LEVEL001
   6
CONTINUOUS
  62
7
 100
AcDbCircle
  10
 1636.3240804050
  20
 1770.8089802711
  30
0.0
  40
 7.5000000000000
 100
AcDbArc
  50
0.0
  51
 179.99999999999
   0
ARC
   5
420
 100
AcDbEntity
   8
LEVEL001
   6
CONTINUOUS
  62
7
 100
AcDbCircle
  10
 1631.0240724050
  20
 1763.7089842711
  30
0.0
  40
 3.0000000000000
 100
AcDbArc
  50
 137.16635799998
  51
 179.99999999998
   0
ARC
   5
421
 100
AcDbEntity
   8
LEVEL001
   6
CONTINUOUS
  62
7
 100
AcDbCircle
  10
 1645.6074414050
  20
 1772.8089802711
  30
0.0
  40
 2.0000000000000
 100
AcDbArc
  50
 189.08471999997
  51
 269.99999999995
   0
LINE
   5
422
 100
AcDbEntity
   8
LEVEL001
 100
AcDbLine
   6
CONTINUOUS
  62
7
  10
 1662.8240804050
  20
 1708.8089772711
  30
0.0
  11
 1662.8240804050
  21
 1768.8089802711
  31
0.0
   0
ARC
   5
423
 100
AcDbEntity
   8
LEVEL001
   6
CONTINUOUS
  62
7
 100
AcDbCircle
  10
 1660.8240804050
  20
 1708.8089802711
  30
0.0
  40
 2.0000000000000
 100
AcDbArc
  50
 269.99999999995
  51
0.0
   0
ARC
   5
424
 100
AcDbEntity
   8
LEVEL001
   6
CONTINUOUS
  62
7
 100
AcDbCircle
  10
 1664.8240804050
  20
 1719.3089802711
  30
0.0
  40
 2.0000000000000
 100
AcDbArc
  50
 89.999999999987
  51
 180.00000000000
   0
ARC
   5
425
 100
AcDbEntity
   8
LEVEL001
   6
CONTINUOUS
  62
7
 100
AcDbCircle
  10
 1664.8240804050
  20
 1758.3089802711
  30
0.0
  40
 2.0000000000000
 100
AcDbArc
  50
 179.99999999997
  51
 269.99999999995
   0
ARC
   5
426
 100
AcDbEntity
   8
LEVEL001
   6
CONTINUOUS
  62
7
 100
AcDbCircle
  10
 1660.8240804050
  20
 1768.8089802711
  30
0.0
  40
 2.0000000000000
 100
AcDbArc
  50
0.0
  51
 89.999999999987
   0
ARC
   5
427
 100
AcDbEntity
   8
LEVEL001
   6
CONTINUOUS
  62
7
 100
AcDbCircle
  10
 1629.5815927011
  20
 1738.3708595859
  30
0.0
  40
 14.242487929518
 100
AcDbArc
  50
 1.7627837880899
  51
 16.703116232225
   0
ARC
   5
428
 100
AcDbEntity
   8
LEVEL001
   6
CONTINUOUS
  62
7
 100
AcDbCircle
  10
 1632.8946909208
  20
 1739.3650291634
  30
0.0
  40
 10.783442835577
 100
AcDbArc
  50
 16.703136284368
  51
 35.921263653810
   0
ARC
   5
429
 100
AcDbEntity
   8
LEVEL001
   6
CONTINUOUS
  62
7
 100
AcDbCircle
  10
 1634.9938600519
  20
 1740.8857700865
  30
0.0
  40
 8.1913078090326
 100
AcDbArc
  50
 35.921216605239
  51
 60.240507044706
   0
ARC
   5
42A
 100
AcDbEntity
   8
LEVEL001
   6
CONTINUOUS
  62
7
 100
AcDbCircle
  10
 1636.3240795672
  20
 1743.2122763937
  30
0.0
  40
 5.5113608773797
 100
AcDbArc
  50
 60.240508689385
  51
 89.999991290580
   0
ARC
   5
42B
 100
AcDbEntity
   8
LEVEL001
   6
CONTINUOUS
  62
7
 100
AcDbCircle
  10
 1636.3240812428
  20
 1743.2122763937
  30
0.0
  40
 5.5113608773796
 100
AcDbArc
  50
 90.000008709420
  51
 119.75949131061
   0
ARC
   5
42C
 100
AcDbEntity
   8
LEVEL001
   6
CONTINUOUS
  62
7
 100
AcDbCircle
  10
 1637.6543007581
  20
 1740.8857700865
  30
0.0
  40
 8.1913078090326
 100
AcDbArc
  50
 119.75949295529
  51
 144.07878339476
   0
ARC
   5
42D
 100
AcDbEntity
   8
LEVEL001
   6
CONTINUOUS
  62
7
 100
AcDbCircle
  10
 1639.7534698892
  20
 1739.3650291634
  30
0.0
  40
 10.783442835577
 100
AcDbArc
  50
 144.07873634619
  51
 163.29686371563
   0
ARC
   5
42E
 100
AcDbEntity
   8
LEVEL001
   6
CONTINUOUS
  62
7
 100
AcDbCircle
  10
 1643.0665681088
  20
 1738.3708595859
  30
0.0
  40
 14.242487929518
 100
AcDbArc
  50
 163.29688376778
  51
 178.23721621191
   0
ARC
   5
42F
 100
AcDbEntity
   8
LEVEL001
   6
CONTINUOUS
  62
7
 100
AcDbCircle
  10
 1636.3240768737
  20
 1707.1867404744
  30
0.0
  40
 6.4479592033104
 100
AcDbArc
  50
 244.16556852831
  51
 270.00003137833
   0
ARC
   5
430
 100
AcDbEntity
   8
LEVEL001
   6
CONTINUOUS
  62
7
 100
AcDbCircle
  10
 1636.8669167631
  20
 1708.3079686867
  30
0.0
  40
 7.6936830288518
 100
AcDbArc
  50
 220.54796655455
  51
 244.16566574066
   0
ARC
   5
431
 100
AcDbEntity
   8
LEVEL001
   6
CONTINUOUS
  62
7
 100
AcDbCircle
  10
 1638.3555937735
  20
 1709.5815769556
  30
0.0
  40
 9.6528250002562
 100
AcDbArc
  50
 199.51299394867
  51
 220.54797132290
   0
ARC
   5
432
 100
AcDbEntity
   8
LEVEL001
   6
CONTINUOUS
  62
7
 100
AcDbCircle
  10
 1636.6548658027
  20
 1708.9788660838
  30
0.0
  40
 7.8484591766519
 100
AcDbArc
  50
 183.84584404898
  51
 199.51287418424
   0
ARC
   5
433
 100
AcDbEntity
   8
LEVEL001
   6
CONTINUOUS
  62
7
 100
AcDbCircle
  10
 1629.3171467393
  20
 1709.1009767274
  30
0.0
  40
 0.49306633434888
 100
AcDbArc
  50
 117.04955696132
  51
 180.00005303302
   0
ARC
   5
434
 100
AcDbEntity
   8
LEVEL001
   6
CONTINUOUS
  62
7
 100
AcDbCircle
  10
 1632.6304042849
  20
 1702.6122418952
  30
0.0
  40
 7.7787615850530
 100
AcDbArc
  50
 101.94224490427
  51
 117.04961948868
   0
ARC
   5
435
 100
AcDbEntity
   8
LEVEL001
   6
CONTINUOUS
  62
7
 100
AcDbCircle
  10
 1635.4232842969
  20
 1689.4073536183
  30
0.0
  40
 21.275770630292
 100
AcDbArc
  50
 95.006769891715
  51
 101.94225417028
   0
ARC
   5
436
 100
AcDbEntity
   8
LEVEL001
   6
CONTINUOUS
  62
7
 100
AcDbCircle
  10
 1635.7000141237
  20
 1686.2483729791
  30
0.0
  40
 24.446849007636
 100
AcDbArc
  50
 88.537224628226
  51
 95.006720199699
   0
ARC
   5
437
 100
AcDbEntity
   8
LEVEL001
   6
CONTINUOUS
  62
7
 100
AcDbCircle
  10
 1636.3241038713
  20
 1675.2537088052
  30
0.0
  40
 35.433546465862
 100
AcDbArc
  50
 84.993183508955
  51
 90.000037944829
   0
ARC
   5
438
 100
AcDbEntity
   8
LEVEL001
   6
CONTINUOUS
  62
7
 100
AcDbCircle
  10
 1637.8039704740
  20
 1692.1453421272
  30
0.0
  40
 18.477211913615
 100
AcDbArc
  50
 78.057746104534
  51
 84.993230383099
   0
ARC
   5
439
 100
AcDbEntity
   8
LEVEL001
   6
CONTINUOUS
  62
7
 100
AcDbCircle
  10
 1640.0177565251
  20
 1702.6122418952
  30
0.0
  40
 7.7787615850530
 100
AcDbArc
  50
 62.950380511318
  51
 78.057755095725
   0
ARC
   5
43A
 100
AcDbEntity
   8
LEVEL001
   6
CONTINUOUS
  62
7
 100
AcDbCircle
  10
 1643.3310133195
  20
 1709.1009758588
  30
0.0
  40
 0.49306744956278
 100
AcDbArc
  50
 8.4727898575151
  51
 62.950411199731
   0
ARC
   5
43B
 100
AcDbEntity
   8
LEVEL001
   6
CONTINUOUS
  62
7
 100
AcDbCircle
  10
 1633.6021996258
  20
 1709.5052545183
  30
0.0
  40
 10.221880764246
 100
AcDbArc
  50
 340.48700487367
  51
 358.14081685892
   0
ARC
   5
43C
 100
AcDbEntity
   8
LEVEL001
   6
CONTINUOUS
  62
7
 100
AcDbCircle
  10
 1634.9330274864
  20
 1709.0336426518
  30
0.0
  40
 8.8099598928175
 100
AcDbArc
  50
 319.45203536949
  51
 340.48701274373
   0
ARC
   5
43D
 100
AcDbEntity
   8
LEVEL001
   6
CONTINUOUS
  62
7
 100
AcDbCircle
  10
 1635.7812440469
  20
 1708.3079686867
  30
0.0
  40
 7.6936830288519
 100
AcDbArc
  50
 295.83433425935
  51
 319.45203344545
   0
ARC
   5
43E
 100
AcDbEntity
   8
LEVEL001
   6
CONTINUOUS
  62
7
 100
AcDbCircle
  10
 1636.3240839363
  20
 1707.1867404744
  30
0.0
  40
 6.4479592033104
 100
AcDbArc
  50
 269.99996862166
  51
 295.83443147169
   0
ARC
   5
43F
 100
AcDbEntity
   8
LEVEL001
   6
CONTINUOUS
  62
7
 100
AcDbCircle
  10
 1629.5815927011
  20
 1739.2471009563
  30
0.0
  40
 14.242487929518
 100
AcDbArc
  50
 343.29688376778
  51
 358.23721621192
   0
ARC
   5
440
 100
AcDbEntity
   8
LEVEL001
   6
CONTINUOUS
  62
7
 100
AcDbCircle
  10
 1632.8946909208
  20
 1738.2529313787
  30
0.0
  40
 10.783442835577
 100
AcDbArc
  50
 324.07873634619
  51
 343.29686371562
   0
ARC
   5
441
 100
AcDbEntity
   8
LEVEL001
   6
CONTINUOUS
  62
7
 100
AcDbCircle
  10
 1634.9938600519
  20
 1736.7321904556
  30
0.0
  40
 8.1913078090326
 100
AcDbArc
  50
 299.75949295529
  51
 324.07878339476
   0
ARC
   5
442
 100
AcDbEntity
   8
LEVEL001
   6
CONTINUOUS
  62
7
 100
AcDbCircle
  10
 1636.3240795672
  20
 1734.4056841484
  30
0.0
  40
 5.5113608773797
 100
AcDbArc
  50
 270.00000870944
  51
 299.75949131063
   0
ARC
   5
443
 100
AcDbEntity
   8
LEVEL001
   6
CONTINUOUS
  62
7
 100
AcDbCircle
  10
 1636.3240812428
  20
 1734.4056841484
  30
0.0
  40
 5.5113608773796
 100
AcDbArc
  50
 240.24050868937
  51
 269.99999129056
   0
ARC
   5
444
 100
AcDbEntity
   8
LEVEL001
   6
CONTINUOUS
  62
7
 100
AcDbCircle
  10
 1637.6543007581
  20
 1736.7321904556
  30
0.0
  40
 8.1913078090326
 100
AcDbArc
  50
 215.92121660524
  51
 240.24050704471
   0
ARC
   5
445
 100
AcDbEntity
   8
LEVEL001
   6
CONTINUOUS
  62
7
 100
AcDbCircle
  10
 1639.7534698892
  20
 1738.2529313787
  30
0.0
  40
 10.783442835577
 100
AcDbArc
  50
 196.70313628438
  51
 215.92126365381
   0
ARC
   5
446
 100
AcDbEntity
   8
LEVEL001
   6
CONTINUOUS
  62
7
 100
AcDbCircle
  10
 1643.0665681088
  20
 1739.2471009563
  30
0.0
  40
 14.242487929518
 100
AcDbArc
  50
 181.76278378808
  51
 196.70311623222
   0
ARC
   5
447
 100
AcDbEntity
   8
LEVEL001
   6
CONTINUOUS
  62
7
 100
AcDbCircle
  10
 1629.3171467393
  20
 1768.5169838147
  30
0.0
  40
 0.49306633434888
 100
AcDbArc
  50
 179.99994696687
  51
 242.95044303868
   0
ARC
   5
448
 100
AcDbEntity
   8
LEVEL001
   6
CONTINUOUS
  62
7
 100
AcDbCircle
  10
 1632.6304042849
  20
 1775.0057186469
  30
0.0
  40
 7.7787615850530
 100
AcDbArc
  50
 242.95038051134
  51
 258.05775509575
   0
ARC
   5
449
 100
AcDbEntity
   8
LEVEL001
   6
CONTINUOUS
  62
7
 100
AcDbCircle
  10
 1635.4232842969
  20
 1788.2106069238
  30
0.0
  40
 21.275770630292
 100
AcDbArc
  50
 258.05774582970
  51
 264.99323010826
   0
ARC
   5
44A
 100
AcDbEntity
   8
LEVEL001
   6
CONTINUOUS
  62
7
 100
AcDbCircle
  10
 1635.7000141237
  20
 1791.3695875630
  30
0.0
  40
 24.446849007636
 100
AcDbArc
  50
 264.99327980028
  51
 271.46277537176
   0
ARC
   5
44B
 100
AcDbEntity
   8
LEVEL001
   6
CONTINUOUS
  62
7
 100
AcDbCircle
  10
 1636.3241038713
  20
 1802.3642517369
  30
0.0
  40
 35.433546465862
 100
AcDbArc
  50
 269.99996205517
  51
 275.00681649104
   0
ARC
   5
44C
 100
AcDbEntity
   8
LEVEL001
   6
CONTINUOUS
  62
7
 100
AcDbCircle
  10
 1637.8039704740
  20
 1785.4726184149
  30
0.0
  40
 18.477211913615
 100
AcDbArc
  50
 275.00676961695
  51
 281.94225389551
   0
ARC
   5
44D
 100
AcDbEntity
   8
LEVEL001
   6
CONTINUOUS
  62
7
 100
AcDbCircle
  10
 1640.0177565251
  20
 1775.0057186469
  30
0.0
  40
 7.7787615850530
 100
AcDbArc
  50
 281.94224490425
  51
 297.04961948866
   0
ARC
   5
44E
 100
AcDbEntity
   8
LEVEL001
   6
CONTINUOUS
  62
7
 100
AcDbCircle
  10
 1643.3310133195
  20
 1768.5169846833
  30
0.0
  40
 0.49306744956280
 100
AcDbArc
  50
 297.04958880023
  51
 351.52721014235
   0
ARC
   5
44F
 100
AcDbEntity
   8
LEVEL001
   6
CONTINUOUS
  62
7
 100
AcDbCircle
  10
 1636.3240768737
  20
 1770.4312200678
  30
0.0
  40
 6.4479592033104
 100
AcDbArc
  50
 89.999968621668
  51
 115.83443147169
   0
ARC
   5
450
 100
AcDbEntity
   8
LEVEL001
   6
CONTINUOUS
  62
7
 100
AcDbCircle
  10
 1636.8669167631
  20
 1769.3099918554
  30
0.0
  40
 7.6936830288519
 100
AcDbArc
  50
 115.83433425936
  51
 139.45203344546
   0
ARC
   5
451
 100
AcDbEntity
   8
LEVEL001
   6
CONTINUOUS
  62
7
 100
AcDbCircle
  10
 1638.3555937735
  20
 1768.0363835865
  30
0.0
  40
 9.6528250002561
 100
AcDbArc
  50
 139.45202867710
  51
 160.48700605133
   0
ARC
   5
452
 100
AcDbEntity
   8
LEVEL001
   6
CONTINUOUS
  62
7
 100
AcDbCircle
  10
 1636.6548658027
  20
 1768.6390944583
  30
0.0
  40
 7.8484591766517
 100
AcDbArc
  50
 160.48712581577
  51
 176.15415595102
   0
ARC
   5
453
 100
AcDbEntity
   8
LEVEL001
   6
CONTINUOUS
  62
7
 100
AcDbCircle
  10
 1633.6021996258
  20
 1768.1127060238
  30
0.0
  40
 10.221880764246
 100
AcDbArc
  50
 1.8591831410722
  51
 19.512995126329
   0
ARC
   5
454
 100
AcDbEntity
   8
LEVEL001
   6
CONTINUOUS
  62
7
 100
AcDbCircle
  10
 1634.9330274864
  20
 1768.5843178903
  30
0.0
  40
 8.8099598928173
 100
AcDbArc
  50
 19.512987256282
  51
 40.547964630513
   0
ARC
   5
455
 100
AcDbEntity
   8
LEVEL001
   6
CONTINUOUS
  62
7
 100
AcDbCircle
  10
 1635.7812440469
  20
 1769.3099918554
  30
0.0
  40
 7.6936830288519
 100
AcDbArc
  50
 40.547966554537
  51
 64.165665740640
   0
ARC
   5
456
 100
AcDbEntity
   8
LEVEL001
   6
CONTINUOUS
  62
7
 100
AcDbCircle
  10
 1636.3240839363
  20
 1770.4312200678
  30
0.0
  40
 6.4479592033104
 100
AcDbArc
  50
 64.165568528310
  51
 90.000031378336
   0
LINE
   5
457
 100
AcDbEntity
   8
LEVEL001
 100
AcDbLine
   6
CONTINUOUS
  62
7
  10
 1669.0000000000
  20
 1756.3089802711
  30
0.0
  11
 1664.8240804050
  21
 1756.3089802711
  31
0.0
   0
LINE
   5
458
 100
AcDbEntity
   8
LEVEL001
 100
AcDbLine
   6
CONTINUOUS
  62
7
  10
 1669.0000000000
  20
 1721.3089802711
  30
0.0
  11
 1664.8240804050
  21
 1721.3089802711
  31
0.0
   0
LINE
   5
459
 100
AcDbEntity
   8
LEVEL001
 100
AcDbLine
   6
CONTINUOUS
  62
7
  10
 1689.0000000000
  20
 1708.8089802711
  30
0.0
  11
 1688.0000000000
  21
 1708.8089802711
  31
0.0
   0
LINE
   5
45A
 100
AcDbEntity
   8
LEVEL001
 100
AcDbLine
   6
CONTINUOUS
  62
7
  10
 1669.0000000000
  20
 1758.1830156083
  30
0.0
  11
 1669.0000000000
  21
 1718.8089802711
  31
0.0
   0
LINE
   5
45B
 100
AcDbEntity
   8
LEVEL001
 100
AcDbLine
   6
CONTINUOUS
  62
7
  10
 1688.0000000000
  20
 1708.8089802711
  30
0.0
  11
 1688.0000000000
  21
 1757.4589802711
  31
0.0
   0
LINE
   5
45C
 100
AcDbEntity
   8
LEVEL001
 100
AcDbLine
   6
CONTINUOUS
  62
7
  10
 1689.0000000000
  20
 1757.4589802711
  30
0.0
  11
 1689.0000000000
  21
 1708.8089802711
  31
0.0
   0
LINE
   5
45D
 100
AcDbEntity
   8
LEVEL001
 100
AcDbLine
   6
CONTINUOUS
  62
7
  10
 1670.9770800110
  20
 2170.8089802711
  30
0.0
  11
 1670.9770800110
  21
 2082.8089802711
  31
0.0
   0
LWPOLYLINE
   5
45E
 100
AcDbEntity
   8
LEVEL001
   6
CONTINUOUS
  62
7
 100
AcDbPolyline
  90
4
  70
0
  10
 1628.0240724050
  20
 2060.8089802711
  10
 1466.9680885173
  20
 2060.8089802711
  10
 1466.9680885173
  20
 2066.8089802711
  10
 1628.0240724050
  20
 2066.8089802711
   0
LINE
   5
45F
 100
AcDbEntity
   8
LEVEL001
 100
AcDbLine
   6
CONTINUOUS
  62
7
  10
 1628.0240724050
  20
 2048.3089802711
  30
0.0
  11
 1406.2355105391
  21
 2048.3089802711
  31
0.0
   0
POINT
   5
460
 100
AcDbEntity
   8
LEVEL001
 100
AcDbPoint
  62
3
  10
 1675.8240804050
  20
 2062.8089802711
  30
0.0
   0
LINE
   5
461
 100
AcDbEntity
   8
LEVEL001
 100
AcDbLine
   6
CONTINUOUS
  62
7
  10
 1688.0000000000
  20
 2082.8089802711
  30
0.0
  11
 1669.0000000000
  21
 2082.8089802711
  31
0.0
   0
LINE
   5
462
 100
AcDbEntity
   8
LEVEL001
 100
AcDbLine
   6
CONTINUOUS
  62
7
  10
 1660.8240804050
  20
 2030.8089802711
  30
0.0
  11
 1645.6074414050
  21
 2030.8089802711
  31
0.0
   0
LINE
   5
463
 100
AcDbEntity
   8
LEVEL001
 100
AcDbLine
   6
CONTINUOUS
  62
7
  10
 1660.8240804050
  20
 2094.8089802711
  30
0.0
  11
 1645.7049114050
  21
 2094.8089802711
  31
0.0
   0
LINE
   5
464
 100
AcDbEntity
   8
LEVEL001
 100
AcDbLine
   6
CONTINUOUS
  62
7
  10
 1628.0240724050
  20
 2087.7089842711
  30
0.0
  11
 1628.0240724050
  21
 2037.9089762711
  31
0.0
   0
LINE
   5
465
 100
AcDbEntity
   8
LEVEL001
 100
AcDbLine
   6
CONTINUOUS
  62
7
  10
 1643.8240804050
  20
 2030.8089802711
  30
0.0
  11
 1643.8240804050
  21
 2096.1289262711
  31
0.0
   0
LINE
   5
466
 100
AcDbEntity
   8
LEVEL001
 100
AcDbLine
   6
CONTINUOUS
  62
7
  10
 1628.8240804050
  20
 2030.3089802711
  30
0.0
  11
 1628.8240804050
  21
 2095.3089782711
  31
0.0
   0
ARC
   5
467
 100
AcDbEntity
   8
LEVEL001
   6
CONTINUOUS
  62
7
 100
AcDbCircle
  10
 1636.3240804050
  20
 2094.8089802711
  30
0.0
  40
 7.5000000000000
 100
AcDbArc
  50
 0.17370069300366E-10
  51
 180.00000000002
   0
ARC
   5
468
 100
AcDbEntity
   8
LEVEL001
   6
CONTINUOUS
  62
7
 100
AcDbCircle
  10
 1631.0240724050
  20
 2087.7089842711
  30
0.0
  40
 3.0000000000000
 100
AcDbArc
  50
 137.16635800004
  51
 180.00000000004
   0
ARC
   5
469
 100
AcDbEntity
   8
LEVEL001
   6
CONTINUOUS
  62
7
 100
AcDbCircle
  10
 1645.6074414050
  20
 2096.8089802711
  30
0.0
  40
 2.0000000000000
 100
AcDbArc
  50
 189.08472000004
  51
 270.00000000001
   0
ARC
   5
46A
 100
AcDbEntity
   8
LEVEL001
   6
CONTINUOUS
  62
7
 100
AcDbCircle
  10
 1645.7049114050
  20
 2096.8089802711
  30
0.0
  40
 2.0000000000000
 100
AcDbArc
  50
 189.08472000004
  51
 270.00000000002
   0
ARC
   5
46B
 100
AcDbEntity
   8
LEVEL001
   6
CONTINUOUS
  62
7
 100
AcDbCircle
  10
 1636.3240804050
  20
 2030.8089802711
  30
0.0
  40
 7.5000000000000
 100
AcDbArc
  50
 180.00000000002
  51
 0.17370069300366E-10
   0
ARC
   5
46C
 100
AcDbEntity
   8
LEVEL001
   6
CONTINUOUS
  62
7
 100
AcDbCircle
  10
 1631.0240724050
  20
 2037.9089762711
  30
0.0
  40
 3.0000000000000
 100
AcDbArc
  50
 180.00000000005
  51
 222.83364200002
   0
ARC
   5
46D
 100
AcDbEntity
   8
LEVEL001
   6
CONTINUOUS
  62
7
 100
AcDbCircle
  10
 1645.6074414050
  20
 2028.8089802711
  30
0.0
  40
 2.0000000000000
 100
AcDbArc
  50
 90.000000000046
  51
 170.91528000003
   0
LINE
   5
46E
 100
AcDbEntity
   8
LEVEL001
 100
AcDbLine
   6
CONTINUOUS
  62
7
  10
 1662.8240804050
  20
 2092.8089832711
  30
0.0
  11
 1662.8240804050
  21
 2032.8089802711
  31
0.0
   0
ARC
   5
46F
 100
AcDbEntity
   8
LEVEL001
   6
CONTINUOUS
  62
7
 100
AcDbCircle
  10
 1660.8240804050
  20
 2092.8089802711
  30
0.0
  40
 2.0000000000000
 100
AcDbArc
  50
0.0
  51
 90.000000000052
   0
ARC
   5
470
 100
AcDbEntity
   8
LEVEL001
   6
CONTINUOUS
  62
7
 100
AcDbCircle
  10
 1664.8240804050
  20
 2082.3089802711
  30
0.0
  40
 2.0000000000000
 100
AcDbArc
  50
 180.00000000005
  51
 270.00000000001
   0
ARC
   5
471
 100
AcDbEntity
   8
LEVEL001
   6
CONTINUOUS
  62
7
 100
AcDbCircle
  10
 1664.8240804050
  20
 2043.3089802711
  30
0.0
  40
 2.0000000000000
 100
AcDbArc
  50
 90.000000000052
  51
 180.00000000005
   0
ARC
   5
472
 100
AcDbEntity
   8
LEVEL001
   6
CONTINUOUS
  62
7
 100
AcDbCircle
  10
 1660.8240804050
  20
 2032.8089802711
  30
0.0
  40
 2.0000000000000
 100
AcDbArc
  50
 270.00000000001
  51
0.0
   0
ARC
   5
473
 100
AcDbEntity
   8
LEVEL001
   6
CONTINUOUS
  62
7
 100
AcDbCircle
  10
 1629.5815927011
  20
 2063.2471009563
  30
0.0
  40
 14.242487929518
 100
AcDbArc
  50
 343.29688376778
  51
 358.23721621192
   0
ARC
   5
474
 100
AcDbEntity
   8
LEVEL001
   6
CONTINUOUS
  62
7
 100
AcDbCircle
  10
 1632.8946909208
  20
 2062.2529313787
  30
0.0
  40
 10.783442835577
 100
AcDbArc
  50
 324.07873634619
  51
 343.29686371562
   0
ARC
   5
475
 100
AcDbEntity
   8
LEVEL001
   6
CONTINUOUS
  62
7
 100
AcDbCircle
  10
 1634.9938600519
  20
 2060.7321904556
  30
0.0
  40
 8.1913078090326
 100
AcDbArc
  50
 299.75949295528
  51
 324.07878339475
   0
ARC
   5
476
 100
AcDbEntity
   8
LEVEL001
   6
CONTINUOUS
  62
7
 100
AcDbCircle
  10
 1636.3240795672
  20
 2058.4056841484
  30
0.0
  40
 5.5113608773797
 100
AcDbArc
  50
 270.00000870945
  51
 299.75949131065
   0
ARC
   5
477
 100
AcDbEntity
   8
LEVEL001
   6
CONTINUOUS
  62
7
 100
AcDbCircle
  10
 1636.3240812428
  20
 2058.4056841484
  30
0.0
  40
 5.5113608773796
 100
AcDbArc
  50
 240.24050868935
  51
 269.99999129055
   0
ARC
   5
478
 100
AcDbEntity
   8
LEVEL001
   6
CONTINUOUS
  62
7
 100
AcDbCircle
  10
 1637.6543007581
  20
 2060.7321904556
  30
0.0
  40
 8.1913078090326
 100
AcDbArc
  50
 215.92121660525
  51
 240.24050704472
   0
ARC
   5
479
 100
AcDbEntity
   8
LEVEL001
   6
CONTINUOUS
  62
7
 100
AcDbCircle
  10
 1639.7534698892
  20
 2062.2529313787
  30
0.0
  40
 10.783442835577
 100
AcDbArc
  50
 196.70313628438
  51
 215.92126365382
   0
ARC
   5
47A
 100
AcDbEntity
   8
LEVEL001
   6
CONTINUOUS
  62
7
 100
AcDbCircle
  10
 1643.0665681088
  20
 2063.2471009563
  30
0.0
  40
 14.242487929518
 100
AcDbArc
  50
 181.76278378808
  51
 196.70311623222
   0
ARC
   5
47B
 100
AcDbEntity
   8
LEVEL001
   6
CONTINUOUS
  62
7
 100
AcDbCircle
  10
 1636.3240768737
  20
 2094.4312200678
  30
0.0
  40
 6.4479592033104
 100
AcDbArc
  50
 89.999968621666
  51
 115.83443147169
   0
ARC
   5
47C
 100
AcDbEntity
   8
LEVEL001
   6
CONTINUOUS
  62
7
 100
AcDbCircle
  10
 1636.8669167631
  20
 2093.3099918554
  30
0.0
  40
 7.6936830288518
 100
AcDbArc
  50
 115.83433425936
  51
 139.45203344546
   0
ARC
   5
47D
 100
AcDbEntity
   8
LEVEL001
   6
CONTINUOUS
  62
7
 100
AcDbCircle
  10
 1638.3555937735
  20
 2092.0363835865
  30
0.0
  40
 9.6528250002562
 100
AcDbArc
  50
 139.45202867709
  51
 160.48700605132
   0
ARC
   5
47E
 100
AcDbEntity
   8
LEVEL001
   6
CONTINUOUS
  62
7
 100
AcDbCircle
  10
 1636.6548658027
  20
 2092.6390944583
  30
0.0
  40
 7.8484591766519
 100
AcDbArc
  50
 160.48712581576
  51
 176.15415595102
   0
ARC
   5
47F
 100
AcDbEntity
   8
LEVEL001
   6
CONTINUOUS
  62
7
 100
AcDbCircle
  10
 1629.3171467393
  20
 2092.5169838147
  30
0.0
  40
 0.49306633434888
 100
AcDbArc
  50
 179.99994696687
  51
 242.95044303868
   0
ARC
   5
480
 100
AcDbEntity
   8
LEVEL001
   6
CONTINUOUS
  62
7
 100
AcDbCircle
  10
 1632.6304042849
  20
 2099.0057186469
  30
0.0
  40
 7.7787615850530
 100
AcDbArc
  50
 242.95038051134
  51
 258.05775509575
   0
ARC
   5
481
 100
AcDbEntity
   8
LEVEL001
   6
CONTINUOUS
  62
7
 100
AcDbCircle
  10
 1635.4232842969
  20
 2112.2106069238
  30
0.0
  40
 21.275770630292
 100
AcDbArc
  50
 258.05774582970
  51
 264.99323010826
   0
ARC
   5
482
 100
AcDbEntity
   8
LEVEL001
   6
CONTINUOUS
  62
7
 100
AcDbCircle
  10
 1635.7000141237
  20
 2115.3695875630
  30
0.0
  40
 24.446849007636
 100
AcDbArc
  50
 264.99327980028
  51
 271.46277537176
   0
ARC
   5
483
 100
AcDbEntity
   8
LEVEL001
   6
CONTINUOUS
  62
7
 100
AcDbCircle
  10
 1636.3241038713
  20
 2126.3642517369
  30
0.0
  40
 35.433546465862
 100
AcDbArc
  50
 269.99996205517
  51
 275.00681649104
   0
ARC
   5
484
 100
AcDbEntity
   8
LEVEL001
   6
CONTINUOUS
  62
7
 100
AcDbCircle
  10
 1637.8039704740
  20
 2109.4726184149
  30
0.0
  40
 18.477211913615
 100
AcDbArc
  50
 275.00676961695
  51
 281.94225389551
   0
ARC
   5
485
 100
AcDbEntity
   8
LEVEL001
   6
CONTINUOUS
  62
7
 100
AcDbCircle
  10
 1640.0177565251
  20
 2099.0057186469
  30
0.0
  40
 7.7787615850530
 100
AcDbArc
  50
 281.94224490425
  51
 297.04961948866
   0
ARC
   5
486
 100
AcDbEntity
   8
LEVEL001
   6
CONTINUOUS
  62
7
 100
AcDbCircle
  10
 1643.3310133195
  20
 2092.5169846833
  30
0.0
  40
 0.49306744956278
 100
AcDbArc
  50
 297.04958880026
  51
 351.52721014246
   0
ARC
   5
487
 100
AcDbEntity
   8
LEVEL001
   6
CONTINUOUS
  62
7
 100
AcDbCircle
  10
 1633.6021996258
  20
 2092.1127060238
  30
0.0
  40
 10.221880764246
 100
AcDbArc
  50
 1.8591831410786
  51
 19.512995126330
   0
ARC
   5
488
 100
AcDbEntity
   8
LEVEL001
   6
CONTINUOUS
  62
7
 100
AcDbCircle
  10
 1634.9330274864
  20
 2092.5843178903
  30
0.0
  40
 8.8099598928175
 100
AcDbArc
  50
 19.512987256281
  51
 40.547964630512
   0
ARC
   5
489
 100
AcDbEntity
   8
LEVEL001
   6
CONTINUOUS
  62
7
 100
AcDbCircle
  10
 1635.7812440469
  20
 2093.3099918554
  30
0.0
  40
 7.6936830288519
 100
AcDbArc
  50
 40.547966554537
  51
 64.165665740639
   0
ARC
   5
48A
 100
AcDbEntity
   8
LEVEL001
   6
CONTINUOUS
  62
7
 100
AcDbCircle
  10
 1636.3240839363
  20
 2094.4312200678
  30
0.0
  40
 6.4479592033104
 100
AcDbArc
  50
 64.165568528310
  51
 90.000031378336
   0
ARC
   5
48B
 100
AcDbEntity
   8
LEVEL001
   6
CONTINUOUS
  62
7
 100
AcDbCircle
  10
 1629.5815927011
  20
 2062.3708595859
  30
0.0
  40
 14.242487929518
 100
AcDbArc
  50
 1.7627837880899
  51
 16.703116232225
   0
ARC
   5
48C
 100
AcDbEntity
   8
LEVEL001
   6
CONTINUOUS
  62
7
 100
AcDbCircle
  10
 1632.8946909208
  20
 2063.3650291634
  30
0.0
  40
 10.783442835577
 100
AcDbArc
  50
 16.703136284369
  51
 35.921263653811
   0
ARC
   5
48D
 100
AcDbEntity
   8
LEVEL001
   6
CONTINUOUS
  62
7
 100
AcDbCircle
  10
 1634.9938600519
  20
 2064.8857700865
  30
0.0
  40
 8.1913078090326
 100
AcDbArc
  50
 35.921216605238
  51
 60.240507044705
   0
ARC
   5
48E
 100
AcDbEntity
   8
LEVEL001
   6
CONTINUOUS
  62
7
 100
AcDbCircle
  10
 1636.3240795672
  20
 2067.2122763937
  30
0.0
  40
 5.5113608773797
 100
AcDbArc
  50
 60.240508689384
  51
 89.999991290580
   0
ARC
   5
48F
 100
AcDbEntity
   8
LEVEL001
   6
CONTINUOUS
  62
7
 100
AcDbCircle
  10
 1636.3240812428
  20
 2067.2122763937
  30
0.0
  40
 5.5113608773796
 100
AcDbArc
  50
 90.000008709420
  51
 119.75949131061
   0
ARC
   5
490
 100
AcDbEntity
   8
LEVEL001
   6
CONTINUOUS
  62
7
 100
AcDbCircle
  10
 1637.6543007581
  20
 2064.8857700865
  30
0.0
  40
 8.1913078090326
 100
AcDbArc
  50
 119.75949295529
  51
 144.07878339476
   0
ARC
   5
491
 100
AcDbEntity
   8
LEVEL001
   6
CONTINUOUS
  62
7
 100
AcDbCircle
  10
 1639.7534698892
  20
 2063.3650291634
  30
0.0
  40
 10.783442835577
 100
AcDbArc
  50
 144.07873634619
  51
 163.29686371563
   0
ARC
   5
492
 100
AcDbEntity
   8
LEVEL001
   6
CONTINUOUS
  62
7
 100
AcDbCircle
  10
 1643.0665681088
  20
 2062.3708595859
  30
0.0
  40
 14.242487929518
 100
AcDbArc
  50
 163.29688376778
  51
 178.23721621191
   0
ARC
   5
493
 100
AcDbEntity
   8
LEVEL001
   6
CONTINUOUS
  62
7
 100
AcDbCircle
  10
 1629.3171467393
  20
 2033.1009767274
  30
0.0
  40
 0.49306633434888
 100
AcDbArc
  50
 117.04955696132
  51
 180.00005303302
   0
ARC
   5
494
 100
AcDbEntity
   8
LEVEL001
   6
CONTINUOUS
  62
7
 100
AcDbCircle
  10
 1632.6304042849
  20
 2026.6122418952
  30
0.0
  40
 7.7787615850530
 100
AcDbArc
  50
 101.94224490427
  51
 117.04961948868
   0
ARC
   5
495
 100
AcDbEntity
   8
LEVEL001
   6
CONTINUOUS
  62
7
 100
AcDbCircle
  10
 1635.4232842969
  20
 2013.4073536183
  30
0.0
  40
 21.275770630292
 100
AcDbArc
  50
 95.006769891735
  51
 101.94225417030
   0
ARC
   5
496
 100
AcDbEntity
   8
LEVEL001
   6
CONTINUOUS
  62
7
 100
AcDbCircle
  10
 1635.7000141237
  20
 2010.2483729791
  30
0.0
  40
 24.446849007636
 100
AcDbArc
  50
 88.537224628207
  51
 95.006720199681
   0
ARC
   5
497
 100
AcDbEntity
   8
LEVEL001
   6
CONTINUOUS
  62
7
 100
AcDbCircle
  10
 1636.3241038713
  20
 1999.2537088052
  30
0.0
  40
 35.433546465862
 100
AcDbArc
  50
 84.993183508955
  51
 90.000037944829
   0
ARC
   5
498
 100
AcDbEntity
   8
LEVEL001
   6
CONTINUOUS
  62
7
 100
AcDbCircle
  10
 1637.8039704740
  20
 2016.1453421272
  30
0.0
  40
 18.477211913615
 100
AcDbArc
  50
 78.057746104534
  51
 84.993230383099
   0
ARC
   5
499
 100
AcDbEntity
   8
LEVEL001
   6
CONTINUOUS
  62
7
 100
AcDbCircle
  10
 1640.0177565251
  20
 2026.6122418952
  30
0.0
  40
 7.7787615850530
 100
AcDbArc
  50
 62.950380511318
  51
 78.057755095725
   0
ARC
   5
49A
 100
AcDbEntity
   8
LEVEL001
   6
CONTINUOUS
  62
7
 100
AcDbCircle
  10
 1643.3310133195
  20
 2033.1009758588
  30
0.0
  40
 0.49306744956280
 100
AcDbArc
  50
 8.4727898575151
  51
 62.950411199731
   0
ARC
   5
49B
 100
AcDbEntity
   8
LEVEL001
   6
CONTINUOUS
  62
7
 100
AcDbCircle
  10
 1636.3240768737
  20
 2031.1867404744
  30
0.0
  40
 6.4479592033104
 100
AcDbArc
  50
 244.16556852833
  51
 270.00003137835
   0
ARC
   5
49C
 100
AcDbEntity
   8
LEVEL001
   6
CONTINUOUS
  62
7
 100
AcDbCircle
  10
 1636.8669167631
  20
 2032.3079686867
  30
0.0
  40
 7.6936830288519
 100
AcDbArc
  50
 220.54796655455
  51
 244.16566574065
   0
ARC
   5
49D
 100
AcDbEntity
   8
LEVEL001
   6
CONTINUOUS
  62
7
 100
AcDbCircle
  10
 1638.3555937735
  20
 2033.5815769556
  30
0.0
  40
 9.6528250002561
 100
AcDbArc
  50
 199.51299394866
  51
 220.54797132290
   0
ARC
   5
49E
 100
AcDbEntity
   8
LEVEL001
   6
CONTINUOUS
  62
7
 100
AcDbCircle
  10
 1636.6548658027
  20
 2032.9788660838
  30
0.0
  40
 7.8484591766517
 100
AcDbArc
  50
 183.84584404898
  51
 199.51287418423
   0
ARC
   5
49F
 100
AcDbEntity
   8
LEVEL001
   6
CONTINUOUS
  62
7
 100
AcDbCircle
  10
 1633.6021996258
  20
 2033.5052545183
  30
0.0
  40
 10.221880764246
 100
AcDbArc
  50
 340.48700487367
  51
 358.14081685892
   0
ARC
   5
4A0
 100
AcDbEntity
   8
LEVEL001
   6
CONTINUOUS
  62
7
 100
AcDbCircle
  10
 1634.9330274864
  20
 2033.0336426518
  30
0.0
  40
 8.8099598928173
 100
AcDbArc
  50
 319.45203536949
  51
 340.48701274373
   0
ARC
   5
4A1
 100
AcDbEntity
   8
LEVEL001
   6
CONTINUOUS
  62
7
 100
AcDbCircle
  10
 1635.7812440469
  20
 2032.3079686867
  30
0.0
  40
 7.6936830288519
 100
AcDbArc
  50
 295.83433425935
  51
 319.45203344545
   0
ARC
   5
4A2
 100
AcDbEntity
   8
LEVEL001
   6
CONTINUOUS
  62
7
 100
AcDbCircle
  10
 1636.3240839363
  20
 2031.1867404744
  30
0.0
  40
 6.4479592033104
 100
AcDbArc
  50
 269.99996862165
  51
 295.83443147167
   0
LINE
   5
4A3
 100
AcDbEntity
   8
LEVEL001
 100
AcDbLine
   6
CONTINUOUS
  62
7
  10
 1669.0000000000
  20
 2045.3089802711
  30
0.0
  11
 1664.8240804050
  21
 2045.3089802711
  31
0.0
   0
LINE
   5
4A4
 100
AcDbEntity
   8
LEVEL001
 100
AcDbLine
   6
CONTINUOUS
  62
7
  10
 1669.0000000000
  20
 2080.3089802711
  30
0.0
  11
 1664.8240804050
  21
 2080.3089802711
  31
0.0
   0
LINE
   5
4A5
 100
AcDbEntity
   8
LEVEL001
 100
AcDbLine
   6
CONTINUOUS
  62
7
  10
 1688.0000000000
  20
 2032.8089802711
  30
0.0
  11
 1689.0000000000
  21
 2032.8089802711
  31
0.0
   0
LINE
   5
4A6
 100
AcDbEntity
   8
LEVEL001
 100
AcDbLine
   6
CONTINUOUS
  62
7
  10
 1689.0000000000
  20
 2092.8089802711
  30
0.0
  11
 1688.0000000000
  21
 2092.8089802711
  31
0.0
   0
LINE
   5
4A7
 100
AcDbEntity
   8
LEVEL001
 100
AcDbLine
   6
CONTINUOUS
  62
7
  10
 1689.0000000000
  20
 2032.8089802711
  30
0.0
  11
 1689.0000000000
  21
 2092.8089802711
  31
0.0
   0
LINE
   5
4A8
 100
AcDbEntity
   8
LEVEL001
 100
AcDbLine
   6
CONTINUOUS
  62
7
  10
 1688.0000000000
  20
 2092.8089802711
  30
0.0
  11
 1688.0000000000
  21
 2032.8089802711
  31
0.0
   0
LINE
   5
4A9
 100
AcDbEntity
   8
LEVEL001
 100
AcDbLine
   6
CONTINUOUS
  62
7
  10
 1669.0000000000
  20
 2043.4349449338
  30
0.0
  11
 1669.0000000000
  21
 2082.8089802711
  31
0.0
   0
LINE
   5
4AA
 100
AcDbEntity
   8
LEVEL001
 100
AcDbLine
   6
CONTINUOUS
  62
7
  10
 1701.0000000000
  20
 2170.8089802711
  30
0.0
  11
 1634.0000000000
  21
 2170.8089802711
  31
0.0
   0
LINE
   5
4AB
 100
AcDbEntity
   8
LEVEL001
 100
AcDbLine
   6
CONTINUOUS
  62
7
  10
 1634.0000000000
  20
 1699.6781563165
  30
0.0
  11
 1634.0000000000
  21
 1655.8089802711
  31
0.0
   0
LINE
   5
4AC
 100
AcDbEntity
   8
LEVEL001
 100
AcDbLine
   6
CONTINUOUS
  62
7
  10
 1634.0000000000
  20
 1655.8089802711
  30
0.0
  11
 1701.0000000000
  21
 1655.8089802711
  31
0.0
   0
LINE
   5
4AD
 100
AcDbEntity
   8
LEVEL001
 100
AcDbLine
   6
CONTINUOUS
  62
7
  10
 1634.0000000000
  20
 2170.8089802711
  30
0.0
  11
 1634.0000000000
  21
 2101.9398042256
  31
0.0
   0
LINE
   5
4AE
 100
AcDbEntity
   8
LEVEL001
 100
AcDbLine
   6
CONTINUOUS
  62
7
  10
 640.65000000000
  20
 1113.6090632774
  30
0.0
  11
 379.35000000000
  21
 1113.6090632774
  31
0.0
   0
LWPOLYLINE
   5
4AF
 100
AcDbEntity
   8
LEVEL001
   6
CONTINUOUS
  62
7
 100
AcDbPolyline
  90
3
  70
0
  10
 628.00000000000
  20
 914.60906329633
  10
 620.50000000000
  20
 914.60906329633
  10
 620.50000000000
  20
 988.60906327738
   0
LWPOLYLINE
   5
4B0
 100
AcDbEntity
   8
LEVEL001
   6
CONTINUOUS
  62
7
 100
AcDbPolyline
  90
3
  70
0
  10
 392.00000000000
  20
 914.60906329633
  10
 399.50000000000
  20
 914.60906329633
  10
 399.50000000000
  20
 988.60906327738
   0
LINE
   5
4B1
 100
AcDbEntity
   8
LEVEL001
 100
AcDbLine
   6
DASHDOT
  62
1
  10
 678.00000000000
  20
 1023.6136577189
  30
0.0
  11
 678.00000000000
  21
 1005.8705543605
  31
0.0
   0
POINT
   5
4B2
 100
AcDbEntity
   8
LEVEL001
 100
AcDbPoint
  62
7
  10
 642.50000000000
  20
 1177.1090632774
  30
0.0
   0
POINT
   5
4B3
 100
AcDbEntity
   8
LEVEL001
 100
AcDbPoint
  62
7
  10
 662.50000000000
  20
 1193.6090632774
  30
0.0
   0
POINT
   5
4B4
 100
AcDbEntity
   8
LEVEL001
 100
AcDbPoint
  62
7
  10
 642.50000000000
  20
 1193.6090632774
  30
0.0
   0
POINT
   5
4B5
 100
AcDbEntity
   8
LEVEL001
 100
AcDbPoint
  62
7
  10
 642.50000000000
  20
 1193.6090632774
  30
0.0
   0
ARC
   5
4B6
 100
AcDbEntity
   8
LEVEL001
   6
CONTINUOUS
  62
7
 100
AcDbCircle
  10
 659.50000000000
  20
 1190.6090632774
  30
0.0
  40
 3.0000000000000
 100
AcDbArc
  50
0.0
  51
 90.000000000000
   0
POINT
   5
4B7
 100
AcDbEntity
   8
LEVEL001
 100
AcDbPoint
  62
7
  10
 662.50000000000
  20
 1193.6090632774
  30
0.0
   0
LINE
   5
4B8
 100
AcDbEntity
   8
LEVEL001
 100
AcDbLine
   6
CONTINUOUS
  62
7
  10
 642.50000000000
  20
 1193.6090632774
  30
0.0
  11
 659.50000000000
  21
 1193.6090632774
  31
0.0
   0
LINE
   5
4B9
 100
AcDbEntity
   8
LEVEL001
 100
AcDbLine
   6
CONTINUOUS
  62
7
  10
 662.50000000000
  20
 1190.6090632774
  30
0.0
  11
 662.50000000000
  21
 1177.1090632774
  31
0.0
   0
LINE
   5
4BA
 100
AcDbEntity
   8
LEVEL001
 100
AcDbLine
   6
CONTINUOUS
  62
7
  10
 642.50000000000
  20
 1177.1090632774
  30
0.0
  11
 642.50000000000
  21
 1193.6090632774
  31
0.0
   0
ARC
   5
4BB
 100
AcDbEntity
   8
LEVEL001
   6
CONTINUOUS
  62
7
 100
AcDbCircle
  10
 639.50000000000
  20
 991.60906327738
  30
0.0
  40
 3.0000000000000
 100
AcDbArc
  50
 270.00000000000
  51
0.0
   0
POINT
   5
4BC
 100
AcDbEntity
   8
LEVEL001
 100
AcDbPoint
  62
7
  10
 642.50000000000
  20
 988.60906327738
  30
0.0
   0
LINE
   5
4BD
 100
AcDbEntity
   8
LEVEL001
 100
AcDbLine
   6
CONTINUOUS
  62
7
  10
 691.00000000000
  20
 1015.1090632774
  30
0.0
  11
 691.00000000000
  21
 1013.6090632963
  31
0.0
   0
LINE
   5
4BE
 100
AcDbEntity
   8
LEVEL001
 100
AcDbLine
   6
CONTINUOUS
  62
7
  10
 662.50000000000
  20
 1177.1090632774
  30
0.0
  11
 645.50000000000
  21
 1177.1090632774
  31
0.0
   0
POINT
   5
4BF
 100
AcDbEntity
   8
LEVEL001
 100
AcDbPoint
  62
7
  10
 377.50000000000
  20
 1177.1090632774
  30
0.0
   0
POINT
   5
4C0
 100
AcDbEntity
   8
LEVEL001
 100
AcDbPoint
  62
7
  10
 377.50000000000
  20
 1193.6090632774
  30
0.0
   0
POINT
   5
4C1
 100
AcDbEntity
   8
LEVEL001
 100
AcDbPoint
  62
7
  10
 357.50000000000
  20
 1193.6090632774
  30
0.0
   0
ARC
   5
4C2
 100
AcDbEntity
   8
LEVEL001
   6
CONTINUOUS
  62
7
 100
AcDbCircle
  10
 360.50000000000
  20
 1190.6090632774
  30
0.0
  40
 3.0000000000000
 100
AcDbArc
  50
 90.000000000000
  51
 180.00000000000
   0
POINT
   5
4C3
 100
AcDbEntity
   8
LEVEL001
 100
AcDbPoint
  62
7
  10
 357.50000000000
  20
 1193.6090632774
  30
0.0
   0
POINT
   5
4C4
 100
AcDbEntity
   8
LEVEL001
 100
AcDbPoint
  62
7
  10
 377.50000000000
  20
 1193.6090632774
  30
0.0
   0
LINE
   5
4C5
 100
AcDbEntity
   8
LEVEL001
 100
AcDbLine
   6
CONTINUOUS
  62
7
  10
 377.50000000000
  20
 1193.6090632774
  30
0.0
  11
 360.50000000000
  21
 1193.6090632774
  31
0.0
   0
LINE
   5
4C6
 100
AcDbEntity
   8
LEVEL001
 100
AcDbLine
   6
CONTINUOUS
  62
7
  10
 357.50000000000
  20
 1190.6090632774
  30
0.0
  11
 357.50000000000
  21
 1177.1090632774
  31
0.0
   0
LINE
   5
4C7
 100
AcDbEntity
   8
LEVEL001
 100
AcDbLine
   6
CONTINUOUS
  62
7
  10
 377.50000000000
  20
 1177.1090632773
  30
0.0
  11
 377.50000000000
  21
 1193.6090632774
  31
0.0
   0
ARC
   5
4C8
 100
AcDbEntity
   8
LEVEL001
   6
CONTINUOUS
  62
7
 100
AcDbCircle
  10
 380.50000000000
  20
 991.60906327738
  30
0.0
  40
 3.0000000000000
 100
AcDbArc
  50
 180.00000000000
  51
 270.00000000000
   0
POINT
   5
4C9
 100
AcDbEntity
   8
LEVEL001
 100
AcDbPoint
  62
7
  10
 377.50000000000
  20
 988.60906327738
  30
0.0
   0
LINE
   5
4CA
 100
AcDbEntity
   8
LEVEL001
 100
AcDbLine
   6
DASHDOT
  62
1
  10
 342.00000000000
  20
 1019.1915187607
  30
0.0
  11
 342.00000000000
  21
 1005.8705543605
  31
0.0
   0
LINE
   5
4CB
 100
AcDbEntity
   8
LEVEL001
 100
AcDbLine
   6
CONTINUOUS
  62
7
  10
 329.00000000000
  20
 1015.1090632774
  30
0.0
  11
 329.00000000000
  21
 1013.6090632963
  31
0.0
   0
LINE
   5
4CC
 100
AcDbEntity
   8
LEVEL001
 100
AcDbLine
   6
CONTINUOUS
  62
7
  10
 357.50000000000
  20
 1177.1090632774
  30
0.0
  11
 374.50000000000
  21
 1177.1090632774
  31
0.0
   0
LINE
   5
4CD
 100
AcDbEntity
   8
LEVEL001
 100
AcDbLine
   6
CONTINUOUS
  62
7
  10
 374.50000000000
  20
 1193.6090632774
  30
0.0
  11
 374.50000000000
  21
 1145.4774034516
  31
0.0
   0
LINE
   5
4CE
 100
AcDbEntity
   8
LEVEL001
 100
AcDbLine
   6
CONTINUOUS
  62
7
  10
 376.00000000000
  20
 1193.6090632774
  30
0.0
  11
 376.00000000000
  21
 1144.9037625085
  31
0.0
   0
LINE
   5
4CF
 100
AcDbEntity
   8
LEVEL001
 100
AcDbLine
   6
CONTINUOUS
  62
7
  10
 377.50000000000
  20
 1187.6090632774
  30
0.0
  11
 377.50000000000
  21
 1143.7873460932
  31
0.0
   0
LINE
   5
4D0
 100
AcDbEntity
   8
LEVEL001
 100
AcDbLine
   6
CONTINUOUS
  62
7
  10
 329.04658822049
  20
 1015.1090632774
  30
0.0
  11
 366.65000000000
  21
 1015.1090632774
  31
0.0
   0
LINE
   5
4D1
 100
AcDbEntity
   8
LEVEL001
 100
AcDbLine
   6
CONTINUOUS
  62
7
  10
 329.00000000000
  20
 1013.6090632963
  30
0.0
  11
 366.65000000000
  21
 1013.6090632963
  31
0.0
   0
LINE
   5
4D2
 100
AcDbEntity
   8
LEVEL001
 100
AcDbLine
   6
CONTINUOUS
  62
7
  10
 377.50000000000
  20
 998.38072443598
  30
0.0
  11
 377.50000000000
  21
 991.60906327738
  31
0.0
   0
LINE
   5
4D3
 100
AcDbEntity
   8
LEVEL001
 100
AcDbLine
   6
CONTINUOUS
  62
7
  10
 644.00000000000
  20
 1193.6090632774
  30
0.0
  11
 643.99999999999
  21
 1144.9037625085
  31
0.0
   0
LINE
   5
4D4
 100
AcDbEntity
   8
LEVEL001
 100
AcDbLine
   6
CONTINUOUS
  62
7
  10
 645.50000000000
  20
 1145.4774034516
  30
0.0
  11
 645.50000000000
  21
 1193.6090632774
  31
0.0
   0
LINE
   5
4D5
 100
AcDbEntity
   8
LEVEL001
 100
AcDbLine
   6
CONTINUOUS
  62
7
  10
 642.50000000000
  20
 1187.6090632774
  30
0.0
  11
 642.49999999999
  21
 1143.7873460932
  31
0.0
   0
LINE
   5
4D6
 100
AcDbEntity
   8
LEVEL001
 100
AcDbLine
   6
CONTINUOUS
  62
7
  10
 640.65000000000
  20
 1113.6090632774
  30
0.0
  11
 379.35000000000
  21
 1113.6090632774
  31
0.0
   0
LINE
   5
4D7
 100
AcDbEntity
   8
LEVEL001
 100
AcDbLine
   6
CONTINUOUS
  62
7
  10
 691.00000000000
  20
 1015.1090632774
  30
0.0
  11
 653.35000000000
  21
 1015.1090632774
  31
0.0
   0
LINE
   5
4D8
 100
AcDbEntity
   8
LEVEL001
 100
AcDbLine
   6
CONTINUOUS
  62
7
  10
 691.00000000000
  20
 1013.6090632963
  30
0.0
  11
 653.35000000000
  21
 1013.6090632963
  31
0.0
   0
LINE
   5
4D9
 100
AcDbEntity
   8
LEVEL001
 100
AcDbLine
   6
CONTINUOUS
  62
7
  10
 642.50000000000
  20
 998.38072443598
  30
0.0
  11
 642.50000000000
  21
 991.60906327738
  31
0.0
   0
INSERT
   5
4DA
 100
AcDbEntity
   8
0
 100
AcDbBlockReference
   2
BLOCK007
  10
0.0
  20
0.0
  30
0.0
   0
INSERT
   5
4DB
 100
AcDbEntity
   8
0
 100
AcDbBlockReference
   2
BLOCK008
  10
0.0
  20
0.0
  30
0.0
   0
LWPOLYLINE
   5
4DC
 100
AcDbEntity
   8
LEVEL001
   6
CONTINUOUS
  62
7
 100
AcDbPolyline
  90
6
  70
0
  10
 2134.0000000000
  20
 2034.8089802711
  10
 2134.0000000000
  20
 2173.3089802711
  10
 2105.6000000000
  20
 2173.3089802711
  10
 2105.6000000000
  20
 2174.9089802711
  10
 2135.6000000000
  20
 2174.9089802711
  10
 2135.6000000000
  20
 2034.8089802711
   0
LWPOLYLINE
   5
4DD
 100
AcDbEntity
   8
LEVEL001
   6
CONTINUOUS
  62
7
 100
AcDbPolyline
  90
6
  70
0
  10
 2135.6000000000
  20
 1766.8089802711
  10
 2135.6000000000
  20
 1651.7089802711
  10
 2105.6000000000
  20
 1651.7089802711
  10
 2105.6000000000
  20
 1653.3089802711
  10
 2134.0000000000
  20
 1653.3089802711
  10
 2134.0000000000
  20
 1766.8089802711
   0
LINE
   5
4DE
 100
AcDbEntity
   8
LEVEL001
 100
AcDbLine
   6
CONTINUOUS
  62
7
  10
 1766.9887278772
  20
 2033.8089802711
  30
0.0
  11
 1857.0358983848
  21
 2033.8089802711
  31
0.0
   0
LWPOLYLINE
   5
4DF
 100
AcDbEntity
   8
LEVEL001
   6
CONTINUOUS
  62
7
 100
AcDbPolyline
  90
4
  70
0
  10
 1854.0000000000
  20
 2010.8089802711
  10
 1729.5000000000
  20
 2010.8089802711
  10
 1729.5000000000
  20
 1790.8089802711
  10
 1854.0000000000
  20
 1790.8089802711
   0
LINE
   5
4E0
 100
AcDbEntity
   8
LEVEL001
 100
AcDbLine
   6
CONTINUOUS
  62
7
  10
 1981.0424477368
  20
 1790.3089802711
  30
0.0
  11
 1855.5000000000
  21
 1790.3089802711
  31
0.0
   0
LINE
   5
4E1
 100
AcDbEntity
   8
LEVEL001
 100
AcDbLine
   6
CONTINUOUS
  62
7
  10
 1855.5000000000
  20
 1790.8089802711
  30
0.0
  11
 1980.7221857627
  21
 1790.8089802711
  31
0.0
   0
LINE
   5
4E2
 100
AcDbEntity
   8
LEVEL001
 100
AcDbLine
   6
CONTINUOUS
  62
7
  10
 1980.7221857627
  20
 2010.8089802711
  30
0.0
  11
 1855.5000000000
  21
 2010.8089802711
  31
0.0
   0
LINE
   5
4E3
 100
AcDbEntity
   8
LEVEL001
 100
AcDbLine
   6
CONTINUOUS
  62
7
  10
 1981.0424477368
  20
 2011.3089802711
  30
0.0
  11
 1855.5000000000
  21
 2011.3089802711
  31
0.0
   0
TEXT
   5
4E4
 100
AcDbEntity
   8
LEVEL001
  62
1
 100
AcDbText
  10
 500.00000000000
  20
 2076.0000000000
  30
0.0
  40
 24.000000000000
   1
せとＴＳ－１Ｐ型 
   7
STANDARD
 100
AcDbText
   0
DIMENSION
   5
4E5
 100
AcDbEntity
   8
LEVEL001
   6
CONTINUOUS
  62
7
 100
AcDbDimension
   2
*D1
  10
 1139.8140661440
  20
 1198.6090632963
  30
0.0
  11
 1133.8140661440
  21
 636.10906329633
  31
0.0
  70
128
   3
GMM001
 100
AcDbAlignedDimension
  13
 1443.0000000000
  23
 73.609063296334
  33
0.0
  14
 1854.0000000000
  24
 1198.6090632963
  34
0.0
  50
 90.000000000000
 100
AcDbRotatedDimension
   0
DIMENSION
   5
4E6
 100
AcDbEntity
   8
LEVEL001
   6
CONTINUOUS
  62
7
 100
AcDbDimension
   2
*D2
  10
 1878.2625417919
  20
 959.63080241708
  30
0.0
  11
 1809.1716981132
  21
 912.35811990011
  31
0.0
  70
131
   3
GMM002
 100
AcDbDiametricDimension
  15
 1743.7374582081
  25
 867.58732417559
  35
0.0
   0
DIMENSION
   5
4E7
 100
AcDbEntity
   8
LEVEL001
   6
CONTINUOUS
  62
7
 100
AcDbDimension
   2
*D3
  10
 620.00000000000
  20
 930.60906329633
  30
0.0
  11
 510.00000000000
  21
 940.89477758205
  31
0.0
  70
128
   3
GMM003
 100
AcDbAlignedDimension
  13
 400.00000000000
  23
 913.60906329633
  33
0.0
  14
 620.00000000000
  24
 913.60906329633
  34
0.0
 100
AcDbRotatedDimension
   0
DIMENSION
   5
4E8
 100
AcDbEntity
   8
LEVEL001
   6
CONTINUOUS
  62
7
 100
AcDbDimension
   2
*D4
  10
 1287.0000000000
  20
 495.60906329633
  30
0.0
  11
 1276.7142857143
  21
 284.60906329633
  31
0.0
  70
128
   3
GMM003
 100
AcDbAlignedDimension
  13
 1660.5000000000
  23
 73.609063296334
  33
0.0
  14
 1521.0000000000
  24
 495.60906329633
  34
0.0
  50
 90.000000000000
 100
AcDbRotatedDimension
   0
DIMENSION
   5
4E9
 100
AcDbEntity
   8
LEVEL001
   6
CONTINUOUS
  62
7
 100
AcDbDimension
   2
*D5
  10
 1216.0000000000
  20
 1013.6090632963
  30
0.0
  11
 1205.7142857143
  21
 543.60906329633
  31
0.0
  70
128
   3
GMM003
 100
AcDbAlignedDimension
  13
 1660.5000000000
  23
 73.609063296334
  33
0.0
  14
 1804.0000000000
  24
 1013.6090632963
  34
0.0
  50
 90.000000000000
 100
AcDbRotatedDimension
   0
DIMENSION
   5
4EA
 100
AcDbEntity
   8
LEVEL001
   6
CONTINUOUS
  62
7
 100
AcDbDimension
   2
*D6
  10
 762.50000000000
  20
 1298.4662061535
  30
0.0
  11
 497.50000000000
  21
 1308.7519204392
  31
0.0
  70
128
   3
GMM003
 100
AcDbAlignedDimension
  13
 232.50000000000
  23
 955.60906329633
  33
0.0
  14
 762.50000000000
  24
 955.60906329633
  34
0.0
 100
AcDbRotatedDimension
   0
DIMENSION
   5
4EB
 100
AcDbEntity
   8
LEVEL001
   6
CONTINUOUS
  62
7
 100
AcDbDimension
   2
*D7
  10
 882.50000000000
  20
 1360.7519204392
  30
0.0
  11
 557.50000000000
  21
 1371.0376347249
  31
0.0
  70
128
   3
GMM003
 100
AcDbAlignedDimension
  13
 232.50000000000
  23
 955.60906329633
  33
0.0
  14
 882.50000000000
  24
 941.10906329633
  34
0.0
 100
AcDbRotatedDimension
   0
DIMENSION
   5
4EC
 100
AcDbEntity
   8
LEVEL001
   6
CONTINUOUS
  62
7
 100
AcDbDimension
   2
*D8
  10
 1404.0000000000
  20
 1298.4662061535
  30
0.0
  11
 1770.3000000000
  21
 1304.4662061535
  31
0.0
  70
128
   3
GMM001
 100
AcDbAlignedDimension
  13
 2136.6000000000
  23
 968.60906329633
  33
0.0
  14
 1404.0000000000
  24
 464.60906329633
  34
0.0
  50
 180.00000000000
 100
AcDbRotatedDimension
   0
DIMENSION
   5
4ED
 100
AcDbEntity
   8
LEVEL001
   6
CONTINUOUS
  62
7
 100
AcDbDimension
   2
*D9
  10
 2304.0000000000
  20
 1360.7519204392
  30
0.0
  11
 1854.0000000000
  21
 1360.7519204392
  31
0.0
  70
0
   3
GMM004
 100
AcDbAlignedDimension
  13
 1404.0000000000
  23
 464.60906329633
  33
0.0
  14
 2304.0000000000
  24
 1204.9032238933
  34
0.0
 100
AcDbRotatedDimension
   0
TEXT
   5
4EE
 100
AcDbEntity
   8
LEVEL001
  62
1
 100
AcDbText
  10
 500.00000000000
  20
 1932.0000000000
  30
0.0
  40
 24.000000000000
   1
単相１００Ｖ　５０／６０Ｈｚ(３相２００Ｖは受注生産)
   7
STANDARD
 100
AcDbText
   0
TEXT
   5
4EF
 100
AcDbEntity
   8
LEVEL001
  62
1
 100
AcDbText
  10
 500.00000000000
  20
 1644.0000000000
  30
0.0
  40
 24.000000000000
   1
２４０ｋｇ
   7
STANDARD
 100
AcDbText
   0
TEXT
   5
4F0
 100
AcDbEntity
   8
LEVEL001
  62
7
 100
AcDbText
  10
 3012.0000000000
  20
 168.00000000000
  30
0.0
  40
 24.000000000000
   1
TS-1P-A
  41
 0.50000000000000
   7
STANDARD
 100
AcDbText
   0
TEXT
   5
4F1
 100
AcDbEntity
   8
LEVEL001
  62
7
 100
AcDbText
  10
 3033.7743900601
  20
 60.000000000000
  30
0.0
  40
 24.000000000000
   1
25
  41
 0.50000000000000
   7
STANDARD
 100
AcDbText
   0
TEXT
   5
4F2
 100
AcDbEntity
   8
LEVEL001
  62
7
 100
AcDbText
  10
 3072.8897614534
  20
 60.000000000000
  30
0.0
  40
 24.000000000000
   1
 8
  41
 0.50000000000000
   7
STANDARD
 100
AcDbText
   0
TEXT
   5
4F3
 100
AcDbEntity
   8
LEVEL001
  62
7
 100
AcDbText
  10
 3112.0425149553
  20
 60.000000000000
  30
0.0
  40
 24.000000000000
   1
 2
  41
 0.50000000000000
   7
STANDARD
 100
AcDbText
   0
TEXT
   5
4F4
 100
AcDbEntity
   8
LEVEL001
  62
7
 100
AcDbText
  10
 2567.7617147873
  20
 168.00000000000
  30
0.0
  40
 24.000000000000
   1
TS-1P 承認図
   7
STANDARD
 100
AcDbText
   0
LINE
   5
4F5
 100
AcDbEntity
   8
LEVEL001
 100
AcDbLine
   6
DASHDOT
  62
1
  10
 2371.8058252427
  20
 1900.8089802711
  30
0.0
  11
 1308.0000000000
  21
 1900.8089802711
  31
0.0
   0
LWPOLYLINE
   5
4F6
 100
AcDbEntity
   8
LEVEL001
   6
CONTINUOUS
  62
7
 100
AcDbPolyline
  90
4
  70
1
  10
 400.00000000000
  20
 832.10906329633
  10
 620.00000000000
  20
 832.10906329633
  10
 620.00000000000
  20
 995.10906329633
  10
 400.00000000000
  20
 995.10906329633
   0
LINE
   5
4F7
 100
AcDbEntity
   8
LEVEL001
 100
AcDbLine
   6
CONTINUOUS
  62
7
  10
 380.50000000000
  20
 988.60906327738
  30
0.0
  11
 400.00000000000
  21
 988.60906327738
  31
0.0
   0
LINE
   5
4F8
 100
AcDbEntity
   8
LEVEL001
 100
AcDbLine
   6
CONTINUOUS
  62
7
  10
 620.00000000000
  20
 988.60906327738
  30
0.0
  11
 639.50000000000
  21
 988.60906327738
  31
0.0
   0
ENDSEC
  0
SECTION
  2
OBJECTS
  0
DICTIONARY
  5
C
100
AcDbDictionary
  3
ACAD_GROUP
350
D
  3
ACAD_MLINESTYLE
350
1B
  0
DICTIONARY
  5
D
102
{ACAD_REACTORS
330
C
102
}
100
AcDbDictionary
  0
DICTIONARY
  5
1B
102
{ACAD_REACTORS
330
C
102
}
100
AcDbDictionary
  3
STANDARD
350
1C
  0
MLINESTYLE
  5
1C
102
{ACAD_REACTORS
330
1B
102
}
100
AcDbMlineStyle
  2
STANDARD
 70
     0
  3

 62
   256
 51
90.0
 52
90.0
 71
     2
 49
0.5
 62
   256
  6
BYLAYER
 49
-0.5
 62
   256
  6
BYLAYER
  0
ENDSEC
   0
EOF
