  0
SECTION
  2
HEADER
  9
$ACADVER
  1
AC1015
  9
$ACADMAINTVER
 70
    20
  9
$DWGCODEPAGE
  3
ANSI_932
  9
$INSBASE
 10
0.0
 20
0.0
 30
0.0
  9
$EXTMIN
 10
0.0000000000000568
 20
0.0
 30
0.0
  9
$EXTMAX
 10
2176.0
 20
1512.0
 30
0.0
  9
$LIMMIN
 10
0.0
 20
0.0
  9
$LIMMAX
 10
2376.0
 20
1680.0
  9
$ORTHOMODE
 70
     0
  9
$REGENMODE
 70
     1
  9
$FILLMODE
 70
     1
  9
$QTEXTMODE
 70
     0
  9
$MIRRTEXT
 70
     1
  9
$LTSCALE
 40
47.52
  9
$ATTMODE
 70
     1
  9
$TEXTSIZE
 40
0.2
  9
$TRACEWID
 40
0.05
  9
$TEXTSTYLE
  7
STANDARD
  9
$CLAYER
  8
0
  9
$CELTYPE
  6
CONTINUOUS
  9
$CECOLOR
 62
   256
  9
$CELTSCALE
 40
1.0
  9
$DISPSILH
 70
     0
  9
$DIMSCALE
 40
1.0
  9
$DIMASZ
 40
0.18
  9
$DIMEXO
 40
0.0625
  9
$DIMDLI
 40
0.38
  9
$DIMRND
 40
0.0
  9
$DIMDLE
 40
0.0
  9
$DIMEXE
 40
0.18
  9
$DIMTP
 40
0.0
  9
$DIMTM
 40
0.0
  9
$DIMTXT
 40
0.18
  9
$DIMCEN
 40
0.09
  9
$DIMTSZ
 40
0.0
  9
$DIMTOL
 70
     0
  9
$DIMLIM
 70
     0
  9
$DIMTIH
 70
     1
  9
$DIMTOH
 70
     1
  9
$DIMSE1
 70
     0
  9
$DIMSE2
 70
     0
  9
$DIMTAD
 70
     0
  9
$DIMZIN
 70
     0
  9
$DIMBLK
  1

  9
$DIMASO
 70
     1
  9
$DIMSHO
 70
     1
  9
$DIMPOST
  1

  9
$DIMAPOST
  1

  9
$DIMALT
 70
     0
  9
$DIMALTD
 70
     2
  9
$DIMALTF
 40
25.4
  9
$DIMLFAC
 40
1.0
  9
$DIMTOFL
 70
     0
  9
$DIMTVP
 40
0.0
  9
$DIMTIX
 70
     0
  9
$DIMSOXD
 70
     0
  9
$DIMSAH
 70
     0
  9
$DIMBLK1
  1

  9
$DIMBLK2
  1

  9
$DIMSTYLE
  2
STANDARD
  9
$DIMCLRD
 70
     0
  9
$DIMCLRE
 70
     0
  9
$DIMCLRT
 70
     0
  9
$DIMTFAC
 40
1.0
  9
$DIMGAP
 40
0.09
  9
$DIMJUST
 70
     0
  9
$DIMSD1
 70
     0
  9
$DIMSD2
 70
     0
  9
$DIMTOLJ
 70
     1
  9
$DIMTZIN
 70
     0
  9
$DIMALTZ
 70
     0
  9
$DIMALTTZ
 70
     0
  9
$DIMUPT
 70
     0
  9
$DIMDEC
 70
     4
  9
$DIMTDEC
 70
     4
  9
$DIMALTU
 70
     2
  9
$DIMALTTD
 70
     2
  9
$DIMTXSTY
  7
STANDARD
  9
$DIMAUNIT
 70
     0
  9
$DIMADEC
 70
     0
  9
$DIMALTRND
 40
0.0
  9
$DIMAZIN
 70
     0
  9
$DIMDSEP
 70
    46
  9
$DIMATFIT
 70
     3
  9
$DIMFRAC
 70
     0
  9
$DIMLDRBLK
  1

  9
$DIMLUNIT
 70
     2
  9
$DIMLWD
 70
    -2
  9
$DIMLWE
 70
    -2
  9
$DIMTMOVE
 70
     0
  9
$LUNITS
 70
     2
  9
$LUPREC
 70
     4
  9
$SKETCHINC
 40
0.1
  9
$FILLETRAD
 40
0.0
  9
$AUNITS
 70
     0
  9
$AUPREC
 70
     0
  9
$MENU
  1
.
  9
$ELEVATION
 40
0.0
  9
$PELEVATION
 40
0.0
  9
$THICKNESS
 40
0.0
  9
$LIMCHECK
 70
     0
  9
$CHAMFERA
 40
0.0
  9
$CHAMFERB
 40
0.0
  9
$CHAMFERC
 40
0.0
  9
$CHAMFERD
 40
0.0
  9
$SKPOLY
 70
     0
  9
$TDCREATE
 40
2451212.682759178
  9
$TDUCREATE
 40
2451212.307759178
  9
$TDUPDATE
 40
2455485.680698958
  9
$TDUUPDATE
 40
2455485.305698958
  9
$TDINDWG
 40
0.0002433102
  9
$TDUSRTIMER
 40
0.0002433102
  9
$USRTIMER
 70
     1
  9
$ANGBASE
 50
0.0
  9
$ANGDIR
 70
     0
  9
$PDMODE
 70
     0
  9
$PDSIZE
 40
0.0
  9
$PLINEWID
 40
0.0
  9
$SPLFRAME
 70
     0
  9
$SPLINETYPE
 70
     6
  9
$SPLINESEGS
 70
     8
  9
$HANDSEED
  5
2C9
  9
$SURFTAB1
 70
     6
  9
$SURFTAB2
 70
     6
  9
$SURFTYPE
 70
     6
  9
$SURFU
 70
     6
  9
$SURFV
 70
     6
  9
$UCSBASE
  2

  9
$UCSNAME
  2

  9
$UCSORG
 10
0.0
 20
0.0
 30
0.0
  9
$UCSXDIR
 10
1.0
 20
0.0
 30
0.0
  9
$UCSYDIR
 10
0.0
 20
1.0
 30
0.0
  9
$UCSORTHOREF
  2

  9
$UCSORTHOVIEW
 70
     0
  9
$UCSORGTOP
 10
0.0
 20
0.0
 30
0.0
  9
$UCSORGBOTTOM
 10
0.0
 20
0.0
 30
0.0
  9
$UCSORGLEFT
 10
0.0
 20
0.0
 30
0.0
  9
$UCSORGRIGHT
 10
0.0
 20
0.0
 30
0.0
  9
$UCSORGFRONT
 10
0.0
 20
0.0
 30
0.0
  9
$UCSORGBACK
 10
0.0
 20
0.0
 30
0.0
  9
$PUCSBASE
  2

  9
$PUCSNAME
  2

  9
$PUCSORG
 10
0.0
 20
0.0
 30
0.0
  9
$PUCSXDIR
 10
1.0
 20
0.0
 30
0.0
  9
$PUCSYDIR
 10
0.0
 20
1.0
 30
0.0
  9
$PUCSORTHOREF
  2

  9
$PUCSORTHOVIEW
 70
     0
  9
$PUCSORGTOP
 10
0.0
 20
0.0
 30
0.0
  9
$PUCSORGBOTTOM
 10
0.0
 20
0.0
 30
0.0
  9
$PUCSORGLEFT
 10
0.0
 20
0.0
 30
0.0
  9
$PUCSORGRIGHT
 10
0.0
 20
0.0
 30
0.0
  9
$PUCSORGFRONT
 10
0.0
 20
0.0
 30
0.0
  9
$PUCSORGBACK
 10
0.0
 20
0.0
 30
0.0
  9
$USERI1
 70
     0
  9
$USERI2
 70
     0
  9
$USERI3
 70
     0
  9
$USERI4
 70
     0
  9
$USERI5
 70
     0
  9
$USERR1
 40
0.0
  9
$USERR2
 40
0.0
  9
$USERR3
 40
0.0
  9
$USERR4
 40
0.0
  9
$USERR5
 40
0.0
  9
$WORLDVIEW
 70
     1
  9
$SHADEDGE
 70
     3
  9
$SHADEDIF
 70
    70
  9
$TILEMODE
 70
     1
  9
$MAXACTVP
 70
    16
  9
$PINSBASE
 10
0.0
 20
0.0
 30
0.0
  9
$PLIMCHECK
 70
     0
  9
$PEXTMIN
 10
1.000000000000000E+20
 20
1.000000000000000E+20
 30
1.000000000000000E+20
  9
$PEXTMAX
 10
-1.000000000000000E+20
 20
-1.000000000000000E+20
 30
-1.000000000000000E+20
  9
$PLIMMIN
 10
0.0
 20
0.0
  9
$PLIMMAX
 10
12.0
 20
9.0
  9
$UNITMODE
 70
     0
  9
$VISRETAIN
 70
     1
  9
$PLINEGEN
 70
     0
  9
$PSLTSCALE
 70
     1
  9
$TREEDEPTH
 70
  3020
  9
$CMLSTYLE
  2
STANDARD
  9
$CMLJUST
 70
     0
  9
$CMLSCALE
 40
1.0
  9
$PROXYGRAPHICS
 70
     1
  9
$MEASUREMENT
 70
     0
  9
$CELWEIGHT
370
    -1
  9
$ENDCAPS
280
     0
  9
$JOINSTYLE
280
     0
  9
$LWDISPLAY
290
     0
  9
$INSUNITS
 70
     0
  9
$HYPERLINKBASE
  1

  9
$STYLESHEET
  1

  9
$XEDIT
290
     1
  9
$CEPSNTYPE
380
     0
  9
$PSTYLEMODE
290
     1
  9
$FINGERPRINTGUID
  2
{8D1CD23B-4964-4D8A-8B34-706BECBB0A09}
  9
$VERSIONGUID
  2
{1934ED83-D8AC-4B66-8595-FAC0E356656A}
  9
$EXTNAMES
290
     1
  9
$PSVPSCALE
 40
0.0
  9
$OLESTARTUP
290
     0
  0
ENDSEC
  0
SECTION
  2
CLASSES
  0
CLASS
  1
ACDBDICTIONARYWDFLT
  2
AcDbDictionaryWithDefault
  3
ObjectDBX Classes
 90
        0
280
     0
281
     0
  0
CLASS
  1
TABLESTYLE
  2
AcDbTableStyle
  3
ObjectDBX Classes
 90
     2047
280
     0
281
     0
  0
CLASS
  1
DICTIONARYVAR
  2
AcDbDictionaryVar
  3
ObjectDBX Classes
 90
        0
280
     0
281
     0
  0
CLASS
  1
ACDBPLACEHOLDER
  2
AcDbPlaceHolder
  3
ObjectDBX Classes
 90
        0
280
     0
281
     0
  0
CLASS
  1
LAYOUT
  2
AcDbLayout
  3
ObjectDBX Classes
 90
        0
280
     0
281
     0
  0
ENDSEC
  0
SECTION
  2
TABLES
  0
TABLE
  2
VPORT
  5
1
330
0
100
AcDbSymbolTable
 70
     2
  0
VPORT
  5
2C3
330
1
100
AcDbSymbolTableRecord
100
AcDbViewportTableRecord
  2
*Active
 70
     0
 10
0.0
 20
0.0
 11
1.0
 21
1.0
 12
1991.618772563152
 22
840.0
 13
0.0
 23
0.0
 14
1.0
 24
1.0
 15
0.0
 25
0.0
 16
0.0
 26
0.0
 36
1.0
 17
0.0
 27
0.0
 37
0.0
 40
2376.0
 41
2.155234657039711
 42
50.0
 43
0.0
 44
0.0
 50
0.0
 51
0.0
 71
     0
 72
   100
 73
     1
 74
     1
 75
     0
 76
     0
 77
     0
 78
     0
281
     0
 65
     1
110
0.0
120
0.0
130
0.0
111
1.0
121
0.0
131
0.0
112
0.0
122
1.0
132
0.0
 79
     0
146
0.0
  0
ENDTAB
  0
TABLE
  2
LTYPE
  5
9E
330
0
100
AcDbSymbolTable
 70
    25
  0
LTYPE
  5
2D
330
9E
100
AcDbSymbolTableRecord
100
AcDbLinetypeTableRecord
  2
BYBLOCK
 70
     0
  3

 72
    65
 73
     0
 40
0.0
  0
LTYPE
  5
2E
330
9E
100
AcDbSymbolTableRecord
100
AcDbLinetypeTableRecord
  2
BYLAYER
 70
     0
  3

 72
    65
 73
     0
 40
0.0
  0
LTYPE
  5
2F
330
9E
100
AcDbSymbolTableRecord
100
AcDbLinetypeTableRecord
  2
CONTINUOUS
 70
     0
  3
Solid line
 72
    65
 73
     0
 40
0.0
  0
LTYPE
  5
30
330
9E
100
AcDbSymbolTableRecord
100
AcDbLinetypeTableRecord
  2
BORDER
 70
     0
  3
__ __ . __ __ . __ __ . __ __ . __ __ . __ __ .
 72
    65
 73
     6
 40
1.75
 49
0.5
 74
     0
 49
-0.25
 74
     0
 49
0.5
 74
     0
 49
-0.25
 74
     0
 49
0.0
 74
     0
 49
-0.25
 74
     0
  0
LTYPE
  5
31
330
9E
100
AcDbSymbolTableRecord
100
AcDbLinetypeTableRecord
  2
BORDER2
 70
     0
  3
__.__.__.__.__.__.__.__.__.__.__.__.__.__.__.__
 72
    65
 73
     6
 40
0.875
 49
0.25
 74
     0
 49
-0.125
 74
     0
 49
0.25
 74
     0
 49
-0.125
 74
     0
 49
0.0
 74
     0
 49
-0.125
 74
     0
  0
LTYPE
  5
32
330
9E
100
AcDbSymbolTableRecord
100
AcDbLinetypeTableRecord
  2
BORDERX2
 70
     0
  3
____  ____  .  ____  ____  .  ____  ____  .  __
 72
    65
 73
     6
 40
3.5
 49
1.0
 74
     0
 49
-0.5
 74
     0
 49
1.0
 74
     0
 49
-0.5
 74
     0
 49
0.0
 74
     0
 49
-0.5
 74
     0
  0
LTYPE
  5
33
330
9E
100
AcDbSymbolTableRecord
100
AcDbLinetypeTableRecord
  2
CENTER
 70
     0
  3
____ _ ____ _ ____ _ ____ _ ____ _ ____ _ ____ 
 72
    65
 73
     4
 40
2.0
 49
1.25
 74
     0
 49
-0.25
 74
     0
 49
0.25
 74
     0
 49
-0.25
 74
     0
  0
LTYPE
  5
34
330
9E
100
AcDbSymbolTableRecord
100
AcDbLinetypeTableRecord
  2
CENTER2
 70
     0
  3
___ _ ___ _ ___ _ ___ _ ___ _ ___ _ ___ _ ___ _
 72
    65
 73
     4
 40
1.125
 49
0.75
 74
     0
 49
-0.125
 74
     0
 49
0.125
 74
     0
 49
-0.125
 74
     0
  0
LTYPE
  5
35
330
9E
100
AcDbSymbolTableRecord
100
AcDbLinetypeTableRecord
  2
CENTERX2
 70
     0
  3
________  __  ________  __  ________  __  _____
 72
    65
 73
     4
 40
4.0
 49
2.5
 74
     0
 49
-0.5
 74
     0
 49
0.5
 74
     0
 49
-0.5
 74
     0
  0
LTYPE
  5
36
330
9E
100
AcDbSymbolTableRecord
100
AcDbLinetypeTableRecord
  2
DASHDOT
 70
     0
  3
__ . __ . __ . __ . __ . __ . __ . __ . __ . __
 72
    65
 73
     4
 40
1.0
 49
0.5
 74
     0
 49
-0.25
 74
     0
 49
0.0
 74
     0
 49
-0.25
 74
     0
  0
LTYPE
  5
37
330
9E
100
AcDbSymbolTableRecord
100
AcDbLinetypeTableRecord
  2
DASHDOT2
 70
     0
  3
_._._._._._._._._._._._._._._._._._._._._._._._
 72
    65
 73
     4
 40
0.5
 49
0.25
 74
     0
 49
-0.125
 74
     0
 49
0.0
 74
     0
 49
-0.125
 74
     0
  0
LTYPE
  5
38
330
9E
100
AcDbSymbolTableRecord
100
AcDbLinetypeTableRecord
  2
DASHDOTX2
 70
     0
  3
____  .  ____  .  ____  .  ____  .  ____  .  __
 72
    65
 73
     4
 40
2.0
 49
1.0
 74
     0
 49
-0.5
 74
     0
 49
0.0
 74
     0
 49
-0.5
 74
     0
  0
LTYPE
  5
39
330
9E
100
AcDbSymbolTableRecord
100
AcDbLinetypeTableRecord
  2
DASHED
 70
     0
  3
__ __ __ __ __ __ __ __ __ __ __ __ __ __ __ __
 72
    65
 73
     2
 40
0.75
 49
0.5
 74
     0
 49
-0.25
 74
     0
  0
LTYPE
  5
3A
330
9E
100
AcDbSymbolTableRecord
100
AcDbLinetypeTableRecord
  2
DASHED2
 70
     0
  3
_ _ _ _ _ _ _ _ _ _ _ _ _ _ _ _ _ _ _ _ _ _ _ _
 72
    65
 73
     2
 40
0.375
 49
0.25
 74
     0
 49
-0.125
 74
     0
  0
LTYPE
  5
3B
330
9E
100
AcDbSymbolTableRecord
100
AcDbLinetypeTableRecord
  2
DASHEDX2
 70
     0
  3
____  ____  ____  ____  ____  ____  ____  ____ 
 72
    65
 73
     2
 40
1.5
 49
1.0
 74
     0
 49
-0.5
 74
     0
  0
LTYPE
  5
3C
330
9E
100
AcDbSymbolTableRecord
100
AcDbLinetypeTableRecord
  2
DIVIDE
 70
     0
  3
____ . . ____ . . ____ . . ____ . . ____ . . __
 72
    65
 73
     6
 40
1.25
 49
0.5
 74
     0
 49
-0.25
 74
     0
 49
0.0
 74
     0
 49
-0.25
 74
     0
 49
0.0
 74
     0
 49
-0.25
 74
     0
  0
LTYPE
  5
3D
330
9E
100
AcDbSymbolTableRecord
100
AcDbLinetypeTableRecord
  2
DIVIDE2
 70
     0
  3
__..__..__..__..__..__..__..__..__..__..__..__.
 72
    65
 73
     6
 40
0.625
 49
0.25
 74
     0
 49
-0.125
 74
     0
 49
0.0
 74
     0
 49
-0.125
 74
     0
 49
0.0
 74
     0
 49
-0.125
 74
     0
  0
LTYPE
  5
3E
330
9E
100
AcDbSymbolTableRecord
100
AcDbLinetypeTableRecord
  2
DIVIDEX2
 70
     0
  3
________  .  .  ________  .  .  ________  .  . 
 72
    65
 73
     6
 40
2.5
 49
1.0
 74
     0
 49
-0.5
 74
     0
 49
0.0
 74
     0
 49
-0.5
 74
     0
 49
0.0
 74
     0
 49
-0.5
 74
     0
  0
LTYPE
  5
3F
330
9E
100
AcDbSymbolTableRecord
100
AcDbLinetypeTableRecord
  2
DOT
 70
     0
  3
. . . . . . . . . . . . . . . . . . . . . . . .
 72
    65
 73
     2
 40
0.25
 49
0.0
 74
     0
 49
-0.25
 74
     0
  0
LTYPE
  5
40
330
9E
100
AcDbSymbolTableRecord
100
AcDbLinetypeTableRecord
  2
DOT2
 70
     0
  3
...............................................
 72
    65
 73
     2
 40
0.125
 49
0.0
 74
     0
 49
-0.125
 74
     0
  0
LTYPE
  5
41
330
9E
100
AcDbSymbolTableRecord
100
AcDbLinetypeTableRecord
  2
DOTX2
 70
     0
  3
.  .  .  .  .  .  .  .  .  .  .  .  .  .  .  . 
 72
    65
 73
     2
 40
0.5
 49
0.0
 74
     0
 49
-0.5
 74
     0
  0
LTYPE
  5
42
330
9E
100
AcDbSymbolTableRecord
100
AcDbLinetypeTableRecord
  2
HIDDEN
 70
     0
  3
__ __ __ __ __ __ __ __ __ __ __ __ __ __ __ __
 72
    65
 73
     2
 40
0.375
 49
0.25
 74
     0
 49
-0.125
 74
     0
  0
LTYPE
  5
43
330
9E
100
AcDbSymbolTableRecord
100
AcDbLinetypeTableRecord
  2
HIDDEN2
 70
     0
  3
_ _ _ _ _ _ _ _ _ _ _ _ _ _ _ _ _ _ _ _ _ _ _ _
 72
    65
 73
     2
 40
0.1875
 49
0.125
 74
     0
 49
-0.0625
 74
     0
  0
LTYPE
  5
44
330
9E
100
AcDbSymbolTableRecord
100
AcDbLinetypeTableRecord
  2
HIDDENX2
 70
     0
  3
____ ____ ____ ____ ____ ____ ____ ____ ____ __
 72
    65
 73
     2
 40
0.75
 49
0.5
 74
     0
 49
-0.25
 74
     0
  0
LTYPE
  5
45
330
9E
100
AcDbSymbolTableRecord
100
AcDbLinetypeTableRecord
  2
PHANTOM
 70
     0
  3
______  __  __  ______  __  __  ______  __  __ 
 72
    65
 73
     6
 40
2.5
 49
1.25
 74
     0
 49
-0.25
 74
     0
 49
0.25
 74
     0
 49
-0.25
 74
     0
 49
0.25
 74
     0
 49
-0.25
 74
     0
  0
LTYPE
  5
46
330
9E
100
AcDbSymbolTableRecord
100
AcDbLinetypeTableRecord
  2
PHANTOM2
 70
     0
  3
___ _ _ ___ _ _ ___ _ _ ___ _ _ ___ _ _ ___ _ _
 72
    65
 73
     6
 40
1.25
 49
0.625
 74
     0
 49
-0.125
 74
     0
 49
0.125
 74
     0
 49
-0.125
 74
     0
 49
0.125
 74
     0
 49
-0.125
 74
     0
  0
LTYPE
  5
47
330
9E
100
AcDbSymbolTableRecord
100
AcDbLinetypeTableRecord
  2
PHANTOMX2
 70
     0
  3
____________    ____    ____    ____________   
 72
    65
 73
     6
 40
5.0
 49
2.5
 74
     0
 49
-0.5
 74
     0
 49
0.5
 74
     0
 49
-0.5
 74
     0
 49
0.5
 74
     0
 49
-0.5
 74
     0
  0
ENDTAB
  0
TABLE
  2
LAYER
  5
9D
330
0
100
AcDbSymbolTable
 70
     5
  0
LAYER
  5
48
330
9D
100
AcDbSymbolTableRecord
100
AcDbLayerTableRecord
  2
0
 70
     0
 62
     7
  6
CONTINUOUS
370
    -3
390
2B3
  0
LAYER
  5
49
330
9D
100
AcDbSymbolTableRecord
100
AcDbLayerTableRecord
  2
LEVEL001
 70
     0
 62
     7
  6
CONTINUOUS
370
    -3
390
2B3
  0
LAYER
  5
4A
330
9D
100
AcDbSymbolTableRecord
100
AcDbLayerTableRecord
  2
内図枠(作図領域)
 70
     0
 62
     7
  6
CONTINUOUS
370
    -3
390
2B3
  0
LAYER
  5
4B
330
9D
100
AcDbSymbolTableRecord
100
AcDbLayerTableRecord
  2
外図枠(出力紙領域)
 70
     0
 62
     7
  6
CONTINUOUS
370
    -3
390
2B3
  0
LAYER
  5
4C
330
9D
100
AcDbSymbolTableRecord
100
AcDbLayerTableRecord
  2
部品表金額表示用
 70
     0
 62
     7
  6
CONTINUOUS
370
    -3
390
2B3
  0
ENDTAB
  0
TABLE
  2
STYLE
  5
6
330
0
100
AcDbSymbolTable
 70
     3
  0
STYLE
  5
7
330
6
100
AcDbSymbolTableRecord
100
AcDbTextStyleTableRecord
  2
STANDARD
 70
     0
 40
0.0
 41
1.0
 50
0.0
 71
     0
 42
0.2
  3
TXT
  4
BIGFONT
  0
STYLE
  5
8
330
6
100
AcDbSymbolTableRecord
100
AcDbTextStyleTableRecord
  2
STANDARD1
 70
     4
 40
0.0
 41
1.0
 50
0.0
 71
     0
 42
0.2
  3
TXT
  4
BIGFONT
  0
STYLE
  5
9
330
6
100
AcDbSymbolTableRecord
100
AcDbTextStyleTableRecord
  2
GMM001
 70
     0
 40
0.0
 41
1.0
 50
0.0
 71
     0
 42
1.0
  3
txt.shx
  4
bigfont.shx
  0
ENDTAB
  0
TABLE
  2
VIEW
  5
2
330
0
100
AcDbSymbolTable
 70
     0
  0
ENDTAB
  0
TABLE
  2
UCS
  5
3
330
0
100
AcDbSymbolTable
 70
     0
  0
ENDTAB
  0
TABLE
  2
APPID
  5
4
330
0
100
AcDbSymbolTable
 70
     1
  0
APPID
  5
5
330
4
100
AcDbSymbolTableRecord
100
AcDbRegAppTableRecord
  2
ACAD
 70
     0
  0
ENDTAB
  0
TABLE
  2
DIMSTYLE
  5
9C
330
0
100
AcDbSymbolTable
 70
     7
100
AcDbDimStyleTable
 71
     0
  0
DIMSTYLE
105
4D
330
9C
100
AcDbSymbolTableRecord
100
AcDbDimStyleTableRecord
  2
STANDARD
 70
     0
340
7
  0
DIMSTYLE
105
4E
102
{ACAD_REACTORS
330
25A
330
25B
330
25C
330
25D
330
2A5
102
}
330
9C
100
AcDbSymbolTableRecord
100
AcDbDimStyleTableRecord
  2
GMM001
 70
     0
 41
12.0
 42
0.0
 43
32.0
 44
8.0
 46
15.0
 73
     0
 74
     0
 77
     1
 78
     8
140
24.0
141
4.0
143
0.0394
146
0.625
147
10.285714285714
172
     1
173
     1
176
     1
177
     1
178
     7
271
     6
272
     0
340
9
341
1E
343
1E
344
1E
  0
DIMSTYLE
105
4F
102
{ACAD_REACTORS
330
2A6
102
}
330
9C
100
AcDbSymbolTableRecord
100
AcDbDimStyleTableRecord
  2
GMM002
 70
     0
 41
12.0
 42
0.0
 43
32.0
 44
8.0
 46
15.0
 73
     0
 74
     0
 76
     1
 77
     1
 78
     8
140
24.0
141
4.0
143
0.0394
146
0.625
147
10.285714285714
172
     1
173
     1
176
     1
177
     1
178
     7
271
     6
272
     0
340
9
341
1E
343
1E
344
1E
  0
DIMSTYLE
105
50
102
{ACAD_REACTORS
330
2A7
102
}
330
9C
100
AcDbSymbolTableRecord
100
AcDbDimStyleTableRecord
  2
GMM003
 70
     0
 41
12.0
 42
0.0
 43
32.0
 44
8.0
 46
15.0
 73
     0
 74
     0
 77
     1
 78
     8
140
24.0
141
4.0
143
0.0394
146
0.625
147
10.285714285714
172
     1
173
     1
176
     1
177
     1
178
     7
271
     6
272
     0
288
     1
340
9
341
1E
343
1E
344
1E
  0
DIMSTYLE
105
51
102
{ACAD_REACTORS
330
2A8
102
}
330
9C
100
AcDbSymbolTableRecord
100
AcDbDimStyleTableRecord
  2
GMM004
 70
     0
  3
R<>
 41
12.0
 42
0.0
 43
32.0
 44
8.0
 46
15.0
 73
     0
 74
     0
 75
     1
 76
     1
 77
     1
 78
     8
140
24.0
141
4.0
143
0.0394
146
0.625
147
10.433203163041
172
     1
173
     1
176
     1
177
     1
178
     7
271
     6
272
     0
288
     1
340
9
341
26
343
26
344
1E
  0
DIMSTYLE
105
52
102
{ACAD_REACTORS
330
2AD
330
2AE
102
}
330
9C
100
AcDbSymbolTableRecord
100
AcDbDimStyleTableRecord
  2
GMM005
 70
     0
 41
12.0
 42
0.0
 43
32.0
 44
8.0
 46
15.0
 73
     0
 74
     0
 76
     1
 77
     1
 78
     8
140
24.0
141
4.0
143
0.0394
146
0.625
147
4.285714285714299
172
     1
173
     1
176
     1
177
     1
178
     7
271
     6
272
     0
288
     1
340
9
341
1E
343
1E
344
1E
  0
DIMSTYLE
105
53
102
{ACAD_REACTORS
330
2AF
102
}
330
9C
100
AcDbSymbolTableRecord
100
AcDbDimStyleTableRecord
  2
GMM006
 70
     0
 41
12.0
 42
0.0
 43
32.0
 44
8.0
 46
15.0
 73
     0
 74
     0
 77
     1
 78
     8
140
24.0
141
4.0
143
0.0394
146
0.625
147
4.285714285714299
172
     1
173
     1
176
     1
177
     1
178
     7
271
     6
272
     0
288
     1
340
9
341
1E
343
1E
344
1E
  0
ENDTAB
  0
TABLE
  2
BLOCK_RECORD
  5
A
330
0
100
AcDbSymbolTable
 70
    32
  0
BLOCK_RECORD
  5
B
330
A
100
AcDbSymbolTableRecord
100
AcDbBlockTableRecord
  2
*MODEL_SPACE
340
2BA
  0
BLOCK_RECORD
  5
C
330
A
100
AcDbSymbolTableRecord
100
AcDbBlockTableRecord
  2
*PAPER_SPACE
340
2BB
  0
BLOCK_RECORD
  5
D
330
A
100
AcDbSymbolTableRecord
100
AcDbBlockTableRecord
  2
*D0
340
0
  0
BLOCK_RECORD
  5
E
330
A
100
AcDbSymbolTableRecord
100
AcDbBlockTableRecord
  2
*D1
340
0
  0
BLOCK_RECORD
  5
F
330
A
100
AcDbSymbolTableRecord
100
AcDbBlockTableRecord
  2
*D2
340
0
  0
BLOCK_RECORD
  5
10
330
A
100
AcDbSymbolTableRecord
100
AcDbBlockTableRecord
  2
*D3
340
0
  0
BLOCK_RECORD
  5
11
330
A
100
AcDbSymbolTableRecord
100
AcDbBlockTableRecord
  2
*D4
340
0
  0
BLOCK_RECORD
  5
12
330
A
100
AcDbSymbolTableRecord
100
AcDbBlockTableRecord
  2
*D5
340
0
  0
BLOCK_RECORD
  5
13
330
A
100
AcDbSymbolTableRecord
100
AcDbBlockTableRecord
  2
*D6
340
0
  0
BLOCK_RECORD
  5
14
330
A
100
AcDbSymbolTableRecord
100
AcDbBlockTableRecord
  2
*D7
340
0
  0
BLOCK_RECORD
  5
15
330
A
100
AcDbSymbolTableRecord
100
AcDbBlockTableRecord
  2
*D8
340
0
  0
BLOCK_RECORD
  5
16
330
A
100
AcDbSymbolTableRecord
100
AcDbBlockTableRecord
  2
*D9
340
0
  0
BLOCK_RECORD
  5
17
330
A
100
AcDbSymbolTableRecord
100
AcDbBlockTableRecord
  2
*D10
340
0
  0
BLOCK_RECORD
  5
18
330
A
100
AcDbSymbolTableRecord
100
AcDbBlockTableRecord
  2
_ARCHTICK
340
0
  0
BLOCK_RECORD
  5
19
330
A
100
AcDbSymbolTableRecord
100
AcDbBlockTableRecord
  2
_OBLIQUE
340
0
  0
BLOCK_RECORD
  5
1A
330
A
100
AcDbSymbolTableRecord
100
AcDbBlockTableRecord
  2
_BOXBLANK
340
0
  0
BLOCK_RECORD
  5
1B
330
A
100
AcDbSymbolTableRecord
100
AcDbBlockTableRecord
  2
_BOXFILLED
340
0
  0
BLOCK_RECORD
  5
1C
330
A
100
AcDbSymbolTableRecord
100
AcDbBlockTableRecord
  2
_CLOSED
340
0
  0
BLOCK_RECORD
  5
1D
330
A
100
AcDbSymbolTableRecord
100
AcDbBlockTableRecord
  2
_OPEN
340
0
  0
BLOCK_RECORD
  5
1E
330
A
100
AcDbSymbolTableRecord
100
AcDbBlockTableRecord
  2
_OPEN30
340
0
102
{BLKREFS
331
AE
331
AF
331
B4
331
B5
331
BA
331
BB
331
C0
331
C1
331
C6
331
C7
331
CC
331
CD
331
D2
331
D3
331
D6
331
DB
331
DC
331
E1
331
E2
331
E7
331
E8
102
}
  0
BLOCK_RECORD
  5
1F
330
A
100
AcDbSymbolTableRecord
100
AcDbBlockTableRecord
  2
_OPEN90
340
0
  0
BLOCK_RECORD
  5
20
330
A
100
AcDbSymbolTableRecord
100
AcDbBlockTableRecord
  2
_CLOSEDBLANK
340
0
  0
BLOCK_RECORD
  5
21
330
A
100
AcDbSymbolTableRecord
100
AcDbBlockTableRecord
  2
_DOT
340
0
  0
BLOCK_RECORD
  5
22
330
A
100
AcDbSymbolTableRecord
100
AcDbBlockTableRecord
  2
_DOTSMALL
340
0
  0
BLOCK_RECORD
  5
23
330
A
100
AcDbSymbolTableRecord
100
AcDbBlockTableRecord
  2
_DATUMBLANK
340
0
  0
BLOCK_RECORD
  5
24
330
A
100
AcDbSymbolTableRecord
100
AcDbBlockTableRecord
  2
_DATUMFILLED
340
0
  0
BLOCK_RECORD
  5
25
330
A
100
AcDbSymbolTableRecord
100
AcDbBlockTableRecord
  2
_ORIGIN
340
0
  0
BLOCK_RECORD
  5
26
330
A
100
AcDbSymbolTableRecord
100
AcDbBlockTableRecord
  2
_NONE
340
0
  0
BLOCK_RECORD
  5
27
330
A
100
AcDbSymbolTableRecord
100
AcDbBlockTableRecord
  2
_DOTBLANK
340
0
  0
BLOCK_RECORD
  5
28
330
A
100
AcDbSymbolTableRecord
100
AcDbBlockTableRecord
  2
_INTEGRAL
340
0
  0
BLOCK_RECORD
  5
29
330
A
100
AcDbSymbolTableRecord
100
AcDbBlockTableRecord
  2
A2
340
0
102
{BLKREFS
331
13B
102
}
  0
BLOCK_RECORD
  5
2A
330
A
100
AcDbSymbolTableRecord
100
AcDbBlockTableRecord
  2
BLOCK001
340
0
102
{BLKREFS
331
13C
102
}
  0
BLOCK_RECORD
  5
2B
330
A
100
AcDbSymbolTableRecord
100
AcDbBlockTableRecord
  2
BLOCK002
340
0
102
{BLKREFS
331
13D
102
}
  0
BLOCK_RECORD
  5
2C
330
A
100
AcDbSymbolTableRecord
100
AcDbBlockTableRecord
  2
BLOCK003
340
0
102
{BLKREFS
331
13E
102
}
  0
ENDTAB
  0
ENDSEC
  0
SECTION
  2
BLOCKS
  0
BLOCK
  5
58
330
B
100
AcDbEntity
  8
0
100
AcDbBlockBegin
  2
*MODEL_SPACE
 70
     0
 10
0.0
 20
0.0
 30
0.0
  3
*MODEL_SPACE
  1

  0
ENDBLK
  5
7A
330
B
100
AcDbEntity
  8
0
100
AcDbBlockEnd
  0
BLOCK
  5
59
330
C
100
AcDbEntity
 67
     1
  8
0
100
AcDbBlockBegin
  2
*PAPER_SPACE
 70
     0
 10
0.0
 20
0.0
 30
0.0
  3
*PAPER_SPACE
  1

  0
ENDBLK
  5
7B
330
C
100
AcDbEntity
 67
     1
  8
0
100
AcDbBlockEnd
  0
BLOCK
  5
5A
330
D
100
AcDbEntity
  8
0
100
AcDbBlockBegin
  2
*D0
 70
     1
 10
0.0
 20
0.0
 30
0.0
  3
*D0
  1

  0
LINE
  5
AB
330
D
100
AcDbEntity
  8
LEVEL001
  6
Continuous
 62
     1
100
AcDbLine
 10
594.5
 20
460.5
 30
0.0
 11
594.5
 21
392.0
 31
0.0
  0
LINE
  5
AC
330
D
100
AcDbEntity
  8
LEVEL001
  6
Continuous
 62
     1
100
AcDbLine
 10
949.5
 20
460.5
 30
0.0
 11
949.5
 21
392.0
 31
0.0
  0
LINE
  5
AD
330
D
100
AcDbEntity
  8
LEVEL001
  6
Continuous
 62
     1
100
AcDbLine
 10
594.5
 20
400.0
 30
0.0
 11
949.5
 21
400.0
 31
0.0
  0
INSERT
  5
AE
330
D
100
AcDbEntity
  8
LEVEL001
  6
Continuous
 62
     1
100
AcDbBlockReference
  2
_OPEN30
 10
594.5
 20
400.0
 30
0.0
 41
12.0
 42
12.0
 43
12.0
 50
180.0
  0
INSERT
  5
AF
330
D
100
AcDbEntity
  8
LEVEL001
  6
Continuous
 62
     1
100
AcDbBlockReference
  2
_OPEN30
 10
949.5
 20
400.0
 30
0.0
 41
12.0
 42
12.0
 43
12.0
  0
MTEXT
  5
B0
330
D
100
AcDbEntity
  8
LEVEL001
  6
ByBlock
 62
     7
100
AcDbMText
 10
772.0
 20
410.28571428571
 30
0.0
 40
24.0
 41
0.0
 71
     8
 72
     1
  1
\A1;355
  7
GMM001
 73
     1
 44
1.0
1001
ACAD
1000
MTEXTBEGIN
1070
    73
1070
     1
1070
    44
1040
1.0
1070
    74
1070
     0
1000
MTEXTEND
  0
ENDBLK
  5
80
330
D
100
AcDbEntity
  8
0
100
AcDbBlockEnd
  0
BLOCK
  5
5B
330
E
100
AcDbEntity
  8
0
100
AcDbBlockBegin
  2
*D1
 70
     1
 10
0.0
 20
0.0
 30
0.0
  3
*D1
  1

  0
LINE
  5
B1
330
E
100
AcDbEntity
  8
LEVEL001
  6
Continuous
 62
     1
100
AcDbLine
 10
981.0
 20
851.0
 30
0.0
 11
1158.0
 21
851.0
 31
0.0
  0
LINE
  5
B2
330
E
100
AcDbEntity
  8
LEVEL001
  6
Continuous
 62
     1
100
AcDbLine
 10
1003.0
 20
56.0
 30
0.0
 11
1158.0
 21
56.0
 31
0.0
  0
LINE
  5
B3
330
E
100
AcDbEntity
  8
LEVEL001
  6
Continuous
 62
     1
100
AcDbLine
 10
1150.0
 20
851.0
 30
0.0
 11
1150.0
 21
56.0
 31
0.0
  0
INSERT
  5
B4
330
E
100
AcDbEntity
  8
LEVEL001
  6
Continuous
 62
     1
100
AcDbBlockReference
  2
_OPEN30
 10
1150.0
 20
851.0
 30
0.0
 41
12.0
 42
12.0
 43
12.0
 50
90.0
  0
INSERT
  5
B5
330
E
100
AcDbEntity
  8
LEVEL001
  6
Continuous
 62
     1
100
AcDbBlockReference
  2
_OPEN30
 10
1150.0
 20
56.0
 30
0.0
 41
12.0
 42
12.0
 43
12.0
 50
270.0
  0
MTEXT
  5
B6
330
E
100
AcDbEntity
  8
LEVEL001
  6
ByBlock
 62
     7
100
AcDbMText
 10
1139.7142857143
 20
453.5
 30
0.0
 40
24.0
 41
0.0
 71
     8
 72
     1
  1
\A1;795
  7
GMM001
 11
0.0
 21
1.0
 31
0.0
 73
     1
 44
1.0
1001
ACAD
1000
MTEXTBEGIN
1070
    73
1070
     1
1070
    44
1040
1.0
1070
    74
1070
     0
1000
MTEXTEND
  0
ENDBLK
  5
81
330
E
100
AcDbEntity
  8
0
100
AcDbBlockEnd
  0
BLOCK
  5
5C
330
F
100
AcDbEntity
  8
0
100
AcDbBlockBegin
  2
*D2
 70
     1
 10
0.0
 20
0.0
 30
0.0
  3
*D2
  1

  0
LINE
  5
B7
330
F
100
AcDbEntity
  8
LEVEL001
  6
Continuous
 62
     1
100
AcDbLine
 10
1092.0
 20
681.35
 30
0.0
 11
1092.0
 21
984.0
 31
0.0
  0
LINE
  5
B8
330
F
100
AcDbEntity
  8
LEVEL001
  6
Continuous
 62
     1
100
AcDbLine
 10
392.0
 20
821.0
 30
0.0
 11
392.0
 21
984.0
 31
0.0
  0
LINE
  5
B9
330
F
100
AcDbEntity
  8
LEVEL001
  6
Continuous
 62
     1
100
AcDbLine
 10
1092.0
 20
976.0
 30
0.0
 11
392.0
 21
976.0
 31
0.0
  0
INSERT
  5
BA
330
F
100
AcDbEntity
  8
LEVEL001
  6
Continuous
 62
     1
100
AcDbBlockReference
  2
_OPEN30
 10
1092.0
 20
976.0
 30
0.0
 41
12.0
 42
12.0
 43
12.0
  0
INSERT
  5
BB
330
F
100
AcDbEntity
  8
LEVEL001
  6
Continuous
 62
     1
100
AcDbBlockReference
  2
_OPEN30
 10
392.0
 20
976.0
 30
0.0
 41
12.0
 42
12.0
 43
12.0
 50
180.0
  0
MTEXT
  5
BC
330
F
100
AcDbEntity
  8
LEVEL001
  6
ByBlock
 62
     7
100
AcDbMText
 10
742.0
 20
986.28571428571
 30
0.0
 40
24.0
 41
0.0
 71
     8
 72
     1
  1
\A1;700
  7
GMM001
 73
     1
 44
1.0
1001
ACAD
1000
MTEXTBEGIN
1070
    73
1070
     1
1070
    44
1040
1.0
1070
    74
1070
     0
1000
MTEXTEND
  0
ENDBLK
  5
82
330
F
100
AcDbEntity
  8
0
100
AcDbBlockEnd
  0
BLOCK
  5
5D
330
10
100
AcDbEntity
  8
0
100
AcDbBlockBegin
  2
*D3
 70
     1
 10
0.0
 20
0.0
 30
0.0
  3
*D3
  1

  0
LINE
  5
BD
330
10
100
AcDbEntity
  8
LEVEL001
  6
Continuous
 62
     1
100
AcDbLine
 10
1003.0
 20
56.0
 30
0.0
 11
1206.0
 21
56.0
 31
0.0
  0
LINE
  5
BE
330
10
100
AcDbEntity
  8
LEVEL001
  6
Continuous
 62
     1
100
AcDbLine
 10
1013.85
 20
936.0
 30
0.0
 11
1206.0
 21
936.0
 31
0.0
  0
LINE
  5
BF
330
10
100
AcDbEntity
  8
LEVEL001
  6
Continuous
 62
     1
100
AcDbLine
 10
1198.0
 20
56.0
 30
0.0
 11
1198.0
 21
936.0
 31
0.0
  0
INSERT
  5
C0
330
10
100
AcDbEntity
  8
LEVEL001
  6
Continuous
 62
     1
100
AcDbBlockReference
  2
_OPEN30
 10
1198.0
 20
56.0
 30
0.0
 41
12.0
 42
12.0
 43
12.0
 50
270.0
  0
INSERT
  5
C1
330
10
100
AcDbEntity
  8
LEVEL001
  6
Continuous
 62
     1
100
AcDbBlockReference
  2
_OPEN30
 10
1198.0
 20
936.0
 30
0.0
 41
12.0
 42
12.0
 43
12.0
 50
90.0
  0
MTEXT
  5
C2
330
10
100
AcDbEntity
  8
LEVEL001
  6
ByBlock
 62
     7
100
AcDbMText
 10
1187.7142857143
 20
496.0
 30
0.0
 40
24.0
 41
0.0
 71
     8
 72
     1
  1
\A1;880
  7
GMM001
 11
0.0
 21
1.0
 31
0.0
 73
     1
 44
1.0
1001
ACAD
1000
MTEXTBEGIN
1070
    73
1070
     1
1070
    44
1040
1.0
1070
    74
1070
     0
1000
MTEXTEND
  0
ENDBLK
  5
83
330
10
100
AcDbEntity
  8
0
100
AcDbBlockEnd
  0
BLOCK
  5
5E
330
11
100
AcDbEntity
  8
0
100
AcDbBlockBegin
  2
*D4
 70
     1
 10
0.0
 20
0.0
 30
0.0
  3
*D4
  1

  0
LINE
  5
C3
330
11
100
AcDbEntity
  8
LEVEL001
  6
Continuous
 62
     1
100
AcDbLine
 10
1821.0
 20
566.0
 30
0.0
 11
1821.0
 21
984.0
 31
0.0
  0
LINE
  5
C4
330
11
100
AcDbEntity
  8
LEVEL001
  6
Continuous
 62
     1
100
AcDbLine
 10
1362.7
 20
379.0
 30
0.0
 11
1362.7
 21
984.0
 31
0.0
  0
LINE
  5
C5
330
11
100
AcDbEntity
  8
LEVEL001
  6
Continuous
 62
     1
100
AcDbLine
 10
1821.0
 20
976.0
 30
0.0
 11
1362.7
 21
976.0
 31
0.0
  0
INSERT
  5
C6
330
11
100
AcDbEntity
  8
LEVEL001
  6
Continuous
 62
     1
100
AcDbBlockReference
  2
_OPEN30
 10
1821.0
 20
976.0
 30
0.0
 41
12.0
 42
12.0
 43
12.0
  0
INSERT
  5
C7
330
11
100
AcDbEntity
  8
LEVEL001
  6
Continuous
 62
     1
100
AcDbBlockReference
  2
_OPEN30
 10
1362.7
 20
976.0
 30
0.0
 41
12.0
 42
12.0
 43
12.0
 50
180.0
  0
MTEXT
  5
C8
330
11
100
AcDbEntity
  8
LEVEL001
  6
ByBlock
 62
     7
100
AcDbMText
 10
1591.85
 20
986.28571428571
 30
0.0
 40
24.0
 41
0.0
 71
     8
 72
     1
  1
\A1;458.3
  7
GMM001
 73
     1
 44
1.0
1001
ACAD
1000
MTEXTBEGIN
1070
    73
1070
     1
1070
    44
1040
1.0
1070
    74
1070
     0
1000
MTEXTEND
  0
ENDBLK
  5
84
330
11
100
AcDbEntity
  8
0
100
AcDbBlockEnd
  0
BLOCK
  5
5F
330
12
100
AcDbEntity
  8
0
100
AcDbBlockBegin
  2
*D5
 70
     1
 10
0.0
 20
0.0
 30
0.0
  3
*D5
  1

  0
LINE
  5
C9
330
12
100
AcDbEntity
  8
LEVEL001
  6
Continuous
 62
     1
100
AcDbLine
 10
1821.0
 20
566.0
 30
0.0
 11
1821.0
 21
939.0
 31
0.0
  0
LINE
  5
CA
330
12
100
AcDbEntity
  8
LEVEL001
  6
Continuous
 62
     1
100
AcDbLine
 10
1421.0
 20
566.0
 30
0.0
 11
1421.0
 21
939.0
 31
0.0
  0
LINE
  5
CB
330
12
100
AcDbEntity
  8
LEVEL001
  6
Continuous
 62
     1
100
AcDbLine
 10
1821.0
 20
931.0
 30
0.0
 11
1421.0
 21
931.0
 31
0.0
  0
INSERT
  5
CC
330
12
100
AcDbEntity
  8
LEVEL001
  6
Continuous
 62
     1
100
AcDbBlockReference
  2
_OPEN30
 10
1821.0
 20
931.0
 30
0.0
 41
12.0
 42
12.0
 43
12.0
  0
INSERT
  5
CD
330
12
100
AcDbEntity
  8
LEVEL001
  6
Continuous
 62
     1
100
AcDbBlockReference
  2
_OPEN30
 10
1421.0
 20
931.0
 30
0.0
 41
12.0
 42
12.0
 43
12.0
 50
180.0
  0
MTEXT
  5
CE
330
12
100
AcDbEntity
  8
LEVEL001
  6
ByBlock
 62
     7
100
AcDbMText
 10
1621.0
 20
941.2857142857101
 30
0.0
 40
24.0
 41
0.0
 71
     8
 72
     1
  1
\A1;400
  7
GMM001
 73
     1
 44
1.0
1001
ACAD
1000
MTEXTBEGIN
1070
    73
1070
     1
1070
    44
1040
1.0
1070
    74
1070
     0
1000
MTEXTEND
  0
ENDBLK
  5
85
330
12
100
AcDbEntity
  8
0
100
AcDbBlockEnd
  0
BLOCK
  5
60
330
13
100
AcDbEntity
  8
0
100
AcDbBlockBegin
  2
*D6
 70
     1
 10
0.0
 20
0.0
 30
0.0
  3
*D6
  1

  0
LINE
  5
CF
330
13
100
AcDbEntity
  8
LEVEL001
  6
Continuous
 62
     1
100
AcDbLine
 10
1421.0
 20
566.0
 30
0.0
 11
1421.0
 21
939.0
 31
0.0
  0
LINE
  5
D0
330
13
100
AcDbEntity
  8
LEVEL001
  6
Continuous
 62
     1
100
AcDbLine
 10
1362.7
 20
379.0
 30
0.0
 11
1362.7
 21
939.0
 31
0.0
  0
LINE
  5
D1
330
13
100
AcDbEntity
  8
LEVEL001
  6
Continuous
 62
     1
100
AcDbLine
 10
1421.0
 20
931.0
 30
0.0
 11
1362.7
 21
931.0
 31
0.0
  0
INSERT
  5
D2
330
13
100
AcDbEntity
  8
LEVEL001
  6
Continuous
 62
     1
100
AcDbBlockReference
  2
_OPEN30
 10
1421.0
 20
931.0
 30
0.0
 41
12.0
 42
12.0
 43
12.0
  0
INSERT
  5
D3
330
13
100
AcDbEntity
  8
LEVEL001
  6
Continuous
 62
     1
100
AcDbBlockReference
  2
_OPEN30
 10
1362.7
 20
931.0
 30
0.0
 41
12.0
 42
12.0
 43
12.0
 50
180.0
  0
MTEXT
  5
D4
330
13
100
AcDbEntity
  8
LEVEL001
  6
ByBlock
 62
     7
100
AcDbMText
 10
1402.85
 20
941.2857142857101
 30
0.0
 40
24.0
 41
0.0
 71
     8
 72
     1
  1
\A1;58.3
  7
GMM001
 73
     1
 44
1.0
1001
ACAD
1000
MTEXTBEGIN
1070
    73
1070
     1
1070
    44
1040
1.0
1070
    74
1070
     0
1000
MTEXTEND
  0
ENDBLK
  5
86
330
13
100
AcDbEntity
  8
0
100
AcDbBlockEnd
  0
BLOCK
  5
61
330
14
100
AcDbEntity
  8
0
100
AcDbBlockBegin
  2
*D7
 70
     1
 10
0.0
 20
0.0
 30
0.0
  3
*D7
  1

  0
LINE
  5
D5
330
14
100
AcDbEntity
  8
LEVEL001
  6
Continuous
 62
     1
100
AcDbLine
 10
1621.0
 20
602.5
 30
0.0
 11
1752.2934109494
 21
548.40711468887
 31
0.0
  0
INSERT
  5
D6
330
14
100
AcDbEntity
  8
LEVEL001
  6
Continuous
 62
     1
100
AcDbBlockReference
  2
_OPEN30
 10
1752.2934109494
 20
548.40711468887
 30
0.0
 41
12.0
 42
12.0
 43
12.0
 50
337.60833894146
  0
MTEXT
  5
D7
330
14
100
AcDbEntity
  8
LEVEL001
  6
ByBlock
 62
     7
100
AcDbMText
 10
1703.0
 20
580.0
 30
0.0
 40
24.0
 41
0.0
 71
     8
 72
     1
  1
\A1;R142
  7
GMM001
 11
0.92460148555887
 21
-0.38093581205019
 31
0.0
 73
     1
 44
1.0
1001
ACAD
1000
MTEXTBEGIN
1070
    73
1070
     1
1070
    44
1040
1.0
1070
    74
1070
     0
1000
MTEXTEND
  0
ENDBLK
  5
87
330
14
100
AcDbEntity
  8
0
100
AcDbBlockEnd
  0
BLOCK
  5
62
330
15
100
AcDbEntity
  8
0
100
AcDbBlockBegin
  2
*D8
 70
     1
 10
0.0
 20
0.0
 30
0.0
  3
*D8
  1

  0
LINE
  5
D8
330
15
100
AcDbEntity
  8
LEVEL001
  6
Continuous
 62
     1
100
AcDbLine
 10
392.0
 20
165.0
 30
0.0
 11
392.0
 21
5.0
 31
0.0
  0
LINE
  5
D9
330
15
100
AcDbEntity
  8
LEVEL001
  6
Continuous
 62
     1
100
AcDbLine
 10
507.0
 20
166.0
 30
0.0
 11
507.0
 21
5.0
 31
0.0
  0
LINE
  5
DA
330
15
100
AcDbEntity
  8
LEVEL001
  6
Continuous
 62
     1
100
AcDbLine
 10
392.0
 20
13.0
 30
0.0
 11
507.0
 21
13.0
 31
0.0
  0
INSERT
  5
DB
330
15
100
AcDbEntity
  8
LEVEL001
  6
Continuous
 62
     1
100
AcDbBlockReference
  2
_OPEN30
 10
392.0
 20
13.0
 30
0.0
 41
12.0
 42
12.0
 43
12.0
 50
180.0
  0
INSERT
  5
DC
330
15
100
AcDbEntity
  8
LEVEL001
  6
Continuous
 62
     1
100
AcDbBlockReference
  2
_OPEN30
 10
507.0
 20
13.0
 30
0.0
 41
12.0
 42
12.0
 43
12.0
  0
MTEXT
  5
DD
330
15
100
AcDbEntity
  8
LEVEL001
  6
ByBlock
 62
     7
100
AcDbMText
 10
449.5
 20
17.285714285714
 30
0.0
 40
24.0
 41
0.0
 71
     8
 72
     1
  1
\A1;115
  7
GMM001
 73
     1
 44
1.0
1001
ACAD
1000
MTEXTBEGIN
1070
    73
1070
     1
1070
    44
1040
1.0
1070
    74
1070
     0
1000
MTEXTEND
  0
ENDBLK
  5
88
330
15
100
AcDbEntity
  8
0
100
AcDbBlockEnd
  0
BLOCK
  5
63
330
16
100
AcDbEntity
  8
0
100
AcDbBlockBegin
  2
*D9
 70
     1
 10
0.0
 20
0.0
 30
0.0
  3
*D9
  1

  0
LINE
  5
DE
330
16
100
AcDbEntity
  8
LEVEL001
  6
Continuous
 62
     1
100
AcDbLine
 10
507.0
 20
166.0
 30
0.0
 11
507.0
 21
5.0
 31
0.0
  0
LINE
  5
DF
330
16
100
AcDbEntity
  8
LEVEL001
  6
Continuous
 62
     1
100
AcDbLine
 10
1037.0
 20
166.0
 30
0.0
 11
1037.0
 21
5.0
 31
0.0
  0
LINE
  5
E0
330
16
100
AcDbEntity
  8
LEVEL001
  6
Continuous
 62
     1
100
AcDbLine
 10
507.0
 20
13.0
 30
0.0
 11
1037.0
 21
13.0
 31
0.0
  0
INSERT
  5
E1
330
16
100
AcDbEntity
  8
LEVEL001
  6
Continuous
 62
     1
100
AcDbBlockReference
  2
_OPEN30
 10
507.0
 20
13.0
 30
0.0
 41
12.0
 42
12.0
 43
12.0
 50
180.0
  0
INSERT
  5
E2
330
16
100
AcDbEntity
  8
LEVEL001
  6
Continuous
 62
     1
100
AcDbBlockReference
  2
_OPEN30
 10
1037.0
 20
13.0
 30
0.0
 41
12.0
 42
12.0
 43
12.0
  0
MTEXT
  5
E3
330
16
100
AcDbEntity
  8
LEVEL001
  6
ByBlock
 62
     7
100
AcDbMText
 10
772.0
 20
17.285714285714
 30
0.0
 40
24.0
 41
0.0
 71
     8
 72
     1
  1
\A1;530
  7
GMM001
 73
     1
 44
1.0
1001
ACAD
1000
MTEXTBEGIN
1070
    73
1070
     1
1070
    44
1040
1.0
1070
    74
1070
     0
1000
MTEXTEND
  0
ENDBLK
  5
89
330
16
100
AcDbEntity
  8
0
100
AcDbBlockEnd
  0
BLOCK
  5
64
330
17
100
AcDbEntity
  8
0
100
AcDbBlockBegin
  2
*D10
 70
     1
 10
0.0
 20
0.0
 30
0.0
  3
*D10
  1

  0
LINE
  5
E4
330
17
100
AcDbEntity
  8
LEVEL001
  6
Continuous
 62
     1
100
AcDbLine
 10
1037.0
 20
166.0
 30
0.0
 11
1037.0
 21
5.0
 31
0.0
  0
LINE
  5
E5
330
17
100
AcDbEntity
  8
LEVEL001
  6
Continuous
 62
     1
100
AcDbLine
 10
1092.0
 20
681.35
 30
0.0
 11
1092.0
 21
5.0
 31
0.0
  0
LINE
  5
E6
330
17
100
AcDbEntity
  8
LEVEL001
  6
Continuous
 62
     1
100
AcDbLine
 10
1037.0
 20
13.0
 30
0.0
 11
1092.0
 21
13.0
 31
0.0
  0
INSERT
  5
E7
330
17
100
AcDbEntity
  8
LEVEL001
  6
Continuous
 62
     1
100
AcDbBlockReference
  2
_OPEN30
 10
1037.0
 20
13.0
 30
0.0
 41
12.0
 42
12.0
 43
12.0
 50
180.0
  0
INSERT
  5
E8
330
17
100
AcDbEntity
  8
LEVEL001
  6
Continuous
 62
     1
100
AcDbBlockReference
  2
_OPEN30
 10
1092.0
 20
13.0
 30
0.0
 41
12.0
 42
12.0
 43
12.0
  0
MTEXT
  5
E9
330
17
100
AcDbEntity
  8
LEVEL001
  6
ByBlock
 62
     7
100
AcDbMText
 10
1064.5
 20
17.285714285714
 30
0.0
 40
24.0
 41
0.0
 71
     8
 72
     1
  1
\A1;55
  7
GMM001
 73
     1
 44
1.0
1001
ACAD
1000
MTEXTBEGIN
1070
    73
1070
     1
1070
    44
1040
1.0
1070
    74
1070
     0
1000
MTEXTEND
  0
ENDBLK
  5
8A
330
17
100
AcDbEntity
  8
0
100
AcDbBlockEnd
  0
BLOCK
  5
65
330
18
100
AcDbEntity
  8
0
100
AcDbBlockBegin
  2
_ARCHTICK
 70
     0
 10
0.0
 20
0.0
 30
0.0
  3
_ARCHTICK
  1

  0
LWPOLYLINE
  5
EA
330
18
100
AcDbEntity
  8
0
  6
ByBlock
 62
     0
100
AcDbPolyline
 90
        2
 70
     1
 43
0.15
 10
-0.5
 20
-0.5
 10
0.5
 20
0.5
  0
ENDBLK
  5
8B
330
18
100
AcDbEntity
  8
0
100
AcDbBlockEnd
  0
BLOCK
  5
66
330
19
100
AcDbEntity
  8
0
100
AcDbBlockBegin
  2
_OBLIQUE
 70
     0
 10
0.0
 20
0.0
 30
0.0
  3
_OBLIQUE
  1

  0
LINE
  5
EE
330
19
100
AcDbEntity
  8
0
  6
ByBlock
 62
     0
100
AcDbLine
 10
-0.5
 20
-0.5
 30
0.0
 11
0.5
 21
0.5
 31
0.0
  0
ENDBLK
  5
97
330
19
100
AcDbEntity
  8
0
100
AcDbBlockEnd
  0
BLOCK
  5
67
330
1A
100
AcDbEntity
  8
0
100
AcDbBlockBegin
  2
_BOXBLANK
 70
     0
 10
0.0
 20
0.0
 30
0.0
  3
_BOXBLANK
  1

  0
LINE
  5
EF
330
1A
100
AcDbEntity
  8
0
  6
ByBlock
 62
     0
100
AcDbLine
 10
-0.5
 20
-0.5
 30
0.0
 11
0.5
 21
-0.5
 31
0.0
  0
LINE
  5
F0
330
1A
100
AcDbEntity
  8
0
  6
ByBlock
 62
     0
100
AcDbLine
 10
0.5
 20
-0.5
 30
0.0
 11
0.5
 21
0.5
 31
0.0
  0
LINE
  5
F1
330
1A
100
AcDbEntity
  8
0
  6
ByBlock
 62
     0
100
AcDbLine
 10
0.5
 20
0.5
 30
0.0
 11
-0.5
 21
0.5
 31
0.0
  0
LINE
  5
F2
330
1A
100
AcDbEntity
  8
0
  6
ByBlock
 62
     0
100
AcDbLine
 10
-0.5
 20
0.5
 30
0.0
 11
-0.5
 21
-0.5
 31
0.0
  0
LINE
  5
F3
330
1A
100
AcDbEntity
  8
0
  6
ByBlock
 62
     0
100
AcDbLine
 10
-0.5
 20
0.0
 30
0.0
 11
-1.0
 21
0.0
 31
0.0
  0
ENDBLK
  5
8C
330
1A
100
AcDbEntity
  8
0
100
AcDbBlockEnd
  0
BLOCK
  5
68
330
1B
100
AcDbEntity
  8
0
100
AcDbBlockBegin
  2
_BOXFILLED
 70
     0
 10
0.0
 20
0.0
 30
0.0
  3
_BOXFILLED
  1

  0
SOLID
  5
F4
330
1B
100
AcDbEntity
  8
0
  6
ByBlock
 62
     0
100
AcDbTrace
 10
-0.5
 20
0.5
 30
0.0
 11
0.5
 21
0.5
 31
0.0
 12
-0.5
 22
-0.5
 32
0.0
 13
0.5
 23
-0.5
 33
0.0
  0
LINE
  5
F5
330
1B
100
AcDbEntity
  8
0
  6
ByBlock
 62
     0
100
AcDbLine
 10
-0.5
 20
0.0
 30
0.0
 11
-1.0
 21
0.0
 31
0.0
  0
ENDBLK
  5
8D
330
1B
100
AcDbEntity
  8
0
100
AcDbBlockEnd
  0
BLOCK
  5
69
330
1C
100
AcDbEntity
  8
0
100
AcDbBlockBegin
  2
_CLOSED
 70
     0
 10
0.0
 20
0.0
 30
0.0
  3
_CLOSED
  1

  0
LINE
  5
F6
330
1C
100
AcDbEntity
  8
0
  6
ByBlock
 62
     0
100
AcDbLine
 10
-1.0
 20
0.16666666666667
 30
0.0
 11
0.0
 21
0.0
 31
0.0
  0
LINE
  5
F7
330
1C
100
AcDbEntity
  8
0
  6
ByBlock
 62
     0
100
AcDbLine
 10
0.0
 20
0.0
 30
0.0
 11
-1.0
 21
-0.16666666666667
 31
0.0
  0
LINE
  5
F8
330
1C
100
AcDbEntity
  8
0
  6
ByBlock
 62
     0
100
AcDbLine
 10
-1.0
 20
0.16666666666667
 30
0.0
 11
-1.0
 21
-0.16666666666667
 31
0.0
  0
LINE
  5
F9
330
1C
100
AcDbEntity
  8
0
  6
ByBlock
 62
     0
100
AcDbLine
 10
0.0
 20
0.0
 30
0.0
 11
-1.0
 21
0.0
 31
0.0
  0
ENDBLK
  5
8E
330
1C
100
AcDbEntity
  8
0
100
AcDbBlockEnd
  0
BLOCK
  5
6A
330
1D
100
AcDbEntity
  8
0
100
AcDbBlockBegin
  2
_OPEN
 70
     0
 10
0.0
 20
0.0
 30
0.0
  3
_OPEN
  1

  0
LINE
  5
FA
330
1D
100
AcDbEntity
  8
0
  6
ByBlock
 62
     0
100
AcDbLine
 10
-1.0
 20
0.16666666666667
 30
0.0
 11
0.0
 21
0.0
 31
0.0
  0
LINE
  5
FB
330
1D
100
AcDbEntity
  8
0
  6
ByBlock
 62
     0
100
AcDbLine
 10
0.0
 20
0.0
 30
0.0
 11
-1.0
 21
-0.16666666666667
 31
0.0
  0
LINE
  5
FC
330
1D
100
AcDbEntity
  8
0
  6
ByBlock
 62
     0
100
AcDbLine
 10
0.0
 20
0.0
 30
0.0
 11
-1.0
 21
0.0
 31
0.0
  0
ENDBLK
  5
98
330
1D
100
AcDbEntity
  8
0
100
AcDbBlockEnd
  0
BLOCK
  5
6B
330
1E
100
AcDbEntity
  8
0
100
AcDbBlockBegin
  2
_OPEN30
 70
     0
 10
0.0
 20
0.0
 30
0.0
  3
_OPEN30
  1

  0
LINE
  5
FD
330
1E
100
AcDbEntity
  8
0
  6
ByBlock
 62
     0
100
AcDbLine
 10
-1.0
 20
0.2679491924311
 30
0.0
 11
0.0
 21
0.0
 31
0.0
  0
LINE
  5
FE
330
1E
100
AcDbEntity
  8
0
  6
ByBlock
 62
     0
100
AcDbLine
 10
0.0
 20
0.0
 30
0.0
 11
-1.0
 21
-0.2679491924311
 31
0.0
  0
LINE
  5
FF
330
1E
100
AcDbEntity
  8
0
  6
ByBlock
 62
     0
100
AcDbLine
 10
0.0
 20
0.0
 30
0.0
 11
-1.0
 21
0.0
 31
0.0
  0
ENDBLK
  5
99
330
1E
100
AcDbEntity
  8
0
100
AcDbBlockEnd
  0
BLOCK
  5
6C
330
1F
100
AcDbEntity
  8
0
100
AcDbBlockBegin
  2
_OPEN90
 70
     0
 10
0.0
 20
0.0
 30
0.0
  3
_OPEN90
  1

  0
LINE
  5
100
330
1F
100
AcDbEntity
  8
0
  6
ByBlock
 62
     0
100
AcDbLine
 10
-0.5
 20
0.5
 30
0.0
 11
0.0
 21
0.0
 31
0.0
  0
LINE
  5
101
330
1F
100
AcDbEntity
  8
0
  6
ByBlock
 62
     0
100
AcDbLine
 10
0.0
 20
0.0
 30
0.0
 11
-0.5
 21
-0.5
 31
0.0
  0
LINE
  5
102
330
1F
100
AcDbEntity
  8
0
  6
ByBlock
 62
     0
100
AcDbLine
 10
0.0
 20
0.0
 30
0.0
 11
-1.0
 21
0.0
 31
0.0
  0
ENDBLK
  5
9A
330
1F
100
AcDbEntity
  8
0
100
AcDbBlockEnd
  0
BLOCK
  5
6D
330
20
100
AcDbEntity
  8
0
100
AcDbBlockBegin
  2
_CLOSEDBLANK
 70
     0
 10
0.0
 20
0.0
 30
0.0
  3
_CLOSEDBLANK
  1

  0
LINE
  5
103
330
20
100
AcDbEntity
  8
0
  6
ByBlock
 62
     0
100
AcDbLine
 10
-1.0
 20
0.16666666666667
 30
0.0
 11
0.0
 21
0.0
 31
0.0
  0
LINE
  5
104
330
20
100
AcDbEntity
  8
0
  6
ByBlock
 62
     0
100
AcDbLine
 10
0.0
 20
0.0
 30
0.0
 11
-1.0
 21
-0.16666666666667
 31
0.0
  0
LINE
  5
105
330
20
100
AcDbEntity
  8
0
  6
ByBlock
 62
     0
100
AcDbLine
 10
-1.0
 20
0.16666666666667
 30
0.0
 11
-1.0
 21
-0.16666666666667
 31
0.0
  0
ENDBLK
  5
8F
330
20
100
AcDbEntity
  8
0
100
AcDbBlockEnd
  0
BLOCK
  5
6E
330
21
100
AcDbEntity
  8
0
100
AcDbBlockBegin
  2
_DOT
 70
     0
 10
0.0
 20
0.0
 30
0.0
  3
_DOT
  1

  0
LWPOLYLINE
  5
106
330
21
100
AcDbEntity
  8
0
  6
ByBlock
 62
     0
100
AcDbPolyline
 90
        2
 70
     1
 43
0.5
 10
-0.25
 20
0.0
 42
1.0
 10
0.25
 20
0.0
 42
1.0
  0
LINE
  5
10A
330
21
100
AcDbEntity
  8
0
  6
ByBlock
 62
     0
100
AcDbLine
 10
-0.5
 20
0.0
 30
0.0
 11
-1.0
 21
0.0
 31
0.0
  0
ENDBLK
  5
92
330
21
100
AcDbEntity
  8
0
100
AcDbBlockEnd
  0
BLOCK
  5
6F
330
22
100
AcDbEntity
  8
0
100
AcDbBlockBegin
  2
_DOTSMALL
 70
     0
 10
0.0
 20
0.0
 30
0.0
  3
_DOTSMALL
  1

  0
LWPOLYLINE
  5
10B
330
22
100
AcDbEntity
  8
0
  6
ByBlock
 62
     0
100
AcDbPolyline
 90
        2
 70
     1
 43
0.5
 10
-0.0625
 20
0.0
 42
1.0
 10
0.0625
 20
0.0
 42
1.0
  0
ENDBLK
  5
94
330
22
100
AcDbEntity
  8
0
100
AcDbBlockEnd
  0
BLOCK
  5
70
330
23
100
AcDbEntity
  8
0
100
AcDbBlockBegin
  2
_DATUMBLANK
 70
     0
 10
0.0
 20
0.0
 30
0.0
  3
_DATUMBLANK
  1

  0
LINE
  5
10F
330
23
100
AcDbEntity
  8
0
  6
ByBlock
 62
     0
100
AcDbLine
 10
0.0
 20
0.5773502700000001
 30
0.0
 11
-1.0
 21
0.0
 31
0.0
  0
LINE
  5
110
330
23
100
AcDbEntity
  8
0
  6
ByBlock
 62
     0
100
AcDbLine
 10
-1.0
 20
0.0
 30
0.0
 11
0.0
 21
-0.5773502700000001
 31
0.0
  0
LINE
  5
111
330
23
100
AcDbEntity
  8
0
  6
ByBlock
 62
     0
100
AcDbLine
 10
0.0
 20
-0.5773502700000001
 30
0.0
 11
0.0
 21
0.5773502700000001
 31
0.0
  0
ENDBLK
  5
90
330
23
100
AcDbEntity
  8
0
100
AcDbBlockEnd
  0
BLOCK
  5
71
330
24
100
AcDbEntity
  8
0
100
AcDbBlockBegin
  2
_DATUMFILLED
 70
     0
 10
0.0
 20
0.0
 30
0.0
  3
_DATUMFILLED
  1

  0
SOLID
  5
112
330
24
100
AcDbEntity
  8
0
  6
ByBlock
 62
     0
100
AcDbTrace
 10
0.0
 20
0.5773502700000001
 30
0.0
 11
-1.0
 21
0.0
 31
0.0
 12
0.0
 22
-0.5773502700000001
 32
0.0
 13
0.0
 23
-0.5773502700000001
 33
0.0
  0
ENDBLK
  5
91
330
24
100
AcDbEntity
  8
0
100
AcDbBlockEnd
  0
BLOCK
  5
72
330
25
100
AcDbEntity
  8
0
100
AcDbBlockBegin
  2
_ORIGIN
 70
     0
 10
0.0
 20
0.0
 30
0.0
  3
_ORIGIN
  1

  0
CIRCLE
  5
113
330
25
100
AcDbEntity
  8
0
  6
ByBlock
 62
     0
100
AcDbCircle
 10
0.0
 20
0.0
 30
0.0
 40
0.5
  0
LINE
  5
114
330
25
100
AcDbEntity
  8
0
  6
ByBlock
 62
     0
100
AcDbLine
 10
0.0
 20
0.0
 30
0.0
 11
-1.0
 21
0.0
 31
0.0
  0
ENDBLK
  5
9B
330
25
100
AcDbEntity
  8
0
100
AcDbBlockEnd
  0
BLOCK
  5
73
330
26
100
AcDbEntity
  8
0
100
AcDbBlockBegin
  2
_NONE
 70
     0
 10
0.0
 20
0.0
 30
0.0
  3
_NONE
  1

  0
CIRCLE
  5
115
330
26
100
AcDbEntity
  8
0
  6
ByBlock
 62
     0
100
AcDbCircle
 10
0.0
 20
0.0
 30
0.0
 40
0.25
  0
ENDBLK
  5
96
330
26
100
AcDbEntity
  8
0
100
AcDbBlockEnd
  0
BLOCK
  5
74
330
27
100
AcDbEntity
  8
0
100
AcDbBlockBegin
  2
_DOTBLANK
 70
     0
 10
0.0
 20
0.0
 30
0.0
  3
_DOTBLANK
  1

  0
CIRCLE
  5
116
330
27
100
AcDbEntity
  8
0
  6
ByBlock
 62
     0
100
AcDbCircle
 10
0.0
 20
0.0
 30
0.0
 40
0.5
  0
LINE
  5
117
330
27
100
AcDbEntity
  8
0
  6
ByBlock
 62
     0
100
AcDbLine
 10
-0.5
 20
0.0
 30
0.0
 11
-1.0
 21
0.0
 31
0.0
  0
ENDBLK
  5
93
330
27
100
AcDbEntity
  8
0
100
AcDbBlockEnd
  0
BLOCK
  5
75
330
28
100
AcDbEntity
  8
0
100
AcDbBlockBegin
  2
_INTEGRAL
 70
     0
 10
0.0
 20
0.0
 30
0.0
  3
_INTEGRAL
  1

  0
ARC
  5
118
330
28
100
AcDbEntity
  8
0
  6
ByBlock
 62
     0
100
AcDbCircle
 10
0.444888
 20
-0.091335
 30
0.0
 40
0.454167
100
AcDbArc
 50
102.0
 51
168.0
  0
ARC
  5
119
330
28
100
AcDbEntity
  8
0
  6
ByBlock
 62
     0
100
AcDbCircle
 10
-0.444888
 20
0.091335
 30
0.0
 40
0.454167
100
AcDbArc
 50
282.0
 51
348.0
  0
ENDBLK
  5
95
330
28
100
AcDbEntity
  8
0
100
AcDbBlockEnd
  0
BLOCK
  5
76
330
29
100
AcDbEntity
  8
0
100
AcDbBlockBegin
  2
A2
 70
     0
 10
0.0
 20
0.0
 30
0.0
  3
A2
  1

  0
LWPOLYLINE
  5
11A
330
29
100
AcDbEntity
  8
内図枠(作図領域)
  6
Continuous
 62
     7
100
AcDbPolyline
 90
        4
 70
     1
 43
0.0
 10
0.0000000000000142
 20
0.0
 10
544.0
 20
0.0
 10
544.0
 20
378.0
 10
0.0000000000000142
 20
378.0
  0
ENDBLK
  5
7C
330
29
100
AcDbEntity
  8
0
100
AcDbBlockEnd
  0
BLOCK
  5
77
330
2A
100
AcDbEntity
  8
0
100
AcDbBlockBegin
  2
BLOCK001
 70
     0
 10
0.0
 20
0.0
 30
0.0
  3
BLOCK001
  1

  0
LINE
  5
11B
330
2A
100
AcDbEntity
  8
LEVEL001
  6
Continuous
 62
     7
100
AcDbLine
 10
1632.0
 20
144.0
 30
0.0
 11
2176.0
 21
144.0
 31
0.0
  0
LINE
  5
11C
330
2A
100
AcDbEntity
  8
LEVEL001
  6
Continuous
 62
     7
100
AcDbLine
 10
1632.0
 20
96.0
 30
0.0
 11
2176.0
 21
96.0
 31
0.0
  0
LINE
  5
11D
330
2A
100
AcDbEntity
  8
LEVEL001
  6
Continuous
 62
     7
100
AcDbLine
 10
1632.0
 20
144.0
 30
0.0
 11
1632.0
 21
96.0
 31
0.0
  0
LINE
  5
11E
330
2A
100
AcDbEntity
  8
LEVEL001
  6
Continuous
 62
     7
100
AcDbLine
 10
1664.0
 20
144.0
 30
0.0
 11
1664.0
 21
96.0
 31
0.0
  0
LINE
  5
11F
330
2A
100
AcDbEntity
  8
LEVEL001
  6
Continuous
 62
     7
100
AcDbLine
 10
1904.0
 20
144.0
 30
0.0
 11
1904.0
 21
96.0
 31
0.0
  0
LINE
  5
120
330
2A
100
AcDbEntity
  8
LEVEL001
  6
Continuous
 62
     7
100
AcDbLine
 10
1936.0
 20
144.0
 30
0.0
 11
1936.0
 21
96.0
 31
0.0
  0
LINE
  5
121
330
2A
100
AcDbEntity
  8
LEVEL001
  6
Continuous
 62
     7
100
AcDbLine
 10
2176.0
 20
144.0
 30
0.0
 11
2176.0
 21
96.0
 31
0.0
  0
ENDBLK
  5
7D
330
2A
100
AcDbEntity
  8
0
100
AcDbBlockEnd
  0
BLOCK
  5
78
330
2B
100
AcDbEntity
  8
0
100
AcDbBlockBegin
  2
BLOCK002
 70
     0
 10
0.0
 20
0.0
 30
0.0
  3
BLOCK002
  1

  0
LINE
  5
122
330
2B
100
AcDbEntity
  8
LEVEL001
  6
Continuous
 62
     7
100
AcDbLine
 10
1632.0
 20
96.0
 30
0.0
 11
2176.0
 21
96.0
 31
0.0
  0
LINE
  5
123
330
2B
100
AcDbEntity
  8
LEVEL001
  6
Continuous
 62
     7
100
AcDbLine
 10
1784.0
 20
64.0
 30
0.0
 11
2176.0
 21
64.0
 31
0.0
  0
LINE
  5
124
330
2B
100
AcDbEntity
  8
LEVEL001
  6
Continuous
 62
     7
100
AcDbLine
 10
1632.0
 20
32.0
 30
0.0
 11
2176.0
 21
32.0
 31
0.0
  0
LINE
  5
125
330
2B
100
AcDbEntity
  8
LEVEL001
  6
Continuous
 62
     7
100
AcDbLine
 10
1632.0
 20
0.0
 30
0.0
 11
2176.0
 21
0.0
 31
0.0
  0
LINE
  5
126
330
2B
100
AcDbEntity
  8
LEVEL001
  6
Continuous
 62
     7
100
AcDbLine
 10
1632.0
 20
96.0
 30
0.0
 11
1632.0
 21
0.0
 31
0.0
  0
LINE
  5
127
330
2B
100
AcDbEntity
  8
LEVEL001
  6
Continuous
 62
     7
100
AcDbLine
 10
1664.0
 20
96.0
 30
0.0
 11
1664.0
 21
32.0
 31
0.0
  0
LINE
  5
128
330
2B
100
AcDbEntity
  8
LEVEL001
  6
Continuous
 62
     7
100
AcDbLine
 10
1784.0
 20
96.0
 30
0.0
 11
1784.0
 21
32.0
 31
0.0
  0
LINE
  5
129
330
2B
100
AcDbEntity
  8
LEVEL001
  6
Continuous
 62
     7
100
AcDbLine
 10
1904.0
 20
96.0
 30
0.0
 11
1904.0
 21
32.0
 31
0.0
  0
LINE
  5
12A
330
2B
100
AcDbEntity
  8
LEVEL001
  6
Continuous
 62
     7
100
AcDbLine
 10
1936.0
 20
96.0
 30
0.0
 11
1936.0
 21
32.0
 31
0.0
  0
LINE
  5
12B
330
2B
100
AcDbEntity
  8
LEVEL001
  6
Continuous
 62
     7
100
AcDbLine
 10
2016.0
 20
96.0
 30
0.0
 11
2016.0
 21
32.0
 31
0.0
  0
LINE
  5
12C
330
2B
100
AcDbEntity
  8
LEVEL001
  6
Continuous
 62
     7
100
AcDbLine
 10
2044.0
 20
96.0
 30
0.0
 11
2044.0
 21
64.0
 31
0.0
  0
LINE
  5
12D
330
2B
100
AcDbEntity
  8
LEVEL001
  6
Continuous
 62
     7
100
AcDbLine
 10
2068.0
 20
96.0
 30
0.0
 11
2068.0
 21
64.0
 31
0.0
  0
LINE
  5
12E
330
2B
100
AcDbEntity
  8
LEVEL001
  6
Continuous
 62
     7
100
AcDbLine
 10
2096.0
 20
96.0
 30
0.0
 11
2096.0
 21
32.0
 31
0.0
  0
LINE
  5
12F
330
2B
100
AcDbEntity
  8
LEVEL001
  6
Continuous
 62
     7
100
AcDbLine
 10
2176.0
 20
96.0
 30
0.0
 11
2176.0
 21
0.0
 31
0.0
  0
ENDBLK
  5
7E
330
2B
100
AcDbEntity
  8
0
100
AcDbBlockEnd
  0
BLOCK
  5
79
330
2C
100
AcDbEntity
  8
0
100
AcDbBlockBegin
  2
BLOCK003
 70
     0
 10
0.0
 20
0.0
 30
0.0
  3
BLOCK003
  1

  0
TEXT
  5
130
330
2C
100
AcDbEntity
  8
LEVEL001
  6
ByBlock
 62
     7
100
AcDbText
 10
1780.8000183105
 20
8.0
 30
0.0
 40
16.0
  1
さぬき麺機株式会社
100
AcDbText
  0
TEXT
  5
131
330
2C
100
AcDbEntity
  8
LEVEL001
  6
ByBlock
 62
     7
100
AcDbText
 10
1648.0
 20
140.44442749023
 30
0.0
 40
16.0
  1
名称
  7
STANDARD1
100
AcDbText
  0
TEXT
  5
132
330
2C
100
AcDbEntity
  8
LEVEL001
  6
ByBlock
 62
     7
100
AcDbText
 10
1920.0
 20
140.44439697266
 30
0.0
 40
16.0
  1
図番
  7
STANDARD1
100
AcDbText
  0
TEXT
  5
133
330
2C
100
AcDbEntity
  8
LEVEL001
  6
ByBlock
 62
     7
100
AcDbText
 10
1648.0
 20
87.111111323039
 30
0.0
 40
16.0
  1
画法
  7
STANDARD1
100
AcDbText
  0
TEXT
  5
134
330
2C
100
AcDbEntity
  8
LEVEL001
  6
ByBlock
 62
     7
100
AcDbText
 10
1675.2000002861
 20
56.0
 30
0.0
 40
16.0
  1
第三角法
100
AcDbText
  0
TEXT
  5
135
330
2C
100
AcDbEntity
  8
LEVEL001
  6
ByBlock
 62
     7
100
AcDbText
 10
1795.2000002861
 20
72.0
 30
0.0
 40
16.0
  1
共通機種
100
AcDbText
  0
TEXT
  5
136
330
2C
100
AcDbEntity
  8
LEVEL001
  6
ByBlock
 62
     7
100
AcDbText
 10
1907.1999998112
 20
72.0
 30
0.0
 40
16.0
  1
個数
 41
0.80000001192093
100
AcDbText
  0
TEXT
  5
137
330
2C
100
AcDbEntity
  8
LEVEL001
  6
ByBlock
 62
     7
100
AcDbText
 10
1952.0
 20
72.0
 30
0.0
 40
16.0
  1
尺度
100
AcDbText
  0
TEXT
  5
138
330
2C
100
AcDbEntity
  8
LEVEL001
  6
ByBlock
 62
     7
100
AcDbText
 10
2024.0
 20
72.0
 30
0.0
 40
16.0
  1
年月日
100
AcDbText
  0
TEXT
  5
139
330
2C
100
AcDbEntity
  8
LEVEL001
  6
ByBlock
 62
     7
100
AcDbText
 10
2112.0
 20
72.0
 30
0.0
 40
16.0
  1
製図
100
AcDbText
  0
POINT
  5
13A
330
2C
100
AcDbEntity
  8
LEVEL001
  6
ByBlock
 62
     7
100
AcDbPoint
 10
2016.0
 20
40.0
 30
0.0
  0
ENDBLK
  5
7F
330
2C
100
AcDbEntity
  8
0
100
AcDbBlockEnd
  0
ENDSEC
  0
SECTION
  2
ENTITIES
  0
INSERT
  5
13B
330
B
100
AcDbEntity
  8
0
100
AcDbBlockReference
  2
A2
 10
0.0
 20
0.0
 30
0.0
 41
4.0
 42
4.0
  0
INSERT
  5
13C
330
B
100
AcDbEntity
  8
LEVEL001
100
AcDbBlockReference
  2
BLOCK001
 10
0.0
 20
0.0
 30
0.0
  0
INSERT
  5
13D
330
B
100
AcDbEntity
  8
LEVEL001
100
AcDbBlockReference
  2
BLOCK002
 10
0.0
 20
0.0
 30
0.0
  0
INSERT
  5
13E
330
B
100
AcDbEntity
  8
0
100
AcDbBlockReference
  2
BLOCK003
 10
0.0
 20
0.0
 30
0.0
  0
TEXT
  5
13F
330
B
100
AcDbEntity
  8
LEVEL001
 62
     7
100
AcDbText
 10
1736.0
 20
112.0
 30
0.0
 40
16.0
  1
SS-8P 承認図
100
AcDbText
  0
LINE
  5
140
330
B
100
AcDbEntity
  8
LEVEL001
  6
Continuous
 62
     7
100
AcDbLine
 10
1334.0
 20
1157.0
 30
0.0
 11
1334.0
 21
1253.0
 31
0.0
  0
LINE
  5
141
330
B
100
AcDbEntity
  8
LEVEL001
  6
Continuous
 62
     7
100
AcDbLine
 10
1302.0
 20
1061.0
 30
0.0
 11
1302.0
 21
1445.0
 31
0.0
  0
LINE
  5
142
330
B
100
AcDbEntity
  8
LEVEL001
  6
Continuous
 62
     7
100
AcDbLine
 10
1509.0
 20
1445.0
 30
0.0
 11
1509.0
 21
1061.0
 31
0.0
  0
LINE
  5
143
330
B
100
AcDbEntity
  8
LEVEL001
  6
Continuous
 62
     7
100
AcDbLine
 10
1949.0
 20
1093.0
 30
0.0
 11
1302.0
 21
1093.0
 31
0.0
  0
LINE
  5
144
330
B
100
AcDbEntity
  8
LEVEL001
  6
Continuous
 62
     7
100
AcDbLine
 10
1949.0
 20
1445.0
 30
0.0
 11
1302.0
 21
1445.0
 31
0.0
  0
LINE
  5
145
330
B
100
AcDbEntity
  8
LEVEL001
  6
Continuous
 62
     7
100
AcDbLine
 10
1302.0
 20
1413.0
 30
0.0
 11
1949.0
 21
1413.0
 31
0.0
  0
LINE
  5
146
330
B
100
AcDbEntity
  8
LEVEL001
  6
Continuous
 62
     7
100
AcDbLine
 10
1302.0
 20
1381.0
 30
0.0
 11
1949.0
 21
1381.0
 31
0.0
  0
LINE
  5
147
330
B
100
AcDbEntity
  8
LEVEL001
  6
Continuous
 62
     7
100
AcDbLine
 10
1302.0
 20
1349.0
 30
0.0
 11
1949.0
 21
1349.0
 31
0.0
  0
LINE
  5
148
330
B
100
AcDbEntity
  8
LEVEL001
  6
Continuous
 62
     7
100
AcDbLine
 10
1302.0
 20
1317.0
 30
0.0
 11
1949.0
 21
1317.0
 31
0.0
  0
LINE
  5
149
330
B
100
AcDbEntity
  8
LEVEL001
  6
Continuous
 62
     7
100
AcDbLine
 10
1302.0
 20
1285.0
 30
0.0
 11
1949.0
 21
1285.0
 31
0.0
  0
LINE
  5
14A
330
B
100
AcDbEntity
  8
LEVEL001
  6
Continuous
 62
     7
100
AcDbLine
 10
1302.0
 20
1253.0
 30
0.0
 11
1949.0
 21
1253.0
 31
0.0
  0
LINE
  5
14B
330
B
100
AcDbEntity
  8
LEVEL001
  6
Continuous
 62
     7
100
AcDbLine
 10
1334.0
 20
1221.0
 30
0.0
 11
1949.0
 21
1221.0
 31
0.0
  0
LINE
  5
14C
330
B
100
AcDbEntity
  8
LEVEL001
  6
Continuous
 62
     7
100
AcDbLine
 10
1334.0
 20
1189.0
 30
0.0
 11
1949.0
 21
1189.0
 31
0.0
  0
LINE
  5
14D
330
B
100
AcDbEntity
  8
LEVEL001
  6
Continuous
 62
     7
100
AcDbLine
 10
1302.0
 20
1157.0
 30
0.0
 11
1949.0
 21
1157.0
 31
0.0
  0
LINE
  5
14E
330
B
100
AcDbEntity
  8
LEVEL001
  6
Continuous
 62
     7
100
AcDbLine
 10
1302.0
 20
1125.0
 30
0.0
 11
1949.0
 21
1125.0
 31
0.0
  0
LINE
  5
14F
330
B
100
AcDbEntity
  8
LEVEL001
  6
Continuous
 62
     7
100
AcDbLine
 10
1949.0
 20
1445.0
 30
0.0
 11
1949.0
 21
1061.0
 31
0.0
  0
LINE
  5
150
330
B
100
AcDbEntity
  8
LEVEL001
  6
Continuous
 62
     7
100
AcDbLine
 10
1302.0
 20
1061.0
 30
0.0
 11
1949.0
 21
1061.0
 31
0.0
  0
TEXT
  5
151
330
B
100
AcDbEntity
  8
LEVEL001
 62
     7
100
AcDbText
 10
2008.0
 20
112.0
 30
0.0
 40
16.0
  1
SS-8P
 41
0.5
100
AcDbText
  0
TEXT
  5
152
330
B
100
AcDbEntity
  8
LEVEL001
 62
     7
100
AcDbText
 10
2022.0
 20
40.0
 30
0.0
 40
16.0
  1
14. 2.16
 41
0.5
100
AcDbText
  0
TEXT
  5
153
330
B
100
AcDbEntity
  8
LEVEL001
 62
     7
100
AcDbText
 10
2120.0
 20
40.0
 30
0.0
 40
16.0
  1
井上
100
AcDbText
  0
TEXT
  5
154
330
B
100
AcDbEntity
  8
LEVEL001
 62
     7
100
AcDbText
 10
1941.0
 20
40.0
 30
0.0
 40
16.0
  1
(A2) 1/4
 41
0.5
100
AcDbText
  0
TEXT
  5
155
330
B
100
AcDbEntity
  8
LEVEL001
 62
     1
100
AcDbText
 10
1338.0
 20
1161.0
 30
0.0
 40
16.0
  1
安全カバ－
100
AcDbText
  0
TEXT
  5
156
330
B
100
AcDbEntity
  8
LEVEL001
 62
     1
100
AcDbText
 10
1338.0
 20
1353.0
 30
0.0
 40
16.0
  1
寸法（Ｗ×Ｄ×Ｈ）
100
AcDbText
  0
TEXT
  5
157
330
B
100
AcDbEntity
  8
LEVEL001
 62
     1
100
AcDbText
 10
1309.0
 20
1216.0
 30
0.0
 40
16.0
  1
材
100
AcDbText
  0
TEXT
  5
158
330
B
100
AcDbEntity
  8
LEVEL001
 62
     1
100
AcDbText
 10
1309.0
 20
1173.3333333333
 30
0.0
 40
16.0
  1
質
100
AcDbText
  0
TEXT
  5
159
330
B
100
AcDbEntity
  8
LEVEL001
 62
     1
100
AcDbText
 10
1338.0
 20
1257.0
 30
0.0
 40
16.0
  1
消  費  電  力
100
AcDbText
  0
TEXT
  5
15A
330
B
100
AcDbEntity
  8
LEVEL001
 62
     1
100
AcDbText
 10
1338.0
 20
1289.0
 30
0.0
 40
16.0
  1
電          源
100
AcDbText
  0
TEXT
  5
15B
330
B
100
AcDbEntity
  8
LEVEL001
 62
     1
100
AcDbText
 10
1338.0
 20
1321.0
 30
0.0
 40
16.0
  1
能          力
100
AcDbText
  0
TEXT
  5
15C
330
B
100
AcDbEntity
  8
LEVEL001
 62
     1
100
AcDbText
 10
1338.0
 20
1385.0
 30
0.0
 40
16.0
  1
型          式
100
AcDbText
  0
TEXT
  5
15D
330
B
100
AcDbEntity
  8
LEVEL001
 62
     1
100
AcDbText
 10
1338.0
 20
1417.0
 30
0.0
 40
16.0
  1
製　  品  　名
100
AcDbText
  0
TEXT
  5
15E
330
B
100
AcDbEntity
  8
LEVEL001
 62
     1
100
AcDbText
 10
1338.0
 20
1097.0
 30
0.0
 40
16.0
  1
電源プラグ
100
AcDbText
  0
TEXT
  5
15F
330
B
100
AcDbEntity
  8
LEVEL001
 62
     1
100
AcDbText
 10
1338.0
 20
1065.0
 30
0.0
 40
16.0
  1
製品重量
100
AcDbText
  0
TEXT
  5
160
330
B
100
AcDbEntity
  8
LEVEL001
 62
     1
100
AcDbText
 10
1514.0
 20
1097.0
 30
0.0
 40
16.0
  1
２Ｐ１５Ａ（３相２００Ｖ仕様は４Ｐ２０Ａ）
100
AcDbText
  0
TEXT
  5
161
330
B
100
AcDbEntity
  8
LEVEL001
 62
     1
100
AcDbText
 10
1338.0
 20
1129.0
 30
0.0
 40
16.0
  1
コ－ド長さ
100
AcDbText
  0
TEXT
  5
162
330
B
100
AcDbEntity
  8
LEVEL001
 62
     1
100
AcDbText
 10
1514.0
 20
1129.0
 30
0.0
 40
16.0
  1
３．０ｍ
100
AcDbText
  0
TEXT
  5
163
330
B
100
AcDbEntity
  8
LEVEL001
 62
     1
100
AcDbText
 10
1514.0
 20
1289.0
 30
0.0
 40
16.0
  1
単相１００Ｖ　５０／６０Ｈｚ（３相２００Ｖは受注生産）
100
AcDbText
  0
TEXT
  5
164
330
B
100
AcDbEntity
  8
LEVEL001
 62
     1
100
AcDbText
 10
1338.0
 20
1225.0
 30
0.0
 40
16.0
  1
ドラム
100
AcDbText
  0
TEXT
  5
165
330
B
100
AcDbEntity
  8
LEVEL001
 62
     1
100
AcDbText
 10
1338.0
 20
1193.0
 30
0.0
 40
16.0
  1
羽根
100
AcDbText
  0
TEXT
  5
166
330
B
100
AcDbEntity
  8
LEVEL001
 62
     1
100
AcDbText
 10
1514.0
 20
1225.0
 30
0.0
 40
16.0
  1
ＳＵＳ３０４
100
AcDbText
  0
TEXT
  5
167
330
B
100
AcDbEntity
  8
LEVEL001
 62
     1
100
AcDbText
 10
1514.0
 20
1161.0
 30
0.0
 40
16.0
  1
ＳＵＳ３０４
100
AcDbText
  0
TEXT
  5
168
330
B
100
AcDbEntity
  8
LEVEL001
 62
     1
100
AcDbText
 10
1514.0
 20
1417.0
 30
0.0
 40
16.0
  1
攪拌式ミキサ－
100
AcDbText
  0
TEXT
  5
169
330
B
100
AcDbEntity
  8
LEVEL001
 62
     1
100
AcDbText
 10
1514.0
 20
1385.0
 30
0.0
 40
16.0
  1
ス－パ－ミックス　ＳＳ－８Ｐ型
100
AcDbText
  0
TEXT
  5
16A
330
B
100
AcDbEntity
  8
LEVEL001
 62
     1
100
AcDbText
 10
1514.0
 20
1353.0
 30
0.0
 40
16.0
  1
７００×４５８．３×８８０
100
AcDbText
  0
TEXT
  5
16B
330
B
100
AcDbEntity
  8
LEVEL001
 62
     1
100
AcDbText
 10
1514.0
 20
1321.0
 30
0.0
 40
16.0
  1
４ｋｇ～８ｋｇ／回
100
AcDbText
  0
TEXT
  5
16C
330
B
100
AcDbEntity
  8
LEVEL001
 62
     1
100
AcDbText
 10
1514.0
 20
1257.0
 30
0.0
 40
16.0
  1
４００Ｗ
100
AcDbText
  0
TEXT
  5
16D
330
B
100
AcDbEntity
  8
LEVEL001
 62
     1
100
AcDbText
 10
1514.0
 20
1193.0
 30
0.0
 40
16.0
  1
ＳＵＳ３０４
100
AcDbText
  0
TEXT
  5
16E
330
B
100
AcDbEntity
  8
LEVEL001
 62
     1
100
AcDbText
 10
1514.0
 20
1065.0
 30
0.0
 40
16.0
  1
９０ｋｇ
100
AcDbText
  0
POINT
  5
16F
330
B
100
AcDbEntity
  8
LEVEL001
 62
     7
100
AcDbPoint
 10
1003.5
 20
1166.0
 30
0.0
  0
POINT
  5
170
330
B
100
AcDbEntity
  8
LEVEL001
 62
     7
100
AcDbPoint
 10
1025.5
 20
1166.0
 30
0.0
  0
LINE
  5
171
330
B
100
AcDbEntity
  8
LEVEL001
  6
Continuous
 62
     7
100
AcDbLine
 10
909.5
 20
1453.1577191258
 30
0.0
 11
963.4999999999999
 21
1453.1577191258
 31
0.0
  0
LINE
  5
172
330
B
100
AcDbEntity
  8
LEVEL001
  6
Continuous
 62
     7
100
AcDbLine
 10
580.4999999999999
 20
1453.1577191258
 30
0.0
 11
634.4999999999999
 21
1453.1577191258
 31
0.0
  0
LINE
  5
173
330
B
100
AcDbEntity
  8
LEVEL001
  6
Continuous
 62
     7
100
AcDbLine
 10
997.0
 20
1131.0
 30
0.0
 11
997.0
 21
1091.0
 31
0.0
  0
LINE
  5
174
330
B
100
AcDbEntity
  8
LEVEL001
  6
Continuous
 62
     7
100
AcDbLine
 10
547.0
 20
1131.0
 30
0.0
 11
547.0
 21
1091.0
 31
0.0
  0
LWPOLYLINE
  5
175
330
B
100
AcDbEntity
  8
LEVEL001
  6
Continuous
 62
     7
100
AcDbPolyline
 90
        3
 70
     0
 43
0.0
 10
508.0
 20
1091.0
 10
508.0
 20
1090.0
 10
549.0
 20
1090.0
  0
LWPOLYLINE
  5
176
330
B
100
AcDbEntity
  8
LEVEL001
  6
Continuous
 62
     7
100
AcDbPolyline
 90
        3
 70
     0
 43
0.0
 10
995.0
 20
1090.0
 10
1036.0
 20
1090.0
 10
1036.0
 20
1091.0
  0
LWPOLYLINE
  5
177
330
B
100
AcDbEntity
  8
LEVEL001
  6
Continuous
 62
     7
100
AcDbPolyline
 90
        4
 70
     0
 43
0.0
 10
1027.0
 20
1303.5
 10
1037.5
 20
1303.5
 10
1037.5
 20
1278.5
 10
1027.0
 20
1278.5
  0
LINE
  5
178
330
B
100
AcDbEntity
  8
LEVEL001
  6
Continuous
 62
     7
100
AcDbLine
 10
982.0
 20
1303.5
 30
0.0
 11
1007.0
 21
1303.5
 31
0.0
  0
LINE
  5
179
330
B
100
AcDbEntity
  8
LEVEL001
  6
Continuous
 62
     7
100
AcDbLine
 10
1007.0
 20
1278.5
 30
0.0
 11
982.0
 21
1278.5
 31
0.0
  0
LINE
  5
17A
330
B
100
AcDbEntity
  8
LEVEL001
  6
Continuous
 62
     7
100
AcDbLine
 10
517.0
 20
1303.5
 30
0.0
 11
506.0
 21
1303.5
 31
0.0
  0
LINE
  5
17B
330
B
100
AcDbEntity
  8
LEVEL001
  6
Continuous
 62
     7
100
AcDbLine
 10
506.0
 20
1278.5
 30
0.0
 11
517.0
 21
1278.5
 31
0.0
  0
LINE
  5
17C
330
B
100
AcDbEntity
  8
LEVEL001
  6
Continuous
 62
     7
100
AcDbLine
 10
562.0
 20
1303.5
 30
0.0
 11
537.0
 21
1303.5
 31
0.0
  0
LINE
  5
17D
330
B
100
AcDbEntity
  8
LEVEL001
  6
Continuous
 62
     7
100
AcDbLine
 10
537.0
 20
1278.5
 30
0.0
 11
562.0
 21
1278.5
 31
0.0
  0
LWPOLYLINE
  5
17E
330
B
100
AcDbEntity
  8
LEVEL001
  6
Continuous
 62
     7
100
AcDbPolyline
 90
        3
 70
     0
 43
0.0
 10
997.0
 20
1155.0
 10
997.0
 20
1131.0
 10
995.0
 20
1131.0
  0
LWPOLYLINE
  5
17F
330
B
100
AcDbEntity
  8
LEVEL001
  6
Continuous
 62
     7
100
AcDbPolyline
 90
        3
 70
     0
 43
0.0
 10
1037.0
 20
1155.0
 10
1037.0
 20
1091.0
 10
995.0
 20
1091.0
  0
LINE
  5
180
330
B
100
AcDbEntity
  8
LEVEL001
  6
Continuous
 62
     7
100
AcDbLine
 10
994.0
 20
1278.5
 30
0.0
 11
994.0
 21
1206.0
 31
0.0
  0
LINE
  5
181
330
B
100
AcDbEntity
  8
LEVEL001
  6
Continuous
 62
     7
100
AcDbLine
 10
995.0
 20
1206.0
 30
0.0
 11
995.0
 21
1278.5
 31
0.0
  0
LINE
  5
182
330
B
100
AcDbEntity
  8
LEVEL001
  6
Continuous
 62
     7
100
AcDbLine
 10
997.0
 20
1278.5
 30
0.0
 11
997.0
 21
1206.0
 31
0.0
  0
LINE
  5
183
330
B
100
AcDbEntity
  8
LEVEL001
  6
Continuous
 62
     7
100
AcDbLine
 10
550.0
 20
1451.0
 30
0.0
 11
550.0
 21
1303.5
 31
0.0
  0
LWPOLYLINE
  5
184
330
B
100
AcDbEntity
  8
LEVEL001
  6
Continuous
 62
     7
100
AcDbPolyline
 90
        3
 70
     0
 43
0.0
 10
547.0
 20
1303.5
 10
547.0
 20
1451.0
 10
562.0
 20
1451.0
  0
LINE
  5
185
330
B
100
AcDbEntity
  8
LEVEL001
  6
Continuous
 62
     7
100
AcDbLine
 10
549.0
 20
1451.0
 30
0.0
 11
549.0
 21
1303.5
 31
0.0
  0
LWPOLYLINE
  5
186
330
B
100
AcDbEntity
  8
LEVEL001
  6
Continuous
 62
     7
100
AcDbPolyline
 90
        4
 70
     1
 43
0.0
 10
506.0
 20
1436.0
 10
392.0
 20
1436.0
 10
392.0
 20
1116.0
 10
506.0
 20
1116.0
  0
LWPOLYLINE
  5
187
330
B
100
AcDbEntity
  8
LEVEL001
  6
Continuous
 62
     7
100
AcDbPolyline
 90
        3
 70
     0
 43
0.0
 10
549.0
 20
1091.0
 10
507.0
 20
1091.0
 10
507.0
 20
1142.5
  0
LWPOLYLINE
  5
188
330
B
100
AcDbEntity
  8
LEVEL001
  6
Continuous
 62
     7
100
AcDbPolyline
 90
        4
 70
     0
 43
0.0
 10
507.0
 20
1303.5
 10
507.0
 20
1491.0
 10
1037.0
 20
1491.0
 10
1037.0
 20
1206.0
  0
LINE
  5
189
330
B
100
AcDbEntity
  8
LEVEL001
  6
Continuous
 62
     7
100
AcDbLine
 10
507.0
 20
1237.5
 30
0.0
 11
507.0
 21
1278.5
 31
0.0
  0
LWPOLYLINE
  5
18A
330
B
100
AcDbEntity
  8
LEVEL001
  6
Continuous
 62
     7
100
AcDbPolyline
 90
        4
 70
     0
 43
0.0
 10
401.4999999999999
 20
1116.0
 10
401.4999999999999
 20
1114.5
 10
496.4999999999999
 20
1114.5
 10
496.4999999999999
 20
1116.0
  0
LWPOLYLINE
  5
18B
330
B
100
AcDbEntity
  8
LEVEL001
  6
Continuous
 62
     7
100
AcDbPolyline
 90
        8
 70
     1
 43
0.0
 10
417.4999999999999
 20
1114.5
 10
417.4999999999999
 20
1110.5
 10
420.5
 20
1110.5
 10
420.5
 20
1107.5
 10
477.5
 20
1107.5
 10
477.5
 20
1110.5
 10
480.4999999999999
 20
1110.5
 10
480.4999999999999
 20
1114.5
  0
LINE
  5
18C
330
B
100
AcDbEntity
  8
LEVEL001
  6
Continuous
 62
     7
100
AcDbLine
 10
436.0
 20
1106.5
 30
0.0
 11
437.5
 21
1105.0
 31
0.0
  0
LINE
  5
18D
330
B
100
AcDbEntity
  8
LEVEL001
  6
Continuous
 62
     7
100
AcDbLine
 10
460.5
 20
1105.0
 30
0.0
 11
462.0
 21
1106.5
 31
0.0
  0
LWPOLYLINE
  5
18E
330
B
100
AcDbEntity
  8
LEVEL001
  6
Continuous
 62
     7
100
AcDbPolyline
 90
        4
 70
     0
 43
0.0
 10
437.5
 20
1095.0
 10
441.0
 20
1094.5
 10
457.0
 20
1094.5
 10
460.5
 20
1095.0
  0
LWPOLYLINE
  5
18F
330
B
100
AcDbEntity
  8
LEVEL001
  6
Continuous
 62
     7
100
AcDbPolyline
 90
        4
 70
     0
 43
0.0
 10
446.4999999999999
 20
1107.5
 10
446.4999999999999
 20
1096.5
 10
451.4999999999999
 20
1096.5
 10
451.4999999999999
 20
1107.5
  0
LWPOLYLINE
  5
190
330
B
100
AcDbEntity
  8
LEVEL001
  6
Continuous
 62
     7
100
AcDbPolyline
 90
        4
 70
     0
 43
0.0
 10
447.0
 20
1107.5
 10
447.0
 20
1097.5
 10
451.0
 20
1097.5
 10
451.0
 20
1107.5
  0
LINE
  5
191
330
B
100
AcDbEntity
  8
LEVEL001
  6
Continuous
 62
     7
100
AcDbLine
 10
448.5
 20
1107.5
 30
0.0
 11
448.5
 21
1096.5
 31
0.0
  0
LINE
  5
192
330
B
100
AcDbEntity
  8
LEVEL001
  6
Continuous
 62
     7
100
AcDbLine
 10
449.5
 20
1096.5
 30
0.0
 11
449.5
 21
1107.5
 31
0.0
  0
LINE
  5
193
330
B
100
AcDbEntity
  8
LEVEL001
  6
Continuous
 62
     7
100
AcDbLine
 10
447.0
 20
1097.5
 30
0.0
 11
446.4999999999999
 21
1096.5
 31
0.0
  0
LINE
  5
194
330
B
100
AcDbEntity
  8
LEVEL001
  6
Continuous
 62
     7
100
AcDbLine
 10
451.0
 20
1097.5
 30
0.0
 11
451.4999999999999
 21
1096.5
 31
0.0
  0
LWPOLYLINE
  5
195
330
B
100
AcDbEntity
  8
LEVEL001
  6
Continuous
 62
     7
100
AcDbPolyline
 90
        3
 70
     0
 43
0.0
 10
436.0
 20
1107.5
 10
436.0
 20
1106.5
 10
446.4999999999999
 20
1106.5
  0
LWPOLYLINE
  5
196
330
B
100
AcDbEntity
  8
LEVEL001
  6
Continuous
 62
     7
100
AcDbPolyline
 90
        3
 70
     0
 43
0.0
 10
451.4999999999999
 20
1106.5
 10
462.0
 20
1106.5
 10
462.0
 20
1107.5
  0
LWPOLYLINE
  5
197
330
B
100
AcDbEntity
  8
LEVEL001
  6
Continuous
 62
     7
100
AcDbPolyline
 90
        6
 70
     0
 43
0.0
 10
446.4999999999999
 20
1105.0
 10
437.5
 20
1105.0
 10
437.5
 20
1095.0
 10
460.5
 20
1095.0
 10
460.5
 20
1105.0
 10
451.4999999999999
 20
1105.0
  0
LWPOLYLINE
  5
198
330
B
100
AcDbEntity
  8
LEVEL001
  6
Continuous
 62
     7
100
AcDbPolyline
 90
        3
 70
     0
 43
0.0
 10
412.75
 20
1114.5
 10
412.75
 20
1104.5
 10
437.5
 20
1104.5
  0
LWPOLYLINE
  5
199
330
B
100
AcDbEntity
  8
LEVEL001
  6
Continuous
 62
     7
100
AcDbPolyline
 90
        3
 70
     0
 43
0.0
 10
416.5
 20
1104.5
 10
416.5
 20
1098.5
 10
437.5
 20
1098.5
  0
LINE
  5
19A
330
B
100
AcDbEntity
  8
LEVEL001
  6
Continuous
 62
     7
100
AcDbLine
 10
420.5
 20
1110.5
 30
0.0
 11
477.5
 21
1110.5
 31
0.0
  0
LWPOLYLINE
  5
19B
330
B
100
AcDbEntity
  8
LEVEL001
  6
Continuous
 62
     7
100
AcDbPolyline
 90
        3
 70
     0
 43
0.0
 10
485.25
 20
1114.5
 10
485.25
 20
1104.5
 10
460.5
 20
1104.5
  0
LWPOLYLINE
  5
19C
330
B
100
AcDbEntity
  8
LEVEL001
  6
Continuous
 62
     7
100
AcDbPolyline
 90
        3
 70
     0
 43
0.0
 10
481.5
 20
1104.5
 10
481.5
 20
1098.5
 10
460.5
 20
1098.5
  0
POINT
  5
19D
330
B
100
AcDbEntity
  8
LEVEL001
 62
     7
100
AcDbPoint
 10
965.4999999999999
 20
1425.1222266356
 30
0.0
  0
CIRCLE
  5
19E
330
B
100
AcDbEntity
  8
LEVEL001
  6
Continuous
 62
     7
100
AcDbCircle
 10
1013.85
 20
1411.0512570781
 30
0.0
 40
15.0
  0
LINE
  5
19F
330
B
100
AcDbEntity
  8
LEVEL001
  6
Continuous
 62
     7
100
AcDbLine
 10
982.0
 20
1408.465906133
 30
0.0
 11
999.07448104159
 21
1408.465906133
 31
0.0
  0
LINE
  5
1A0
330
B
100
AcDbEntity
  8
LEVEL001
  6
Continuous
 62
     7
100
AcDbLine
 10
1002.773273295
 20
1421.165906133
 30
0.0
 11
982.0
 21
1421.165906133
 31
0.0
  0
LINE
  5
1A1
330
B
100
AcDbEntity
  8
LEVEL001
  6
Continuous
 62
     7
100
AcDbLine
 10
994.0
 20
1451.0
 30
0.0
 11
994.0
 21
1421.165906133
 31
0.0
  0
LINE
  5
1A2
330
B
100
AcDbEntity
  8
LEVEL001
  6
Continuous
 62
     7
100
AcDbLine
 10
994.0
 20
1408.465906133
 30
0.0
 11
994.0
 21
1303.5
 31
0.0
  0
LINE
  5
1A3
330
B
100
AcDbEntity
  8
LEVEL001
  6
Continuous
 62
     7
100
AcDbLine
 10
995.0
 20
1303.5
 30
0.0
 11
995.0
 21
1408.465906133
 31
0.0
  0
LINE
  5
1A4
330
B
100
AcDbEntity
  8
LEVEL001
  6
Continuous
 62
     7
100
AcDbLine
 10
995.0
 20
1421.165906133
 30
0.0
 11
995.0
 21
1451.0
 31
0.0
  0
LWPOLYLINE
  5
1A5
330
B
100
AcDbEntity
  8
LEVEL001
  6
Continuous
 62
     7
100
AcDbPolyline
 90
        3
 70
     0
 43
0.0
 10
982.0
 20
1451.0
 10
997.0
 20
1451.0
 10
997.0
 20
1421.165906133
  0
LINE
  5
1A6
330
B
100
AcDbEntity
  8
LEVEL001
  6
Continuous
 62
     7
100
AcDbLine
 10
997.0
 20
1408.465906133
 30
0.0
 11
997.0
 21
1303.5
 31
0.0
  0
LWPOLYLINE
  5
1A7
330
B
100
AcDbEntity
  8
LEVEL001
  6
Continuous
 62
     7
100
AcDbPolyline
 90
        4
 70
     1
 43
0.0
 10
982.0
 20
1128.0
 10
982.0
 20
1451.0
 10
562.0
 20
1451.0
 10
562.0
 20
1128.0
  0
ARC
  5
1A8
330
B
100
AcDbEntity
  8
LEVEL001
  6
Continuous
 62
     7
100
AcDbCircle
 10
722.0
 20
1291.0
 30
0.0
 40
4.5
100
AcDbArc
 50
90.0
 51
270.0
  0
ARC
  5
1A9
330
B
100
AcDbEntity
  8
LEVEL001
  6
Continuous
 62
     7
100
AcDbCircle
 10
822.0
 20
1291.0
 30
0.0
 40
4.5
100
AcDbArc
 50
270.0
 51
90.0
  0
LINE
  5
1AA
330
B
100
AcDbEntity
  8
LEVEL001
  6
Continuous
 62
     7
100
AcDbLine
 10
722.0
 20
1295.5
 30
0.0
 11
822.0
 21
1295.5
 31
0.0
  0
LINE
  5
1AB
330
B
100
AcDbEntity
  8
LEVEL001
  6
Continuous
 62
     7
100
AcDbLine
 10
722.0
 20
1286.5
 30
0.0
 11
822.0
 21
1286.5
 31
0.0
  0
LWPOLYLINE
  5
1AC
330
B
100
AcDbEntity
  8
LEVEL001
  6
Continuous
 62
     7
100
AcDbPolyline
 90
        4
 70
     0
 43
0.0
 10
909.5
 20
1451.0
 10
909.5
 20
1456.15649303
 10
963.4999999999999
 20
1456.15649303
 10
963.4999999999999
 20
1451.0
  0
LWPOLYLINE
  5
1AD
330
B
100
AcDbEntity
  8
LEVEL001
  6
Continuous
 62
     7
100
AcDbPolyline
 90
        4
 70
     0
 43
0.0
 10
580.4999999999999
 20
1451.0
 10
580.4999999999999
 20
1456.15649303
 10
634.4999999999999
 20
1456.15649303
 10
634.4999999999999
 20
1451.0
  0
LWPOLYLINE
  5
1AE
330
B
100
AcDbEntity
  8
LEVEL001
  6
Continuous
 62
     7
100
AcDbPolyline
 90
        4
 70
     0
 43
0.0
 10
1032.0
 20
166.0
 10
1032.0
 20
157.0
 10
942.0
 20
157.0
 10
942.0
 20
166.0
  0
LWPOLYLINE
  5
1AF
330
B
100
AcDbEntity
  8
LEVEL001
  6
Continuous
 62
     7
100
AcDbPolyline
 90
        4
 70
     0
 43
0.0
 10
602.0
 20
166.0
 10
602.0
 20
157.0
 10
512.0
 20
157.0
 10
512.0
 20
166.0
  0
LWPOLYLINE
  5
1B0
330
B
100
AcDbEntity
  8
LEVEL001
  6
Continuous
 62
     7
100
AcDbPolyline
 90
        4
 70
     0
 43
0.0
 10
977.5
 20
825.5615459808099
 10
977.5
 20
459.4999999999999
 10
566.5
 20
459.4999999999999
 10
566.5
 20
825.5615459808099
  0
LWPOLYLINE
  5
1B1
330
B
100
AcDbEntity
  8
LEVEL001
  6
Continuous
 62
     7
100
AcDbPolyline
 90
        4
 70
     1
 43
0.0
 10
392.0
 20
165.0
 10
506.0
 20
165.0
 10
506.0
 20
821.0
 10
392.0
 20
821.0
  0
POINT
  5
1B2
330
B
100
AcDbEntity
  8
LEVEL001
 62
     7
100
AcDbPoint
 10
407.0
 20
806.0
 30
0.0
  0
POINT
  5
1B3
330
B
100
AcDbEntity
  8
LEVEL001
 62
     7
100
AcDbPoint
 10
491.0
 20
806.0
 30
0.0
  0
POINT
  5
1B4
330
B
100
AcDbEntity
  8
LEVEL001
 62
     7
100
AcDbPoint
 10
491.0
 20
611.0
 30
0.0
  0
POINT
  5
1B5
330
B
100
AcDbEntity
  8
LEVEL001
 62
     7
100
AcDbPoint
 10
407.0
 20
611.0
 30
0.0
  0
POINT
  5
1B6
330
B
100
AcDbEntity
  8
LEVEL001
 62
     7
100
AcDbPoint
 10
1003.5
 20
566.0
 30
0.0
  0
POINT
  5
1B7
330
B
100
AcDbEntity
  8
LEVEL001
 62
     7
100
AcDbPoint
 10
1025.5
 20
566.0
 30
0.0
  0
ARC
  5
1B8
330
B
100
AcDbEntity
  8
LEVEL001
  6
Continuous
 62
     7
100
AcDbCircle
 10
1063.5
 20
597.35
 30
0.0
 40
4.0
100
AcDbArc
 50
270.00000000002
 51
0.0
  0
LINE
  5
1B9
330
B
100
AcDbEntity
  8
LEVEL001
  6
Continuous
 62
     7
100
AcDbLine
 10
1040.0
 20
583.0
 30
0.0
 11
1040.0
 21
508.0
 31
0.0
  0
LWPOLYLINE
  5
1BA
330
B
100
AcDbEntity
  8
LEVEL001
  6
Continuous
 62
     7
100
AcDbPolyline
 90
        8
 70
     1
 43
0.0
 10
1080.0
 20
505.0
 10
1080.0
 20
586.0
 10
1049.0
 20
586.0
 10
1049.0
 20
583.0
 10
1037.0
 20
583.0
 10
1037.0
 20
508.0
 10
1049.0
 20
508.0
 10
1049.0
 20
505.0
  0
CIRCLE
  5
1BB
330
B
100
AcDbEntity
  8
LEVEL001
  6
Continuous
 62
     7
100
AcDbCircle
 10
1073.85
 20
681.35
 30
0.0
 40
15.0
  0
LWPOLYLINE
  5
1BC
330
B
100
AcDbEntity
  8
LEVEL001
  6
Continuous
 62
     7
100
AcDbPolyline
 90
        4
 70
     1
 43
0.0
 10
562.0
 20
847.5598903673599
 10
982.0
 20
847.5598903673599
 10
982.0
 20
869.55989036736
 10
562.0
 20
869.55989036736
  0
ARC
  5
1BD
330
B
100
AcDbEntity
  8
LEVEL001
  6
Continuous
 62
     7
100
AcDbCircle
 10
735.5
 20
881.5598903673601
 30
0.0
 40
9.0
100
AcDbArc
 50
90.0
 51
179.99999999999
  0
ARC
  5
1BE
330
B
100
AcDbEntity
  8
LEVEL001
  6
Continuous
 62
     7
100
AcDbCircle
 10
735.5
 20
881.5598903673601
 30
0.0
 40
18.0
100
AcDbArc
 50
90.0
 51
180.0
  0
ARC
  5
1BF
330
B
100
AcDbEntity
  8
LEVEL001
  6
Continuous
 62
     7
100
AcDbCircle
 10
808.5
 20
881.5598903673601
 30
0.0
 40
9.0
100
AcDbArc
 50
0.0
 51
90.0
  0
ARC
  5
1C0
330
B
100
AcDbEntity
  8
LEVEL001
  6
Continuous
 62
     7
100
AcDbCircle
 10
808.5
 20
881.5598903673601
 30
0.0
 40
18.0
100
AcDbArc
 50
0.0
 51
90.0
  0
LINE
  5
1C1
330
B
100
AcDbEntity
  8
LEVEL001
  6
Continuous
 62
     7
100
AcDbLine
 10
717.4999999999999
 20
881.5598903673601
 30
0.0
 11
717.4999999999999
 21
869.55989036736
 31
0.0
  0
LINE
  5
1C2
330
B
100
AcDbEntity
  8
LEVEL001
  6
Continuous
 62
     7
100
AcDbLine
 10
726.5
 20
881.5598903673601
 30
0.0
 11
726.5
 21
869.55989036736
 31
0.0
  0
LINE
  5
1C3
330
B
100
AcDbEntity
  8
LEVEL001
  6
Continuous
 62
     7
100
AcDbLine
 10
826.5
 20
881.5598903673601
 30
0.0
 11
826.5
 21
869.55989036736
 31
0.0
  0
LINE
  5
1C4
330
B
100
AcDbEntity
  8
LEVEL001
  6
Continuous
 62
     7
100
AcDbLine
 10
817.5
 20
881.5598903673601
 30
0.0
 11
817.5
 21
869.55989036736
 31
0.0
  0
LINE
  5
1C5
330
B
100
AcDbEntity
  8
LEVEL001
  6
Continuous
 62
     7
100
AcDbLine
 10
735.5
 20
899.5598903673601
 30
0.0
 11
808.5
 21
899.5598903673601
 31
0.0
  0
LINE
  5
1C6
330
B
100
AcDbEntity
  8
LEVEL001
  6
Continuous
 62
     7
100
AcDbLine
 10
735.5
 20
890.5598903673601
 30
0.0
 11
808.5
 21
890.5598903673601
 31
0.0
  0
LWPOLYLINE
  5
1C7
330
B
100
AcDbEntity
  8
LEVEL001
  6
Continuous
 62
     7
100
AcDbPolyline
 90
        4
 70
     0
 43
0.0
 10
946.0
 20
157.0
 10
946.0
 20
155.0
 10
1028.0
 20
155.0
 10
1028.0
 20
157.0
  0
LWPOLYLINE
  5
1C8
330
B
100
AcDbEntity
  8
LEVEL001
  6
Continuous
 62
     7
100
AcDbPolyline
 90
        4
 70
     1
 43
0.0
 10
971.0
 20
56.0
 10
1003.0
 20
56.0
 10
1003.0
 20
131.0
 10
971.0
 20
131.0
  0
LWPOLYLINE
  5
1C9
330
B
100
AcDbEntity
  8
LEVEL001
  6
Continuous
 62
     7
100
AcDbPolyline
 90
        8
 70
     0
 43
0.0
 10
964.0
 20
155.0
 10
964.0
 20
76.0
 10
969.0
 20
76.0
 10
969.0
 20
136.0
 10
1005.0
 20
136.0
 10
1005.0
 20
76.0
 10
1010.0
 20
76.0
 10
1010.0
 20
155.0
  0
LWPOLYLINE
  5
1CA
330
B
100
AcDbEntity
  8
LEVEL001
  6
Continuous
 62
     7
100
AcDbPolyline
 90
        4
 70
     0
 43
0.0
 10
516.0
 20
157.0
 10
516.0
 20
155.0
 10
598.0
 20
155.0
 10
598.0
 20
157.0
  0
LWPOLYLINE
  5
1CB
330
B
100
AcDbEntity
  8
LEVEL001
  6
Continuous
 62
     7
100
AcDbPolyline
 90
        4
 70
     1
 43
0.0
 10
541.0
 20
56.0
 10
573.0
 20
56.0
 10
573.0
 20
131.0
 10
541.0
 20
131.0
  0
LWPOLYLINE
  5
1CC
330
B
100
AcDbEntity
  8
LEVEL001
  6
Continuous
 62
     7
100
AcDbPolyline
 90
        8
 70
     0
 43
0.0
 10
534.0
 20
155.0
 10
534.0
 20
76.0
 10
539.0
 20
76.0
 10
539.0
 20
136.0
 10
575.0
 20
136.0
 10
575.0
 20
76.0
 10
580.0
 20
76.0
 10
580.0
 20
155.0
  0
LINE
  5
1CD
330
B
100
AcDbEntity
  8
LEVEL001
  6
Continuous
 62
     7
100
AcDbLine
 10
517.0
 20
615.0
 30
0.0
 11
506.0
 21
615.0
 31
0.0
  0
LINE
  5
1CE
330
B
100
AcDbEntity
  8
LEVEL001
  6
Continuous
 62
     7
100
AcDbLine
 10
506.0
 20
590.0
 30
0.0
 11
517.0
 21
590.0
 31
0.0
  0
LINE
  5
1CF
330
B
100
AcDbEntity
  8
LEVEL001
  6
Continuous
 62
     7
100
AcDbLine
 10
566.5
 20
615.0
 30
0.0
 11
537.0
 21
615.0
 31
0.0
  0
LINE
  5
1D0
330
B
100
AcDbEntity
  8
LEVEL001
  6
Continuous
 62
     7
100
AcDbLine
 10
537.0
 20
590.0
 30
0.0
 11
566.5
 21
590.0
 31
0.0
  0
LINE
  5
1D1
330
B
100
AcDbEntity
  8
LEVEL001
  6
Continuous
 62
     7
100
AcDbLine
 10
977.5
 20
615.0
 30
0.0
 11
1007.0
 21
615.0
 31
0.0
  0
LWPOLYLINE
  5
1D2
330
B
100
AcDbEntity
  8
LEVEL001
  6
Continuous
 62
     7
100
AcDbPolyline
 90
        3
 70
     0
 43
0.0
 10
1027.0
 20
615.0
 10
1037.5
 20
615.0
 10
1037.5
 20
602.0
  0
LINE
  5
1D3
330
B
100
AcDbEntity
  8
LEVEL001
  6
Continuous
 62
     7
100
AcDbLine
 10
1042.5
 20
593.35
 30
0.0
 11
1063.5
 21
593.35
 31
0.0
  0
LWPOLYLINE
  5
1D4
330
B
100
AcDbEntity
  8
LEVEL001
  6
Continuous
 62
     7
100
AcDbPolyline
 90
        4
 70
     0
 43
0.0
 10
1007.0
 20
602.0
 10
1007.0
 20
637.5
 10
1027.0
 20
637.5
 10
1027.0
 20
602.0
  0
LWPOLYLINE
  5
1D5
330
B
100
AcDbEntity
  8
LEVEL001
  6
Continuous
 62
     7
100
AcDbPolyline
 90
        5
 70
     0
 43
0.0
 10
1042.5
 20
583.0
 10
1042.5
 20
602.0
 10
986.5
 20
602.0
 10
986.5
 20
572.0
 10
1037.0
 20
572.0
  0
LWPOLYLINE
  5
1D6
330
B
100
AcDbEntity
  8
LEVEL001
  6
Continuous
 62
     7
100
AcDbPolyline
 90
        3
 70
     0
 43
0.0
 10
989.4999999999999
 20
572.0
 10
989.4999999999999
 20
566.0
 10
1037.0
 20
566.0
  0
ARC
  5
1D7
330
B
100
AcDbEntity
  8
LEVEL001
  6
Continuous
 62
     7
100
AcDbCircle
 10
1063.5
 20
597.35
 30
0.0
 40
16.7
100
AcDbArc
 50
317.18442609925
 51
0.0
  0
LINE
  5
1D8
330
B
100
AcDbEntity
  8
LEVEL001
  6
Continuous
 62
     7
100
AcDbLine
 10
547.0
 20
526.0
 30
0.0
 11
547.0
 21
566.0
 31
0.0
  0
LINE
  5
1D9
330
B
100
AcDbEntity
  8
LEVEL001
  6
Continuous
 62
     7
100
AcDbLine
 10
997.0
 20
526.0
 30
0.0
 11
997.0
 21
566.0
 31
0.0
  0
LWPOLYLINE
  5
1DA
330
B
100
AcDbEntity
  8
LEVEL001
  6
Continuous
 62
     7
100
AcDbPolyline
 90
        6
 70
     0
 43
0.0
 10
977.5
 20
566.0
 10
1037.0
 20
566.0
 10
1037.0
 20
166.0
 10
507.0
 20
166.0
 10
507.0
 20
566.0
 10
566.5
 20
566.0
  0
LWPOLYLINE
  5
1DB
330
B
100
AcDbEntity
  8
LEVEL001
  6
Continuous
 62
     7
100
AcDbPolyline
 90
        6
 70
     0
 43
0.0
 10
549.0
 20
364.0
 10
508.0
 20
364.0
 10
508.0
 20
166.0
 10
1036.0
 20
166.0
 10
1036.0
 20
364.0
 10
995.0
 20
364.0
  0
LWPOLYLINE
  5
1DC
330
B
100
AcDbEntity
  8
LEVEL001
  6
Continuous
 62
     7
100
AcDbPolyline
 90
        4
 70
     0
 43
0.0
 10
580.4999999999999
 20
869.55989036736
 10
580.4999999999999
 20
869.8534826894899
 10
634.4999999999999
 20
869.8534826894899
 10
634.4999999999999
 20
869.55989036736
  0
LWPOLYLINE
  5
1DD
330
B
100
AcDbEntity
  8
LEVEL001
  6
Continuous
 62
     7
100
AcDbPolyline
 90
        4
 70
     0
 43
0.0
 10
909.5
 20
869.55989036736
 10
909.5
 20
869.8534826894899
 10
963.4999999999999
 20
869.8534826894899
 10
963.4999999999999
 20
869.55989036736
  0
LWPOLYLINE
  5
1DE
330
B
100
AcDbEntity
  8
LEVEL001
  6
Continuous
 62
     7
100
AcDbPolyline
 90
        6
 70
     0
 43
0.0
 10
562.0
 20
852.55989036736
 10
560.5
 20
852.55989036736
 10
560.5
 20
785.55989036736
 10
557.5
 20
785.55989036736
 10
557.5
 20
855.5598903673599
 10
562.0
 20
855.5598903673599
  0
LWPOLYLINE
  5
1DF
330
B
100
AcDbEntity
  8
LEVEL001
  6
Continuous
 62
     7
100
AcDbPolyline
 90
        4
 70
     0
 43
0.0
 10
977.5
 20
847.5598903673599
 10
977.5
 20
825.5615459808099
 10
566.5
 20
825.5615459808099
 10
566.5
 20
847.5598903673599
  0
LWPOLYLINE
  5
1E0
330
B
100
AcDbEntity
  8
LEVEL001
  6
Continuous
 62
     7
100
AcDbPolyline
 90
        3
 70
     0
 43
0.0
 10
977.5
 20
526.0
 10
997.0
 20
526.0
 10
997.0
 20
364.0
  0
LWPOLYLINE
  5
1E1
330
B
100
AcDbEntity
  8
LEVEL001
  6
Continuous
 62
     7
100
AcDbPolyline
 90
        3
 70
     0
 43
0.0
 10
547.0
 20
364.0
 10
547.0
 20
526.0
 10
566.5
 20
526.0
  0
LINE
  5
1E2
330
B
100
AcDbEntity
  8
LEVEL001
  6
Continuous
 62
     7
100
AcDbLine
 10
1067.5
 20
597.35
 30
0.0
 11
1067.5
 21
667.7603899982401
 31
0.0
  0
LINE
  5
1E3
330
B
100
AcDbEntity
  8
LEVEL001
  6
Continuous
 62
     7
100
AcDbLine
 10
1080.2
 20
667.7603899982401
 30
0.0
 11
1080.2
 21
597.35
 31
0.0
  0
CIRCLE
  5
1E4
330
B
100
AcDbEntity
  8
LEVEL001
  6
Continuous
 62
     7
100
AcDbCircle
 10
449.0
 20
420.0
 30
0.0
 40
12.5
  0
CIRCLE
  5
1E5
330
B
100
AcDbEntity
  8
LEVEL001
  6
Continuous
 62
     7
100
AcDbCircle
 10
449.0
 20
420.0
 30
0.0
 40
16.25
  0
ARC
  5
1E6
330
B
100
AcDbEntity
  8
LEVEL001
  6
Continuous
 62
     7
100
AcDbCircle
 10
449.0
 20
420.0
 30
0.0
 40
17.5
100
AcDbArc
 50
180.0
 51
0.0
  0
LWPOLYLINE
  5
1E7
330
B
100
AcDbEntity
  8
LEVEL001
  6
Continuous
 62
     7
100
AcDbPolyline
 90
        4
 70
     0
 43
0.0
 10
431.5
 20
420.0
 10
431.5
 20
447.5
 10
466.5
 20
447.5
 10
466.5
 20
420.0
  0
LWPOLYLINE
  5
1E8
330
B
100
AcDbEntity
  8
LEVEL001
  6
Continuous
 62
     7
100
AcDbPolyline
 90
        4
 70
     1
 43
0.0
 10
401.4999999999999
 20
605.4999999999999
 10
496.4999999999999
 20
605.4999999999999
 10
496.4999999999999
 20
811.5
 10
401.4999999999999
 20
811.5
  0
CIRCLE
  5
1E9
330
B
100
AcDbEntity
  8
LEVEL001
  6
Continuous
 62
     7
100
AcDbCircle
 10
429.0
 20
655.4999999999999
 30
0.0
 40
12.5
  0
CIRCLE
  5
1EA
330
B
100
AcDbEntity
  8
LEVEL001
  6
Continuous
 62
     7
100
AcDbCircle
 10
429.0
 20
655.4999999999999
 30
0.0
 40
16.25
  0
CIRCLE
  5
1EB
330
B
100
AcDbEntity
  8
LEVEL001
  6
Continuous
 62
     7
100
AcDbCircle
 10
469.0
 20
655.4999999999999
 30
0.0
 40
16.25
  0
CIRCLE
  5
1EC
330
B
100
AcDbEntity
  8
LEVEL001
  6
Continuous
 62
     7
100
AcDbCircle
 10
469.0
 20
655.4999999999999
 30
0.0
 40
12.5
  0
LWPOLYLINE
  5
1ED
330
B
100
AcDbEntity
  8
LEVEL001
  6
Continuous
 62
     7
100
AcDbPolyline
 90
        4
 70
     1
 43
0.0
 10
417.4999999999999
 20
685.5
 10
480.4999999999999
 20
685.5
 10
480.4999999999999
 20
769.5
 10
417.4999999999999
 20
769.5
  0
LWPOLYLINE
  5
1EE
330
B
100
AcDbEntity
  8
LEVEL001
  6
Continuous
 62
     7
100
AcDbPolyline
 90
        4
 70
     1
 43
0.0
 10
423.0
 20
696.0
 10
475.0
 20
696.0
 10
475.0
 20
759.0
 10
423.0
 20
759.0
  0
LWPOLYLINE
  5
1EF
330
B
100
AcDbEntity
  8
LEVEL001
  6
Continuous
 62
     7
100
AcDbPolyline
 90
        4
 70
     0
 43
0.0
 10
446.4999999999999
 20
743.9249721603199
 10
447.0
 20
748.95
 10
451.0
 20
748.95
 10
451.4999999999999
 20
743.9249721603199
  0
LWPOLYLINE
  5
1F0
330
B
100
AcDbEntity
  8
LEVEL001
  6
Continuous
 62
     7
100
AcDbPolyline
 90
        4
 70
     0
 43
0.0
 10
446.4999999999999
 20
721.47502783968
 10
447.0
 20
716.45
 10
451.0
 20
716.45
 10
451.4999999999999
 20
721.47502783968
  0
LINE
  5
1F1
330
B
100
AcDbEntity
  8
LEVEL001
  6
Continuous
 62
     7
100
AcDbLine
 10
448.5
 20
748.95
 30
0.0
 11
448.5
 21
744.1891252930799
 31
0.0
  0
LINE
  5
1F2
330
B
100
AcDbEntity
  8
LEVEL001
  6
Continuous
 62
     7
100
AcDbLine
 10
449.5
 20
748.95
 30
0.0
 11
449.5
 21
744.1891252930799
 31
0.0
  0
CIRCLE
  5
1F3
330
B
100
AcDbEntity
  8
LEVEL001
  6
Continuous
 62
     7
100
AcDbCircle
 10
449.0
 20
732.7
 30
0.0
 40
8.0
  0
ARC
  5
1F4
330
B
100
AcDbEntity
  8
LEVEL001
  6
Continuous
 62
     7
100
AcDbCircle
 10
449.00000000055
 20
717.24341942683
 30
0.0
 40
4.9565805731756
100
AcDbArc
 50
58.916850765711
 51
121.08314923838
  0
ARC
  5
1F5
330
B
100
AcDbEntity
  8
LEVEL001
  6
Continuous
 62
     7
100
AcDbCircle
 10
461.0844413039699
 20
723.0629796409999
 30
0.0
 40
4.9565805731756
100
AcDbArc
 50
110.34542219426
 51
172.5117206669
  0
ARC
  5
1F6
330
B
100
AcDbEntity
  8
LEVEL001
  6
Continuous
 62
     7
100
AcDbCircle
 10
464.06905182826
 20
736.13941274489
 30
0.0
 40
4.9565805731756
100
AcDbArc
 50
161.77399362281
 51
223.94029209544
  0
ARC
  5
1F7
330
B
100
AcDbEntity
  8
LEVEL001
  6
Continuous
 62
     7
100
AcDbCircle
 10
455.7063589736599
 20
746.6258979006499
 30
0.0
 40
4.9565805731756
100
AcDbArc
 50
213.20256505142
 51
275.36886352408
  0
ARC
  5
1F8
330
B
100
AcDbEntity
  8
LEVEL001
  6
Continuous
 62
     7
100
AcDbCircle
 10
442.2936410275299
 20
746.62589790067
 30
0.0
 40
4.9565805731756
100
AcDbArc
 50
264.63113648001
 51
326.7974349527
  0
ARC
  5
1F9
330
B
100
AcDbEntity
  8
LEVEL001
  6
Continuous
 62
     7
100
AcDbCircle
 10
433.9309481728999
 20
736.13941274495
 30
0.0
 40
4.9565805731756
100
AcDbArc
 50
316.0597079085301
 51
18.226006381165
  0
ARC
  5
1FA
330
B
100
AcDbEntity
  8
LEVEL001
  6
Continuous
 62
     7
100
AcDbCircle
 10
436.9155586971499
 20
723.06297964104
 30
0.0
 40
4.9565805731756
100
AcDbArc
 50
7.4882793371572
 51
69.65457780985
  0
ARC
  5
1FB
330
B
100
AcDbEntity
  8
LEVEL001
  6
Continuous
 62
     7
100
AcDbCircle
 10
449.0
 20
732.7
 30
0.0
 40
11.5
100
AcDbArc
 50
231.42857143249
 51
257.14285714496
  0
ARC
  5
1FC
330
B
100
AcDbEntity
  8
LEVEL001
  6
Continuous
 62
     7
100
AcDbCircle
 10
449.0
 20
732.7
 30
0.0
 40
11.5
100
AcDbArc
 50
282.85714285915
 51
308.57142857553
  0
ARC
  5
1FD
330
B
100
AcDbEntity
  8
LEVEL001
  6
Continuous
 62
     7
100
AcDbCircle
 10
449.0
 20
732.69999999999
 30
0.0
 40
11.5
100
AcDbArc
 50
334.28571428417
 51
0.0
  0
ARC
  5
1FE
330
B
100
AcDbEntity
  8
LEVEL001
  6
Continuous
 62
     7
100
AcDbCircle
 10
449.0
 20
732.7
 30
0.0
 40
11.5
100
AcDbArc
 50
180.00000000276
 51
205.71428571282
  0
ARC
  5
1FF
330
B
100
AcDbEntity
  8
LEVEL001
  6
Continuous
 62
     7
100
AcDbCircle
 10
449.0
 20
732.7
 30
0.0
 40
11.5
100
AcDbArc
 50
128.57142857079
 51
154.28571428178
  0
ARC
  5
200
330
B
100
AcDbEntity
  8
LEVEL001
  6
Continuous
 62
     7
100
AcDbCircle
 10
449.0
 20
732.7
 30
0.0
 40
11.5
100
AcDbArc
 50
25.714285710178
 51
51.42857142823199
  0
ARC
  5
201
330
B
100
AcDbEntity
  8
LEVEL001
  6
Continuous
 62
     7
100
AcDbCircle
 10
449.0
 20
732.7
 30
0.0
 40
11.5
100
AcDbArc
 50
77.142857139155
 51
102.8571428537
  0
ARC
  5
202
330
B
100
AcDbEntity
  8
LEVEL001
  6
Continuous
 62
     7
100
AcDbCircle
 10
449.0
 20
732.7
 30
0.0
 40
13.0
100
AcDbArc
 50
100.39033808316
 51
259.60966191684
  0
ARC
  5
203
330
B
100
AcDbEntity
  8
LEVEL001
  6
Continuous
 62
     7
100
AcDbCircle
 10
449.00000000003
 20
732.69999999999
 30
0.0
 40
13.0
100
AcDbArc
 50
280.39033808302
 51
79.609661916991
  0
ARC
  5
204
330
B
100
AcDbEntity
  8
LEVEL001
  6
Continuous
 62
     7
100
AcDbCircle
 10
449.0
 20
732.7
 30
0.0
 40
20.0
100
AcDbArc
 50
299.9999999998
 51
240.0000000002
  0
LWPOLYLINE
  5
205
330
B
100
AcDbEntity
  8
LEVEL001
  6
Continuous
 62
     7
100
AcDbPolyline
 90
        4
 70
     1
 43
0.0
 10
420.5
 20
693.5
 10
477.5
 20
693.5
 10
477.5
 20
761.5
 10
420.5
 20
761.5
  0
POINT
  5
206
330
B
100
AcDbEntity
  8
LEVEL001
 62
     7
100
AcDbPoint
 10
965.4999999999999
 20
798.4832742850199
 30
0.0
  0
CIRCLE
  5
207
330
B
100
AcDbEntity
  8
LEVEL001
  6
Continuous
 62
     7
100
AcDbCircle
 10
1013.85
 20
914.0056977174999
 30
0.0
 40
15.0
  0
ARC
  5
208
330
B
100
AcDbEntity
  8
LEVEL001
  6
Continuous
 62
     7
100
AcDbCircle
 10
1007.5
 20
828.0824626084299
 30
0.0
 40
12.7
100
AcDbArc
 50
270.0
 51
0.0
  0
LINE
  5
209
330
B
100
AcDbEntity
  8
LEVEL001
  6
Continuous
 62
     7
100
AcDbLine
 10
1020.2
 20
828.0824626084299
 30
0.0
 11
1020.2
 21
900.4160877157399
 31
0.0
  0
LWPOLYLINE
  5
20A
330
B
100
AcDbEntity
  8
LEVEL001
  6
Continuous
 62
     7
100
AcDbPolyline
 90
        3
 70
     0
 43
0.0
 10
1007.5
 20
900.4160877157399
 10
1007.5
 20
828.0824626084299
 10
977.5
 20
828.0824626084299
  0
LINE
  5
20B
330
B
100
AcDbEntity
  8
LEVEL001
  6
Continuous
 62
     7
100
AcDbLine
 10
977.5
 20
815.3824626084301
 30
0.0
 11
1007.5
 21
815.3824626084301
 31
0.0
  0
LWPOLYLINE
  5
20C
330
B
100
AcDbEntity
  8
LEVEL001
  6
Continuous
 62
     7
100
AcDbPolyline
 90
        3
 70
     0
 43
0.0
 10
977.5
 20
773.3817602093199
 10
980.4999999999999
 20
773.3817602093199
 10
980.4999999999999
 20
815.3824626084301
  0
LWPOLYLINE
  5
20D
330
B
100
AcDbEntity
  8
LEVEL001
  6
Continuous
 62
     7
100
AcDbPolyline
 90
        3
 70
     0
 43
0.0
 10
980.4999999999999
 20
828.0824626084299
 10
980.4999999999999
 20
833.33188588928
 10
977.5
 20
833.33188588928
  0
LINE
  5
20E
330
B
100
AcDbEntity
  8
LEVEL001
  6
Continuous
 62
     7
100
AcDbLine
 10
549.0
 20
353.43678312011
 30
0.0
 11
995.0
 21
353.43678312011
 31
0.0
  0
LWPOLYLINE
  5
20F
330
B
100
AcDbEntity
  8
LEVEL001
  6
Continuous
 62
     7
100
AcDbPolyline
 90
       10
 70
     0
 43
0.0
 10
977.5
 20
475.0817343182999
 10
994.0
 20
475.0817343182999
 10
994.0
 20
493.43432501783
 10
995.0
 20
493.43432501783
 10
995.0
 20
352.47085729381
 10
549.0
 20
352.47085729381
 10
549.0
 20
493.43432501783
 10
550.0
 20
493.43432501783
 10
550.0
 20
475.0817343182999
 10
566.5
 20
475.0817343182999
  0
LINE
  5
210
330
B
100
AcDbEntity
  8
LEVEL001
  6
Continuous
 62
     7
100
AcDbLine
 10
550.0
 20
373.08346904515
 30
0.0
 11
550.0
 21
475.0817343182999
 31
0.0
  0
LINE
  5
211
330
B
100
AcDbEntity
  8
LEVEL001
  6
Continuous
 62
     7
100
AcDbLine
 10
994.0
 20
373.08346904515
 30
0.0
 11
994.0
 21
475.0817343182999
 31
0.0
  0
LWPOLYLINE
  5
212
330
B
100
AcDbEntity
  8
LEVEL001
  6
Continuous
 62
     7
100
AcDbPolyline
 90
        3
 70
     0
 43
0.0
 10
994.0
 20
353.43678312011
 10
994.0
 20
373.08346904515
 10
995.0
 20
373.08346904515
  0
LWPOLYLINE
  5
213
330
B
100
AcDbEntity
  8
LEVEL001
  6
Continuous
 62
     7
100
AcDbPolyline
 90
        3
 70
     0
 43
0.0
 10
549.0
 20
373.08346904515
 10
550.0
 20
373.08346904515
 10
550.0
 20
353.43678312011
  0
LINE
  5
214
330
B
100
AcDbEntity
  8
LEVEL001
  6
Continuous
 62
     7
100
AcDbLine
 10
994.0
 20
1155.0
 30
0.0
 11
994.0
 21
1032.7856313776
 31
0.0
  0
LWPOLYLINE
  5
215
330
B
100
AcDbEntity
  8
LEVEL001
  6
HIDDEN
 62
     1
100
AcDbPolyline
 90
        6
 70
     0
 43
0.0
 10
566.5
 20
850.5
 10
594.5
 20
850.5
 10
594.5
 20
460.5
 10
949.5
 20
460.5
 10
949.5
 20
850.5
 10
977.5
 20
850.5
  0
LWPOLYLINE
  5
216
330
B
100
AcDbEntity
  8
LEVEL001
  6
HIDDEN
 62
     1
100
AcDbPolyline
 90
        4
 70
     0
 43
0.0
 10
695.8999999999999
 20
617.4999999999999
 10
695.8999999999999
 20
739.0
 10
708.6
 20
739.0
 10
708.6
 20
617.4999999999999
  0
LWPOLYLINE
  5
217
330
B
100
AcDbEntity
  8
LEVEL001
  6
HIDDEN
 62
     1
100
AcDbPolyline
 90
        4
 70
     0
 43
0.0
 10
881.9
 20
587.5
 10
881.9
 20
466.0
 10
894.5999999999999
 20
466.0
 10
894.5999999999999
 20
587.5
  0
ELLIPSE
  5
218
330
B
100
AcDbEntity
  8
LEVEL001
  6
HIDDEN
 62
     1
100
AcDbEllipse
 10
748.7499999999999
 20
591.89339828226
 30
0.0
 11
-6.349999999999998
 21
0.0
 31
0.0
210
0.0
220
0.0
230
0.9999999999999998
 40
0.8641613216108899
 41
3.1415926535898
 42
6.283185307179586
  0
ELLIPSE
  5
219
330
B
100
AcDbEntity
  8
LEVEL001
  6
HIDDEN
 62
     1
100
AcDbEllipse
 10
841.75
 20
613.1066017177399
 30
0.0
 11
-6.349999999999998
 21
0.0
 31
0.0
210
0.0
220
0.0
230
0.9999999999999998
 40
0.8641613216108899
 41
0.0
 42
3.1415926535898
  0
ELLIPSE
  5
21A
330
B
100
AcDbEntity
  8
LEVEL001
  6
HIDDEN
 62
     1
100
AcDbEllipse
 10
655.75
 20
505.97992436797
 30
0.0
 11
-6.349999999999998
 21
0.0
 31
0.0
210
0.0
220
0.0
230
0.9999999999999998
 40
0.70710678118295
 41
0.0
 42
3.1415926535898
  0
ELLIPSE
  5
21B
330
B
100
AcDbEntity
  8
LEVEL001
  6
HIDDEN
 62
     1
100
AcDbEllipse
 10
748.7499999999999
 20
505.97992436797
 30
0.0
 11
-6.349999999999998
 21
0.0
 31
0.0
210
0.0
220
0.0
230
0.9999999999999998
 40
0.70710678118295
 41
0.0
 42
6.283185307179586
  0
ELLIPSE
  5
21C
330
B
100
AcDbEntity
  8
LEVEL001
  6
HIDDEN
 62
     1
100
AcDbEllipse
 10
841.75
 20
699.02007563191
 30
0.0
 11
-6.349999999999998
 21
0.0
 31
0.0
210
0.0
220
0.0
230
0.9999999999999998
 40
0.70710678118295
 41
0.0
 42
6.283185307179586
  0
LINE
  5
21D
330
B
100
AcDbEntity
  8
LEVEL001
  6
HIDDEN
 62
     1
100
AcDbLine
 10
649.3999999999999
 20
587.5
 30
0.0
 11
649.3999999999999
 21
505.97992436797
 31
0.0
  0
LINE
  5
21E
330
B
100
AcDbEntity
  8
LEVEL001
  6
HIDDEN
 62
     1
100
AcDbLine
 10
662.1
 20
505.97992436797
 30
0.0
 11
662.1
 21
587.5
 31
0.0
  0
LINE
  5
21F
330
B
100
AcDbEntity
  8
LEVEL001
  6
HIDDEN
 62
     1
100
AcDbLine
 10
742.3999999999999
 20
591.89339828226
 30
0.0
 11
742.3999999999999
 21
505.97992436797
 31
0.0
  0
LINE
  5
220
330
B
100
AcDbEntity
  8
LEVEL001
  6
HIDDEN
 62
     1
100
AcDbLine
 10
755.1
 20
505.97992436797
 30
0.0
 11
755.1
 21
591.89339828226
 31
0.0
  0
LINE
  5
221
330
B
100
AcDbEntity
  8
LEVEL001
  6
HIDDEN
 62
     1
100
AcDbLine
 10
835.3999999999999
 20
613.1066017177399
 30
0.0
 11
835.3999999999999
 21
699.02007563191
 31
0.0
  0
LINE
  5
222
330
B
100
AcDbEntity
  8
LEVEL001
  6
HIDDEN
 62
     1
100
AcDbLine
 10
848.0999999999999
 20
699.02007563191
 30
0.0
 11
848.0999999999999
 21
613.1066017177399
 31
0.0
  0
LWPOLYLINE
  5
223
330
B
100
AcDbEntity
  8
LEVEL001
  6
HIDDEN
 62
     1
100
AcDbPolyline
 90
        4
 70
     0
 43
0.0
 10
755.1
 20
587.5
 10
943.5
 20
587.5
 10
943.5
 20
617.4999999999999
 10
848.0999999999999
 20
617.4999999999999
  0
LWPOLYLINE
  5
224
330
B
100
AcDbEntity
  8
LEVEL001
  6
HIDDEN
 62
     1
100
AcDbPolyline
 90
        4
 70
     0
 43
0.0
 10
835.3999999999999
 20
617.4999999999999
 10
600.4999999999999
 20
617.4999999999999
 10
600.4999999999999
 20
587.5
 10
742.3999999999999
 20
587.5
  0
LINE
  5
225
330
B
100
AcDbEntity
  8
LEVEL001
  6
DASHDOT
 62
     1
100
AcDbLine
 10
373.0
 20
1291.0
 30
0.0
 11
1134.0
 21
1291.0
 31
0.0
  0
LINE
  5
226
330
B
100
AcDbEntity
  8
LEVEL001
  6
DASHDOT
 62
     1
100
AcDbLine
 10
368.0
 20
602.5
 30
0.0
 11
1111.0
 21
602.5
 31
0.0
  0
LINE
  5
227
330
B
100
AcDbEntity
  8
LEVEL001
  6
Continuous
 62
     7
100
AcDbLine
 10
374.0
 20
56.0
 30
0.0
 11
1111.0
 21
56.0
 31
0.0
  0
LINE
  5
228
330
B
100
AcDbEntity
  8
LEVEL001
  6
DASHDOT
 62
     1
100
AcDbLine
 10
772.0
 20
914.0
 30
0.0
 11
772.0
 21
88.0
 31
0.0
  0
LINE
  5
229
330
B
100
AcDbEntity
  8
LEVEL001
  6
DASHDOT
 62
     1
100
AcDbLine
 10
772.0
 20
1505.0
 30
0.0
 11
772.0
 21
1019.0
 31
0.0
  0
LINE
  5
22A
330
B
100
AcDbEntity
  8
LEVEL001
  6
HIDDEN
 62
     1
100
AcDbLine
 10
602.5
 20
609.87817728169
 30
0.0
 11
602.5
 21
595.1218227183099
 31
0.0
  0
ARC
  5
22B
330
B
100
AcDbEntity
  8
LEVEL001
  6
HIDDEN
 62
     1
100
AcDbCircle
 10
609.25
 20
602.5
 30
0.0
 40
10.0
100
AcDbArc
 50
227.5458497956
 51
252.4541502045
  0
LINE
  5
22C
330
B
100
AcDbEntity
  8
LEVEL001
  6
HIDDEN
 62
     1
100
AcDbLine
 10
606.23531104045
 20
592.96523988361
 30
0.0
 11
619.01468895956
 21
600.3434171652799
 31
0.0
  0
ARC
  5
22D
330
B
100
AcDbEntity
  8
LEVEL001
  6
HIDDEN
 62
     1
100
AcDbCircle
 10
609.25
 20
602.5
 30
0.0
 40
10.0
100
AcDbArc
 50
347.54584979549
 51
132.45415020442
  0
LINE
  5
22E
330
B
100
AcDbEntity
  8
LEVEL001
  6
HIDDEN
 62
     1
100
AcDbLine
 10
924.75
 20
617.4999999999999
 30
0.0
 11
924.75
 21
699.02007563191
 31
0.0
  0
LINE
  5
22F
330
B
100
AcDbEntity
  8
LEVEL001
  6
HIDDEN
 62
     1
100
AcDbLine
 10
937.7646889595499
 20
703.3013050269099
 30
0.0
 11
937.7646889595499
 21
617.4999999999999
 31
0.0
  0
LINE
  5
230
330
B
100
AcDbEntity
  8
LEVEL001
  6
HIDDEN
 62
     1
100
AcDbLine
 10
941.5
 20
702.3329717167899
 30
0.0
 11
941.5
 21
617.4999999999999
 31
0.0
  0
LINE
  5
231
330
B
100
AcDbEntity
  8
LEVEL001
  6
HIDDEN
 62
     1
100
AcDbLine
 10
924.98531104044
 20
699.98840894203
 30
0.0
 11
924.98531104044
 21
617.4999999999999
 31
0.0
  0
ELLIPSE
  5
232
330
B
100
AcDbEntity
  8
LEVEL001
  6
HIDDEN
 62
     1
100
AcDbEllipse
 10
934.75
 20
699.02007563191
 30
0.0
 11
-10.0
 21
0.0
 31
0.0
210
0.0
220
0.0
230
1.0
 40
0.4490128060628101
 41
-2.311761028997899
 42
-1.877029175786899
  0
ELLIPSE
  5
233
330
B
100
AcDbEntity
  8
LEVEL001
  6
HIDDEN
 62
     1
100
AcDbEllipse
 10
934.75
 20
699.02007563191
 30
0.0
 11
-10.0
 21
0.0
 31
0.0
210
0.0
220
0.0
230
1.0
 40
0.4490128060628101
 41
-0.21736592660631
 42
0.0
  0
LINE
  5
234
330
B
100
AcDbEntity
  8
LEVEL001
  6
HIDDEN
 62
     1
100
AcDbLine
 10
937.7646889595499
 20
703.3013050269099
 30
0.0
 11
924.98531104044
 21
699.98840894203
 31
0.0
  0
LINE
  5
235
330
B
100
AcDbEntity
  8
LEVEL001
  6
Continuous
 62
     7
100
AcDbLine
 10
997.0
 20
1361.0
 30
0.0
 11
1037.0
 21
1361.0
 31
0.0
  0
LINE
  5
236
330
B
100
AcDbEntity
  8
LEVEL001
  6
Continuous
 62
     7
100
AcDbLine
 10
997.0
 20
1221.0
 30
0.0
 11
1037.0
 21
1221.0
 31
0.0
  0
LINE
  5
237
330
B
100
AcDbEntity
  8
LEVEL001
  6
Continuous
 62
     7
100
AcDbLine
 10
507.0
 20
1361.0
 30
0.0
 11
547.0
 21
1361.0
 31
0.0
  0
LWPOLYLINE
  5
238
330
B
100
AcDbEntity
  8
LEVEL001
  6
Continuous
 62
     7
100
AcDbPolyline
 90
        4
 70
     1
 43
0.0
 10
507.0
 20
566.0
 10
547.0
 20
566.0
 10
547.0
 20
581.0
 10
507.0
 20
581.0
  0
LWPOLYLINE
  5
239
330
B
100
AcDbEntity
  8
LEVEL001
  6
Continuous
 62
     7
100
AcDbPolyline
 90
        4
 70
     0
 43
0.0
 10
517.0
 20
581.0
 10
517.0
 20
637.5
 10
537.0
 20
637.5
 10
537.0
 20
581.0
  0
LWPOLYLINE
  5
23A
330
B
100
AcDbEntity
  8
LEVEL001
  6
Continuous
 62
     7
100
AcDbPolyline
 90
        4
 70
     1
 43
0.0
 10
517.0
 20
1256.0
 10
537.0
 20
1256.0
 10
537.0
 20
1326.0
 10
517.0
 20
1326.0
  0
LWPOLYLINE
  5
23B
330
B
100
AcDbEntity
  8
LEVEL001
  6
Continuous
 62
     7
100
AcDbPolyline
 90
        4
 70
     1
 43
0.0
 10
1007.0
 20
1256.0
 10
1027.0
 20
1256.0
 10
1027.0
 20
1326.0
 10
1007.0
 20
1326.0
  0
CIRCLE
  5
23C
330
B
100
AcDbEntity
  8
LEVEL001
  6
Continuous
 62
     7
100
AcDbCircle
 10
1073.85
 20
1191.0
 30
0.0
 40
15.0
  0
LINE
  5
23D
330
B
100
AcDbEntity
  8
LEVEL001
  6
Continuous
 62
     7
100
AcDbLine
 10
1060.2603899982
 20
1197.35
 30
0.0
 11
1042.5
 21
1197.35
 31
0.0
  0
LINE
  5
23E
330
B
100
AcDbEntity
  8
LEVEL001
  6
Continuous
 62
     7
100
AcDbLine
 10
1042.5
 20
1184.65
 30
0.0
 11
1060.2603899982
 21
1184.65
 31
0.0
  0
LINE
  5
23F
330
B
100
AcDbEntity
  8
LEVEL001
  6
Continuous
 62
     7
100
AcDbLine
 10
1060.8596189432
 20
1198.5
 30
0.0
 11
1049.0
 21
1198.5
 31
0.0
  0
LINE
  5
240
330
B
100
AcDbEntity
  8
LEVEL001
  6
Continuous
 62
     7
100
AcDbLine
 10
1049.0
 20
1183.5
 30
0.0
 11
1060.8596189432
 21
1183.5
 31
0.0
  0
LWPOLYLINE
  5
241
330
B
100
AcDbEntity
  8
LEVEL001
  6
Continuous
 62
     7
100
AcDbPolyline
 90
        8
 70
     0
 43
0.0
 10
1080.0
 20
1204.6812828346
 10
1080.0
 20
1243.0
 10
1040.0
 20
1243.0
 10
1040.0
 20
1263.0
 10
1037.0
 20
1263.0
 10
1037.0
 20
1240.0
 10
1049.0
 20
1240.0
 10
1049.0
 20
1197.35
  0
LWPOLYLINE
  5
242
330
B
100
AcDbEntity
  8
LEVEL001
  6
Continuous
 62
     7
100
AcDbPolyline
 90
        8
 70
     0
 43
0.0
 10
1049.0
 20
1184.65
 10
1049.0
 20
1142.0
 10
1037.0
 20
1142.0
 10
1037.0
 20
1119.0
 10
1040.0
 20
1119.0
 10
1040.0
 20
1139.0
 10
1080.0
 20
1139.0
 10
1080.0
 20
1177.3187171654
  0
LWPOLYLINE
  5
243
330
B
100
AcDbEntity
  8
LEVEL001
  6
Continuous
 62
     7
100
AcDbPolyline
 90
        4
 70
     1
 43
0.0
 10
986.5
 20
1176.0
 10
1042.5
 20
1176.0
 10
1042.5
 20
1206.0
 10
986.5
 20
1206.0
  0
LWPOLYLINE
  5
244
330
B
100
AcDbEntity
  8
LEVEL001
  6
Continuous
 62
     7
100
AcDbPolyline
 90
        4
 70
     0
 43
0.0
 10
989.4999999999999
 20
1176.0
 10
989.4999999999999
 20
1155.0
 10
1039.5
 20
1155.0
 10
1039.5
 20
1176.0
  0
LINE
  5
245
330
B
100
AcDbEntity
  8
LEVEL001
  6
Continuous
 62
     7
100
AcDbLine
 10
986.5
 20
580.6499999999999
 30
0.0
 11
984.5
 21
580.6499999999999
 31
0.0
  0
LINE
  5
246
330
B
100
AcDbEntity
  8
LEVEL001
  6
Continuous
 62
     7
100
AcDbLine
 10
984.5
 20
593.35
 30
0.0
 11
986.5
 21
593.35
 31
0.0
  0
LWPOLYLINE
  5
247
330
B
100
AcDbEntity
  8
LEVEL001
  6
Continuous
 62
     7
100
AcDbPolyline
 90
        4
 70
     0
 43
0.0
 10
977.5
 20
572.0
 10
984.5
 20
572.0
 10
984.5
 20
602.0
 10
977.5
 20
602.0
  0
LINE
  5
248
330
B
100
AcDbEntity
  8
LEVEL001
  6
Continuous
 62
     7
100
AcDbLine
 10
984.5
 20
1184.65
 30
0.0
 11
986.5
 21
1184.65
 31
0.0
  0
LINE
  5
249
330
B
100
AcDbEntity
  8
LEVEL001
  6
Continuous
 62
     7
100
AcDbLine
 10
986.5
 20
1197.35
 30
0.0
 11
984.5
 21
1197.35
 31
0.0
  0
LWPOLYLINE
  5
24A
330
B
100
AcDbEntity
  8
LEVEL001
  6
Continuous
 62
     7
100
AcDbPolyline
 90
        4
 70
     0
 43
0.0
 10
982.0
 20
1176.0
 10
984.5
 20
1176.0
 10
984.5
 20
1206.0
 10
982.0
 20
1206.0
  0
LWPOLYLINE
  5
24B
330
B
100
AcDbEntity
  8
LEVEL001
  6
Continuous
 62
     7
100
AcDbPolyline
 90
        4
 70
     0
 43
0.0
 10
562.0
 20
1217.8440532617
 10
557.5
 20
1217.8440532617
 10
557.5
 20
1155.8440532617
 10
562.0
 20
1155.8440532617
  0
LWPOLYLINE
  5
24C
330
B
100
AcDbEntity
  8
LEVEL001
  6
Continuous
 62
     7
100
AcDbPolyline
 90
        4
 70
     0
 43
0.0
 10
602.6803871843299
 20
1456.15649303
 10
604.80940107679
 20
1459.8440532617
 10
610.19059892321
 20
1459.8440532617
 10
612.3196128156699
 20
1456.15649303
  0
LWPOLYLINE
  5
24D
330
B
100
AcDbEntity
  8
LEVEL001
  6
Continuous
 62
     7
100
AcDbPolyline
 90
        4
 70
     0
 43
0.0
 10
931.6803871843299
 20
1456.15649303
 10
933.80940107679
 20
1459.8440532617
 10
939.19059892321
 20
1459.8440532617
 10
941.31961281567
 20
1456.15649303
  0
LWPOLYLINE
  5
24E
330
B
100
AcDbEntity
  8
LEVEL001
  6
Continuous
 62
     7
100
AcDbPolyline
 90
        8
 70
     0
 43
0.0
 10
557.5
 20
1216.8440532617
 10
538.4999999999999
 20
1216.8440532617
 10
538.4999999999999
 20
1206.8440532617
 10
532.5
 20
1206.8440532617
 10
532.5
 20
1166.8440532617
 10
538.4999999999999
 20
1166.8440532617
 10
538.4999999999999
 20
1156.8440532617
 10
557.5
 20
1156.8440532617
  0
LWPOLYLINE
  5
24F
330
B
100
AcDbEntity
  8
LEVEL001
  6
Continuous
 62
     7
100
AcDbPolyline
 90
        4
 70
     0
 43
0.0
 10
506.0
 20
1142.5
 10
512.5
 20
1142.5
 10
512.5
 20
1237.5
 10
506.0
 20
1237.5
  0
LINE
  5
250
330
B
100
AcDbEntity
  8
LEVEL001
  6
Continuous
 62
     7
100
AcDbLine
 10
512.5
 20
1221.0
 30
0.0
 11
547.0
 21
1221.0
 31
0.0
  0
LWPOLYLINE
  5
251
330
B
100
AcDbEntity
  8
LEVEL001
  6
Continuous
 62
     7
100
AcDbPolyline
 90
        3
 70
     0
 43
0.0
 10
549.0
 20
1131.0
 10
547.0
 20
1131.0
 10
547.0
 20
1156.8440532617
  0
LINE
  5
252
330
B
100
AcDbEntity
  8
LEVEL001
  6
Continuous
 62
     7
100
AcDbLine
 10
550.0
 20
1156.8440532617
 30
0.0
 11
550.0
 21
1032.7856313776
 31
0.0
  0
LWPOLYLINE
  5
253
330
B
100
AcDbEntity
  8
LEVEL001
  6
Continuous
 62
     7
100
AcDbPolyline
 90
        4
 70
     0
 43
0.0
 10
549.0
 20
1156.8440532617
 10
549.0
 20
1032.7856313776
 10
995.0
 20
1032.7856313776
 10
995.0
 20
1155.0
  0
LINE
  5
254
330
B
100
AcDbEntity
  8
LEVEL001
  6
Continuous
 62
     7
100
AcDbLine
 10
547.0
 20
1216.8440532617
 30
0.0
 11
547.0
 21
1278.5
 31
0.0
  0
LINE
  5
255
330
B
100
AcDbEntity
  8
LEVEL001
  6
Continuous
 62
     7
100
AcDbLine
 10
549.0
 20
1278.5
 30
0.0
 11
549.0
 21
1216.8440532617
 31
0.0
  0
LINE
  5
256
330
B
100
AcDbEntity
  8
LEVEL001
  6
Continuous
 62
     7
100
AcDbLine
 10
550.0
 20
1278.5
 30
0.0
 11
550.0
 21
1216.8440532617
 31
0.0
  0
LWPOLYLINE
  5
257
330
B
100
AcDbEntity
  8
LEVEL001
  6
Continuous
 62
     7
100
AcDbPolyline
 90
        4
 70
     1
 43
0.0
 10
557.5
 20
785.0
 10
557.5
 20
820.0
 10
532.5
 20
820.0
 10
532.5
 20
785.0
  0
LINE
  5
258
330
B
100
AcDbEntity
  8
LEVEL001
  6
Continuous
 62
     7
100
AcDbLine
 10
538.4999999999999
 20
820.0
 30
0.0
 11
538.4999999999999
 21
785.0
 31
0.0
  0
LWPOLYLINE
  5
259
330
B
100
AcDbEntity
  8
LEVEL001
  6
Continuous
 62
     7
100
AcDbPolyline
 90
        4
 70
     0
 43
0.0
 10
506.0
 20
820.0
 10
512.5
 20
820.0
 10
512.5
 20
785.0
 10
506.0
 20
785.0
  0
DIMENSION
  5
25A
330
B
100
AcDbEntity
  8
LEVEL001
  6
Continuous
 62
     1
100
AcDbDimension
  2
*D0
 10
949.5
 20
400.0
 30
0.0
 11
772.0
 21
400.0
 31
0.0
 71
     5
 42
-1.0
  3
GMM001
100
AcDbAlignedDimension
 13
594.5
 23
460.5
 33
0.0
 14
949.5
 24
460.5
 34
0.0
100
AcDbRotatedDimension
  0
DIMENSION
  5
25B
330
B
100
AcDbEntity
  8
LEVEL001
  6
Continuous
 62
     1
100
AcDbDimension
  2
*D1
 10
1150.0
 20
56.0
 30
0.0
 11
1150.0
 21
453.5
 31
0.0
 71
     5
 42
-1.0
  3
GMM001
100
AcDbAlignedDimension
 13
981.0
 23
851.0
 33
0.0
 14
1003.0
 24
56.0
 34
0.0
 50
270.0
100
AcDbRotatedDimension
  0
DIMENSION
  5
25C
330
B
100
AcDbEntity
  8
LEVEL001
  6
Continuous
 62
     1
100
AcDbDimension
  2
*D2
 10
392.0
 20
976.0
 30
0.0
 11
742.0
 21
976.0
 31
0.0
 71
     5
 42
-1.0
  3
GMM001
100
AcDbAlignedDimension
 13
1092.0
 23
681.35
 33
0.0
 14
392.0
 24
821.0
 34
0.0
 50
180.0
100
AcDbRotatedDimension
  0
DIMENSION
  5
25D
330
B
100
AcDbEntity
  8
LEVEL001
  6
Continuous
 62
     1
100
AcDbDimension
  2
*D3
 10
1198.0
 20
936.0
 30
0.0
 11
1198.0
 21
496.0
 31
0.0
 71
     5
 42
-1.0
  3
GMM001
100
AcDbAlignedDimension
 13
1003.0
 23
56.0
 33
0.0
 14
1013.85
 24
936.0
 34
0.0
 50
90.0
100
AcDbRotatedDimension
  0
LINE
  5
25E
330
B
100
AcDbEntity
  8
LEVEL001
  6
Continuous
 62
     7
100
AcDbLine
 10
1512.0
 20
155.0
 30
0.0
 11
1461.7949948362
 21
83.405292345335
 31
0.0
  0
LINE
  5
25F
330
B
100
AcDbEntity
  8
LEVEL001
  6
Continuous
 62
     7
100
AcDbLine
 10
1430.0
 20
157.0
 30
0.0
 11
1430.0
 21
93.49999999999999
 31
0.0
  0
LWPOLYLINE
  5
260
330
B
100
AcDbEntity
  8
LEVEL001
  6
Continuous
 62
     7
100
AcDbPolyline
 90
        4
 70
     0
 43
0.0
 10
1426.0
 20
166.0
 10
1426.0
 20
157.0
 10
1516.0
 20
157.0
 10
1516.0
 20
166.0
  0
LWPOLYLINE
  5
261
330
B
100
AcDbEntity
  8
LEVEL001
  6
Continuous
 62
     7
100
AcDbPolyline
 90
        3
 70
     0
 43
0.0
 10
1430.0
 20
155.0
 10
1512.0
 20
155.0
 10
1512.0
 20
157.0
  0
LWPOLYLINE
  5
262
330
B
100
AcDbEntity
  8
LEVEL001
  6
Continuous
 62
     7
100
AcDbPolyline
 90
        4
 70
     0
 43
0.0
 10
1726.0
 20
166.0
 10
1726.0
 20
157.0
 10
1816.0
 20
157.0
 10
1816.0
 20
166.0
  0
LINE
  5
263
330
B
100
AcDbEntity
  8
LEVEL001
  6
Continuous
 62
     7
100
AcDbLine
 10
1486.9817058854
 20
825.5615459808099
 30
0.0
 11
1478.1188671294
 21
608.3293970205
 31
0.0
  0
ARC
  5
264
330
B
100
AcDbEntity
  8
LEVEL001
  6
Continuous
 62
     7
100
AcDbCircle
 10
1621.0
 20
602.5
 30
0.0
 40
35.0
100
AcDbArc
 50
0.0
 51
180.0
  0
LWPOLYLINE
  5
265
330
B
100
AcDbEntity
  8
LEVEL001
  6
Continuous
 62
     7
100
AcDbPolyline
 90
        4
 70
     0
 43
0.0
 10
1656.0
 20
602.5
 10
1656.0
 20
581.0
 10
1691.0
 20
581.0
 10
1691.0
 20
566.0
  0
LWPOLYLINE
  5
266
330
B
100
AcDbEntity
  8
LEVEL001
  6
Continuous
 62
     7
100
AcDbPolyline
 90
        4
 70
     0
 43
0.0
 10
1421.0
 20
166.0
 10
1420.0
 20
166.0
 10
1420.0
 20
364.0
 10
1421.0
 20
364.0
  0
CIRCLE
  5
267
330
B
100
AcDbEntity
  8
LEVEL001
  6
Continuous
 62
     7
100
AcDbCircle
 10
1621.0
 20
602.5
 30
0.0
 40
12.5
  0
LWPOLYLINE
  5
268
330
B
100
AcDbEntity
  8
LEVEL001
  6
Continuous
 62
     7
100
AcDbPolyline
 90
       18
 70
     0
 43
0.0
 10
1513.5
 20
581.4999999999799
 10
1513.5
 20
586.0
 10
1472.0
 20
586.0
 10
1472.0
 20
583.0
 10
1464.0
 20
583.0
 10
1449.0
 20
568.0
 10
1449.0
 20
508.0
 10
1472.0
 20
508.0
 10
1472.0
 20
505.0
 10
1570.0
 20
505.0
 10
1570.0
 20
508.0
 10
1593.0
 20
508.0
 10
1593.0
 20
568.0
 10
1578.0
 20
583.0
 10
1570.0
 20
583.0
 10
1570.0
 20
586.0
 10
1528.5
 20
586.0
 10
1528.5
 20
581.4999999999799
  0
LINE
  5
269
330
B
100
AcDbEntity
  8
LEVEL001
  6
Continuous
 62
     7
100
AcDbLine
 10
1469.0
 20
583.0
 30
0.0
 11
1469.0
 21
508.0
 31
0.0
  0
LINE
  5
26A
330
B
100
AcDbEntity
  8
LEVEL001
  6
Continuous
 62
     7
100
AcDbLine
 10
1573.0
 20
583.0
 30
0.0
 11
1573.0
 21
508.0
 31
0.0
  0
ARC
  5
26B
330
B
100
AcDbEntity
  8
LEVEL001
  6
Continuous
 62
     7
100
AcDbCircle
 10
1521.0
 20
581.4999999999799
 30
0.0
 40
7.499999999976999
100
AcDbArc
 50
180.0
 51
0.0
  0
ARC
  5
26C
330
B
100
AcDbEntity
  8
LEVEL001
  6
Continuous
 62
     7
100
AcDbCircle
 10
1521.0
 20
587.0
 30
0.0
 40
6.3499999999999
100
AcDbArc
 50
180.0
 51
0.0
  0
CIRCLE
  5
26D
330
B
100
AcDbEntity
  8
LEVEL001
  6
Continuous
 62
     7
100
AcDbCircle
 10
1521.0
 20
681.35
 30
0.0
 40
15.0
  0
LWPOLYLINE
  5
26E
330
B
100
AcDbEntity
  8
LEVEL001
  6
Continuous
 62
     7
100
AcDbPolyline
 90
        6
 70
     1
 43
0.0
 10
1760.2387714141
 20
844.79034253091
 10
1760.1164763717
 20
847.78784881491
 10
1783.0973578824
 20
848.72544413988
 10
1783.1577191258
 20
869.8534826894899
 10
1786.1577068828
 20
869.8449119463699
 10
1786.0891409378
 20
845.8450098900799
  0
LWPOLYLINE
  5
26F
330
B
100
AcDbEntity
  8
LEVEL001
  6
Continuous
 62
     7
100
AcDbPolyline
 90
        3
 70
     0
 43
0.0
 10
1486.7955997004
 20
821.0
 10
1446.0
 20
821.0
 10
1446.0
 20
566.0
  0
LWPOLYLINE
  5
270
330
B
100
AcDbEntity
  8
LEVEL001
  6
Continuous
 62
     7
100
AcDbPolyline
 90
        4
 70
     0
 43
0.0
 10
1487.8792147492
 20
847.5598903673599
 10
1486.9817058854
 20
825.5615459808099
 10
1483.9841996014
 20
825.6838410231999
 10
1484.8767189586
 20
847.5598903673599
  0
LWPOLYLINE
  5
271
330
B
100
AcDbEntity
  8
LEVEL001
  6
Continuous
 62
     7
100
AcDbPolyline
 90
        5
 70
     0
 43
0.0
 10
1461.0
 20
508.0
 10
1461.0
 20
206.0
 10
1781.0
 20
206.0
 10
1781.0
 20
526.0
 10
1593.0
 20
526.0
  0
LWPOLYLINE
  5
272
330
B
100
AcDbEntity
  8
LEVEL001
  6
Continuous
 62
     7
100
AcDbPolyline
 90
        3
 70
     0
 43
0.0
 10
1580.0
 20
581.0
 10
1586.0
 20
581.0
 10
1586.0
 20
602.5
  0
ARC
  5
273
330
B
100
AcDbEntity
  8
LEVEL001
  6
Continuous
 62
     7
100
AcDbCircle
 10
1621.0
 20
602.5
 30
0.0
 40
143.0
100
AcDbArc
 50
177.6636893588
 51
186.62580956482
  0
LINE
  5
274
330
B
100
AcDbEntity
  8
LEVEL001
  6
Continuous
 62
     7
100
AcDbLine
 10
1514.65
 20
587.0
 30
0.0
 11
1514.65
 21
667.7603899982401
 31
0.0
  0
LINE
  5
275
330
B
100
AcDbEntity
  8
LEVEL001
  6
Continuous
 62
     7
100
AcDbLine
 10
1527.35
 20
667.7603899982401
 30
0.0
 11
1527.35
 21
587.0
 31
0.0
  0
ARC
  5
276
330
B
100
AcDbEntity
  8
LEVEL001
  6
Continuous
 62
     7
100
AcDbCircle
 10
1521.0
 20
586.9999999999899
 30
0.0
 40
15.0
100
AcDbArc
 50
356.17744627075
 51
64.954785638282
  0
ARC
  5
277
330
B
100
AcDbEntity
  8
LEVEL001
  6
Continuous
 62
     7
100
AcDbCircle
 10
1521.0
 20
587.0
 30
0.0
 40
15.0
100
AcDbArc
 50
115.04521436177
 51
183.82255372926
  0
ARC
  5
278
330
B
100
AcDbEntity
  8
LEVEL001
  6
Continuous
 62
     7
100
AcDbCircle
 10
1621.0
 20
602.5
 30
0.0
 40
143.0
100
AcDbArc
 50
345.21191147194
 51
2.3363106412015
  0
ARC
  5
279
330
B
100
AcDbEntity
  8
LEVEL001
  6
Continuous
 62
     7
100
AcDbCircle
 10
1621.0
 20
602.5
 30
0.0
 40
143.0
100
AcDbArc
 50
222.98588608019
 51
327.65845979799
  0
LWPOLYLINE
  5
27A
330
B
100
AcDbEntity
  8
LEVEL001
  6
Continuous
 62
     7
100
AcDbPolyline
 90
        4
 70
     1
 43
0.0
 10
1425.0
 20
721.2
 10
1435.0
 20
721.2
 10
1435.0
 20
744.2
 10
1425.0
 20
744.2
  0
LWPOLYLINE
  5
27B
330
B
100
AcDbEntity
  8
LEVEL001
  6
Continuous
 62
     7
100
AcDbPolyline
 90
        4
 70
     0
 43
0.0
 10
1425.0
 20
744.2
 10
1424.5
 20
740.7
 10
1424.5
 20
724.7
 10
1425.0
 20
721.2
  0
LWPOLYLINE
  5
27C
330
B
100
AcDbEntity
  8
LEVEL001
  6
Continuous
 62
     7
100
AcDbPolyline
 90
        3
 70
     0
 43
0.0
 10
1426.5
 20
721.2
 10
1427.5
 20
716.45
 10
1437.5
 20
716.45
  0
LWPOLYLINE
  5
27D
330
B
100
AcDbEntity
  8
LEVEL001
  6
Continuous
 62
     7
100
AcDbPolyline
 90
        4
 70
     0
 43
0.0
 10
1437.5
 20
745.7
 10
1436.5
 20
745.7
 10
1436.5
 20
719.7
 10
1437.5
 20
719.7
  0
LINE
  5
27E
330
B
100
AcDbEntity
  8
LEVEL001
  6
Continuous
 62
     7
100
AcDbLine
 10
1435.0
 20
721.2
 30
0.0
 11
1436.5
 21
719.7
 31
0.0
  0
LWPOLYLINE
  5
27F
330
B
100
AcDbEntity
  8
LEVEL001
  6
Continuous
 62
     7
100
AcDbPolyline
 90
        4
 70
     1
 43
0.0
 10
1440.5
 20
685.5
 10
1444.5
 20
685.5
 10
1444.5
 20
769.5
 10
1440.5
 20
769.5
  0
LWPOLYLINE
  5
280
330
B
100
AcDbEntity
  8
LEVEL001
  6
Continuous
 62
     7
100
AcDbPolyline
 90
        4
 70
     0
 43
0.0
 10
1440.5
 20
761.5
 10
1437.5
 20
761.5
 10
1437.5
 20
693.5
 10
1440.5
 20
693.5
  0
LINE
  5
281
330
B
100
AcDbEntity
  8
LEVEL001
  6
Continuous
 62
     7
100
AcDbLine
 10
1435.0
 20
744.2
 30
0.0
 11
1436.5
 21
745.7
 31
0.0
  0
LWPOLYLINE
  5
282
330
B
100
AcDbEntity
  8
LEVEL001
  6
Continuous
 62
     7
100
AcDbPolyline
 90
        3
 70
     0
 43
0.0
 10
1426.5
 20
744.2
 10
1427.5
 20
748.95
 10
1437.5
 20
748.95
  0
LWPOLYLINE
  5
283
330
B
100
AcDbEntity
  8
LEVEL001
  6
Continuous
 62
     7
100
AcDbPolyline
 90
        4
 70
     0
 43
0.0
 10
1444.5
 20
671.75
 10
1433.0
 20
671.75
 10
1433.0
 20
639.25
 10
1444.5
 20
639.25
  0
LWPOLYLINE
  5
284
330
B
100
AcDbEntity
  8
LEVEL001
  6
Continuous
 62
     7
100
AcDbPolyline
 90
        4
 70
     0
 43
0.0
 10
1433.0
 20
668.0
 10
1427.0
 20
668.0
 10
1427.0
 20
643.0
 10
1433.0
 20
643.0
  0
LWPOLYLINE
  5
285
330
B
100
AcDbEntity
  8
LEVEL001
  6
Continuous
 62
     7
100
AcDbPolyline
 90
        4
 70
     0
 43
0.0
 10
1446.0
 20
811.5
 10
1444.5
 20
811.5
 10
1444.5
 20
605.4999999999999
 10
1446.0
 20
605.4999999999999
  0
POINT
  5
286
330
B
100
AcDbEntity
  8
LEVEL001
 62
     7
100
AcDbPoint
 10
1755.1222266356
 20
798.4832742850199
 30
0.0
  0
POINT
  5
287
330
B
100
AcDbEntity
  8
LEVEL001
 62
     7
100
AcDbPoint
 10
1755.1222266356
 20
798.4832742850199
 30
0.0
  0
CIRCLE
  5
288
330
B
100
AcDbEntity
  8
LEVEL001
  6
Continuous
 62
     7
100
AcDbCircle
 10
1741.0512570781
 20
914.0056977174999
 30
0.0
 40
15.0
  0
LINE
  5
289
330
B
100
AcDbEntity
  8
LEVEL001
  6
Continuous
 62
     7
100
AcDbLine
 10
1738.4711844985
 20
821.4736047687098
 30
0.0
 11
1735.2605160874
 21
900.16852608532
 31
0.0
  0
LINE
  5
28A
330
B
100
AcDbEntity
  8
LEVEL001
  6
Continuous
 62
     7
100
AcDbLine
 10
1747.9499593563
 20
900.6862417647699
 30
0.0
 11
1751.1606277674
 21
821.99132044815
 31
0.0
  0
ARC
  5
28B
330
B
100
AcDbEntity
  8
LEVEL001
  6
Continuous
 62
     7
100
AcDbCircle
 10
1744.815906133
 20
821.73246260843
 30
0.0
 40
6.3499999999999
100
AcDbArc
 50
182.3363106412
 51
2.336310641203999
  0
LWPOLYLINE
  5
28C
330
B
100
AcDbEntity
  8
LEVEL001
  6
Continuous
 62
     7
100
AcDbPolyline
 90
        4
 70
     1
 43
0.0
 10
1753.1438457048
 20
773.3817602093199
 10
1765.1338708408
 20
773.87094037887
 10
1762.687969993
 20
833.8210660588298
 10
1750.6979448571
 20
833.33188588928
  0
LWPOLYLINE
  5
28D
330
B
100
AcDbEntity
  8
LEVEL001
  6
Continuous
 62
     7
100
AcDbPolyline
 90
        3
 70
     0
 43
0.0
 10
1766.0
 20
566.0
 10
1766.0
 20
821.0
 10
1763.2110557412
 20
821.0
  0
LINE
  5
28E
330
B
100
AcDbEntity
  8
LEVEL001
  6
Continuous
 62
     7
100
AcDbLine
 10
1757.6921261864
 20
833.61724098818
 30
0.0
 11
1757.1189700877
 21
847.66555377252
 31
0.0
  0
LINE
  5
28F
330
B
100
AcDbEntity
  8
LEVEL001
  6
Continuous
 62
     7
100
AcDbLine
 10
1754.1207852508
 20
847.5598903673599
 30
0.0
 11
1754.6946199024
 21
833.49494594579
 31
0.0
  0
LINE
  5
290
330
B
100
AcDbEntity
  8
LEVEL001
  6
Continuous
 62
     7
100
AcDbLine
 10
1757.1405207501
 20
773.54482026584
 30
0.0
 11
1763.8811328706
 21
608.3293970205
 31
0.0
  0
LINE
  5
291
330
B
100
AcDbEntity
  8
LEVEL001
  6
Continuous
 62
     7
100
AcDbLine
 10
1616.5
 20
895.0598903673601
 30
0.0
 11
1616.5
 21
869.55989036736
 31
0.0
  0
LINE
  5
292
330
B
100
AcDbEntity
  8
LEVEL001
  6
Continuous
 62
     7
100
AcDbLine
 10
1625.5
 20
895.0598903673601
 30
0.0
 11
1625.5
 21
869.55989036736
 31
0.0
  0
ARC
  5
293
330
B
100
AcDbEntity
  8
LEVEL001
  6
Continuous
 62
     7
100
AcDbCircle
 10
1621.0
 20
895.0598903673601
 30
0.0
 40
4.5
100
AcDbArc
 50
0.0
 51
180.0
  0
LWPOLYLINE
  5
294
330
B
100
AcDbEntity
  8
LEVEL001
  6
Continuous
 62
     7
100
AcDbPolyline
 90
        4
 70
     0
 43
0.0
 10
1736.5093156053
 20
869.55989036736
 10
1458.0
 20
869.55989036736
 10
1458.0
 20
847.5598903673599
 10
1737.4068920164
 20
847.5598903673599
  0
LWPOLYLINE
  5
295
330
B
100
AcDbEntity
  8
LEVEL001
  6
Continuous
 62
     7
100
AcDbPolyline
 90
        4
 70
     0
 43
0.0
 10
1750.11745753
 20
847.5598903673599
 10
1781.0
 20
847.5598903673599
 10
1781.0
 20
869.55989036736
 10
1749.2198811189
 20
869.55989036736
  0
LWPOLYLINE
  5
296
330
B
100
AcDbEntity
  8
LEVEL001
  6
Continuous
 62
     7
100
AcDbPolyline
 90
        5
 70
     0
 43
0.0
 10
1421.0
 20
367.99999999995
 10
1363.0444504227
 20
352.47085729381
 10
1362.7856313776
 20
353.43678312011
 10
1362.6976986521
 20
373.08346904515
 10
1421.0
 20
388.7055236082
  0
LINE
  5
297
330
B
100
AcDbEntity
  8
LEVEL001
  6
Continuous
 62
     7
100
AcDbLine
 10
1461.0
 20
399.42349130544
 30
0.0
 11
1781.0
 21
485.1672328833999
 31
0.0
  0
LINE
  5
298
330
B
100
AcDbEntity
  8
LEVEL001
  6
Continuous
 62
     7
100
AcDbLine
 10
1781.0
 20
464.46170927515
 30
0.0
 11
1461.0
 21
378.71796769719
 31
0.0
  0
LINE
  5
299
330
B
100
AcDbEntity
  8
LEVEL001
  6
HIDDEN
 62
     1
100
AcDbLine
 10
1489.0
 20
850.5
 30
0.0
 11
1753.0
 21
850.5
 31
0.0
  0
ARC
  5
29A
330
B
100
AcDbEntity
  8
LEVEL001
  6
HIDDEN
 62
     1
100
AcDbCircle
 10
1621.0
 20
602.5
 30
0.0
 40
143.0
100
AcDbArc
 50
186.62580956482
 51
222.98588608019
  0
ARC
  5
29B
330
B
100
AcDbEntity
  8
LEVEL001
  6
HIDDEN
 62
     1
100
AcDbCircle
 10
1621.0
 20
602.5
 30
0.0
 40
142.0
100
AcDbArc
 50
177.6636893588
 51
2.3363106412008
  0
ARC
  5
29C
330
B
100
AcDbEntity
  8
LEVEL001
  6
HIDDEN
 62
     1
100
AcDbCircle
 10
1621.0
 20
602.5
 30
0.0
 40
143.0
100
AcDbArc
 50
327.65845979799
 51
345.21191147194
  0
LINE
  5
29D
330
B
100
AcDbEntity
  8
LEVEL001
  6
HIDDEN
 62
     1
100
AcDbLine
 10
1489.0
 20
850.5
 30
0.0
 11
1479.1180358908
 21
608.28863200637
 31
0.0
  0
LINE
  5
29E
330
B
100
AcDbEntity
  8
LEVEL001
  6
HIDDEN
 62
     1
100
AcDbLine
 10
1753.0
 20
850.5
 30
0.0
 11
1762.8819641092
 21
608.28863200637
 31
0.0
  0
LWPOLYLINE
  5
29F
330
B
100
AcDbEntity
  8
LEVEL001
  6
Continuous
 62
     7
100
AcDbPolyline
 90
        6
 70
     0
 43
0.0
 10
1449.0
 20
566.0
 10
1421.0
 20
566.0
 10
1421.0
 20
166.0
 10
1821.0
 20
166.0
 10
1821.0
 20
566.0
 10
1593.0
 20
566.0
  0
LINE
  5
2A0
330
B
100
AcDbEntity
  8
LEVEL001
  6
DASHDOT
 62
     1
100
AcDbLine
 10
1621.0
 20
914.0
 30
0.0
 11
1621.0
 21
88.0
 31
0.0
  0
LINE
  5
2A1
330
B
100
AcDbEntity
  8
LEVEL001
  6
Continuous
 62
     7
100
AcDbLine
 10
1516.0
 20
165.0
 30
0.0
 11
1726.0
 21
165.0
 31
0.0
  0
LINE
  5
2A2
330
B
100
AcDbEntity
  8
LEVEL001
  6
Continuous
 62
     7
100
AcDbLine
 10
1586.0
 20
581.0
 30
0.0
 11
1656.0
 21
581.0
 31
0.0
  0
LWPOLYLINE
  5
2A3
330
B
100
AcDbEntity
  8
LEVEL001
  6
Continuous
 62
     7
100
AcDbPolyline
 90
        4
 70
     0
 43
0.0
 10
1786.1366686872
 20
862.4809846639999
 10
1790.0
 20
860.2504892905701
 10
1790.0
 20
854.8692914441501
 10
1786.108503826
 20
852.6225350804899
  0
LINE
  5
2A4
330
B
100
AcDbEntity
  8
LEVEL001
  6
DASHDOT
 62
     1
100
AcDbLine
 10
1834.0
 20
602.5
 30
0.0
 11
1408.0
 21
602.5
 31
0.0
  0
DIMENSION
  5
2A5
330
B
100
AcDbEntity
  8
LEVEL001
  6
Continuous
 62
     1
100
AcDbDimension
  2
*D4
 10
1362.7
 20
976.0
 30
0.0
 11
1591.85
 21
976.0
 31
0.0
 71
     5
 42
-1.0
  3
GMM001
100
AcDbAlignedDimension
 13
1821.0
 23
566.0
 33
0.0
 14
1362.7
 24
379.0
 34
0.0
 50
180.0
100
AcDbRotatedDimension
  0
DIMENSION
  5
2A6
330
B
100
AcDbEntity
  8
LEVEL001
  6
Continuous
 62
     1
100
AcDbDimension
  2
*D5
 10
1421.0
 20
931.0
 30
0.0
 11
1621.0
 21
931.0
 31
0.0
 71
     5
 42
-1.0
  3
GMM002
100
AcDbAlignedDimension
 13
1821.0
 23
566.0
 33
0.0
 14
1421.0
 24
566.0
 34
0.0
 50
180.0
100
AcDbRotatedDimension
  0
DIMENSION
  5
2A7
330
B
100
AcDbEntity
  8
LEVEL001
  6
Continuous
 62
     1
100
AcDbDimension
  2
*D6
 10
1362.7
 20
931.0
 30
0.0
 11
1402.85
 21
931.0
 31
0.0
 70
   128
 71
     5
 42
-1.0
  3
GMM003
100
AcDbAlignedDimension
 13
1421.0
 23
566.0
 33
0.0
 14
1362.7
 24
379.0
 34
0.0
 50
180.0
100
AcDbRotatedDimension
  0
DIMENSION
  5
2A8
330
B
100
AcDbEntity
  8
LEVEL001
  6
Continuous
 62
     1
100
AcDbDimension
  2
*D7
 10
1621.0
 20
602.5
 30
0.0
 11
1699.025619280799
 21
570.35344485631
 31
0.0
 70
   132
 71
     5
 42
-1.0
  3
GMM004
100
AcDbRadialDimension
 15
1752.2934109494
 25
548.40711468887
 35
0.0
 40
0.0
  0
CIRCLE
  5
2A9
330
B
100
AcDbEntity
  8
LEVEL001
  6
Continuous
 62
     7
100
AcDbCircle
 10
1447.5
 20
93.49999999999999
 30
0.0
 40
5.0
  0
ARC
  5
2AA
330
B
100
AcDbEntity
  8
LEVEL001
  6
Continuous
 62
     7
100
AcDbCircle
 10
1447.5
 20
93.499999999992
 30
0.0
 40
17.5
100
AcDbArc
 50
179.99999999997
 51
324.77137870372
  0
ARC
  5
2AB
330
B
100
AcDbEntity
  8
LEVEL001
  6
Continuous
 62
     7
100
AcDbCircle
 10
1447.5
 20
93.49999999999999
 30
0.0
 40
37.5
100
AcDbArc
 50
117.81813928465
 51
27.142386627725
  0
LINE
  5
2AC
330
B
100
AcDbEntity
  8
LEVEL001
  6
Continuous
 62
     7
100
AcDbLine
 10
1621.0
 20
56.0
 30
0.0
 11
1368.0
 21
56.0
 31
0.0
  0
DIMENSION
  5
2AD
330
B
100
AcDbEntity
  8
LEVEL001
  6
Continuous
 62
     1
100
AcDbDimension
  2
*D8
 10
507.0
 20
13.0
 30
0.0
 11
449.5
 21
13.0
 31
0.0
 70
   128
 71
     5
 42
-1.0
  3
GMM005
100
AcDbAlignedDimension
 13
392.0
 23
165.0
 33
0.0
 14
507.0
 24
166.0
 34
0.0
100
AcDbRotatedDimension
  0
DIMENSION
  5
2AE
330
B
100
AcDbEntity
  8
LEVEL001
  6
Continuous
 62
     1
100
AcDbDimension
  2
*D9
 10
1037.0
 20
13.0
 30
0.0
 11
772.0
 21
13.0
 31
0.0
 70
   128
 71
     5
 42
-1.0
  3
GMM005
100
AcDbAlignedDimension
 13
507.0
 23
166.0
 33
0.0
 14
1037.0
 24
166.0
 34
0.0
100
AcDbRotatedDimension
  0
DIMENSION
  5
2AF
330
B
100
AcDbEntity
  8
LEVEL001
  6
Continuous
 62
     1
100
AcDbDimension
  2
*D10
 10
1092.0
 20
13.0
 30
0.0
 11
1064.5
 21
13.0
 31
0.0
 70
   128
 71
     5
 42
-1.0
  3
GMM006
100
AcDbAlignedDimension
 13
1037.0
 23
166.0
 33
0.0
 14
1092.0
 24
681.35
 34
0.0
100
AcDbRotatedDimension
  0
ENDSEC
  0
SECTION
  2
OBJECTS
  0
DICTIONARY
  5
54
330
0
100
AcDbDictionary
281
     1
  3
ACAD_COLOR
350
2B5
  3
ACAD_GROUP
350
55
  3
ACAD_LAYOUT
350
2B8
  3
ACAD_MATERIAL
350
2B4
  3
ACAD_MLINESTYLE
350
56
  3
ACAD_PLOTSETTINGS
350
2B9
  3
ACAD_PLOTSTYLENAME
350
2B2
  3
ACAD_TABLESTYLE
350
2B6
  3
ACDBHEADERROUNDTRIPXREC
350
2C4
  3
AcDbVariableDictionary
350
2BF
  0
DICTIONARY
  5
2B5
102
{ACAD_REACTORS
330
54
102
}
330
54
100
AcDbDictionary
281
     1
  0
DICTIONARY
  5
55
102
{ACAD_REACTORS
330
54
102
}
330
0
100
AcDbDictionary
281
     1
  0
DICTIONARY
  5
2B8
102
{ACAD_REACTORS
330
54
102
}
330
54
100
AcDbDictionary
281
     1
  3
Model
350
2BA
  3
レイアウト1
350
2BB
  0
DICTIONARY
  5
2B4
102
{ACAD_REACTORS
330
54
102
}
330
54
100
AcDbDictionary
281
     1
  0
DICTIONARY
  5
56
102
{ACAD_REACTORS
330
54
102
}
330
0
100
AcDbDictionary
281
     1
  3
STANDARD
350
57
  0
DICTIONARY
  5
2B9
102
{ACAD_REACTORS
330
54
102
}
330
54
100
AcDbDictionary
281
     1
  0
ACDBDICTIONARYWDFLT
  5
2B2
102
{ACAD_REACTORS
330
54
102
}
330
54
100
AcDbDictionary
281
     1
  3
Normal
350
2B3
100
AcDbDictionaryWithDefault
340
2B3
  0
DICTIONARY
  5
2B6
102
{ACAD_REACTORS
330
54
102
}
330
54
100
AcDbDictionary
281
     1
  3
Standard
350
2B7
  0
DICTIONARY
  5
2C4
102
{ACAD_REACTORS
330
54
102
}
330
54
100
AcDbDictionary
281
     1
  0
DICTIONARY
  5
2BF
102
{ACAD_REACTORS
330
54
102
}
330
54
100
AcDbDictionary
281
     1
  3
CTABLESTYLE
350
2C0
  3
DIMASSOC
350
2C1
  3
PROJECTNAME
350
2C2
  0
LAYOUT
  5
2BA
102
{ACAD_XDICTIONARY
360
2C5
102
}
102
{ACAD_REACTORS
330
2B8
102
}
330
2B8
100
AcDbPlotSettings
  1

  2
Microsoft XPS Document Writer
  4

  6

 40
0.0
 41
0.0
 42
0.0
 43
0.0
 44
0.0
 45
0.0
 46
0.0
 47
0.0
 48
0.0
 49
0.0
140
0.0
141
0.0
142
1.0
143
1.0
 70
  1712
 72
     0
 73
     0
 74
     0
  7

 75
     0
147
1.0
148
0.0
149
0.0
100
AcDbLayout
  1
Model
 70
     1
 71
     0
 10
0.0
 20
0.0
 11
12.0
 21
9.0
 12
0.0
 22
0.0
 32
0.0
 14
0.0
 24
0.0
 34
0.0
 15
0.0
 25
0.0
 35
0.0
146
0.0
 13
0.0
 23
0.0
 33
0.0
 16
1.0
 26
0.0
 36
0.0
 17
0.0
 27
1.0
 37
0.0
 76
     0
330
B
  0
LAYOUT
  5
2BB
102
{ACAD_XDICTIONARY
360
2C7
102
}
102
{ACAD_REACTORS
330
2B8
102
}
330
2B8
100
AcDbPlotSettings
  1

  2
Microsoft XPS Document Writer
  4

  6

 40
0.0
 41
0.0
 42
0.0
 43
0.0
 44
0.0
 45
0.0
 46
0.0
 47
0.0
 48
0.0
 49
0.0
140
0.0
141
0.0
142
1.0
143
1.0
 70
   688
 72
     0
 73
     0
 74
     5
  7

 75
    16
147
1.0
148
0.0
149
0.0
100
AcDbLayout
  1
レイアウト1
 70
     1
 71
     1
 10
0.0
 20
0.0
 11
12.0
 21
9.0
 12
0.0
 22
0.0
 32
0.0
 14
1.000000000000000E+20
 24
1.000000000000000E+20
 34
1.000000000000000E+20
 15
-1.000000000000000E+20
 25
-1.000000000000000E+20
 35
-1.000000000000000E+20
146
0.0
 13
0.0
 23
0.0
 33
0.0
 16
1.0
 26
0.0
 36
0.0
 17
0.0
 27
1.0
 37
0.0
 76
     0
330
C
  0
MLINESTYLE
  5
57
102
{ACAD_REACTORS
330
56
102
}
330
0
100
AcDbMlineStyle
  2
STANDARD
 70
     0
  3

 62
   256
 51
90.0
 52
90.0
 71
     2
 49
0.5
 62
   256
  6
BYLAYER
 49
-0.5
 62
   256
  6
BYLAYER
  0
ACDBPLACEHOLDER
  5
2B3
102
{ACAD_REACTORS
330
2B2
102
}
330
2B2
  0
TABLESTYLE
  5
2B7
102
{ACAD_REACTORS
330
2B6
102
}
330
2B6
100
AcDbTableStyle
  3
Standard
 70
     0
 71
     0
 40
0.06
 41
0.06
280
     0
281
     0
  7
STANDARD
140
0.18
170
     2
 62
     0
 63
     7
283
     0
274
    -2
284
     1
 64
     0
275
    -2
285
     1
 65
     0
276
    -2
286
     1
 66
     0
277
    -2
287
     1
 67
     0
278
    -2
288
     1
 68
     0
279
    -2
289
     1
 69
     0
  7
STANDARD
140
0.25
170
     5
 62
     0
 63
     7
283
     0
274
    -2
284
     1
 64
     0
275
    -2
285
     1
 65
     0
276
    -2
286
     1
 66
     0
277
    -2
287
     1
 67
     0
278
    -2
288
     1
 68
     0
279
    -2
289
     1
 69
     0
  7
STANDARD
140
0.18
170
     5
 62
     0
 63
     7
283
     0
274
    -2
284
     1
 64
     0
275
    -2
285
     1
 65
     0
276
    -2
286
     1
 66
     0
277
    -2
287
     1
 67
     0
278
    -2
288
     1
 68
     0
279
    -2
289
     1
 69
     0
  0
DICTIONARYVAR
  5
2C0
102
{ACAD_REACTORS
330
2BF
102
}
330
2BF
100
DictionaryVariables
280
     0
  1
STANDARD
  0
DICTIONARYVAR
  5
2C1
102
{ACAD_REACTORS
330
2BF
102
}
330
2BF
100
DictionaryVariables
280
     0
  1
1
  0
DICTIONARYVAR
  5
2C2
102
{ACAD_REACTORS
330
2BF
102
}
330
2BF
100
DictionaryVariables
280
     0
  1

  0
DICTIONARY
  5
2C5
330
2BA
100
AcDbDictionary
280
     1
281
     1
  3
ACAD_XREC_ROUNDTRIP
360
2C6
  0
DICTIONARY
  5
2C7
330
2BB
100
AcDbDictionary
280
     1
281
     1
  3
ACAD_XREC_ROUNDTRIP
360
2C8
  0
XRECORD
  5
2C6
102
{ACAD_REACTORS
330
2C5
102
}
330
2C5
100
AcDbXrecord
280
     1
102
SHADEPLOT
 70
     0
102
SHADEPLOTRESLEVEL
 70
     2
102
SHADEPLOTCUSTOMDPI
 70
   300
  0
XRECORD
  5
2C8
102
{ACAD_REACTORS
330
2C7
102
}
330
2C7
100
AcDbXrecord
280
     1
102
SHADEPLOT
 70
     0
102
SHADEPLOTRESLEVEL
 70
     2
102
SHADEPLOTCUSTOMDPI
 70
   300
  0
ENDSEC
  0
EOF
