  0
SECTION
  2
HEADER
  9
$ACADVER
  1
AC1015
  9
$ACADMAINTVER
 70
    20
  9
$DWGCODEPAGE
  3
ANSI_932
  9
$INSBASE
 10
0.0
 20
0.0
 30
0.0
  9
$EXTMIN
 10
0.0000000000000711
 20
0.0
 30
0.0
  9
$EXTMAX
 10
2720.0
 20
1890.0
 30
0.0
  9
$LIMMIN
 10
0.0
 20
0.0
  9
$LIMMAX
 10
2970.0
 20
2100.0
  9
$ORTHOMODE
 70
     0
  9
$REGENMODE
 70
     1
  9
$FILLMODE
 70
     1
  9
$QTEXTMODE
 70
     0
  9
$MIRRTEXT
 70
     1
  9
$LTSCALE
 40
59.4
  9
$ATTMODE
 70
     1
  9
$TEXTSIZE
 40
0.2
  9
$TRACEWID
 40
0.05
  9
$TEXTSTYLE
  7
STANDARD
  9
$CLAYER
  8
0
  9
$CELTYPE
  6
CONTINUOUS
  9
$CECOLOR
 62
   256
  9
$CELTSCALE
 40
1.0
  9
$DISPSILH
 70
     0
  9
$DIMSCALE
 40
1.0
  9
$DIMASZ
 40
0.18
  9
$DIMEXO
 40
0.0625
  9
$DIMDLI
 40
0.38
  9
$DIMRND
 40
0.0
  9
$DIMDLE
 40
0.0
  9
$DIMEXE
 40
0.18
  9
$DIMTP
 40
0.0
  9
$DIMTM
 40
0.0
  9
$DIMTXT
 40
0.18
  9
$DIMCEN
 40
0.09
  9
$DIMTSZ
 40
0.0
  9
$DIMTOL
 70
     0
  9
$DIMLIM
 70
     0
  9
$DIMTIH
 70
     1
  9
$DIMTOH
 70
     1
  9
$DIMSE1
 70
     0
  9
$DIMSE2
 70
     0
  9
$DIMTAD
 70
     0
  9
$DIMZIN
 70
     0
  9
$DIMBLK
  1

  9
$DIMASO
 70
     1
  9
$DIMSHO
 70
     1
  9
$DIMPOST
  1

  9
$DIMAPOST
  1

  9
$DIMALT
 70
     0
  9
$DIMALTD
 70
     2
  9
$DIMALTF
 40
25.4
  9
$DIMLFAC
 40
1.0
  9
$DIMTOFL
 70
     0
  9
$DIMTVP
 40
0.0
  9
$DIMTIX
 70
     0
  9
$DIMSOXD
 70
     0
  9
$DIMSAH
 70
     0
  9
$DIMBLK1
  1

  9
$DIMBLK2
  1

  9
$DIMSTYLE
  2
STANDARD
  9
$DIMCLRD
 70
     0
  9
$DIMCLRE
 70
     0
  9
$DIMCLRT
 70
     0
  9
$DIMTFAC
 40
1.0
  9
$DIMGAP
 40
0.09
  9
$DIMJUST
 70
     0
  9
$DIMSD1
 70
     0
  9
$DIMSD2
 70
     0
  9
$DIMTOLJ
 70
     1
  9
$DIMTZIN
 70
     0
  9
$DIMALTZ
 70
     0
  9
$DIMALTTZ
 70
     0
  9
$DIMUPT
 70
     0
  9
$DIMDEC
 70
     4
  9
$DIMTDEC
 70
     4
  9
$DIMALTU
 70
     2
  9
$DIMALTTD
 70
     2
  9
$DIMTXSTY
  7
STANDARD
  9
$DIMAUNIT
 70
     0
  9
$DIMADEC
 70
     0
  9
$DIMALTRND
 40
0.0
  9
$DIMAZIN
 70
     0
  9
$DIMDSEP
 70
    46
  9
$DIMATFIT
 70
     3
  9
$DIMFRAC
 70
     0
  9
$DIMLDRBLK
  1

  9
$DIMLUNIT
 70
     2
  9
$DIMLWD
 70
    -2
  9
$DIMLWE
 70
    -2
  9
$DIMTMOVE
 70
     0
  9
$LUNITS
 70
     2
  9
$LUPREC
 70
     4
  9
$SKETCHINC
 40
0.1
  9
$FILLETRAD
 40
0.0
  9
$AUNITS
 70
     0
  9
$AUPREC
 70
     0
  9
$MENU
  1
.
  9
$ELEVATION
 40
0.0
  9
$PELEVATION
 40
0.0
  9
$THICKNESS
 40
0.0
  9
$LIMCHECK
 70
     0
  9
$CHAMFERA
 40
0.0
  9
$CHAMFERB
 40
0.0
  9
$CHAMFERC
 40
0.0
  9
$CHAMFERD
 40
0.0
  9
$SKPOLY
 70
     0
  9
$TDCREATE
 40
2451212.682759178
  9
$TDUCREATE
 40
2451212.307759178
  9
$TDUPDATE
 40
2455245.484804144
  9
$TDUUPDATE
 40
2455245.109804144
  9
$TDINDWG
 40
0.0002941204
  9
$TDUSRTIMER
 40
0.0002941204
  9
$USRTIMER
 70
     1
  9
$ANGBASE
 50
0.0
  9
$ANGDIR
 70
     0
  9
$PDMODE
 70
     0
  9
$PDSIZE
 40
0.0
  9
$PLINEWID
 40
0.0
  9
$SPLFRAME
 70
     0
  9
$SPLINETYPE
 70
     6
  9
$SPLINESEGS
 70
     8
  9
$HANDSEED
  5
2EC
  9
$SURFTAB1
 70
     6
  9
$SURFTAB2
 70
     6
  9
$SURFTYPE
 70
     6
  9
$SURFU
 70
     6
  9
$SURFV
 70
     6
  9
$UCSBASE
  2

  9
$UCSNAME
  2

  9
$UCSORG
 10
0.0
 20
0.0
 30
0.0
  9
$UCSXDIR
 10
1.0
 20
0.0
 30
0.0
  9
$UCSYDIR
 10
0.0
 20
1.0
 30
0.0
  9
$UCSORTHOREF
  2

  9
$UCSORTHOVIEW
 70
     0
  9
$UCSORGTOP
 10
0.0
 20
0.0
 30
0.0
  9
$UCSORGBOTTOM
 10
0.0
 20
0.0
 30
0.0
  9
$UCSORGLEFT
 10
0.0
 20
0.0
 30
0.0
  9
$UCSORGRIGHT
 10
0.0
 20
0.0
 30
0.0
  9
$UCSORGFRONT
 10
0.0
 20
0.0
 30
0.0
  9
$UCSORGBACK
 10
0.0
 20
0.0
 30
0.0
  9
$PUCSBASE
  2

  9
$PUCSNAME
  2

  9
$PUCSORG
 10
0.0
 20
0.0
 30
0.0
  9
$PUCSXDIR
 10
1.0
 20
0.0
 30
0.0
  9
$PUCSYDIR
 10
0.0
 20
1.0
 30
0.0
  9
$PUCSORTHOREF
  2

  9
$PUCSORTHOVIEW
 70
     0
  9
$PUCSORGTOP
 10
0.0
 20
0.0
 30
0.0
  9
$PUCSORGBOTTOM
 10
0.0
 20
0.0
 30
0.0
  9
$PUCSORGLEFT
 10
0.0
 20
0.0
 30
0.0
  9
$PUCSORGRIGHT
 10
0.0
 20
0.0
 30
0.0
  9
$PUCSORGFRONT
 10
0.0
 20
0.0
 30
0.0
  9
$PUCSORGBACK
 10
0.0
 20
0.0
 30
0.0
  9
$USERI1
 70
     0
  9
$USERI2
 70
     0
  9
$USERI3
 70
     0
  9
$USERI4
 70
     0
  9
$USERI5
 70
     0
  9
$USERR1
 40
0.0
  9
$USERR2
 40
0.0
  9
$USERR3
 40
0.0
  9
$USERR4
 40
0.0
  9
$USERR5
 40
0.0
  9
$WORLDVIEW
 70
     1
  9
$SHADEDGE
 70
     3
  9
$SHADEDIF
 70
    70
  9
$TILEMODE
 70
     1
  9
$MAXACTVP
 70
    16
  9
$PINSBASE
 10
0.0
 20
0.0
 30
0.0
  9
$PLIMCHECK
 70
     0
  9
$PEXTMIN
 10
1.000000000000000E+20
 20
1.000000000000000E+20
 30
1.000000000000000E+20
  9
$PEXTMAX
 10
-1.000000000000000E+20
 20
-1.000000000000000E+20
 30
-1.000000000000000E+20
  9
$PLIMMIN
 10
0.0
 20
0.0
  9
$PLIMMAX
 10
12.0
 20
9.0
  9
$UNITMODE
 70
     0
  9
$VISRETAIN
 70
     1
  9
$PLINEGEN
 70
     0
  9
$PSLTSCALE
 70
     1
  9
$TREEDEPTH
 70
  3020
  9
$CMLSTYLE
  2
STANDARD
  9
$CMLJUST
 70
     0
  9
$CMLSCALE
 40
1.0
  9
$PROXYGRAPHICS
 70
     1
  9
$MEASUREMENT
 70
     0
  9
$CELWEIGHT
370
    -1
  9
$ENDCAPS
280
     0
  9
$JOINSTYLE
280
     0
  9
$LWDISPLAY
290
     0
  9
$INSUNITS
 70
     0
  9
$HYPERLINKBASE
  1

  9
$STYLESHEET
  1

  9
$XEDIT
290
     1
  9
$CEPSNTYPE
380
     0
  9
$PSTYLEMODE
290
     1
  9
$FINGERPRINTGUID
  2
{686BB6B2-1CB3-49C7-8FA7-324E1E06389E}
  9
$VERSIONGUID
  2
{3A6B482A-4EC7-4F8F-BF7E-25B734E8322A}
  9
$EXTNAMES
290
     1
  9
$PSVPSCALE
 40
0.0
  9
$OLESTARTUP
290
     0
  0
ENDSEC
  0
SECTION
  2
CLASSES
  0
CLASS
  1
ACDBDICTIONARYWDFLT
  2
AcDbDictionaryWithDefault
  3
ObjectDBX Classes
 90
        0
280
     0
281
     0
  0
CLASS
  1
TABLESTYLE
  2
AcDbTableStyle
  3
ObjectDBX Classes
 90
     2047
280
     0
281
     0
  0
CLASS
  1
DICTIONARYVAR
  2
AcDbDictionaryVar
  3
ObjectDBX Classes
 90
        0
280
     0
281
     0
  0
CLASS
  1
ACDBPLACEHOLDER
  2
AcDbPlaceHolder
  3
ObjectDBX Classes
 90
        0
280
     0
281
     0
  0
CLASS
  1
LAYOUT
  2
AcDbLayout
  3
ObjectDBX Classes
 90
        0
280
     0
281
     0
  0
ENDSEC
  0
SECTION
  2
TABLES
  0
TABLE
  2
VPORT
  5
1
330
0
100
AcDbSymbolTable
 70
     2
  0
VPORT
  5
2E6
330
1
100
AcDbSymbolTableRecord
100
AcDbViewportTableRecord
  2
*Active
 70
     0
 10
0.0
 20
0.0
 11
1.0
 21
1.0
 12
2489.52346570394
 22
1050.0
 13
0.0
 23
0.0
 14
1.0
 24
1.0
 15
0.0
 25
0.0
 16
0.0
 26
0.0
 36
1.0
 17
0.0
 27
0.0
 37
0.0
 40
2970.0
 41
2.155234657039711
 42
50.0
 43
0.0
 44
0.0
 50
0.0
 51
0.0
 71
     0
 72
   100
 73
     1
 74
     1
 75
     0
 76
     0
 77
     0
 78
     0
281
     0
 65
     1
110
0.0
120
0.0
130
0.0
111
1.0
121
0.0
131
0.0
112
0.0
122
1.0
132
0.0
 79
     0
146
0.0
  0
ENDTAB
  0
TABLE
  2
LTYPE
  5
9C
330
0
100
AcDbSymbolTable
 70
    25
  0
LTYPE
  5
2D
330
9C
100
AcDbSymbolTableRecord
100
AcDbLinetypeTableRecord
  2
BYBLOCK
 70
     0
  3

 72
    65
 73
     0
 40
0.0
  0
LTYPE
  5
2E
330
9C
100
AcDbSymbolTableRecord
100
AcDbLinetypeTableRecord
  2
BYLAYER
 70
     0
  3

 72
    65
 73
     0
 40
0.0
  0
LTYPE
  5
2F
330
9C
100
AcDbSymbolTableRecord
100
AcDbLinetypeTableRecord
  2
CONTINUOUS
 70
     0
  3
Solid line
 72
    65
 73
     0
 40
0.0
  0
LTYPE
  5
30
330
9C
100
AcDbSymbolTableRecord
100
AcDbLinetypeTableRecord
  2
BORDER
 70
     0
  3
__ __ . __ __ . __ __ . __ __ . __ __ . __ __ .
 72
    65
 73
     6
 40
1.75
 49
0.5
 74
     0
 49
-0.25
 74
     0
 49
0.5
 74
     0
 49
-0.25
 74
     0
 49
0.0
 74
     0
 49
-0.25
 74
     0
  0
LTYPE
  5
31
330
9C
100
AcDbSymbolTableRecord
100
AcDbLinetypeTableRecord
  2
BORDER2
 70
     0
  3
__.__.__.__.__.__.__.__.__.__.__.__.__.__.__.__
 72
    65
 73
     6
 40
0.875
 49
0.25
 74
     0
 49
-0.125
 74
     0
 49
0.25
 74
     0
 49
-0.125
 74
     0
 49
0.0
 74
     0
 49
-0.125
 74
     0
  0
LTYPE
  5
32
330
9C
100
AcDbSymbolTableRecord
100
AcDbLinetypeTableRecord
  2
BORDERX2
 70
     0
  3
____  ____  .  ____  ____  .  ____  ____  .  __
 72
    65
 73
     6
 40
3.5
 49
1.0
 74
     0
 49
-0.5
 74
     0
 49
1.0
 74
     0
 49
-0.5
 74
     0
 49
0.0
 74
     0
 49
-0.5
 74
     0
  0
LTYPE
  5
33
330
9C
100
AcDbSymbolTableRecord
100
AcDbLinetypeTableRecord
  2
CENTER
 70
     0
  3
____ _ ____ _ ____ _ ____ _ ____ _ ____ _ ____ 
 72
    65
 73
     4
 40
2.0
 49
1.25
 74
     0
 49
-0.25
 74
     0
 49
0.25
 74
     0
 49
-0.25
 74
     0
  0
LTYPE
  5
34
330
9C
100
AcDbSymbolTableRecord
100
AcDbLinetypeTableRecord
  2
CENTER2
 70
     0
  3
___ _ ___ _ ___ _ ___ _ ___ _ ___ _ ___ _ ___ _
 72
    65
 73
     4
 40
1.125
 49
0.75
 74
     0
 49
-0.125
 74
     0
 49
0.125
 74
     0
 49
-0.125
 74
     0
  0
LTYPE
  5
35
330
9C
100
AcDbSymbolTableRecord
100
AcDbLinetypeTableRecord
  2
CENTERX2
 70
     0
  3
________  __  ________  __  ________  __  _____
 72
    65
 73
     4
 40
4.0
 49
2.5
 74
     0
 49
-0.5
 74
     0
 49
0.5
 74
     0
 49
-0.5
 74
     0
  0
LTYPE
  5
36
330
9C
100
AcDbSymbolTableRecord
100
AcDbLinetypeTableRecord
  2
DASHDOT
 70
     0
  3
__ . __ . __ . __ . __ . __ . __ . __ . __ . __
 72
    65
 73
     4
 40
1.0
 49
0.5
 74
     0
 49
-0.25
 74
     0
 49
0.0
 74
     0
 49
-0.25
 74
     0
  0
LTYPE
  5
37
330
9C
100
AcDbSymbolTableRecord
100
AcDbLinetypeTableRecord
  2
DASHDOT2
 70
     0
  3
_._._._._._._._._._._._._._._._._._._._._._._._
 72
    65
 73
     4
 40
0.5
 49
0.25
 74
     0
 49
-0.125
 74
     0
 49
0.0
 74
     0
 49
-0.125
 74
     0
  0
LTYPE
  5
38
330
9C
100
AcDbSymbolTableRecord
100
AcDbLinetypeTableRecord
  2
DASHDOTX2
 70
     0
  3
____  .  ____  .  ____  .  ____  .  ____  .  __
 72
    65
 73
     4
 40
2.0
 49
1.0
 74
     0
 49
-0.5
 74
     0
 49
0.0
 74
     0
 49
-0.5
 74
     0
  0
LTYPE
  5
39
330
9C
100
AcDbSymbolTableRecord
100
AcDbLinetypeTableRecord
  2
DASHED
 70
     0
  3
__ __ __ __ __ __ __ __ __ __ __ __ __ __ __ __
 72
    65
 73
     2
 40
0.75
 49
0.5
 74
     0
 49
-0.25
 74
     0
  0
LTYPE
  5
3A
330
9C
100
AcDbSymbolTableRecord
100
AcDbLinetypeTableRecord
  2
DASHED2
 70
     0
  3
_ _ _ _ _ _ _ _ _ _ _ _ _ _ _ _ _ _ _ _ _ _ _ _
 72
    65
 73
     2
 40
0.375
 49
0.25
 74
     0
 49
-0.125
 74
     0
  0
LTYPE
  5
3B
330
9C
100
AcDbSymbolTableRecord
100
AcDbLinetypeTableRecord
  2
DASHEDX2
 70
     0
  3
____  ____  ____  ____  ____  ____  ____  ____ 
 72
    65
 73
     2
 40
1.5
 49
1.0
 74
     0
 49
-0.5
 74
     0
  0
LTYPE
  5
3C
330
9C
100
AcDbSymbolTableRecord
100
AcDbLinetypeTableRecord
  2
DIVIDE
 70
     0
  3
____ . . ____ . . ____ . . ____ . . ____ . . __
 72
    65
 73
     6
 40
1.25
 49
0.5
 74
     0
 49
-0.25
 74
     0
 49
0.0
 74
     0
 49
-0.25
 74
     0
 49
0.0
 74
     0
 49
-0.25
 74
     0
  0
LTYPE
  5
3D
330
9C
100
AcDbSymbolTableRecord
100
AcDbLinetypeTableRecord
  2
DIVIDE2
 70
     0
  3
__..__..__..__..__..__..__..__..__..__..__..__.
 72
    65
 73
     6
 40
0.625
 49
0.25
 74
     0
 49
-0.125
 74
     0
 49
0.0
 74
     0
 49
-0.125
 74
     0
 49
0.0
 74
     0
 49
-0.125
 74
     0
  0
LTYPE
  5
3E
330
9C
100
AcDbSymbolTableRecord
100
AcDbLinetypeTableRecord
  2
DIVIDEX2
 70
     0
  3
________  .  .  ________  .  .  ________  .  . 
 72
    65
 73
     6
 40
2.5
 49
1.0
 74
     0
 49
-0.5
 74
     0
 49
0.0
 74
     0
 49
-0.5
 74
     0
 49
0.0
 74
     0
 49
-0.5
 74
     0
  0
LTYPE
  5
3F
330
9C
100
AcDbSymbolTableRecord
100
AcDbLinetypeTableRecord
  2
DOT
 70
     0
  3
. . . . . . . . . . . . . . . . . . . . . . . .
 72
    65
 73
     2
 40
0.25
 49
0.0
 74
     0
 49
-0.25
 74
     0
  0
LTYPE
  5
40
330
9C
100
AcDbSymbolTableRecord
100
AcDbLinetypeTableRecord
  2
DOT2
 70
     0
  3
...............................................
 72
    65
 73
     2
 40
0.125
 49
0.0
 74
     0
 49
-0.125
 74
     0
  0
LTYPE
  5
41
330
9C
100
AcDbSymbolTableRecord
100
AcDbLinetypeTableRecord
  2
DOTX2
 70
     0
  3
.  .  .  .  .  .  .  .  .  .  .  .  .  .  .  . 
 72
    65
 73
     2
 40
0.5
 49
0.0
 74
     0
 49
-0.5
 74
     0
  0
LTYPE
  5
42
330
9C
100
AcDbSymbolTableRecord
100
AcDbLinetypeTableRecord
  2
HIDDEN
 70
     0
  3
__ __ __ __ __ __ __ __ __ __ __ __ __ __ __ __
 72
    65
 73
     2
 40
0.375
 49
0.25
 74
     0
 49
-0.125
 74
     0
  0
LTYPE
  5
43
330
9C
100
AcDbSymbolTableRecord
100
AcDbLinetypeTableRecord
  2
HIDDEN2
 70
     0
  3
_ _ _ _ _ _ _ _ _ _ _ _ _ _ _ _ _ _ _ _ _ _ _ _
 72
    65
 73
     2
 40
0.1875
 49
0.125
 74
     0
 49
-0.0625
 74
     0
  0
LTYPE
  5
44
330
9C
100
AcDbSymbolTableRecord
100
AcDbLinetypeTableRecord
  2
HIDDENX2
 70
     0
  3
____ ____ ____ ____ ____ ____ ____ ____ ____ __
 72
    65
 73
     2
 40
0.75
 49
0.5
 74
     0
 49
-0.25
 74
     0
  0
LTYPE
  5
45
330
9C
100
AcDbSymbolTableRecord
100
AcDbLinetypeTableRecord
  2
PHANTOM
 70
     0
  3
______  __  __  ______  __  __  ______  __  __ 
 72
    65
 73
     6
 40
2.5
 49
1.25
 74
     0
 49
-0.25
 74
     0
 49
0.25
 74
     0
 49
-0.25
 74
     0
 49
0.25
 74
     0
 49
-0.25
 74
     0
  0
LTYPE
  5
46
330
9C
100
AcDbSymbolTableRecord
100
AcDbLinetypeTableRecord
  2
PHANTOM2
 70
     0
  3
___ _ _ ___ _ _ ___ _ _ ___ _ _ ___ _ _ ___ _ _
 72
    65
 73
     6
 40
1.25
 49
0.625
 74
     0
 49
-0.125
 74
     0
 49
0.125
 74
     0
 49
-0.125
 74
     0
 49
0.125
 74
     0
 49
-0.125
 74
     0
  0
LTYPE
  5
47
330
9C
100
AcDbSymbolTableRecord
100
AcDbLinetypeTableRecord
  2
PHANTOMX2
 70
     0
  3
____________    ____    ____    ____________   
 72
    65
 73
     6
 40
5.0
 49
2.5
 74
     0
 49
-0.5
 74
     0
 49
0.5
 74
     0
 49
-0.5
 74
     0
 49
0.5
 74
     0
 49
-0.5
 74
     0
  0
ENDTAB
  0
TABLE
  2
LAYER
  5
9B
330
0
100
AcDbSymbolTable
 70
     5
  0
LAYER
  5
48
330
9B
100
AcDbSymbolTableRecord
100
AcDbLayerTableRecord
  2
0
 70
     0
 62
     7
  6
CONTINUOUS
370
    -3
390
2D6
  0
LAYER
  5
49
330
9B
100
AcDbSymbolTableRecord
100
AcDbLayerTableRecord
  2
LEVEL001
 70
     0
 62
     7
  6
CONTINUOUS
370
    -3
390
2D6
  0
LAYER
  5
4A
330
9B
100
AcDbSymbolTableRecord
100
AcDbLayerTableRecord
  2
内図枠(作図領域)
 70
     0
 62
     7
  6
CONTINUOUS
370
    -3
390
2D6
  0
LAYER
  5
4B
330
9B
100
AcDbSymbolTableRecord
100
AcDbLayerTableRecord
  2
外図枠(出力紙領域)
 70
     0
 62
     7
  6
CONTINUOUS
370
    -3
390
2D6
  0
LAYER
  5
4C
330
9B
100
AcDbSymbolTableRecord
100
AcDbLayerTableRecord
  2
部品表金額表示用
 70
     0
 62
     7
  6
CONTINUOUS
370
    -3
390
2D6
  0
ENDTAB
  0
TABLE
  2
STYLE
  5
6
330
0
100
AcDbSymbolTable
 70
     3
  0
STYLE
  5
7
330
6
100
AcDbSymbolTableRecord
100
AcDbTextStyleTableRecord
  2
STANDARD
 70
     0
 40
0.0
 41
1.0
 50
0.0
 71
     0
 42
0.2
  3
TXT
  4
BIGFONT
  0
STYLE
  5
8
330
6
100
AcDbSymbolTableRecord
100
AcDbTextStyleTableRecord
  2
STANDARD1
 70
     4
 40
0.0
 41
1.0
 50
0.0
 71
     0
 42
0.2
  3
TXT
  4
BIGFONT
  0
STYLE
  5
9
330
6
100
AcDbSymbolTableRecord
100
AcDbTextStyleTableRecord
  2
GMM001
 70
     0
 40
0.0
 41
1.0
 50
0.0
 71
     0
 42
1.0
  3
txt.shx
  4
bigfont.shx
  0
ENDTAB
  0
TABLE
  2
VIEW
  5
2
330
0
100
AcDbSymbolTable
 70
     0
  0
ENDTAB
  0
TABLE
  2
UCS
  5
3
330
0
100
AcDbSymbolTable
 70
     0
  0
ENDTAB
  0
TABLE
  2
APPID
  5
4
330
0
100
AcDbSymbolTable
 70
     1
  0
APPID
  5
5
330
4
100
AcDbSymbolTableRecord
100
AcDbRegAppTableRecord
  2
ACAD
 70
     0
  0
ENDTAB
  0
TABLE
  2
DIMSTYLE
  5
9A
330
0
100
AcDbSymbolTable
 70
     5
100
AcDbDimStyleTable
 71
     0
  0
DIMSTYLE
105
4D
330
9A
100
AcDbSymbolTableRecord
100
AcDbDimStyleTableRecord
  2
STANDARD
 70
     0
340
7
  0
DIMSTYLE
105
4E
102
{ACAD_REACTORS
330
24B
330
24C
330
24F
330
2B3
330
2B4
330
2B7
102
}
330
9A
100
AcDbSymbolTableRecord
100
AcDbDimStyleTableRecord
  2
GMM001
 70
     0
 41
15.0
 42
0.0
 43
40.0
 44
10.0
 46
18.75
 73
     0
 74
     0
 77
     1
 78
     8
140
30.0
141
5.0
143
0.0394
146
0.625
147
12.857142857143
172
     1
173
     1
176
     1
177
     1
178
     7
271
     6
272
     0
340
9
341
1E
343
1E
344
1E
  0
DIMSTYLE
105
4F
102
{ACAD_REACTORS
330
24D
330
24E
330
2B5
102
}
330
9A
100
AcDbSymbolTableRecord
100
AcDbDimStyleTableRecord
  2
GMM002
 70
     0
 41
15.0
 42
0.0
 43
40.0
 44
10.0
 46
18.75
 73
     0
 74
     0
 76
     1
 77
     1
 78
     8
140
30.0
141
5.0
143
0.0394
146
0.625
147
12.857142857143
172
     1
173
     1
176
     1
177
     1
178
     7
271
     6
272
     0
340
9
341
1E
343
1E
344
1E
  0
DIMSTYLE
105
50
102
{ACAD_REACTORS
330
2B6
102
}
330
9A
100
AcDbSymbolTableRecord
100
AcDbDimStyleTableRecord
  2
GMM003
 70
     0
 41
15.0
 42
0.0
 43
40.0
 44
10.0
 46
18.75
 73
     0
 74
     0
 77
     1
 78
     8
140
30.0
141
5.0
143
0.0394
146
0.625
147
12.857142857143
172
     1
173
     1
176
     1
177
     1
178
     7
271
     6
272
     0
288
     1
340
9
341
1E
343
1E
344
1E
  0
DIMSTYLE
105
51
102
{ACAD_REACTORS
330
2D2
102
}
330
9A
100
AcDbSymbolTableRecord
100
AcDbDimStyleTableRecord
  2
GMM004
 70
     0
  3
R<>
 41
15.0
 42
0.0
 43
40.0
 44
10.0
 46
18.75
 73
     0
 74
     0
 75
     1
 76
     1
 77
     1
 78
     8
140
30.0
141
5.0
143
0.0394
146
0.625
147
9.744848101940499
172
     1
173
     1
176
     1
177
     1
178
     7
271
     6
272
     0
288
     1
340
9
341
26
343
26
344
1E
  0
ENDTAB
  0
TABLE
  2
BLOCK_RECORD
  5
A
330
0
100
AcDbSymbolTable
 70
    32
  0
BLOCK_RECORD
  5
B
330
A
100
AcDbSymbolTableRecord
100
AcDbBlockTableRecord
  2
*MODEL_SPACE
340
2DD
  0
BLOCK_RECORD
  5
C
330
A
100
AcDbSymbolTableRecord
100
AcDbBlockTableRecord
  2
*PAPER_SPACE
340
2DE
  0
BLOCK_RECORD
  5
D
330
A
100
AcDbSymbolTableRecord
100
AcDbBlockTableRecord
  2
*D0
340
0
  0
BLOCK_RECORD
  5
E
330
A
100
AcDbSymbolTableRecord
100
AcDbBlockTableRecord
  2
*D1
340
0
  0
BLOCK_RECORD
  5
F
330
A
100
AcDbSymbolTableRecord
100
AcDbBlockTableRecord
  2
*D2
340
0
  0
BLOCK_RECORD
  5
10
330
A
100
AcDbSymbolTableRecord
100
AcDbBlockTableRecord
  2
*D3
340
0
  0
BLOCK_RECORD
  5
11
330
A
100
AcDbSymbolTableRecord
100
AcDbBlockTableRecord
  2
*D4
340
0
  0
BLOCK_RECORD
  5
12
330
A
100
AcDbSymbolTableRecord
100
AcDbBlockTableRecord
  2
*D5
340
0
  0
BLOCK_RECORD
  5
13
330
A
100
AcDbSymbolTableRecord
100
AcDbBlockTableRecord
  2
*D6
340
0
  0
BLOCK_RECORD
  5
14
330
A
100
AcDbSymbolTableRecord
100
AcDbBlockTableRecord
  2
*D7
340
0
  0
BLOCK_RECORD
  5
15
330
A
100
AcDbSymbolTableRecord
100
AcDbBlockTableRecord
  2
*D8
340
0
  0
BLOCK_RECORD
  5
16
330
A
100
AcDbSymbolTableRecord
100
AcDbBlockTableRecord
  2
*D9
340
0
  0
BLOCK_RECORD
  5
17
330
A
100
AcDbSymbolTableRecord
100
AcDbBlockTableRecord
  2
*D10
340
0
  0
BLOCK_RECORD
  5
18
330
A
100
AcDbSymbolTableRecord
100
AcDbBlockTableRecord
  2
_ARCHTICK
340
0
  0
BLOCK_RECORD
  5
19
330
A
100
AcDbSymbolTableRecord
100
AcDbBlockTableRecord
  2
_OBLIQUE
340
0
  0
BLOCK_RECORD
  5
1A
330
A
100
AcDbSymbolTableRecord
100
AcDbBlockTableRecord
  2
_BOXBLANK
340
0
  0
BLOCK_RECORD
  5
1B
330
A
100
AcDbSymbolTableRecord
100
AcDbBlockTableRecord
  2
_BOXFILLED
340
0
  0
BLOCK_RECORD
  5
1C
330
A
100
AcDbSymbolTableRecord
100
AcDbBlockTableRecord
  2
_CLOSED
340
0
  0
BLOCK_RECORD
  5
1D
330
A
100
AcDbSymbolTableRecord
100
AcDbBlockTableRecord
  2
_OPEN
340
0
  0
BLOCK_RECORD
  5
1E
330
A
100
AcDbSymbolTableRecord
100
AcDbBlockTableRecord
  2
_OPEN30
340
0
102
{BLKREFS
331
AC
331
AD
331
B2
331
B3
331
B8
331
B9
331
BE
331
BF
331
C4
331
C5
331
CA
331
CB
331
D0
331
D1
331
D6
331
D7
331
DC
331
DD
331
E2
331
E3
331
E6
102
}
  0
BLOCK_RECORD
  5
1F
330
A
100
AcDbSymbolTableRecord
100
AcDbBlockTableRecord
  2
_OPEN90
340
0
  0
BLOCK_RECORD
  5
20
330
A
100
AcDbSymbolTableRecord
100
AcDbBlockTableRecord
  2
_CLOSEDBLANK
340
0
  0
BLOCK_RECORD
  5
21
330
A
100
AcDbSymbolTableRecord
100
AcDbBlockTableRecord
  2
_DOT
340
0
  0
BLOCK_RECORD
  5
22
330
A
100
AcDbSymbolTableRecord
100
AcDbBlockTableRecord
  2
_DOTSMALL
340
0
  0
BLOCK_RECORD
  5
23
330
A
100
AcDbSymbolTableRecord
100
AcDbBlockTableRecord
  2
_DATUMBLANK
340
0
  0
BLOCK_RECORD
  5
24
330
A
100
AcDbSymbolTableRecord
100
AcDbBlockTableRecord
  2
_DATUMFILLED
340
0
  0
BLOCK_RECORD
  5
25
330
A
100
AcDbSymbolTableRecord
100
AcDbBlockTableRecord
  2
_ORIGIN
340
0
  0
BLOCK_RECORD
  5
26
330
A
100
AcDbSymbolTableRecord
100
AcDbBlockTableRecord
  2
_NONE
340
0
  0
BLOCK_RECORD
  5
27
330
A
100
AcDbSymbolTableRecord
100
AcDbBlockTableRecord
  2
_DOTBLANK
340
0
  0
BLOCK_RECORD
  5
28
330
A
100
AcDbSymbolTableRecord
100
AcDbBlockTableRecord
  2
_INTEGRAL
340
0
  0
BLOCK_RECORD
  5
29
330
A
100
AcDbSymbolTableRecord
100
AcDbBlockTableRecord
  2
A2
340
0
102
{BLKREFS
331
139
102
}
  0
BLOCK_RECORD
  5
2A
330
A
100
AcDbSymbolTableRecord
100
AcDbBlockTableRecord
  2
BLOCK001
340
0
102
{BLKREFS
331
13A
102
}
  0
BLOCK_RECORD
  5
2B
330
A
100
AcDbSymbolTableRecord
100
AcDbBlockTableRecord
  2
BLOCK002
340
0
102
{BLKREFS
331
13B
102
}
  0
BLOCK_RECORD
  5
2C
330
A
100
AcDbSymbolTableRecord
100
AcDbBlockTableRecord
  2
BLOCK003
340
0
102
{BLKREFS
331
13C
102
}
  0
ENDTAB
  0
ENDSEC
  0
SECTION
  2
BLOCKS
  0
BLOCK
  5
56
330
B
100
AcDbEntity
  8
0
100
AcDbBlockBegin
  2
*MODEL_SPACE
 70
     0
 10
0.0
 20
0.0
 30
0.0
  3
*MODEL_SPACE
  1

  0
ENDBLK
  5
78
330
B
100
AcDbEntity
  8
0
100
AcDbBlockEnd
  0
BLOCK
  5
57
330
C
100
AcDbEntity
 67
     1
  8
0
100
AcDbBlockBegin
  2
*PAPER_SPACE
 70
     0
 10
0.0
 20
0.0
 30
0.0
  3
*PAPER_SPACE
  1

  0
ENDBLK
  5
79
330
C
100
AcDbEntity
 67
     1
  8
0
100
AcDbBlockEnd
  0
BLOCK
  5
58
330
D
100
AcDbEntity
  8
0
100
AcDbBlockBegin
  2
*D0
 70
     1
 10
0.0
 20
0.0
 30
0.0
  3
*D0
  1

  0
LINE
  5
A9
330
D
100
AcDbEntity
  8
LEVEL001
  6
Continuous
 62
     1
100
AcDbLine
 10
1141.0
 20
197.0
 30
0.0
 11
1357.25
 21
197.0
 31
0.0
  0
LINE
  5
AA
330
D
100
AcDbEntity
  8
LEVEL001
  6
Continuous
 62
     1
100
AcDbLine
 10
1112.5
 20
1100.6
 30
0.0
 11
1357.25
 21
1100.6
 31
0.0
  0
LINE
  5
AB
330
D
100
AcDbEntity
  8
LEVEL001
  6
Continuous
 62
     1
100
AcDbLine
 10
1347.25
 20
197.0
 30
0.0
 11
1347.25
 21
1100.6
 31
0.0
  0
INSERT
  5
AC
330
D
100
AcDbEntity
  8
LEVEL001
  6
Continuous
 62
     1
100
AcDbBlockReference
  2
_OPEN30
 10
1347.25
 20
197.0
 30
0.0
 41
15.0
 42
15.0
 43
15.0
 50
270.0
  0
INSERT
  5
AD
330
D
100
AcDbEntity
  8
LEVEL001
  6
Continuous
 62
     1
100
AcDbBlockReference
  2
_OPEN30
 10
1347.25
 20
1100.6
 30
0.0
 41
15.0
 42
15.0
 43
15.0
 50
90.0
  0
MTEXT
  5
AE
330
D
100
AcDbEntity
  8
LEVEL001
  6
ByBlock
 62
     7
100
AcDbMText
 10
1334.3928571429
 20
648.7999999999999
 30
0.0
 40
30.0
 41
0.0
 71
     8
 72
     1
  1
\A1;903.6
  7
GMM001
 11
0.0
 21
1.0
 31
0.0
 73
     1
 44
1.0
1001
ACAD
1000
MTEXTBEGIN
1070
    73
1070
     1
1070
    44
1040
1.0
1070
    74
1070
     0
1000
MTEXTEND
  0
ENDBLK
  5
7E
330
D
100
AcDbEntity
  8
0
100
AcDbBlockEnd
  0
BLOCK
  5
59
330
E
100
AcDbEntity
  8
0
100
AcDbBlockBegin
  2
*D1
 70
     1
 10
0.0
 20
0.0
 30
0.0
  3
*D1
  1

  0
LINE
  5
AF
330
E
100
AcDbEntity
  8
LEVEL001
  6
Continuous
 62
     1
100
AcDbLine
 10
351.5
 20
632.6
 30
0.0
 11
351.5
 21
548.0
 31
0.0
  0
LINE
  5
B0
330
E
100
AcDbEntity
  8
LEVEL001
  6
Continuous
 62
     1
100
AcDbLine
 10
1084.5
 20
632.6
 30
0.0
 11
1084.5
 21
548.0
 31
0.0
  0
LINE
  5
B1
330
E
100
AcDbEntity
  8
LEVEL001
  6
Continuous
 62
     1
100
AcDbLine
 10
351.5
 20
558.0
 30
0.0
 11
1084.5
 21
558.0
 31
0.0
  0
INSERT
  5
B2
330
E
100
AcDbEntity
  8
LEVEL001
  6
Continuous
 62
     1
100
AcDbBlockReference
  2
_OPEN30
 10
351.5
 20
558.0
 30
0.0
 41
15.0
 42
15.0
 43
15.0
 50
180.0
  0
INSERT
  5
B3
330
E
100
AcDbEntity
  8
LEVEL001
  6
Continuous
 62
     1
100
AcDbBlockReference
  2
_OPEN30
 10
1084.5
 20
558.0
 30
0.0
 41
15.0
 42
15.0
 43
15.0
  0
MTEXT
  5
B4
330
E
100
AcDbEntity
  8
LEVEL001
  6
ByBlock
 62
     7
100
AcDbMText
 10
718.0
 20
570.85714285714
 30
0.0
 40
30.0
 41
0.0
 71
     8
 72
     1
  1
\A1;733
  7
GMM001
 73
     1
 44
1.0
1001
ACAD
1000
MTEXTBEGIN
1070
    73
1070
     1
1070
    44
1040
1.0
1070
    74
1070
     0
1000
MTEXTEND
  0
ENDBLK
  5
7F
330
E
100
AcDbEntity
  8
0
100
AcDbBlockEnd
  0
BLOCK
  5
5A
330
F
100
AcDbEntity
  8
0
100
AcDbBlockBegin
  2
*D2
 70
     1
 10
0.0
 20
0.0
 30
0.0
  3
*D2
  1

  0
LINE
  5
B5
330
F
100
AcDbEntity
  8
LEVEL001
  6
Continuous
 62
     1
100
AcDbLine
 10
138.0
 20
307.0
 30
0.0
 11
138.0
 21
103.0
 31
0.0
  0
LINE
  5
B6
330
F
100
AcDbEntity
  8
LEVEL001
  6
Continuous
 62
     1
100
AcDbLine
 10
253.0
 20
307.0
 30
0.0
 11
253.0
 21
103.0
 31
0.0
  0
LINE
  5
B7
330
F
100
AcDbEntity
  8
LEVEL001
  6
Continuous
 62
     1
100
AcDbLine
 10
138.0
 20
113.0
 30
0.0
 11
253.0
 21
113.0
 31
0.0
  0
INSERT
  5
B8
330
F
100
AcDbEntity
  8
LEVEL001
  6
Continuous
 62
     1
100
AcDbBlockReference
  2
_OPEN30
 10
138.0
 20
113.0
 30
0.0
 41
15.0
 42
15.0
 43
15.0
 50
180.0
  0
INSERT
  5
B9
330
F
100
AcDbEntity
  8
LEVEL001
  6
Continuous
 62
     1
100
AcDbBlockReference
  2
_OPEN30
 10
253.0
 20
113.0
 30
0.0
 41
15.0
 42
15.0
 43
15.0
  0
MTEXT
  5
BA
330
F
100
AcDbEntity
  8
LEVEL001
  6
ByBlock
 62
     7
100
AcDbMText
 10
195.5
 20
125.85714285714
 30
0.0
 40
30.0
 41
0.0
 71
     8
 72
     1
  1
\A1;115
  7
GMM001
 73
     1
 44
1.0
1001
ACAD
1000
MTEXTBEGIN
1070
    73
1070
     1
1070
    44
1040
1.0
1070
    74
1070
     0
1000
MTEXTEND
  0
ENDBLK
  5
80
330
F
100
AcDbEntity
  8
0
100
AcDbBlockEnd
  0
BLOCK
  5
5B
330
10
100
AcDbEntity
  8
0
100
AcDbBlockBegin
  2
*D3
 70
     1
 10
0.0
 20
0.0
 30
0.0
  3
*D3
  1

  0
LINE
  5
BB
330
10
100
AcDbEntity
  8
LEVEL001
  6
Continuous
 62
     1
100
AcDbLine
 10
253.0
 20
307.0
 30
0.0
 11
253.0
 21
103.0
 31
0.0
  0
LINE
  5
BC
330
10
100
AcDbEntity
  8
LEVEL001
  6
Continuous
 62
     1
100
AcDbLine
 10
1183.0
 20
307.0
 30
0.0
 11
1183.0
 21
103.0
 31
0.0
  0
LINE
  5
BD
330
10
100
AcDbEntity
  8
LEVEL001
  6
Continuous
 62
     1
100
AcDbLine
 10
253.0
 20
113.0
 30
0.0
 11
1183.0
 21
113.0
 31
0.0
  0
INSERT
  5
BE
330
10
100
AcDbEntity
  8
LEVEL001
  6
Continuous
 62
     1
100
AcDbBlockReference
  2
_OPEN30
 10
253.0
 20
113.0
 30
0.0
 41
15.0
 42
15.0
 43
15.0
 50
180.0
  0
INSERT
  5
BF
330
10
100
AcDbEntity
  8
LEVEL001
  6
Continuous
 62
     1
100
AcDbBlockReference
  2
_OPEN30
 10
1183.0
 20
113.0
 30
0.0
 41
15.0
 42
15.0
 43
15.0
  0
MTEXT
  5
C0
330
10
100
AcDbEntity
  8
LEVEL001
  6
ByBlock
 62
     7
100
AcDbMText
 10
718.0
 20
125.85714285714
 30
0.0
 40
30.0
 41
0.0
 71
     8
 72
     1
  1
\A1;930
  7
GMM001
 73
     1
 44
1.0
1001
ACAD
1000
MTEXTBEGIN
1070
    73
1070
     1
1070
    44
1040
1.0
1070
    74
1070
     0
1000
MTEXTEND
  0
ENDBLK
  5
81
330
10
100
AcDbEntity
  8
0
100
AcDbBlockEnd
  0
BLOCK
  5
5C
330
11
100
AcDbEntity
  8
0
100
AcDbBlockBegin
  2
*D4
 70
     1
 10
0.0
 20
0.0
 30
0.0
  3
*D4
  1

  0
LINE
  5
C1
330
11
100
AcDbEntity
  8
LEVEL001
  6
Continuous
 62
     1
100
AcDbLine
 10
1183.0
 20
307.0
 30
0.0
 11
1183.0
 21
103.0
 31
0.0
  0
LINE
  5
C2
330
11
100
AcDbEntity
  8
LEVEL001
  6
Continuous
 62
     1
100
AcDbLine
 10
1238.0
 20
876.95
 30
0.0
 11
1238.0
 21
103.0
 31
0.0
  0
LINE
  5
C3
330
11
100
AcDbEntity
  8
LEVEL001
  6
Continuous
 62
     1
100
AcDbLine
 10
1183.0
 20
113.0
 30
0.0
 11
1238.0
 21
113.0
 31
0.0
  0
INSERT
  5
C4
330
11
100
AcDbEntity
  8
LEVEL001
  6
Continuous
 62
     1
100
AcDbBlockReference
  2
_OPEN30
 10
1183.0
 20
113.0
 30
0.0
 41
15.0
 42
15.0
 43
15.0
 50
180.0
  0
INSERT
  5
C5
330
11
100
AcDbEntity
  8
LEVEL001
  6
Continuous
 62
     1
100
AcDbBlockReference
  2
_OPEN30
 10
1238.0
 20
113.0
 30
0.0
 41
15.0
 42
15.0
 43
15.0
  0
MTEXT
  5
C6
330
11
100
AcDbEntity
  8
LEVEL001
  6
ByBlock
 62
     7
100
AcDbMText
 10
1210.5
 20
125.85714285714
 30
0.0
 40
30.0
 41
0.0
 71
     8
 72
     1
  1
\A1;55
  7
GMM001
 73
     1
 44
1.0
1001
ACAD
1000
MTEXTBEGIN
1070
    73
1070
     1
1070
    44
1040
1.0
1070
    74
1070
     0
1000
MTEXTEND
  0
ENDBLK
  5
82
330
11
100
AcDbEntity
  8
0
100
AcDbBlockEnd
  0
BLOCK
  5
5D
330
12
100
AcDbEntity
  8
0
100
AcDbBlockBegin
  2
*D5
 70
     1
 10
0.0
 20
0.0
 30
0.0
  3
*D5
  1

  0
LINE
  5
C7
330
12
100
AcDbEntity
  8
LEVEL001
  6
Continuous
 62
     1
100
AcDbLine
 10
138.0
 20
1072.0
 30
0.0
 11
138.0
 21
1246.0
 31
0.0
  0
LINE
  5
C8
330
12
100
AcDbEntity
  8
LEVEL001
  6
Continuous
 62
     1
100
AcDbLine
 10
1238.0
 20
876.95
 30
0.0
 11
1238.0
 21
1246.0
 31
0.0
  0
LINE
  5
C9
330
12
100
AcDbEntity
  8
LEVEL001
  6
Continuous
 62
     1
100
AcDbLine
 10
138.0
 20
1236.0
 30
0.0
 11
1238.0
 21
1236.0
 31
0.0
  0
INSERT
  5
CA
330
12
100
AcDbEntity
  8
LEVEL001
  6
Continuous
 62
     1
100
AcDbBlockReference
  2
_OPEN30
 10
138.0
 20
1236.0
 30
0.0
 41
15.0
 42
15.0
 43
15.0
 50
180.0
  0
INSERT
  5
CB
330
12
100
AcDbEntity
  8
LEVEL001
  6
Continuous
 62
     1
100
AcDbBlockReference
  2
_OPEN30
 10
1238.0
 20
1236.0
 30
0.0
 41
15.0
 42
15.0
 43
15.0
  0
MTEXT
  5
CC
330
12
100
AcDbEntity
  8
LEVEL001
  6
ByBlock
 62
     7
100
AcDbMText
 10
688.0
 20
1248.8571428571
 30
0.0
 40
30.0
 41
0.0
 71
     8
 72
     1
  1
\A1;1100
  7
GMM001
 73
     1
 44
1.0
1001
ACAD
1000
MTEXTBEGIN
1070
    73
1070
     1
1070
    44
1040
1.0
1070
    74
1070
     0
1000
MTEXTEND
  0
ENDBLK
  5
83
330
12
100
AcDbEntity
  8
0
100
AcDbBlockEnd
  0
BLOCK
  5
5E
330
13
100
AcDbEntity
  8
0
100
AcDbBlockBegin
  2
*D6
 70
     1
 10
0.0
 20
0.0
 30
0.0
  3
*D6
  1

  0
LINE
  5
CD
330
13
100
AcDbEntity
  8
LEVEL001
  6
Continuous
 62
     1
100
AcDbLine
 10
2169.0
 20
757.0
 30
0.0
 11
2169.0
 21
1246.0
 31
0.0
  0
LINE
  5
CE
330
13
100
AcDbEntity
  8
LEVEL001
  6
Continuous
 62
     1
100
AcDbLine
 10
1610.7
 20
517.6023068623
 30
0.0
 11
1610.7
 21
1246.0
 31
0.0
  0
LINE
  5
CF
330
13
100
AcDbEntity
  8
LEVEL001
  6
Continuous
 62
     1
100
AcDbLine
 10
2169.0
 20
1236.0
 30
0.0
 11
1610.7
 21
1236.0
 31
0.0
  0
INSERT
  5
D0
330
13
100
AcDbEntity
  8
LEVEL001
  6
Continuous
 62
     1
100
AcDbBlockReference
  2
_OPEN30
 10
2169.0
 20
1236.0
 30
0.0
 41
15.0
 42
15.0
 43
15.0
  0
INSERT
  5
D1
330
13
100
AcDbEntity
  8
LEVEL001
  6
Continuous
 62
     1
100
AcDbBlockReference
  2
_OPEN30
 10
1610.7
 20
1236.0
 30
0.0
 41
15.0
 42
15.0
 43
15.0
 50
180.0
  0
MTEXT
  5
D2
330
13
100
AcDbEntity
  8
LEVEL001
  6
ByBlock
 62
     7
100
AcDbMText
 10
1889.85
 20
1248.8571428571
 30
0.0
 40
30.0
 41
0.0
 71
     8
 72
     1
  1
\A1;558.3
  7
GMM001
 73
     1
 44
1.0
1001
ACAD
1000
MTEXTBEGIN
1070
    73
1070
     1
1070
    44
1040
1.0
1070
    74
1070
     0
1000
MTEXTEND
  0
ENDBLK
  5
84
330
13
100
AcDbEntity
  8
0
100
AcDbBlockEnd
  0
BLOCK
  5
5F
330
14
100
AcDbEntity
  8
0
100
AcDbBlockBegin
  2
*D7
 70
     1
 10
0.0
 20
0.0
 30
0.0
  3
*D7
  1

  0
LINE
  5
D3
330
14
100
AcDbEntity
  8
LEVEL001
  6
Continuous
 62
     1
100
AcDbLine
 10
2169.0
 20
757.0
 30
0.0
 11
2169.0
 21
1187.0
 31
0.0
  0
LINE
  5
D4
330
14
100
AcDbEntity
  8
LEVEL001
  6
Continuous
 62
     1
100
AcDbLine
 10
1669.0
 20
757.0
 30
0.0
 11
1669.0
 21
1187.0
 31
0.0
  0
LINE
  5
D5
330
14
100
AcDbEntity
  8
LEVEL001
  6
Continuous
 62
     1
100
AcDbLine
 10
2169.0
 20
1177.0
 30
0.0
 11
1669.0
 21
1177.0
 31
0.0
  0
INSERT
  5
D6
330
14
100
AcDbEntity
  8
LEVEL001
  6
Continuous
 62
     1
100
AcDbBlockReference
  2
_OPEN30
 10
2169.0
 20
1177.0
 30
0.0
 41
15.0
 42
15.0
 43
15.0
  0
INSERT
  5
D7
330
14
100
AcDbEntity
  8
LEVEL001
  6
Continuous
 62
     1
100
AcDbBlockReference
  2
_OPEN30
 10
1669.0
 20
1177.0
 30
0.0
 41
15.0
 42
15.0
 43
15.0
 50
180.0
  0
MTEXT
  5
D8
330
14
100
AcDbEntity
  8
LEVEL001
  6
ByBlock
 62
     7
100
AcDbMText
 10
1919.0
 20
1189.8571428571
 30
0.0
 40
30.0
 41
0.0
 71
     8
 72
     1
  1
\A1;500
  7
GMM001
 73
     1
 44
1.0
1001
ACAD
1000
MTEXTBEGIN
1070
    73
1070
     1
1070
    44
1040
1.0
1070
    74
1070
     0
1000
MTEXTEND
  0
ENDBLK
  5
85
330
14
100
AcDbEntity
  8
0
100
AcDbBlockEnd
  0
BLOCK
  5
60
330
15
100
AcDbEntity
  8
0
100
AcDbBlockBegin
  2
*D8
 70
     1
 10
0.0
 20
0.0
 30
0.0
  3
*D8
  1

  0
LINE
  5
D9
330
15
100
AcDbEntity
  8
LEVEL001
  6
Continuous
 62
     1
100
AcDbLine
 10
1669.0
 20
757.0
 30
0.0
 11
1669.0
 21
1187.0
 31
0.0
  0
LINE
  5
DA
330
15
100
AcDbEntity
  8
LEVEL001
  6
Continuous
 62
     1
100
AcDbLine
 10
1610.7
 20
517.6023068623
 30
0.0
 11
1610.7
 21
1187.0
 31
0.0
  0
LINE
  5
DB
330
15
100
AcDbEntity
  8
LEVEL001
  6
Continuous
 62
     1
100
AcDbLine
 10
1669.0
 20
1177.0
 30
0.0
 11
1610.7
 21
1177.0
 31
0.0
  0
INSERT
  5
DC
330
15
100
AcDbEntity
  8
LEVEL001
  6
Continuous
 62
     1
100
AcDbBlockReference
  2
_OPEN30
 10
1669.0
 20
1177.0
 30
0.0
 41
15.0
 42
15.0
 43
15.0
  0
INSERT
  5
DD
330
15
100
AcDbEntity
  8
LEVEL001
  6
Continuous
 62
     1
100
AcDbBlockReference
  2
_OPEN30
 10
1610.7
 20
1177.0
 30
0.0
 41
15.0
 42
15.0
 43
15.0
 50
180.0
  0
MTEXT
  5
DE
330
15
100
AcDbEntity
  8
LEVEL001
  6
ByBlock
 62
     7
100
AcDbMText
 10
1665.85
 20
1189.8571428571
 30
0.0
 40
30.0
 41
0.0
 71
     8
 72
     1
  1
\A1;58.3
  7
GMM001
 73
     1
 44
1.0
1001
ACAD
1000
MTEXTBEGIN
1070
    73
1070
     1
1070
    44
1040
1.0
1070
    74
1070
     0
1000
MTEXTEND
  0
ENDBLK
  5
86
330
15
100
AcDbEntity
  8
0
100
AcDbBlockEnd
  0
BLOCK
  5
61
330
16
100
AcDbEntity
  8
0
100
AcDbBlockBegin
  2
*D9
 70
     1
 10
0.0
 20
0.0
 30
0.0
  3
*D9
  1

  0
LINE
  5
DF
330
16
100
AcDbEntity
  8
LEVEL001
  6
Continuous
 62
     1
100
AcDbLine
 10
1148.85
 20
197.0
 30
0.0
 11
1417.0
 21
197.0
 31
0.0
  0
LINE
  5
E0
330
16
100
AcDbEntity
  8
LEVEL001
  6
Continuous
 62
     1
100
AcDbLine
 10
1148.85
 20
1167.0
 30
0.0
 11
1417.0
 21
1167.0
 31
0.0
  0
LINE
  5
E1
330
16
100
AcDbEntity
  8
LEVEL001
  6
Continuous
 62
     1
100
AcDbLine
 10
1407.0
 20
197.0
 30
0.0
 11
1407.0
 21
1167.0
 31
0.0
  0
INSERT
  5
E2
330
16
100
AcDbEntity
  8
LEVEL001
  6
Continuous
 62
     1
100
AcDbBlockReference
  2
_OPEN30
 10
1407.0
 20
197.0
 30
0.0
 41
15.0
 42
15.0
 43
15.0
 50
270.0
  0
INSERT
  5
E3
330
16
100
AcDbEntity
  8
LEVEL001
  6
Continuous
 62
     1
100
AcDbBlockReference
  2
_OPEN30
 10
1407.0
 20
1167.0
 30
0.0
 41
15.0
 42
15.0
 43
15.0
 50
90.0
  0
MTEXT
  5
E4
330
16
100
AcDbEntity
  8
LEVEL001
  6
ByBlock
 62
     7
100
AcDbMText
 10
1394.1428571429
 20
682.0
 30
0.0
 40
30.0
 41
0.0
 71
     8
 72
     1
  1
\A1;970
  7
GMM001
 11
0.0
 21
1.0
 31
0.0
 73
     1
 44
1.0
1001
ACAD
1000
MTEXTBEGIN
1070
    73
1070
     1
1070
    44
1040
1.0
1070
    74
1070
     0
1000
MTEXTEND
  0
ENDBLK
  5
87
330
16
100
AcDbEntity
  8
0
100
AcDbBlockEnd
  0
BLOCK
  5
62
330
17
100
AcDbEntity
  8
0
100
AcDbBlockBegin
  2
*D10
 70
     1
 10
0.0
 20
0.0
 30
0.0
  3
*D10
  1

  0
LINE
  5
E5
330
17
100
AcDbEntity
  8
LEVEL001
  6
Continuous
 62
     1
100
AcDbLine
 10
1919.0
 20
805.7886320063699
 30
0.0
 11
2079.9451907004
 21
745.12030756595
 31
0.0
  0
INSERT
  5
E6
330
17
100
AcDbEntity
  8
LEVEL001
  6
Continuous
 62
     1
100
AcDbBlockReference
  2
_OPEN30
 10
2079.9451907004
 20
745.12030756595
 30
0.0
 41
15.0
 42
15.0
 43
15.0
 50
339.34605454628
  0
MTEXT
  5
E7
330
17
100
AcDbEntity
  8
LEVEL001
  6
ByBlock
 62
     7
100
AcDbMText
 10
2023.0
 20
777.0
 30
0.0
 40
30.0
 41
0.0
 71
     8
 72
     1
  1
\A1;R172
  7
GMM001
 11
0.9357278529093699
 21
-0.35272281651407
 31
0.0
 73
     1
 44
1.0
1001
ACAD
1000
MTEXTBEGIN
1070
    73
1070
     1
1070
    44
1040
1.0
1070
    74
1070
     0
1000
MTEXTEND
  0
ENDBLK
  5
88
330
17
100
AcDbEntity
  8
0
100
AcDbBlockEnd
  0
BLOCK
  5
63
330
18
100
AcDbEntity
  8
0
100
AcDbBlockBegin
  2
_ARCHTICK
 70
     0
 10
0.0
 20
0.0
 30
0.0
  3
_ARCHTICK
  1

  0
LWPOLYLINE
  5
E8
330
18
100
AcDbEntity
  8
0
  6
ByBlock
 62
     0
100
AcDbPolyline
 90
        2
 70
     1
 43
0.15
 10
-0.5
 20
-0.5
 10
0.5
 20
0.5
  0
ENDBLK
  5
89
330
18
100
AcDbEntity
  8
0
100
AcDbBlockEnd
  0
BLOCK
  5
64
330
19
100
AcDbEntity
  8
0
100
AcDbBlockBegin
  2
_OBLIQUE
 70
     0
 10
0.0
 20
0.0
 30
0.0
  3
_OBLIQUE
  1

  0
LINE
  5
EC
330
19
100
AcDbEntity
  8
0
  6
ByBlock
 62
     0
100
AcDbLine
 10
-0.5
 20
-0.5
 30
0.0
 11
0.5
 21
0.5
 31
0.0
  0
ENDBLK
  5
95
330
19
100
AcDbEntity
  8
0
100
AcDbBlockEnd
  0
BLOCK
  5
65
330
1A
100
AcDbEntity
  8
0
100
AcDbBlockBegin
  2
_BOXBLANK
 70
     0
 10
0.0
 20
0.0
 30
0.0
  3
_BOXBLANK
  1

  0
LINE
  5
ED
330
1A
100
AcDbEntity
  8
0
  6
ByBlock
 62
     0
100
AcDbLine
 10
-0.5
 20
-0.5
 30
0.0
 11
0.5
 21
-0.5
 31
0.0
  0
LINE
  5
EE
330
1A
100
AcDbEntity
  8
0
  6
ByBlock
 62
     0
100
AcDbLine
 10
0.5
 20
-0.5
 30
0.0
 11
0.5
 21
0.5
 31
0.0
  0
LINE
  5
EF
330
1A
100
AcDbEntity
  8
0
  6
ByBlock
 62
     0
100
AcDbLine
 10
0.5
 20
0.5
 30
0.0
 11
-0.5
 21
0.5
 31
0.0
  0
LINE
  5
F0
330
1A
100
AcDbEntity
  8
0
  6
ByBlock
 62
     0
100
AcDbLine
 10
-0.5
 20
0.5
 30
0.0
 11
-0.5
 21
-0.5
 31
0.0
  0
LINE
  5
F1
330
1A
100
AcDbEntity
  8
0
  6
ByBlock
 62
     0
100
AcDbLine
 10
-0.5
 20
0.0
 30
0.0
 11
-1.0
 21
0.0
 31
0.0
  0
ENDBLK
  5
8A
330
1A
100
AcDbEntity
  8
0
100
AcDbBlockEnd
  0
BLOCK
  5
66
330
1B
100
AcDbEntity
  8
0
100
AcDbBlockBegin
  2
_BOXFILLED
 70
     0
 10
0.0
 20
0.0
 30
0.0
  3
_BOXFILLED
  1

  0
SOLID
  5
F2
330
1B
100
AcDbEntity
  8
0
  6
ByBlock
 62
     0
100
AcDbTrace
 10
-0.5
 20
0.5
 30
0.0
 11
0.5
 21
0.5
 31
0.0
 12
-0.5
 22
-0.5
 32
0.0
 13
0.5
 23
-0.5
 33
0.0
  0
LINE
  5
F3
330
1B
100
AcDbEntity
  8
0
  6
ByBlock
 62
     0
100
AcDbLine
 10
-0.5
 20
0.0
 30
0.0
 11
-1.0
 21
0.0
 31
0.0
  0
ENDBLK
  5
8B
330
1B
100
AcDbEntity
  8
0
100
AcDbBlockEnd
  0
BLOCK
  5
67
330
1C
100
AcDbEntity
  8
0
100
AcDbBlockBegin
  2
_CLOSED
 70
     0
 10
0.0
 20
0.0
 30
0.0
  3
_CLOSED
  1

  0
LINE
  5
F4
330
1C
100
AcDbEntity
  8
0
  6
ByBlock
 62
     0
100
AcDbLine
 10
-1.0
 20
0.16666666666667
 30
0.0
 11
0.0
 21
0.0
 31
0.0
  0
LINE
  5
F5
330
1C
100
AcDbEntity
  8
0
  6
ByBlock
 62
     0
100
AcDbLine
 10
0.0
 20
0.0
 30
0.0
 11
-1.0
 21
-0.16666666666667
 31
0.0
  0
LINE
  5
F6
330
1C
100
AcDbEntity
  8
0
  6
ByBlock
 62
     0
100
AcDbLine
 10
-1.0
 20
0.16666666666667
 30
0.0
 11
-1.0
 21
-0.16666666666667
 31
0.0
  0
LINE
  5
F7
330
1C
100
AcDbEntity
  8
0
  6
ByBlock
 62
     0
100
AcDbLine
 10
0.0
 20
0.0
 30
0.0
 11
-1.0
 21
0.0
 31
0.0
  0
ENDBLK
  5
8C
330
1C
100
AcDbEntity
  8
0
100
AcDbBlockEnd
  0
BLOCK
  5
68
330
1D
100
AcDbEntity
  8
0
100
AcDbBlockBegin
  2
_OPEN
 70
     0
 10
0.0
 20
0.0
 30
0.0
  3
_OPEN
  1

  0
LINE
  5
F8
330
1D
100
AcDbEntity
  8
0
  6
ByBlock
 62
     0
100
AcDbLine
 10
-1.0
 20
0.16666666666667
 30
0.0
 11
0.0
 21
0.0
 31
0.0
  0
LINE
  5
F9
330
1D
100
AcDbEntity
  8
0
  6
ByBlock
 62
     0
100
AcDbLine
 10
0.0
 20
0.0
 30
0.0
 11
-1.0
 21
-0.16666666666667
 31
0.0
  0
LINE
  5
FA
330
1D
100
AcDbEntity
  8
0
  6
ByBlock
 62
     0
100
AcDbLine
 10
0.0
 20
0.0
 30
0.0
 11
-1.0
 21
0.0
 31
0.0
  0
ENDBLK
  5
96
330
1D
100
AcDbEntity
  8
0
100
AcDbBlockEnd
  0
BLOCK
  5
69
330
1E
100
AcDbEntity
  8
0
100
AcDbBlockBegin
  2
_OPEN30
 70
     0
 10
0.0
 20
0.0
 30
0.0
  3
_OPEN30
  1

  0
LINE
  5
FB
330
1E
100
AcDbEntity
  8
0
  6
ByBlock
 62
     0
100
AcDbLine
 10
-1.0
 20
0.2679491924311
 30
0.0
 11
0.0
 21
0.0
 31
0.0
  0
LINE
  5
FC
330
1E
100
AcDbEntity
  8
0
  6
ByBlock
 62
     0
100
AcDbLine
 10
0.0
 20
0.0
 30
0.0
 11
-1.0
 21
-0.2679491924311
 31
0.0
  0
LINE
  5
FD
330
1E
100
AcDbEntity
  8
0
  6
ByBlock
 62
     0
100
AcDbLine
 10
0.0
 20
0.0
 30
0.0
 11
-1.0
 21
0.0
 31
0.0
  0
ENDBLK
  5
97
330
1E
100
AcDbEntity
  8
0
100
AcDbBlockEnd
  0
BLOCK
  5
6A
330
1F
100
AcDbEntity
  8
0
100
AcDbBlockBegin
  2
_OPEN90
 70
     0
 10
0.0
 20
0.0
 30
0.0
  3
_OPEN90
  1

  0
LINE
  5
FE
330
1F
100
AcDbEntity
  8
0
  6
ByBlock
 62
     0
100
AcDbLine
 10
-0.5
 20
0.5
 30
0.0
 11
0.0
 21
0.0
 31
0.0
  0
LINE
  5
FF
330
1F
100
AcDbEntity
  8
0
  6
ByBlock
 62
     0
100
AcDbLine
 10
0.0
 20
0.0
 30
0.0
 11
-0.5
 21
-0.5
 31
0.0
  0
LINE
  5
100
330
1F
100
AcDbEntity
  8
0
  6
ByBlock
 62
     0
100
AcDbLine
 10
0.0
 20
0.0
 30
0.0
 11
-1.0
 21
0.0
 31
0.0
  0
ENDBLK
  5
98
330
1F
100
AcDbEntity
  8
0
100
AcDbBlockEnd
  0
BLOCK
  5
6B
330
20
100
AcDbEntity
  8
0
100
AcDbBlockBegin
  2
_CLOSEDBLANK
 70
     0
 10
0.0
 20
0.0
 30
0.0
  3
_CLOSEDBLANK
  1

  0
LINE
  5
101
330
20
100
AcDbEntity
  8
0
  6
ByBlock
 62
     0
100
AcDbLine
 10
-1.0
 20
0.16666666666667
 30
0.0
 11
0.0
 21
0.0
 31
0.0
  0
LINE
  5
102
330
20
100
AcDbEntity
  8
0
  6
ByBlock
 62
     0
100
AcDbLine
 10
0.0
 20
0.0
 30
0.0
 11
-1.0
 21
-0.16666666666667
 31
0.0
  0
LINE
  5
103
330
20
100
AcDbEntity
  8
0
  6
ByBlock
 62
     0
100
AcDbLine
 10
-1.0
 20
0.16666666666667
 30
0.0
 11
-1.0
 21
-0.16666666666667
 31
0.0
  0
ENDBLK
  5
8D
330
20
100
AcDbEntity
  8
0
100
AcDbBlockEnd
  0
BLOCK
  5
6C
330
21
100
AcDbEntity
  8
0
100
AcDbBlockBegin
  2
_DOT
 70
     0
 10
0.0
 20
0.0
 30
0.0
  3
_DOT
  1

  0
LWPOLYLINE
  5
104
330
21
100
AcDbEntity
  8
0
  6
ByBlock
 62
     0
100
AcDbPolyline
 90
        2
 70
     1
 43
0.5
 10
-0.25
 20
0.0
 42
1.0
 10
0.25
 20
0.0
 42
1.0
  0
LINE
  5
108
330
21
100
AcDbEntity
  8
0
  6
ByBlock
 62
     0
100
AcDbLine
 10
-0.5
 20
0.0
 30
0.0
 11
-1.0
 21
0.0
 31
0.0
  0
ENDBLK
  5
90
330
21
100
AcDbEntity
  8
0
100
AcDbBlockEnd
  0
BLOCK
  5
6D
330
22
100
AcDbEntity
  8
0
100
AcDbBlockBegin
  2
_DOTSMALL
 70
     0
 10
0.0
 20
0.0
 30
0.0
  3
_DOTSMALL
  1

  0
LWPOLYLINE
  5
109
330
22
100
AcDbEntity
  8
0
  6
ByBlock
 62
     0
100
AcDbPolyline
 90
        2
 70
     1
 43
0.5
 10
-0.0625
 20
0.0
 42
1.0
 10
0.0625
 20
0.0
 42
1.0
  0
ENDBLK
  5
92
330
22
100
AcDbEntity
  8
0
100
AcDbBlockEnd
  0
BLOCK
  5
6E
330
23
100
AcDbEntity
  8
0
100
AcDbBlockBegin
  2
_DATUMBLANK
 70
     0
 10
0.0
 20
0.0
 30
0.0
  3
_DATUMBLANK
  1

  0
LINE
  5
10D
330
23
100
AcDbEntity
  8
0
  6
ByBlock
 62
     0
100
AcDbLine
 10
0.0
 20
0.5773502700000001
 30
0.0
 11
-1.0
 21
0.0
 31
0.0
  0
LINE
  5
10E
330
23
100
AcDbEntity
  8
0
  6
ByBlock
 62
     0
100
AcDbLine
 10
-1.0
 20
0.0
 30
0.0
 11
0.0
 21
-0.5773502700000001
 31
0.0
  0
LINE
  5
10F
330
23
100
AcDbEntity
  8
0
  6
ByBlock
 62
     0
100
AcDbLine
 10
0.0
 20
-0.5773502700000001
 30
0.0
 11
0.0
 21
0.5773502700000001
 31
0.0
  0
ENDBLK
  5
8E
330
23
100
AcDbEntity
  8
0
100
AcDbBlockEnd
  0
BLOCK
  5
6F
330
24
100
AcDbEntity
  8
0
100
AcDbBlockBegin
  2
_DATUMFILLED
 70
     0
 10
0.0
 20
0.0
 30
0.0
  3
_DATUMFILLED
  1

  0
SOLID
  5
110
330
24
100
AcDbEntity
  8
0
  6
ByBlock
 62
     0
100
AcDbTrace
 10
0.0
 20
0.5773502700000001
 30
0.0
 11
-1.0
 21
0.0
 31
0.0
 12
0.0
 22
-0.5773502700000001
 32
0.0
 13
0.0
 23
-0.5773502700000001
 33
0.0
  0
ENDBLK
  5
8F
330
24
100
AcDbEntity
  8
0
100
AcDbBlockEnd
  0
BLOCK
  5
70
330
25
100
AcDbEntity
  8
0
100
AcDbBlockBegin
  2
_ORIGIN
 70
     0
 10
0.0
 20
0.0
 30
0.0
  3
_ORIGIN
  1

  0
CIRCLE
  5
111
330
25
100
AcDbEntity
  8
0
  6
ByBlock
 62
     0
100
AcDbCircle
 10
0.0
 20
0.0
 30
0.0
 40
0.5
  0
LINE
  5
112
330
25
100
AcDbEntity
  8
0
  6
ByBlock
 62
     0
100
AcDbLine
 10
0.0
 20
0.0
 30
0.0
 11
-1.0
 21
0.0
 31
0.0
  0
ENDBLK
  5
99
330
25
100
AcDbEntity
  8
0
100
AcDbBlockEnd
  0
BLOCK
  5
71
330
26
100
AcDbEntity
  8
0
100
AcDbBlockBegin
  2
_NONE
 70
     0
 10
0.0
 20
0.0
 30
0.0
  3
_NONE
  1

  0
CIRCLE
  5
113
330
26
100
AcDbEntity
  8
0
  6
ByBlock
 62
     0
100
AcDbCircle
 10
0.0
 20
0.0
 30
0.0
 40
0.25
  0
ENDBLK
  5
94
330
26
100
AcDbEntity
  8
0
100
AcDbBlockEnd
  0
BLOCK
  5
72
330
27
100
AcDbEntity
  8
0
100
AcDbBlockBegin
  2
_DOTBLANK
 70
     0
 10
0.0
 20
0.0
 30
0.0
  3
_DOTBLANK
  1

  0
CIRCLE
  5
114
330
27
100
AcDbEntity
  8
0
  6
ByBlock
 62
     0
100
AcDbCircle
 10
0.0
 20
0.0
 30
0.0
 40
0.5
  0
LINE
  5
115
330
27
100
AcDbEntity
  8
0
  6
ByBlock
 62
     0
100
AcDbLine
 10
-0.5
 20
0.0
 30
0.0
 11
-1.0
 21
0.0
 31
0.0
  0
ENDBLK
  5
91
330
27
100
AcDbEntity
  8
0
100
AcDbBlockEnd
  0
BLOCK
  5
73
330
28
100
AcDbEntity
  8
0
100
AcDbBlockBegin
  2
_INTEGRAL
 70
     0
 10
0.0
 20
0.0
 30
0.0
  3
_INTEGRAL
  1

  0
ARC
  5
116
330
28
100
AcDbEntity
  8
0
  6
ByBlock
 62
     0
100
AcDbCircle
 10
0.444888
 20
-0.091335
 30
0.0
 40
0.454167
100
AcDbArc
 50
102.0
 51
168.0
  0
ARC
  5
117
330
28
100
AcDbEntity
  8
0
  6
ByBlock
 62
     0
100
AcDbCircle
 10
-0.444888
 20
0.091335
 30
0.0
 40
0.454167
100
AcDbArc
 50
282.0
 51
348.0
  0
ENDBLK
  5
93
330
28
100
AcDbEntity
  8
0
100
AcDbBlockEnd
  0
BLOCK
  5
74
330
29
100
AcDbEntity
  8
0
100
AcDbBlockBegin
  2
A2
 70
     0
 10
0.0
 20
0.0
 30
0.0
  3
A2
  1

  0
LWPOLYLINE
  5
118
330
29
100
AcDbEntity
  8
内図枠(作図領域)
  6
Continuous
 62
     7
100
AcDbPolyline
 90
        4
 70
     1
 43
0.0
 10
0.0000000000000142
 20
0.0
 10
544.0
 20
0.0
 10
544.0
 20
378.0
 10
0.0000000000000142
 20
378.0
  0
ENDBLK
  5
7A
330
29
100
AcDbEntity
  8
0
100
AcDbBlockEnd
  0
BLOCK
  5
75
330
2A
100
AcDbEntity
  8
0
100
AcDbBlockBegin
  2
BLOCK001
 70
     0
 10
0.0
 20
0.0
 30
0.0
  3
BLOCK001
  1

  0
LINE
  5
119
330
2A
100
AcDbEntity
  8
LEVEL001
  6
Continuous
 62
     7
100
AcDbLine
 10
2040.0
 20
180.0
 30
0.0
 11
2720.0
 21
180.0
 31
0.0
  0
LINE
  5
11A
330
2A
100
AcDbEntity
  8
LEVEL001
  6
Continuous
 62
     7
100
AcDbLine
 10
2040.0
 20
120.0
 30
0.0
 11
2720.0
 21
120.0
 31
0.0
  0
LINE
  5
11B
330
2A
100
AcDbEntity
  8
LEVEL001
  6
Continuous
 62
     7
100
AcDbLine
 10
2040.0
 20
180.0
 30
0.0
 11
2040.0
 21
120.0
 31
0.0
  0
LINE
  5
11C
330
2A
100
AcDbEntity
  8
LEVEL001
  6
Continuous
 62
     7
100
AcDbLine
 10
2080.0
 20
180.0
 30
0.0
 11
2080.0
 21
120.0
 31
0.0
  0
LINE
  5
11D
330
2A
100
AcDbEntity
  8
LEVEL001
  6
Continuous
 62
     7
100
AcDbLine
 10
2380.0
 20
180.0
 30
0.0
 11
2380.0
 21
120.0
 31
0.0
  0
LINE
  5
11E
330
2A
100
AcDbEntity
  8
LEVEL001
  6
Continuous
 62
     7
100
AcDbLine
 10
2420.0
 20
180.0
 30
0.0
 11
2420.0
 21
120.0
 31
0.0
  0
LINE
  5
11F
330
2A
100
AcDbEntity
  8
LEVEL001
  6
Continuous
 62
     7
100
AcDbLine
 10
2720.0
 20
180.0
 30
0.0
 11
2720.0
 21
120.0
 31
0.0
  0
ENDBLK
  5
7B
330
2A
100
AcDbEntity
  8
0
100
AcDbBlockEnd
  0
BLOCK
  5
76
330
2B
100
AcDbEntity
  8
0
100
AcDbBlockBegin
  2
BLOCK002
 70
     0
 10
0.0
 20
0.0
 30
0.0
  3
BLOCK002
  1

  0
LINE
  5
120
330
2B
100
AcDbEntity
  8
LEVEL001
  6
Continuous
 62
     7
100
AcDbLine
 10
2040.0
 20
120.0
 30
0.0
 11
2720.0
 21
120.0
 31
0.0
  0
LINE
  5
121
330
2B
100
AcDbEntity
  8
LEVEL001
  6
Continuous
 62
     7
100
AcDbLine
 10
2230.0
 20
80.0
 30
0.0
 11
2720.0
 21
80.0
 31
0.0
  0
LINE
  5
122
330
2B
100
AcDbEntity
  8
LEVEL001
  6
Continuous
 62
     7
100
AcDbLine
 10
2040.0
 20
40.0
 30
0.0
 11
2720.0
 21
40.0
 31
0.0
  0
LINE
  5
123
330
2B
100
AcDbEntity
  8
LEVEL001
  6
Continuous
 62
     7
100
AcDbLine
 10
2040.0
 20
0.0
 30
0.0
 11
2720.0
 21
0.0
 31
0.0
  0
LINE
  5
124
330
2B
100
AcDbEntity
  8
LEVEL001
  6
Continuous
 62
     7
100
AcDbLine
 10
2040.0
 20
120.0
 30
0.0
 11
2040.0
 21
0.0
 31
0.0
  0
LINE
  5
125
330
2B
100
AcDbEntity
  8
LEVEL001
  6
Continuous
 62
     7
100
AcDbLine
 10
2080.0
 20
120.0
 30
0.0
 11
2080.0
 21
40.0
 31
0.0
  0
LINE
  5
126
330
2B
100
AcDbEntity
  8
LEVEL001
  6
Continuous
 62
     7
100
AcDbLine
 10
2230.0
 20
120.0
 30
0.0
 11
2230.0
 21
40.0
 31
0.0
  0
LINE
  5
127
330
2B
100
AcDbEntity
  8
LEVEL001
  6
Continuous
 62
     7
100
AcDbLine
 10
2380.0
 20
120.0
 30
0.0
 11
2380.0
 21
40.0
 31
0.0
  0
LINE
  5
128
330
2B
100
AcDbEntity
  8
LEVEL001
  6
Continuous
 62
     7
100
AcDbLine
 10
2420.0
 20
120.0
 30
0.0
 11
2420.0
 21
40.0
 31
0.0
  0
LINE
  5
129
330
2B
100
AcDbEntity
  8
LEVEL001
  6
Continuous
 62
     7
100
AcDbLine
 10
2520.0
 20
120.0
 30
0.0
 11
2520.0
 21
40.0
 31
0.0
  0
LINE
  5
12A
330
2B
100
AcDbEntity
  8
LEVEL001
  6
Continuous
 62
     7
100
AcDbLine
 10
2555.0
 20
120.0
 30
0.0
 11
2555.0
 21
80.0
 31
0.0
  0
LINE
  5
12B
330
2B
100
AcDbEntity
  8
LEVEL001
  6
Continuous
 62
     7
100
AcDbLine
 10
2585.0
 20
120.0
 30
0.0
 11
2585.0
 21
80.0
 31
0.0
  0
LINE
  5
12C
330
2B
100
AcDbEntity
  8
LEVEL001
  6
Continuous
 62
     7
100
AcDbLine
 10
2620.0
 20
120.0
 30
0.0
 11
2620.0
 21
40.0
 31
0.0
  0
LINE
  5
12D
330
2B
100
AcDbEntity
  8
LEVEL001
  6
Continuous
 62
     7
100
AcDbLine
 10
2720.0
 20
120.0
 30
0.0
 11
2720.0
 21
0.0
 31
0.0
  0
ENDBLK
  5
7C
330
2B
100
AcDbEntity
  8
0
100
AcDbBlockEnd
  0
BLOCK
  5
77
330
2C
100
AcDbEntity
  8
0
100
AcDbBlockBegin
  2
BLOCK003
 70
     0
 10
0.0
 20
0.0
 30
0.0
  3
BLOCK003
  1

  0
TEXT
  5
12E
330
2C
100
AcDbEntity
  8
LEVEL001
  6
ByBlock
 62
     7
100
AcDbText
 10
2226.0000228882
 20
10.0
 30
0.0
 40
20.0
  1
さぬき麺機株式会社
100
AcDbText
  0
TEXT
  5
12F
330
2C
100
AcDbEntity
  8
LEVEL001
  6
ByBlock
 62
     7
100
AcDbText
 10
2060.0
 20
175.55553436279
 30
0.0
 40
20.0
  1
名称
  7
STANDARD1
100
AcDbText
  0
TEXT
  5
130
330
2C
100
AcDbEntity
  8
LEVEL001
  6
ByBlock
 62
     7
100
AcDbText
 10
2400.0
 20
175.55549621582
 30
0.0
 40
20.0
  1
図番
  7
STANDARD1
100
AcDbText
  0
TEXT
  5
131
330
2C
100
AcDbEntity
  8
LEVEL001
  6
ByBlock
 62
     7
100
AcDbText
 10
2060.0
 20
108.8888891538
 30
0.0
 40
20.0
  1
画法
  7
STANDARD1
100
AcDbText
  0
TEXT
  5
132
330
2C
100
AcDbEntity
  8
LEVEL001
  6
ByBlock
 62
     7
100
AcDbText
 10
2094.0000003576
 20
70.0
 30
0.0
 40
20.0
  1
第三角法
100
AcDbText
  0
TEXT
  5
133
330
2C
100
AcDbEntity
  8
LEVEL001
  6
ByBlock
 62
     7
100
AcDbText
 10
2244.0000003576
 20
90.0
 30
0.0
 40
20.0
  1
共通機種
100
AcDbText
  0
TEXT
  5
134
330
2C
100
AcDbEntity
  8
LEVEL001
  6
ByBlock
 62
     7
100
AcDbText
 10
2383.999999764
 20
90.0
 30
0.0
 40
20.0
  1
個数
 41
0.80000001192093
100
AcDbText
  0
TEXT
  5
135
330
2C
100
AcDbEntity
  8
LEVEL001
  6
ByBlock
 62
     7
100
AcDbText
 10
2440.0
 20
90.0
 30
0.0
 40
20.0
  1
尺度
100
AcDbText
  0
TEXT
  5
136
330
2C
100
AcDbEntity
  8
LEVEL001
  6
ByBlock
 62
     7
100
AcDbText
 10
2530.0
 20
90.0
 30
0.0
 40
20.0
  1
年月日
100
AcDbText
  0
TEXT
  5
137
330
2C
100
AcDbEntity
  8
LEVEL001
  6
ByBlock
 62
     7
100
AcDbText
 10
2640.0
 20
90.0
 30
0.0
 40
20.0
  1
製図
100
AcDbText
  0
POINT
  5
138
330
2C
100
AcDbEntity
  8
LEVEL001
  6
ByBlock
 62
     7
100
AcDbPoint
 10
2520.0
 20
50.0
 30
0.0
  0
ENDBLK
  5
7D
330
2C
100
AcDbEntity
  8
0
100
AcDbBlockEnd
  0
ENDSEC
  0
SECTION
  2
ENTITIES
  0
INSERT
  5
139
330
B
100
AcDbEntity
  8
0
100
AcDbBlockReference
  2
A2
 10
0.0
 20
0.0
 30
0.0
 41
5.0
 42
5.0
  0
INSERT
  5
13A
330
B
100
AcDbEntity
  8
LEVEL001
100
AcDbBlockReference
  2
BLOCK001
 10
0.0
 20
0.0
 30
0.0
  0
INSERT
  5
13B
330
B
100
AcDbEntity
  8
LEVEL001
100
AcDbBlockReference
  2
BLOCK002
 10
0.0
 20
0.0
 30
0.0
  0
INSERT
  5
13C
330
B
100
AcDbEntity
  8
0
100
AcDbBlockReference
  2
BLOCK003
 10
0.0
 20
0.0
 30
0.0
  0
LINE
  5
13D
330
B
100
AcDbEntity
  8
LEVEL001
  6
Continuous
 62
     7
100
AcDbLine
 10
1780.0
 20
1483.0
 30
0.0
 11
1780.0
 21
1603.0
 31
0.0
  0
LINE
  5
13E
330
B
100
AcDbEntity
  8
LEVEL001
  6
Continuous
 62
     7
100
AcDbLine
 10
1740.0
 20
1363.0
 30
0.0
 11
1740.0
 21
1843.0
 31
0.0
  0
LINE
  5
13F
330
B
100
AcDbEntity
  8
LEVEL001
  6
Continuous
 62
     7
100
AcDbLine
 10
1998.75
 20
1843.0
 30
0.0
 11
1998.75
 21
1363.0
 31
0.0
  0
LINE
  5
140
330
B
100
AcDbEntity
  8
LEVEL001
  6
Continuous
 62
     7
100
AcDbLine
 10
2548.75
 20
1403.0
 30
0.0
 11
1740.0
 21
1403.0
 31
0.0
  0
LINE
  5
141
330
B
100
AcDbEntity
  8
LEVEL001
  6
Continuous
 62
     7
100
AcDbLine
 10
2548.75
 20
1843.0
 30
0.0
 11
1740.0
 21
1843.0
 31
0.0
  0
LINE
  5
142
330
B
100
AcDbEntity
  8
LEVEL001
  6
Continuous
 62
     7
100
AcDbLine
 10
1740.0
 20
1803.0
 30
0.0
 11
2548.75
 21
1803.0
 31
0.0
  0
LINE
  5
143
330
B
100
AcDbEntity
  8
LEVEL001
  6
Continuous
 62
     7
100
AcDbLine
 10
1740.0
 20
1763.0
 30
0.0
 11
2548.75
 21
1763.0
 31
0.0
  0
LINE
  5
144
330
B
100
AcDbEntity
  8
LEVEL001
  6
Continuous
 62
     7
100
AcDbLine
 10
1740.0
 20
1723.0
 30
0.0
 11
2548.75
 21
1723.0
 31
0.0
  0
LINE
  5
145
330
B
100
AcDbEntity
  8
LEVEL001
  6
Continuous
 62
     7
100
AcDbLine
 10
1740.0
 20
1683.0
 30
0.0
 11
2548.75
 21
1683.0
 31
0.0
  0
LINE
  5
146
330
B
100
AcDbEntity
  8
LEVEL001
  6
Continuous
 62
     7
100
AcDbLine
 10
1740.0
 20
1643.0
 30
0.0
 11
2548.75
 21
1643.0
 31
0.0
  0
LINE
  5
147
330
B
100
AcDbEntity
  8
LEVEL001
  6
Continuous
 62
     7
100
AcDbLine
 10
1740.0
 20
1603.0
 30
0.0
 11
2548.75
 21
1603.0
 31
0.0
  0
LINE
  5
148
330
B
100
AcDbEntity
  8
LEVEL001
  6
Continuous
 62
     7
100
AcDbLine
 10
1780.0
 20
1563.0
 30
0.0
 11
2548.75
 21
1563.0
 31
0.0
  0
LINE
  5
149
330
B
100
AcDbEntity
  8
LEVEL001
  6
Continuous
 62
     7
100
AcDbLine
 10
1780.0
 20
1523.0
 30
0.0
 11
2548.75
 21
1523.0
 31
0.0
  0
LINE
  5
14A
330
B
100
AcDbEntity
  8
LEVEL001
  6
Continuous
 62
     7
100
AcDbLine
 10
1740.0
 20
1483.0
 30
0.0
 11
2548.75
 21
1483.0
 31
0.0
  0
LINE
  5
14B
330
B
100
AcDbEntity
  8
LEVEL001
  6
Continuous
 62
     7
100
AcDbLine
 10
1740.0
 20
1443.0
 30
0.0
 11
2548.75
 21
1443.0
 31
0.0
  0
LINE
  5
14C
330
B
100
AcDbEntity
  8
LEVEL001
  6
Continuous
 62
     7
100
AcDbLine
 10
2548.75
 20
1843.0
 30
0.0
 11
2548.75
 21
1363.0
 31
0.0
  0
LINE
  5
14D
330
B
100
AcDbEntity
  8
LEVEL001
  6
Continuous
 62
     7
100
AcDbLine
 10
1740.0
 20
1363.0
 30
0.0
 11
2548.75
 21
1363.0
 31
0.0
  0
TEXT
  5
14E
330
B
100
AcDbEntity
  8
LEVEL001
 62
     7
100
AcDbText
 10
2650.0
 20
50.0
 30
0.0
 40
20.0
  1
井上
100
AcDbText
  0
TEXT
  5
14F
330
B
100
AcDbEntity
  8
LEVEL001
 62
     7
100
AcDbText
 10
2165.0
 20
140.0
 30
0.0
 40
20.0
  1
SS-25P 承認図
100
AcDbText
  0
TEXT
  5
150
330
B
100
AcDbEntity
  8
LEVEL001
 62
     7
100
AcDbText
 10
2510.0
 20
140.0
 30
0.0
 40
20.0
  1
SS-25P
 41
0.5
100
AcDbText
  0
TEXT
  5
151
330
B
100
AcDbEntity
  8
LEVEL001
 62
     7
100
AcDbText
 10
2531.0
 20
50.0
 30
0.0
 40
20.0
  1
14. 2.27
 41
0.5
100
AcDbText
  0
LINE
  5
152
330
B
100
AcDbEntity
  8
LEVEL001
  6
Continuous
 62
     7
100
AcDbLine
 10
1126.0
 20
707.0
 30
0.0
 11
1126.0
 21
757.0
 31
0.0
  0
LINE
  5
153
330
B
100
AcDbEntity
  8
LEVEL001
  6
Continuous
 62
     7
100
AcDbLine
 10
1121.5
 20
771.6499999999999
 30
0.0
 11
1119.5
 21
771.6499999999999
 31
0.0
  0
LINE
  5
154
330
B
100
AcDbEntity
  8
LEVEL001
  6
Continuous
 62
     7
100
AcDbLine
 10
310.0
 20
707.0
 30
0.0
 11
310.0
 21
757.0
 31
0.0
  0
LINE
  5
155
330
B
100
AcDbEntity
  8
LEVEL001
  6
Continuous
 62
     7
100
AcDbLine
 10
1112.5
 20
819.5999999999999
 30
0.0
 11
1138.5
 21
819.5999999999999
 31
0.0
  0
LWPOLYLINE
  5
156
330
B
100
AcDbEntity
  8
LEVEL001
  6
Continuous
 62
     7
100
AcDbPolyline
 90
        4
 70
     0
 43
0.0
 10
1138.5
 20
797.5999999999999
 10
1138.5
 20
844.5999999999999
 10
1163.5
 20
844.5999999999999
 10
1163.5
 20
797.5999999999999
  0
LINE
  5
157
330
B
100
AcDbEntity
  8
LEVEL001
  6
Continuous
 62
     7
100
AcDbLine
 10
1119.5
 20
788.95
 30
0.0
 11
1121.5
 21
788.95
 31
0.0
  0
LWPOLYLINE
  5
158
330
B
100
AcDbEntity
  8
LEVEL001
  6
Continuous
 62
     7
100
AcDbPolyline
 90
        4
 70
     0
 43
0.0
 10
1112.5
 20
763.0
 10
1119.5
 20
763.0
 10
1119.5
 20
797.5999999999999
 10
1112.5
 20
797.5999999999999
  0
LWPOLYLINE
  5
159
330
B
100
AcDbEntity
  8
LEVEL001
  6
Continuous
 62
     7
100
AcDbPolyline
 90
        4
 70
     0
 43
0.0
 10
272.5
 20
772.0
 10
272.5
 20
844.5999999999999
 10
297.5
 20
844.5999999999999
 10
297.5
 20
772.0
  0
LINE
  5
15A
330
B
100
AcDbEntity
  8
LEVEL001
  6
Continuous
 62
     7
100
AcDbLine
 10
323.5
 20
819.5999999999999
 30
0.0
 11
297.5
 21
819.5999999999999
 31
0.0
  0
LINE
  5
15B
330
B
100
AcDbEntity
  8
LEVEL001
  6
Continuous
 62
     7
100
AcDbLine
 10
297.5
 20
789.6
 30
0.0
 11
323.5
 21
789.6
 31
0.0
  0
LINE
  5
15C
330
B
100
AcDbEntity
  8
LEVEL001
  6
HIDDEN
 62
     1
100
AcDbLine
 10
359.5
 20
811.7414284285398
 30
0.0
 11
359.5
 21
797.4585715714599
 31
0.0
  0
LINE
  5
15D
330
B
100
AcDbEntity
  8
LEVEL001
  6
HIDDEN
 62
     1
100
AcDbLine
 10
363.81534156183
 20
794.9671079591699
 30
0.0
 11
376.18465843836
 21
802.1085363875199
 31
0.0
  0
ARC
  5
15E
330
B
100
AcDbEntity
  8
LEVEL001
  6
HIDDEN
 62
     1
100
AcDbCircle
 10
366.5
 20
804.6000000000001
 30
0.0
 40
10.0
100
AcDbArc
 50
225.57299599921
 51
254.42700400234
  0
ARC
  5
15F
330
B
100
AcDbEntity
  8
LEVEL001
  6
HIDDEN
 62
     1
100
AcDbCircle
 10
366.50000000001
 20
804.60000000001
 30
0.0
 40
10.0
100
AcDbArc
 50
345.57299599761
 51
134.42700400089
  0
ELLIPSE
  5
160
330
B
100
AcDbEntity
  8
LEVEL001
  6
HIDDEN
 62
     1
100
AcDbEllipse
 10
659.2
 20
816.97436867071
 30
0.0
 11
-6.349999999999998
 21
0.0
 31
0.0
210
0.0
220
0.0
230
0.9999999999999998
 40
0.8641613216108899
 41
0.0
 42
3.1415926535898
  0
ELLIPSE
  5
161
330
B
100
AcDbEntity
  8
LEVEL001
  6
HIDDEN
 62
     1
100
AcDbEllipse
 10
541.6
 20
792.22563132929
 30
0.0
 11
-6.349999999999998
 21
0.0
 31
0.0
210
0.0
220
0.0
230
0.9999999999999998
 40
0.8641613216108899
 41
3.1415926535898
 42
6.283185307179586
  0
LWPOLYLINE
  5
162
330
B
100
AcDbEntity
  8
LEVEL001
  6
HIDDEN
 62
     1
100
AcDbPolyline
 90
        4
 70
     0
 43
0.0
 10
652.85
 20
822.1
 10
357.5
 20
822.1
 10
357.5
 20
787.1
 10
535.25
 20
787.1
  0
CIRCLE
  5
163
330
B
100
AcDbEntity
  8
LEVEL001
  6
HIDDEN
 62
     1
100
AcDbCircle
 10
835.5999999999999
 20
804.6000000000001
 30
0.0
 40
6.349999999999999
  0
ELLIPSE
  5
164
330
B
100
AcDbEntity
  8
LEVEL001
  6
HIDDEN
 62
     1
100
AcDbEllipse
 10
1012.0
 20
792.22563132929
 30
0.0
 11
-6.349999999999998
 21
0.0
 31
0.0
210
0.0
220
0.0
230
0.9999999999999998
 40
0.8641613216108899
 41
3.1415926535898
 42
6.283185307179586
  0
LINE
  5
165
330
B
100
AcDbEntity
  8
LEVEL001
  6
HIDDEN
 62
     1
100
AcDbLine
 10
547.95
 20
787.1
 30
0.0
 11
1005.65
 21
787.1
 31
0.0
  0
LWPOLYLINE
  5
166
330
B
100
AcDbEntity
  8
LEVEL001
  6
HIDDEN
 62
     1
100
AcDbPolyline
 90
        4
 70
     0
 43
0.0
 10
1018.35
 20
787.1
 10
1078.5
 20
787.1
 10
1078.5
 20
822.1
 10
665.5499999999999
 20
822.1
  0
LWPOLYLINE
  5
167
330
B
100
AcDbEntity
  8
LEVEL001
  6
HIDDEN
 62
     1
100
AcDbPolyline
 90
        4
 70
     0
 43
0.0
 10
711.65
 20
787.1
 10
711.65
 20
636.1
 10
724.35
 20
636.1
 10
724.35
 20
787.1
  0
ELLIPSE
  5
168
330
B
100
AcDbEntity
  8
LEVEL001
  6
HIDDEN
 62
     1
100
AcDbEllipse
 10
541.6
 20
676.6657108056499
 30
0.0
 11
-6.349999999999998
 21
0.0
 31
0.0
210
0.0
220
0.0
230
0.9999999999999998
 40
0.70710678118295
 41
0.0
 42
6.283185307179586
  0
ELLIPSE
  5
169
330
B
100
AcDbEntity
  8
LEVEL001
  6
HIDDEN
 62
     1
100
AcDbEllipse
 10
424.0
 20
676.6657108056499
 30
0.0
 11
-6.349999999999998
 21
0.0
 31
0.0
210
0.0
220
0.0
230
0.9999999999999998
 40
0.70710678118295
 41
0.0
 42
3.1415926535898
  0
ELLIPSE
  5
16A
330
B
100
AcDbEntity
  8
LEVEL001
  6
HIDDEN
 62
     1
100
AcDbEllipse
 10
894.4
 20
676.6657108056499
 30
0.0
 11
-6.349999999999998
 21
0.0
 31
0.0
210
0.0
220
0.0
230
0.9999999999999998
 40
0.70710678118295
 41
0.0
 42
3.1415926535898
  0
ELLIPSE
  5
16B
330
B
100
AcDbEntity
  8
LEVEL001
  6
HIDDEN
 62
     1
100
AcDbEllipse
 10
1012.0
 20
676.6657108056499
 30
0.0
 11
-6.349999999999998
 21
0.0
 31
0.0
210
0.0
220
0.0
230
0.9999999999999998
 40
0.70710678118295
 41
0.0
 42
6.283185307179586
  0
LINE
  5
16C
330
B
100
AcDbEntity
  8
LEVEL001
  6
HIDDEN
 62
     1
100
AcDbLine
 10
535.25
 20
792.22563132929
 30
0.0
 11
535.25
 21
676.6657108056499
 31
0.0
  0
LINE
  5
16D
330
B
100
AcDbEntity
  8
LEVEL001
  6
HIDDEN
 62
     1
100
AcDbLine
 10
547.95
 20
676.6657108056499
 30
0.0
 11
547.95
 21
792.22563132929
 31
0.0
  0
LINE
  5
16E
330
B
100
AcDbEntity
  8
LEVEL001
  6
HIDDEN
 62
     1
100
AcDbLine
 10
417.6499999999999
 20
787.1
 30
0.0
 11
417.6499999999999
 21
676.6657108056499
 31
0.0
  0
LINE
  5
16F
330
B
100
AcDbEntity
  8
LEVEL001
  6
HIDDEN
 62
     1
100
AcDbLine
 10
430.35
 20
676.6657108056499
 30
0.0
 11
430.35
 21
787.1
 31
0.0
  0
LINE
  5
170
330
B
100
AcDbEntity
  8
LEVEL001
  6
HIDDEN
 62
     1
100
AcDbLine
 10
888.0499999999999
 20
787.1
 30
0.0
 11
888.0499999999999
 21
676.6657108056499
 31
0.0
  0
LINE
  5
171
330
B
100
AcDbEntity
  8
LEVEL001
  6
HIDDEN
 62
     1
100
AcDbLine
 10
900.75
 20
676.6657108056499
 30
0.0
 11
900.75
 21
787.1
 31
0.0
  0
LINE
  5
172
330
B
100
AcDbEntity
  8
LEVEL001
  6
HIDDEN
 62
     1
100
AcDbLine
 10
1005.65
 20
792.22563132929
 30
0.0
 11
1005.65
 21
676.6657108056499
 31
0.0
  0
LINE
  5
173
330
B
100
AcDbEntity
  8
LEVEL001
  6
HIDDEN
 62
     1
100
AcDbLine
 10
1018.35
 20
676.6657108056499
 30
0.0
 11
1018.35
 21
792.22563132929
 31
0.0
  0
ELLIPSE
  5
174
330
B
100
AcDbEntity
  8
LEVEL001
  6
HIDDEN
 62
     1
100
AcDbEllipse
 10
659.2
 20
927.93428919435
 30
0.0
 11
-6.349999999999998
 21
0.0
 31
0.0
210
0.0
220
0.0
230
0.9999999999999998
 40
0.70710678118295
 41
0.0
 42
6.283185307179586
  0
LINE
  5
175
330
B
100
AcDbEntity
  8
LEVEL001
  6
HIDDEN
 62
     1
100
AcDbLine
 10
652.85
 20
816.97436867071
 30
0.0
 11
652.85
 21
927.93428919435
 31
0.0
  0
LINE
  5
176
330
B
100
AcDbEntity
  8
LEVEL001
  6
HIDDEN
 62
     1
100
AcDbLine
 10
665.5499999999999
 20
927.93428919435
 30
0.0
 11
665.5499999999999
 21
816.97436867071
 31
0.0
  0
LWPOLYLINE
  5
177
330
B
100
AcDbEntity
  8
LEVEL001
  6
HIDDEN
 62
     1
100
AcDbPolyline
 90
        4
 70
     0
 43
0.0
 10
476.4499999999999
 20
822.1
 10
476.4499999999999
 20
968.5
 10
489.1499999999999
 20
968.5
 10
489.1499999999999
 20
822.1
  0
ELLIPSE
  5
178
330
B
100
AcDbEntity
  8
LEVEL001
  6
HIDDEN
 62
     1
100
AcDbEllipse
 10
776.7999999999999
 20
927.93428919435
 30
0.0
 11
-6.349999999999998
 21
0.0
 31
0.0
210
0.0
220
0.0
230
0.9999999999999998
 40
0.70710678118295
 41
3.1415926535898
 42
6.283185307179586
  0
LINE
  5
179
330
B
100
AcDbEntity
  8
LEVEL001
  6
HIDDEN
 62
     1
100
AcDbLine
 10
770.45
 20
822.1
 30
0.0
 11
770.45
 21
927.93428919435
 31
0.0
  0
LINE
  5
17A
330
B
100
AcDbEntity
  8
LEVEL001
  6
HIDDEN
 62
     1
100
AcDbLine
 10
783.15
 20
927.93428919435
 30
0.0
 11
783.15
 21
822.1
 31
0.0
  0
LWPOLYLINE
  5
17B
330
B
100
AcDbEntity
  8
LEVEL001
  6
HIDDEN
 62
     1
100
AcDbPolyline
 90
        4
 70
     0
 43
0.0
 10
946.85
 20
822.1
 10
946.85
 20
968.5
 10
959.5499999999999
 20
968.5
 10
959.5499999999999
 20
822.1
  0
POINT
  5
17C
330
B
100
AcDbEntity
  8
LEVEL001
 62
     7
100
AcDbPoint
 10
1100.5
 20
1048.583274285
 30
0.0
  0
ARC
  5
17D
330
B
100
AcDbEntity
  8
LEVEL001
  6
Continuous
 62
     7
100
AcDbCircle
 10
1142.5
 20
1078.1824626084
 30
0.0
 40
12.7
100
AcDbArc
 50
270.0
 51
0.0
  0
LINE
  5
17E
330
B
100
AcDbEntity
  8
LEVEL001
  6
Continuous
 62
     7
100
AcDbLine
 10
1112.5
 20
1065.4824626084
 30
0.0
 11
1142.5
 21
1065.4824626084
 31
0.0
  0
LWPOLYLINE
  5
17F
330
B
100
AcDbEntity
  8
LEVEL001
  6
Continuous
 62
     7
100
AcDbPolyline
 90
        3
 70
     0
 43
0.0
 10
1112.5
 20
1023.4817602093
 10
1115.5
 20
1023.4817602093
 10
1115.5
 20
1065.4824626084
  0
LWPOLYLINE
  5
180
330
B
100
AcDbEntity
  8
LEVEL001
  6
Continuous
 62
     7
100
AcDbPolyline
 90
        3
 70
     0
 43
0.0
 10
1115.5
 20
1078.1824626084
 10
1115.5
 20
1083.4318858893
 10
1112.5
 20
1083.4318858893
  0
LWPOLYLINE
  5
181
330
B
100
AcDbEntity
  8
LEVEL001
  6
Continuous
 62
     7
100
AcDbPolyline
 90
        4
 70
     0
 43
0.0
 10
1044.5
 20
1119.6598903674
 10
1044.5
 20
1119.9484931829
 10
1098.5
 20
1119.9484931829
 10
1098.5
 20
1119.6598903674
  0
POINT
  5
182
330
B
100
AcDbEntity
  8
LEVEL001
 62
     7
100
AcDbPoint
 10
668.0
 20
1119.6598903674
 30
0.0
  0
POINT
  5
183
330
B
100
AcDbEntity
  8
LEVEL001
 62
     7
100
AcDbPoint
 10
768.0
 20
1119.6598903674
 30
0.0
  0
ARC
  5
184
330
B
100
AcDbEntity
  8
LEVEL001
  6
Continuous
 62
     7
100
AcDbCircle
 10
681.5
 20
1131.6598903674
 30
0.0
 40
9.0
100
AcDbArc
 50
90.0
 51
180.00000000001
  0
ARC
  5
185
330
B
100
AcDbEntity
  8
LEVEL001
  6
Continuous
 62
     7
100
AcDbCircle
 10
681.5
 20
1131.6598903674
 30
0.0
 40
18.0
100
AcDbArc
 50
90.0
 51
180.0
  0
ARC
  5
186
330
B
100
AcDbEntity
  8
LEVEL001
  6
Continuous
 62
     7
100
AcDbCircle
 10
754.4999999999999
 20
1131.6598903674
 30
0.0
 40
9.0
100
AcDbArc
 50
0.0
 51
90.0
  0
ARC
  5
187
330
B
100
AcDbEntity
  8
LEVEL001
  6
Continuous
 62
     7
100
AcDbCircle
 10
754.4999999999999
 20
1131.6598903674
 30
0.0
 40
18.0
100
AcDbArc
 50
0.0
 51
90.0
  0
LINE
  5
188
330
B
100
AcDbEntity
  8
LEVEL001
  6
Continuous
 62
     7
100
AcDbLine
 10
663.4999999999999
 20
1131.6598903674
 30
0.0
 11
663.4999999999999
 21
1119.6598903674
 31
0.0
  0
LINE
  5
189
330
B
100
AcDbEntity
  8
LEVEL001
  6
Continuous
 62
     7
100
AcDbLine
 10
672.5
 20
1131.6598903674
 30
0.0
 11
672.5
 21
1119.6598903674
 31
0.0
  0
LINE
  5
18A
330
B
100
AcDbEntity
  8
LEVEL001
  6
Continuous
 62
     7
100
AcDbLine
 10
772.5
 20
1131.6598903674
 30
0.0
 11
772.5
 21
1119.6598903674
 31
0.0
  0
LINE
  5
18B
330
B
100
AcDbEntity
  8
LEVEL001
  6
Continuous
 62
     7
100
AcDbLine
 10
763.4999999999999
 20
1131.6598903674
 30
0.0
 11
763.4999999999999
 21
1119.6598903674
 31
0.0
  0
LINE
  5
18C
330
B
100
AcDbEntity
  8
LEVEL001
  6
Continuous
 62
     7
100
AcDbLine
 10
681.5
 20
1140.6598903674
 30
0.0
 11
754.4999999999999
 21
1140.6598903674
 31
0.0
  0
LINE
  5
18D
330
B
100
AcDbEntity
  8
LEVEL001
  6
Continuous
 62
     7
100
AcDbLine
 10
681.5
 20
1149.6598903674
 30
0.0
 11
754.4999999999999
 21
1149.6598903674
 31
0.0
  0
LINE
  5
18E
330
B
100
AcDbEntity
  8
LEVEL001
  6
DASHDOT
 62
     1
100
AcDbLine
 10
718.0
 20
1172.6
 30
0.0
 11
718.0
 21
219.0
 31
0.0
  0
LINE
  5
18F
330
B
100
AcDbEntity
  8
LEVEL001
  6
Continuous
 62
     7
100
AcDbLine
 10
323.5
 20
1075.7838410232
 30
0.0
 11
1112.5
 21
1075.7838410232
 31
0.0
  0
LWPOLYLINE
  5
190
330
B
100
AcDbEntity
  8
LEVEL001
  6
Continuous
 62
     7
100
AcDbPolyline
 90
        4
 70
     1
 43
0.0
 10
319.0
 20
1097.6598903674
 10
1117.0
 20
1097.6598903674
 10
1117.0
 20
1119.6598903674
 10
319.0
 20
1119.6598903674
  0
LWPOLYLINE
  5
191
330
B
100
AcDbEntity
  8
LEVEL001
  6
Continuous
 62
     7
100
AcDbPolyline
 90
        4
 70
     0
 43
0.0
 10
1112.5
 20
1097.6598903674
 10
1112.5
 20
1075.6615459808
 10
323.5
 20
1075.6615459808
 10
323.5
 20
1097.6598903674
  0
LWPOLYLINE
  5
192
330
B
100
AcDbEntity
  8
LEVEL001
  6
Continuous
 62
     7
100
AcDbPolyline
 90
        4
 70
     0
 43
0.0
 10
337.5
 20
1119.6598903674
 10
337.5
 20
1119.9484931829
 10
391.5
 20
1119.9484931829
 10
391.5
 20
1119.6598903674
  0
LWPOLYLINE
  5
193
330
B
100
AcDbEntity
  8
LEVEL001
  6
Continuous
 62
     7
100
AcDbPolyline
 90
        4
 70
     0
 43
0.0
 10
1112.5
 20
1075.6615459808
 10
1112.5
 20
631.6
 10
323.5
 20
631.6
 10
323.5
 20
1075.6615459808
  0
LWPOLYLINE
  5
194
330
B
100
AcDbEntity
  8
LEVEL001
  6
HIDDEN
 62
     1
100
AcDbPolyline
 90
        6
 70
     0
 43
0.0
 10
323.5
 20
1100.6
 10
351.5
 20
1100.6
 10
351.5
 20
632.6
 10
1084.5
 20
632.6
 10
1084.5
 20
1100.6
 10
1112.5
 20
1100.6
  0
LINE
  5
195
330
B
100
AcDbEntity
  8
LEVEL001
  6
Continuous
 62
     7
100
AcDbLine
 10
1155.2
 20
1078.1824626084
 30
0.0
 11
1155.2
 21
1137.9160877157
 31
0.0
  0
LWPOLYLINE
  5
196
330
B
100
AcDbEntity
  8
LEVEL001
  6
Continuous
 62
     7
100
AcDbPolyline
 90
        3
 70
     0
 43
0.0
 10
1142.5
 20
1137.9160877157
 10
1142.5
 20
1078.1824626084
 10
1112.5
 20
1078.1824626084
  0
CIRCLE
  5
197
330
B
100
AcDbEntity
  8
LEVEL001
  6
Continuous
 62
     7
100
AcDbCircle
 10
1148.85
 20
1151.5056977175
 30
0.0
 40
15.0
  0
POINT
  5
198
330
B
100
AcDbEntity
  8
LEVEL001
 62
     7
100
AcDbPoint
 10
314.5
 20
1062.0598903674
 30
0.0
  0
LWPOLYLINE
  5
199
330
B
100
AcDbEntity
  8
LEVEL001
  6
Continuous
 62
     7
100
AcDbPolyline
 90
        6
 70
     0
 43
0.0
 10
319.0
 20
1102.6598903674
 10
317.5
 20
1102.6598903674
 10
317.5
 20
1042.0598903674
 10
314.5
 20
1042.0598903674
 10
314.5
 20
1105.6598903674
 10
319.0
 20
1105.6598903674
  0
LWPOLYLINE
  5
19A
330
B
100
AcDbEntity
  8
LEVEL001
  6
Continuous
 62
     7
100
AcDbPolyline
 90
        4
 70
     1
 43
0.0
 10
314.5
 20
1036.0
 10
314.5
 20
1071.0
 10
289.5
 20
1071.0
 10
289.5
 20
1036.0
  0
LINE
  5
19B
330
B
100
AcDbEntity
  8
LEVEL001
  6
Continuous
 62
     7
100
AcDbLine
 10
295.5
 20
1071.0
 30
0.0
 11
295.5
 21
1036.0
 31
0.0
  0
LWPOLYLINE
  5
19C
330
B
100
AcDbEntity
  8
LEVEL001
  6
Continuous
 62
     7
100
AcDbPolyline
 90
        4
 70
     0
 43
0.0
 10
310.0
 20
757.0
 10
310.0
 20
772.0
 10
253.0
 20
772.0
 10
253.0
 20
757.0
  0
LWPOLYLINE
  5
19D
330
B
100
AcDbEntity
  8
LEVEL001
  6
Continuous
 62
     7
100
AcDbPolyline
 90
        4
 70
     0
 43
0.0
 10
323.5
 20
757.0
 10
253.0
 20
757.0
 10
253.0
 20
307.0
 10
254.0
 20
307.0
  0
POINT
  5
19E
330
B
100
AcDbEntity
  8
LEVEL001
 62
     7
100
AcDbPoint
 10
153.0
 20
807.6
 30
0.0
  0
POINT
  5
19F
330
B
100
AcDbEntity
  8
LEVEL001
 62
     7
100
AcDbPoint
 10
237.0
 20
807.6
 30
0.0
  0
LINE
  5
1A0
330
B
100
AcDbEntity
  8
LEVEL001
  6
Continuous
 62
     7
100
AcDbLine
 10
272.5
 20
819.5999999999999
 30
0.0
 11
252.0
 21
819.5999999999999
 31
0.0
  0
LINE
  5
1A1
330
B
100
AcDbEntity
  8
LEVEL001
  6
Continuous
 62
     7
100
AcDbLine
 10
252.0
 20
789.6
 30
0.0
 11
272.5
 21
789.6
 31
0.0
  0
LWPOLYLINE
  5
1A2
330
B
100
AcDbEntity
  8
LEVEL001
  6
Continuous
 62
     7
100
AcDbPolyline
 90
        4
 70
     1
 43
0.0
 10
138.0
 20
307.0
 10
252.0
 20
307.0
 10
252.0
 20
1072.0
 10
138.0
 20
1072.0
  0
LWPOLYLINE
  5
1A3
330
B
100
AcDbEntity
  8
LEVEL001
  6
Continuous
 62
     7
100
AcDbPolyline
 90
        4
 70
     0
 43
0.0
 10
252.0
 20
1071.0
 10
268.3
 20
1071.0
 10
268.3
 20
1036.0
 10
252.0
 20
1036.0
  0
POINT
  5
1A4
330
B
100
AcDbEntity
  8
LEVEL001
 62
     7
100
AcDbPoint
 10
153.0
 20
1057.0
 30
0.0
  0
POINT
  5
1A5
330
B
100
AcDbEntity
  8
LEVEL001
 62
     7
100
AcDbPoint
 10
205.5
 20
1072.0
 30
0.0
  0
POINT
  5
1A6
330
B
100
AcDbEntity
  8
LEVEL001
 62
     7
100
AcDbPoint
 10
237.0
 20
1057.0
 30
0.0
  0
LWPOLYLINE
  5
1A7
330
B
100
AcDbEntity
  8
LEVEL001
  6
Continuous
 62
     7
100
AcDbPolyline
 90
        4
 70
     1
 43
0.0
 10
147.5
 20
856.4999999999999
 10
242.5
 20
856.4999999999999
 10
242.5
 20
1062.5
 10
147.5
 20
1062.5
  0
CIRCLE
  5
1A8
330
B
100
AcDbEntity
  8
LEVEL001
  6
Continuous
 62
     7
100
AcDbCircle
 10
175.0
 20
906.4999999999999
 30
0.0
 40
12.5
  0
CIRCLE
  5
1A9
330
B
100
AcDbEntity
  8
LEVEL001
  6
Continuous
 62
     7
100
AcDbCircle
 10
175.0
 20
906.4999999999999
 30
0.0
 40
16.25
  0
CIRCLE
  5
1AA
330
B
100
AcDbEntity
  8
LEVEL001
  6
Continuous
 62
     7
100
AcDbCircle
 10
215.0
 20
906.4999999999999
 30
0.0
 40
16.25
  0
CIRCLE
  5
1AB
330
B
100
AcDbEntity
  8
LEVEL001
  6
Continuous
 62
     7
100
AcDbCircle
 10
215.0
 20
906.4999999999999
 30
0.0
 40
12.5
  0
LWPOLYLINE
  5
1AC
330
B
100
AcDbEntity
  8
LEVEL001
  6
Continuous
 62
     7
100
AcDbPolyline
 90
        4
 70
     1
 43
0.0
 10
163.5
 20
936.5
 10
226.5
 20
936.5
 10
226.5
 20
1020.5
 10
163.5
 20
1020.5
  0
LWPOLYLINE
  5
1AD
330
B
100
AcDbEntity
  8
LEVEL001
  6
Continuous
 62
     7
100
AcDbPolyline
 90
        4
 70
     1
 43
0.0
 10
169.0
 20
947.0
 10
221.0
 20
947.0
 10
221.0
 20
1010.0
 10
169.0
 20
1010.0
  0
LWPOLYLINE
  5
1AE
330
B
100
AcDbEntity
  8
LEVEL001
  6
Continuous
 62
     7
100
AcDbPolyline
 90
        4
 70
     0
 43
0.0
 10
192.5
 20
994.92497216032
 10
193.0
 20
999.9500000000001
 10
197.0
 20
999.9500000000001
 10
197.5
 20
994.92497216032
  0
LWPOLYLINE
  5
1AF
330
B
100
AcDbEntity
  8
LEVEL001
  6
Continuous
 62
     7
100
AcDbPolyline
 90
        4
 70
     0
 43
0.0
 10
192.5
 20
972.47502783968
 10
193.0
 20
967.45
 10
197.0
 20
967.45
 10
197.5
 20
972.47502783968
  0
LINE
  5
1B0
330
B
100
AcDbEntity
  8
LEVEL001
  6
Continuous
 62
     7
100
AcDbLine
 10
194.5
 20
999.9500000000001
 30
0.0
 11
194.5
 21
995.1891252930799
 31
0.0
  0
LINE
  5
1B1
330
B
100
AcDbEntity
  8
LEVEL001
  6
Continuous
 62
     7
100
AcDbLine
 10
195.5
 20
999.9500000000001
 30
0.0
 11
195.5
 21
995.1891252930799
 31
0.0
  0
CIRCLE
  5
1B2
330
B
100
AcDbEntity
  8
LEVEL001
  6
Continuous
 62
     7
100
AcDbCircle
 10
195.0
 20
983.7000000000001
 30
0.0
 40
8.0
  0
ARC
  5
1B3
330
B
100
AcDbEntity
  8
LEVEL001
  6
Continuous
 62
     7
100
AcDbCircle
 10
195.00000000055
 20
968.2434194268299
 30
0.0
 40
4.9565805731756
100
AcDbArc
 50
58.91685076569101
 51
121.08314923834
  0
ARC
  5
1B4
330
B
100
AcDbEntity
  8
LEVEL001
  6
Continuous
 62
     7
100
AcDbCircle
 10
207.08444130397
 20
974.06297964101
 30
0.0
 40
4.9565805731756
100
AcDbArc
 50
110.3454221943
 51
172.51172066698
  0
ARC
  5
1B5
330
B
100
AcDbEntity
  8
LEVEL001
  6
Continuous
 62
     7
100
AcDbCircle
 10
210.06905182825
 20
987.1394127449001
 30
0.0
 40
4.9565805731756
100
AcDbArc
 50
161.77399362287
 51
223.94029209557
  0
ARC
  5
1B6
330
B
100
AcDbEntity
  8
LEVEL001
  6
Continuous
 62
     7
100
AcDbCircle
 10
201.70635897366
 20
997.62589790065
 30
0.0
 40
4.9565805731756
100
AcDbArc
 50
213.20256505141
 51
275.36886352407
  0
ARC
  5
1B7
330
B
100
AcDbEntity
  8
LEVEL001
  6
Continuous
 62
     7
100
AcDbCircle
 10
188.29364102753
 20
997.6258979006699
 30
0.0
 40
4.9565805731756
100
AcDbArc
 50
264.63113648003
 51
326.79743495274
  0
ARC
  5
1B8
330
B
100
AcDbEntity
  8
LEVEL001
  6
Continuous
 62
     7
100
AcDbCircle
 10
179.93094817291
 20
987.13941274494
 30
0.0
 40
4.9565805731756
100
AcDbArc
 50
316.05970790859
 51
18.226006381296
  0
ARC
  5
1B9
330
B
100
AcDbEntity
  8
LEVEL001
  6
Continuous
 62
     7
100
AcDbCircle
 10
182.91555869714
 20
974.06297964105
 30
0.0
 40
4.9565805731756
100
AcDbArc
 50
7.4882793371036
 51
69.654577809741
  0
ARC
  5
1BA
330
B
100
AcDbEntity
  8
LEVEL001
  6
Continuous
 62
     7
100
AcDbCircle
 10
195.00000000001
 20
983.7000000000001
 30
0.0
 40
11.5
100
AcDbArc
 50
231.42857143245
 51
257.14285714491
  0
ARC
  5
1BB
330
B
100
AcDbEntity
  8
LEVEL001
  6
Continuous
 62
     7
100
AcDbCircle
 10
195.0
 20
983.7000000000001
 30
0.0
 40
11.5
100
AcDbArc
 50
282.85714285913
 51
308.57142857552
  0
ARC
  5
1BC
330
B
100
AcDbEntity
  8
LEVEL001
  6
Continuous
 62
     7
100
AcDbCircle
 10
195.0
 20
983.7000000000001
 30
0.0
 40
11.5
100
AcDbArc
 50
334.28571428413
 51
0.0
  0
ARC
  5
1BD
330
B
100
AcDbEntity
  8
LEVEL001
  6
Continuous
 62
     7
100
AcDbCircle
 10
195.0
 20
983.7000000000001
 30
0.0
 40
11.5
100
AcDbArc
 50
180.00000000272
 51
205.71428571278
  0
ARC
  5
1BE
330
B
100
AcDbEntity
  8
LEVEL001
  6
Continuous
 62
     7
100
AcDbCircle
 10
195.0
 20
983.70000000001
 30
0.0
 40
11.5
100
AcDbArc
 50
128.57142857082
 51
154.28571428181
  0
ARC
  5
1BF
330
B
100
AcDbEntity
  8
LEVEL001
  6
Continuous
 62
     7
100
AcDbCircle
 10
195.0
 20
983.7000000000001
 30
0.0
 40
11.5
100
AcDbArc
 50
25.714285710186
 51
51.42857142824201
  0
ARC
  5
1C0
330
B
100
AcDbEntity
  8
LEVEL001
  6
Continuous
 62
     7
100
AcDbCircle
 10
195.0
 20
983.7000000000001
 30
0.0
 40
11.5
100
AcDbArc
 50
77.142857139182
 51
102.85714285373
  0
ARC
  5
1C1
330
B
100
AcDbEntity
  8
LEVEL001
  6
Continuous
 62
     7
100
AcDbCircle
 10
194.99999999999
 20
983.7000000000001
 30
0.0
 40
13.0
100
AcDbArc
 50
100.39033808311
 51
259.60966191689
  0
ARC
  5
1C2
330
B
100
AcDbEntity
  8
LEVEL001
  6
Continuous
 62
     7
100
AcDbCircle
 10
195.00000000001
 20
983.7000000000001
 30
0.0
 40
13.0
100
AcDbArc
 50
280.39033808311
 51
79.609661916888
  0
ARC
  5
1C3
330
B
100
AcDbEntity
  8
LEVEL001
  6
Continuous
 62
     7
100
AcDbCircle
 10
195.0
 20
983.7000000000001
 30
0.0
 40
20.0
100
AcDbArc
 50
299.9999999998
 51
240.00000000019
  0
LWPOLYLINE
  5
1C4
330
B
100
AcDbEntity
  8
LEVEL001
  6
Continuous
 62
     7
100
AcDbPolyline
 90
        4
 70
     1
 43
0.0
 10
166.5
 20
944.5
 10
223.5
 20
944.5
 10
223.5
 20
1012.5
 10
166.5
 20
1012.5
  0
LWPOLYLINE
  5
1C5
330
B
100
AcDbEntity
  8
LEVEL001
  6
Continuous
 62
     7
100
AcDbPolyline
 90
        4
 70
     0
 43
0.0
 10
259.0
 20
307.0
 10
259.0
 20
298.0
 10
349.0
 20
298.0
 10
349.0
 20
307.0
  0
LWPOLYLINE
  5
1C6
330
B
100
AcDbEntity
  8
LEVEL001
  6
Continuous
 62
     7
100
AcDbPolyline
 90
        4
 70
     0
 43
0.0
 10
263.0
 20
298.0
 10
263.0
 20
296.0
 10
345.0
 20
296.0
 10
345.0
 20
298.0
  0
LWPOLYLINE
  5
1C7
330
B
100
AcDbEntity
  8
LEVEL001
  6
Continuous
 62
     7
100
AcDbPolyline
 90
        4
 70
     1
 43
0.0
 10
288.0
 20
197.0
 10
320.0
 20
197.0
 10
320.0
 20
272.0
 10
288.0
 20
272.0
  0
LWPOLYLINE
  5
1C8
330
B
100
AcDbEntity
  8
LEVEL001
  6
Continuous
 62
     7
100
AcDbPolyline
 90
        8
 70
     0
 43
0.0
 10
281.0
 20
296.0
 10
281.0
 20
217.0
 10
286.0
 20
217.0
 10
286.0
 20
277.0
 10
322.0
 20
277.0
 10
322.0
 20
217.0
 10
327.0
 20
217.0
 10
327.0
 20
296.0
  0
LINE
  5
1C9
330
B
100
AcDbEntity
  8
LEVEL001
  6
Continuous
 62
     7
100
AcDbLine
 10
101.0
 20
197.0
 30
0.0
 11
1264.0
 21
197.0
 31
0.0
  0
LWPOLYLINE
  5
1CA
330
B
100
AcDbEntity
  8
LEVEL001
  6
Continuous
 62
     7
100
AcDbPolyline
 90
        4
 70
     1
 43
0.0
 10
1124.5
 20
757.0
 10
1181.5
 20
757.0
 10
1181.5
 20
763.0
 10
1124.5
 20
763.0
  0
LWPOLYLINE
  5
1CB
330
B
100
AcDbEntity
  8
LEVEL001
  6
Continuous
 62
     7
100
AcDbPolyline
 90
        4
 70
     0
 43
0.0
 10
1182.0
 20
307.0
 10
1183.0
 20
307.0
 10
1183.0
 20
757.0
 10
1112.5
 20
757.0
  0
LINE
  5
1CC
330
B
100
AcDbEntity
  8
LEVEL001
  6
Continuous
 62
     7
100
AcDbLine
 10
1186.0
 20
778.6
 30
0.0
 11
1186.0
 21
699.0
 31
0.0
  0
LWPOLYLINE
  5
1CD
330
B
100
AcDbEntity
  8
LEVEL001
  6
Continuous
 62
     7
100
AcDbPolyline
 90
        8
 70
     1
 43
0.0
 10
1226.0
 20
696.0
 10
1226.0
 20
781.6
 10
1195.0
 20
781.6
 10
1195.0
 20
778.6
 10
1183.0
 20
778.6
 10
1183.0
 20
699.0
 10
1195.0
 20
699.0
 10
1195.0
 20
696.0
  0
LWPOLYLINE
  5
1CE
330
B
100
AcDbEntity
  8
LEVEL001
  6
Continuous
 62
     7
100
AcDbPolyline
 90
        3
 70
     0
 43
0.0
 10
1163.5
 20
819.5999999999999
 10
1183.5
 20
819.5999999999999
 10
1183.5
 20
797.5999999999999
  0
LWPOLYLINE
  5
1CF
330
B
100
AcDbEntity
  8
LEVEL001
  6
Continuous
 62
     7
100
AcDbPolyline
 90
        5
 70
     0
 43
0.0
 10
1184.5
 20
778.6
 10
1184.5
 20
797.5999999999999
 10
1121.5
 20
797.5999999999999
 10
1121.5
 20
763.0
 10
1183.0
 20
763.0
  0
CIRCLE
  5
1D0
330
B
100
AcDbEntity
  8
LEVEL001
  6
Continuous
 62
     7
100
AcDbCircle
 10
1215.85
 20
876.95
 30
0.0
 40
15.0
  0
ARC
  5
1D1
330
B
100
AcDbEntity
  8
LEVEL001
  6
Continuous
 62
     7
100
AcDbCircle
 10
1205.5
 20
792.95
 30
0.0
 40
4.0
100
AcDbArc
 50
270.00000000005
 51
0.0
  0
LINE
  5
1D2
330
B
100
AcDbEntity
  8
LEVEL001
  6
Continuous
 62
     7
100
AcDbLine
 10
1184.5
 20
788.95
 30
0.0
 11
1205.5
 21
788.95
 31
0.0
  0
LINE
  5
1D3
330
B
100
AcDbEntity
  8
LEVEL001
  6
Continuous
 62
     7
100
AcDbLine
 10
1209.5
 20
792.95
 30
0.0
 11
1209.5
 21
863.36038999824
 31
0.0
  0
LINE
  5
1D4
330
B
100
AcDbEntity
  8
LEVEL001
  6
Continuous
 62
     7
100
AcDbLine
 10
1222.2
 20
863.36038999824
 30
0.0
 11
1222.2
 21
792.95
 31
0.0
  0
ARC
  5
1D5
330
B
100
AcDbEntity
  8
LEVEL001
  6
Continuous
 62
     7
100
AcDbCircle
 10
1205.5
 20
792.94999999999
 30
0.0
 40
16.7
100
AcDbArc
 50
317.18442609926
 51
0.0
  0
LINE
  5
1D6
330
B
100
AcDbEntity
  8
LEVEL001
  6
DASHDOT
 62
     1
100
AcDbLine
 10
1264.0
 20
804.6000000000001
 30
0.0
 11
101.0
 21
804.6000000000001
 31
0.0
  0
LWPOLYLINE
  5
1D7
330
B
100
AcDbEntity
  8
LEVEL001
  6
Continuous
 62
     7
100
AcDbPolyline
 90
        4
 70
     0
 43
0.0
 10
1087.0
 20
307.0
 10
1087.0
 20
298.0
 10
1177.0
 20
298.0
 10
1177.0
 20
307.0
  0
LWPOLYLINE
  5
1D8
330
B
100
AcDbEntity
  8
LEVEL001
  6
Continuous
 62
     7
100
AcDbPolyline
 90
        4
 70
     0
 43
0.0
 10
1091.0
 20
298.0
 10
1091.0
 20
296.0
 10
1173.0
 20
296.0
 10
1173.0
 20
298.0
  0
LWPOLYLINE
  5
1D9
330
B
100
AcDbEntity
  8
LEVEL001
  6
Continuous
 62
     7
100
AcDbPolyline
 90
        4
 70
     1
 43
0.0
 10
1116.0
 20
197.0
 10
1148.0
 20
197.0
 10
1148.0
 20
272.0
 10
1116.0
 20
272.0
  0
LWPOLYLINE
  5
1DA
330
B
100
AcDbEntity
  8
LEVEL001
  6
Continuous
 62
     7
100
AcDbPolyline
 90
        8
 70
     0
 43
0.0
 10
1109.0
 20
296.0
 10
1109.0
 20
217.0
 10
1114.0
 20
217.0
 10
1114.0
 20
277.0
 10
1150.0
 20
277.0
 10
1150.0
 20
217.0
 10
1155.0
 20
217.0
 10
1155.0
 20
296.0
  0
LINE
  5
1DB
330
B
100
AcDbEntity
  8
LEVEL001
  6
Continuous
 62
     7
100
AcDbLine
 10
1879.0
 20
772.0
 30
0.0
 11
1959.0
 21
772.0
 31
0.0
  0
LINE
  5
1DC
330
B
100
AcDbEntity
  8
LEVEL001
  6
Continuous
 62
     7
100
AcDbLine
 10
1595.0
 20
197.0
 30
0.0
 11
2169.0
 21
197.0
 31
0.0
  0
LWPOLYLINE
  5
1DD
330
B
100
AcDbEntity
  8
LEVEL001
  6
Continuous
 62
     7
100
AcDbPolyline
 90
        4
 70
     0
 43
0.0
 10
1675.0
 20
307.0
 10
1675.0
 20
298.0
 10
1765.0
 20
298.0
 10
1765.0
 20
307.0
  0
LWPOLYLINE
  5
1DE
330
B
100
AcDbEntity
  8
LEVEL001
  6
Continuous
 62
     7
100
AcDbPolyline
 90
        3
 70
     0
 43
0.0
 10
1679.0
 20
296.0
 10
1761.0
 20
296.0
 10
1761.0
 20
298.0
  0
CIRCLE
  5
1DF
330
B
100
AcDbEntity
  8
LEVEL001
  6
Continuous
 62
     7
100
AcDbCircle
 10
1696.5
 20
234.5
 30
0.0
 40
5.0
  0
LINE
  5
1E0
330
B
100
AcDbEntity
  8
LEVEL001
  6
Continuous
 62
     7
100
AcDbLine
 10
1761.0
 20
296.0
 30
0.0
 11
1710.7949948362
 21
224.40529234533
 31
0.0
  0
LINE
  5
1E1
330
B
100
AcDbEntity
  8
LEVEL001
  6
Continuous
 62
     7
100
AcDbLine
 10
1679.0
 20
298.0
 30
0.0
 11
1679.0
 21
234.5
 31
0.0
  0
ARC
  5
1E2
330
B
100
AcDbEntity
  8
LEVEL001
  6
Continuous
 62
     7
100
AcDbCircle
 10
1696.5
 20
234.49999999999
 30
0.0
 40
17.5
100
AcDbArc
 50
179.99999999998
 51
324.7713787037101
  0
ARC
  5
1E3
330
B
100
AcDbEntity
  8
LEVEL001
  6
Continuous
 62
     7
100
AcDbCircle
 10
1696.5
 20
234.5
 30
0.0
 40
37.5
100
AcDbArc
 50
117.81813928465
 51
27.142386627723
  0
LWPOLYLINE
  5
1E4
330
B
100
AcDbEntity
  8
LEVEL001
  6
Continuous
 62
     7
100
AcDbPolyline
 90
        4
 70
     0
 43
0.0
 10
2073.0
 20
307.0
 10
2073.0
 20
298.0
 10
2163.0
 20
298.0
 10
2163.0
 20
307.0
  0
LWPOLYLINE
  5
1E5
330
B
100
AcDbEntity
  8
LEVEL001
  6
Continuous
 62
     7
100
AcDbPolyline
 90
        3
 70
     0
 43
0.0
 10
2077.0
 20
296.0
 10
2159.0
 20
296.0
 10
2159.0
 20
298.0
  0
CIRCLE
  5
1E6
330
B
100
AcDbEntity
  8
LEVEL001
  6
Continuous
 62
     7
100
AcDbCircle
 10
2094.5
 20
234.5
 30
0.0
 40
5.0
  0
LINE
  5
1E7
330
B
100
AcDbEntity
  8
LEVEL001
  6
Continuous
 62
     7
100
AcDbLine
 10
2159.0
 20
296.0
 30
0.0
 11
2108.7949948362
 21
224.40529234533
 31
0.0
  0
LINE
  5
1E8
330
B
100
AcDbEntity
  8
LEVEL001
  6
Continuous
 62
     7
100
AcDbLine
 10
2077.0
 20
298.0
 30
0.0
 11
2077.0
 21
234.5
 31
0.0
  0
ARC
  5
1E9
330
B
100
AcDbEntity
  8
LEVEL001
  6
Continuous
 62
     7
100
AcDbCircle
 10
2094.5
 20
234.50000000001
 30
0.0
 40
17.5
100
AcDbArc
 50
180.00000000002
 51
324.77137870366
  0
ARC
  5
1EA
330
B
100
AcDbEntity
  8
LEVEL001
  6
Continuous
 62
     7
100
AcDbCircle
 10
2094.5
 20
234.5
 30
0.0
 40
37.5
100
AcDbArc
 50
117.81813928465
 51
27.142386627719
  0
POINT
  5
1EB
330
B
100
AcDbEntity
  8
LEVEL001
 62
     7
100
AcDbPoint
 10
1858.5
 20
1065.6
 30
0.0
  0
POINT
  5
1EC
330
B
100
AcDbEntity
  8
LEVEL001
 62
     7
100
AcDbPoint
 10
1919.0
 20
1119.6598903674
 30
0.0
  0
ARC
  5
1ED
330
B
100
AcDbEntity
  8
LEVEL001
  6
Continuous
 62
     7
100
AcDbCircle
 10
1919.0
 20
1145.1598903674
 30
0.0
 40
4.5
100
AcDbArc
 50
0.0
 51
180.0
  0
LINE
  5
1EE
330
B
100
AcDbEntity
  8
LEVEL001
  6
Continuous
 62
     7
100
AcDbLine
 10
1914.5
 20
1145.1598903674
 30
0.0
 11
1914.5
 21
1119.6598903674
 31
0.0
  0
LINE
  5
1EF
330
B
100
AcDbEntity
  8
LEVEL001
  6
Continuous
 62
     7
100
AcDbLine
 10
1923.5
 20
1145.1598903674
 30
0.0
 11
1923.5
 21
1119.6598903674
 31
0.0
  0
LINE
  5
1F0
330
B
100
AcDbEntity
  8
LEVEL001
  6
DASHDOT
 62
     1
100
AcDbLine
 10
1919.0
 20
1172.6
 30
0.0
 11
1919.0
 21
219.0
 31
0.0
  0
LWPOLYLINE
  5
1F1
330
B
100
AcDbEntity
  8
LEVEL001
  6
Continuous
 62
     7
100
AcDbPolyline
 90
        4
 70
     1
 43
0.0
 10
1713.0
 20
972.2000000000001
 10
1723.0
 20
972.2000000000001
 10
1723.0
 20
995.1999999999999
 10
1713.0
 20
995.1999999999999
  0
LWPOLYLINE
  5
1F2
330
B
100
AcDbEntity
  8
LEVEL001
  6
Continuous
 62
     7
100
AcDbPolyline
 90
        4
 70
     0
 43
0.0
 10
1713.0
 20
995.1999999999999
 10
1712.5
 20
991.6999999999999
 10
1712.5
 20
975.7000000000001
 10
1713.0
 20
972.2000000000001
  0
LWPOLYLINE
  5
1F3
330
B
100
AcDbEntity
  8
LEVEL001
  6
Continuous
 62
     7
100
AcDbPolyline
 90
        3
 70
     0
 43
0.0
 10
1714.5
 20
972.2000000000001
 10
1715.5
 20
967.45
 10
1725.5
 20
967.45
  0
LWPOLYLINE
  5
1F4
330
B
100
AcDbEntity
  8
LEVEL001
  6
Continuous
 62
     7
100
AcDbPolyline
 90
        4
 70
     0
 43
0.0
 10
1725.5
 20
996.7
 10
1724.5
 20
996.7
 10
1724.5
 20
970.7
 10
1725.5
 20
970.7
  0
LINE
  5
1F5
330
B
100
AcDbEntity
  8
LEVEL001
  6
Continuous
 62
     7
100
AcDbLine
 10
1723.0
 20
972.2000000000001
 30
0.0
 11
1724.5
 21
970.7
 31
0.0
  0
LWPOLYLINE
  5
1F6
330
B
100
AcDbEntity
  8
LEVEL001
  6
Continuous
 62
     7
100
AcDbPolyline
 90
        4
 70
     1
 43
0.0
 10
1728.5
 20
936.5
 10
1732.5
 20
936.5
 10
1732.5
 20
1020.5
 10
1728.5
 20
1020.5
  0
LWPOLYLINE
  5
1F7
330
B
100
AcDbEntity
  8
LEVEL001
  6
Continuous
 62
     7
100
AcDbPolyline
 90
        4
 70
     0
 43
0.0
 10
1728.5
 20
1012.5
 10
1725.5
 20
1012.5
 10
1725.5
 20
944.5
 10
1728.5
 20
944.5
  0
LINE
  5
1F8
330
B
100
AcDbEntity
  8
LEVEL001
  6
Continuous
 62
     7
100
AcDbLine
 10
1723.0
 20
995.1999999999999
 30
0.0
 11
1724.5
 21
996.7
 31
0.0
  0
LWPOLYLINE
  5
1F9
330
B
100
AcDbEntity
  8
LEVEL001
  6
Continuous
 62
     7
100
AcDbPolyline
 90
        3
 70
     0
 43
0.0
 10
1714.5
 20
995.1999999999999
 10
1715.5
 20
999.9500000000001
 10
1725.5
 20
999.9500000000001
  0
LWPOLYLINE
  5
1FA
330
B
100
AcDbEntity
  8
LEVEL001
  6
Continuous
 62
     7
100
AcDbPolyline
 90
        4
 70
     0
 43
0.0
 10
1732.5
 20
922.75
 10
1721.0
 20
922.75
 10
1721.0
 20
890.2499999999999
 10
1732.5
 20
890.2499999999999
  0
LWPOLYLINE
  5
1FB
330
B
100
AcDbEntity
  8
LEVEL001
  6
Continuous
 62
     7
100
AcDbPolyline
 90
        4
 70
     0
 43
0.0
 10
1721.0
 20
919.0
 10
1715.0
 20
919.0
 10
1715.0
 20
894.0
 10
1721.0
 20
894.0
  0
POINT
  5
1FC
330
B
100
AcDbEntity
  8
LEVEL001
 62
     7
100
AcDbPoint
 10
1747.4793994411
 20
1072.0
 30
0.0
  0
LWPOLYLINE
  5
1FD
330
B
100
AcDbEntity
  8
LEVEL001
  6
Continuous
 62
     7
100
AcDbPolyline
 90
        4
 70
     0
 43
0.0
 10
1734.0
 20
1062.5
 10
1732.5
 20
1062.5
 10
1732.5
 20
856.4999999999999
 10
1734.0
 20
856.4999999999999
  0
CIRCLE
  5
1FE
330
B
100
AcDbEntity
  8
LEVEL001
  6
Continuous
 62
     7
100
AcDbCircle
 10
1919.0
 20
805.7886320063699
 30
0.0
 40
15.0
  0
ARC
  5
1FF
330
B
100
AcDbEntity
  8
LEVEL001
  6
Continuous
 62
     7
100
AcDbCircle
 10
1919.0
 20
805.7886320063699
 30
0.0
 40
40.0
100
AcDbArc
 50
0.0
 51
180.0
  0
LWPOLYLINE
  5
200
330
B
100
AcDbEntity
  8
LEVEL001
  6
Continuous
 62
     7
100
AcDbPolyline
 90
        4
 70
     0
 43
0.0
 10
1959.0
 20
805.7886320063699
 10
1959.0
 20
772.0
 10
2001.5
 20
772.0
 10
2001.5
 20
757.0
  0
POINT
  5
201
330
B
100
AcDbEntity
  8
LEVEL001
 62
     7
100
AcDbPoint
 10
2091.0982665705
 20
805.7886320063699
 30
0.0
  0
POINT
  5
202
330
B
100
AcDbEntity
  8
LEVEL001
 62
     7
100
AcDbPoint
 10
2092.0982665705
 20
805.7886320063699
 30
0.0
  0
POINT
  5
203
330
B
100
AcDbEntity
  8
LEVEL001
 62
     7
100
AcDbPoint
 10
1746.0
 20
805.7886320063699
 30
0.0
  0
POINT
  5
204
330
B
100
AcDbEntity
  8
LEVEL001
 62
     7
100
AcDbPoint
 10
1747.0
 20
805.7886320063699
 30
0.0
  0
LWPOLYLINE
  5
205
330
B
100
AcDbEntity
  8
LEVEL001
  6
Continuous
 62
     7
100
AcDbPolyline
 90
        4
 70
     1
 43
0.0
 10
1668.0
 20
307.0
 10
1669.0
 20
307.0
 10
1669.0
 20
512.0
 10
1668.0
 20
512.0
  0
LINE
  5
206
330
B
100
AcDbEntity
  8
LEVEL001
  6
Continuous
 62
     7
100
AcDbLine
 10
1611.3798260452
 20
500.26932298418
 30
0.0
 11
1669.0000000001
 21
517.0
 31
0.0
  0
LINE
  5
207
330
B
100
AcDbEntity
  8
LEVEL001
  6
Continuous
 62
     7
100
AcDbLine
 10
1719.0
 20
531.51807228912
 30
0.0
 11
2119.0
 21
647.66265060237
 31
0.0
  0
LINE
  5
208
330
B
100
AcDbEntity
  8
LEVEL001
  6
Continuous
 62
     7
100
AcDbLine
 10
2119.0
 20
668.4886897764199
 30
0.0
 11
1719.0
 21
552.3441114631599
 31
0.0
  0
LINE
  5
209
330
B
100
AcDbEntity
  8
LEVEL001
  6
DASHDOT
 62
     1
100
AcDbLine
 10
2188.0
 20
805.7886320063699
 30
0.0
 11
1622.3
 21
805.7886320063699
 31
0.0
  0
POINT
  5
20A
330
B
100
AcDbEntity
  8
LEVEL001
 62
     7
100
AcDbPoint
 10
2047.6222266356
 20
1048.583274285
 30
0.0
  0
LWPOLYLINE
  5
20B
330
B
100
AcDbEntity
  8
LEVEL001
  6
Continuous
 62
     7
100
AcDbPolyline
 90
        3
 70
     0
 43
0.0
 10
1792.7404594386
 20
1072.0
 10
1734.0
 20
1072.0
 10
1734.0
 20
777.0
  0
LINE
  5
20C
330
B
100
AcDbEntity
  8
LEVEL001
  6
Continuous
 62
     7
100
AcDbLine
 10
2073.5
 20
1072.0
 30
0.0
 11
2073.5
 21
919.1809340378298
 31
0.0
  0
LINE
  5
20D
330
B
100
AcDbEntity
  8
LEVEL001
  6
HIDDEN
 62
     1
100
AcDbLine
 10
2039.0
 20
1100.6
 30
0.0
 11
2088.0864866969
 21
837.3125914100299
 31
0.0
  0
LINE
  5
20E
330
B
100
AcDbEntity
  8
LEVEL001
  6
HIDDEN
 62
     1
100
AcDbLine
 10
1799.0
 20
1100.6
 30
0.0
 11
1749.9135133031
 21
837.3125914100299
 31
0.0
  0
LINE
  5
20F
330
B
100
AcDbEntity
  8
LEVEL001
  6
HIDDEN
 62
     1
100
AcDbLine
 10
1797.4741536415
 20
1100.6
 30
0.0
 11
1796.9260087335
 21
1097.6598903674
 31
0.0
  0
LINE
  5
210
330
B
100
AcDbEntity
  8
LEVEL001
  6
HIDDEN
 62
     1
100
AcDbLine
 10
1797.4741536415
 20
1100.6
 30
0.0
 11
2040.5258463585
 21
1100.6
 31
0.0
  0
LINE
  5
211
330
B
100
AcDbEntity
  8
LEVEL001
  6
Continuous
 62
     7
100
AcDbLine
 10
1789.2482105812
 20
1072.8466394325
 30
0.0
 11
1793.8743160165
 21
1097.6598903674
 31
0.0
  0
LINE
  5
212
330
B
100
AcDbEntity
  8
LEVEL001
  6
Continuous
 62
     7
100
AcDbLine
 10
1789.2482105812
 20
1072.8466394325
 30
0.0
 11
1792.1973934887
 21
1072.2968029313
 31
0.0
  0
ARC
  5
213
330
B
100
AcDbEntity
  8
LEVEL001
  6
HIDDEN
 62
     1
100
AcDbCircle
 10
1919.0
 20
805.7886320063699
 30
0.0
 40
172.0
100
AcDbArc
 50
327.26885479595
 51
10.560801170916
  0
ARC
  5
214
330
B
100
AcDbEntity
  8
LEVEL001
  6
HIDDEN
 62
     1
100
AcDbCircle
 10
1919.0
 20
805.7886320063699
 30
0.0
 40
172.0
100
AcDbArc
 50
169.43919882908
 51
327.26885479595
  0
LINE
  5
215
330
B
100
AcDbEntity
  8
LEVEL001
  6
Continuous
 62
     7
100
AcDbLine
 10
1796.9260087335
 20
1097.6598903674
 30
0.0
 11
1748.4389218493
 21
837.58750966063
 31
0.0
  0
LINE
  5
216
330
B
100
AcDbEntity
  8
LEVEL001
  6
Continuous
 62
     7
100
AcDbLine
 10
2054.9350292324
 20
1023.3128141762
 30
0.0
 11
2089.5610781507
 21
837.58750966063
 31
0.0
  0
ARC
  5
217
330
B
100
AcDbEntity
  8
LEVEL001
  6
Continuous
 62
     7
100
AcDbCircle
 10
1919.0
 20
805.78863200632
 30
0.0
 40
173.5
100
AcDbArc
 50
343.66801382587
 51
10.560801170933
  0
ARC
  5
218
330
B
100
AcDbEntity
  8
LEVEL001
  6
Continuous
 62
     7
100
AcDbCircle
 10
1919.0
 20
805.7886320063699
 30
0.0
 40
173.5
100
AcDbArc
 50
219.25608028823
 51
325.2925145643
  0
ARC
  5
219
330
B
100
AcDbEntity
  8
LEVEL001
  6
Continuous
 62
     7
100
AcDbCircle
 10
1919.0
 20
805.78863200629
 30
0.0
 40
173.5
100
AcDbArc
 50
169.43919882906
 51
189.55118963565
  0
ARC
  5
21A
330
B
100
AcDbEntity
  8
LEVEL001
  6
HIDDEN
 62
     1
100
AcDbCircle
 10
1919.0
 20
805.7886320063699
 30
0.0
 40
173.5
100
AcDbArc
 50
189.55118963568
 51
219.25608028823
  0
ARC
  5
21B
330
B
100
AcDbEntity
  8
LEVEL001
  6
HIDDEN
 62
     1
100
AcDbCircle
 10
1919.0
 20
805.7886320063699
 30
0.0
 40
173.5
100
AcDbArc
 50
325.2925145643
 51
343.66801382585
  0
LWPOLYLINE
  5
21C
330
B
100
AcDbEntity
  8
LEVEL001
  6
Continuous
 62
     7
100
AcDbPolyline
 90
       18
 70
     0
 43
0.0
 10
1781.5
 20
772.4999999999799
 10
1781.5
 20
777.0
 10
1740.0
 20
777.0
 10
1740.0
 20
774.0
 10
1732.0
 20
774.0
 10
1717.0
 20
759.0
 10
1717.0
 20
699.0
 10
1740.0
 20
699.0
 10
1740.0
 20
696.0
 10
1838.0
 20
696.0
 10
1838.0
 20
699.0
 10
1861.0
 20
699.0
 10
1861.0
 20
759.0
 10
1846.0
 20
774.0
 10
1838.0
 20
774.0
 10
1838.0
 20
777.0
 10
1796.5
 20
777.0
 10
1796.5
 20
772.4999999999799
  0
LINE
  5
21D
330
B
100
AcDbEntity
  8
LEVEL001
  6
Continuous
 62
     7
100
AcDbLine
 10
1841.0
 20
774.0
 30
0.0
 11
1841.0
 21
699.0
 31
0.0
  0
LINE
  5
21E
330
B
100
AcDbEntity
  8
LEVEL001
  6
Continuous
 62
     7
100
AcDbLine
 10
1737.0
 20
774.0
 30
0.0
 11
1737.0
 21
699.0
 31
0.0
  0
LINE
  5
21F
330
B
100
AcDbEntity
  8
LEVEL001
  6
Continuous
 62
     7
100
AcDbLine
 10
1782.65
 20
778.0
 30
0.0
 11
1782.65
 21
858.7603899982401
 31
0.0
  0
LINE
  5
220
330
B
100
AcDbEntity
  8
LEVEL001
  6
Continuous
 62
     7
100
AcDbLine
 10
1795.35
 20
858.7603899982401
 30
0.0
 11
1795.35
 21
778.0
 31
0.0
  0
ARC
  5
221
330
B
100
AcDbEntity
  8
LEVEL001
  6
Continuous
 62
     7
100
AcDbCircle
 10
1789.0
 20
772.4999999999799
 30
0.0
 40
7.499999999976999
100
AcDbArc
 50
180.0
 51
0.0
  0
ARC
  5
222
330
B
100
AcDbEntity
  8
LEVEL001
  6
Continuous
 62
     7
100
AcDbCircle
 10
1789.0
 20
778.0
 30
0.0
 40
6.3499999999999
100
AcDbArc
 50
180.0
 51
0.0
  0
ARC
  5
223
330
B
100
AcDbEntity
  8
LEVEL001
  6
Continuous
 62
     7
100
AcDbCircle
 10
1789.0
 20
778.0
 30
0.0
 40
15.0
100
AcDbArc
 50
356.17744627072
 51
64.954785638212
  0
ARC
  5
224
330
B
100
AcDbEntity
  8
LEVEL001
  6
Continuous
 62
     7
100
AcDbCircle
 10
1789.0
 20
778.0
 30
0.0
 40
15.0
100
AcDbArc
 50
115.04521436177
 51
183.82255372926
  0
CIRCLE
  5
225
330
B
100
AcDbEntity
  8
LEVEL001
  6
Continuous
 62
     7
100
AcDbCircle
 10
1789.0
 20
872.3499999999999
 30
0.0
 40
15.0
  0
LWPOLYLINE
  5
226
330
B
100
AcDbEntity
  8
LEVEL001
  6
Continuous
 62
     7
100
AcDbPolyline
 90
        5
 70
     0
 43
0.0
 10
1719.0
 20
699.0
 10
1719.0
 20
357.0
 10
2119.0
 20
357.0
 10
2119.0
 20
707.0
 10
1861.0
 20
707.0
  0
LWPOLYLINE
  5
227
330
B
100
AcDbEntity
  8
LEVEL001
  6
Continuous
 62
     7
100
AcDbPolyline
 90
        6
 70
     0
 43
0.0
 10
1717.0
 20
757.0
 10
1669.0
 20
757.0
 10
1669.0
 20
307.0
 10
2169.0
 20
307.0
 10
2169.0
 20
757.0
 10
1861.0
 20
757.0
  0
LWPOLYLINE
  5
228
330
B
100
AcDbEntity
  8
LEVEL001
  6
Continuous
 62
     7
100
AcDbPolyline
 90
        3
 70
     0
 43
0.0
 10
1879.0
 20
805.7886320063699
 10
1879.0
 20
772.0
 10
1848.0
 20
772.0
  0
LINE
  5
229
330
B
100
AcDbEntity
  8
LEVEL001
  6
HIDDEN
 62
     1
100
AcDbLine
 10
2048.7517894188
 20
1072.8466394325
 30
0.0
 11
2045.8026065113
 21
1072.2968029313
 31
0.0
  0
LWPOLYLINE
  5
22A
330
B
100
AcDbEntity
  8
LEVEL001
  6
Continuous
 62
     7
100
AcDbPolyline
 90
        4
 70
     1
 43
0.0
 10
2045.6438457048
 20
1023.4817602093
 10
2057.4405612328
 20
1025.6811925797
 10
2046.4433993811
 20
1084.6647702196
 10
2034.6466838531
 20
1082.4653378493
  0
ARC
  5
22B
330
B
100
AcDbEntity
  8
LEVEL001
  6
Continuous
 62
     7
100
AcDbCircle
 10
2030.4845516698
 20
1070.1437447831
 30
0.0
 40
6.3499999999999
100
AcDbArc
 50
190.5612206412
 51
10.561220641205
  0
CIRCLE
  5
22C
330
B
100
AcDbEntity
  8
LEVEL001
  6
Continuous
 62
     7
100
AcDbCircle
 10
2015.2228379326
 20
1152.0
 30
0.0
 40
15.0
  0
LINE
  5
22D
330
B
100
AcDbEntity
  8
LEVEL001
  6
Continuous
 62
     7
100
AcDbLine
 10
2023.9561119216
 20
1139.8045120871
 30
0.0
 11
2036.7269803034
 21
1071.307611079
 31
0.0
  0
LINE
  5
22E
330
B
100
AcDbEntity
  8
LEVEL001
  6
Continuous
 62
     7
100
AcDbLine
 10
2024.2421230363
 20
1068.9798784871
 30
0.0
 11
2011.4712660449
 21
1137.4767184021
 31
0.0
  0
LWPOLYLINE
  5
22F
330
B
100
AcDbEntity
  8
LEVEL001
  6
Continuous
 62
     7
100
AcDbPolyline
 90
        4
 70
     0
 43
0.0
 10
2014.7931150989
 20
1119.6598903674
 10
1764.5
 20
1119.6598903674
 10
1764.5
 20
1097.6598903674
 10
2018.8948934314
 20
1097.6598903674
  0
LWPOLYLINE
  5
230
330
B
100
AcDbEntity
  8
LEVEL001
  6
Continuous
 62
     7
100
AcDbPolyline
 90
        4
 70
     0
 43
0.0
 10
2031.8137435671
 20
1097.6598903674
 10
2073.5
 20
1097.6598903674
 10
2073.5
 20
1119.6598903674
 10
2027.7119652346
 20
1119.6598903674
  0
LWPOLYLINE
  5
231
330
B
100
AcDbEntity
  8
LEVEL001
  6
Continuous
 62
     7
100
AcDbPolyline
 90
        5
 70
     0
 43
0.0
 10
2078.514589263
 20
1112.6514672524
 10
2082.5
 20
1110.3504892906
 10
2082.5
 20
1104.9692914442
 10
2078.5
 20
1102.6598903674
 10
2078.4859222463
 20
1102.6598903674
  0
LINE
  5
232
330
B
100
AcDbEntity
  8
LEVEL001
  6
HIDDEN
 62
     1
100
AcDbLine
 10
2040.5258463585
 20
1100.6
 30
0.0
 11
2041.0739912665
 21
1097.6598903674
 31
0.0
  0
LINE
  5
233
330
B
100
AcDbEntity
  8
LEVEL001
  6
HIDDEN
 62
     1
100
AcDbLine
 10
2043.5957461804
 20
1084.1338394918
 30
0.0
 11
2054.8336300499
 21
1023.8566935571
 31
0.0
  0
LINE
  5
234
330
B
100
AcDbEntity
  8
LEVEL001
  6
Continuous
 62
     7
100
AcDbLine
 10
2041.0739912665
 20
1097.6598903674
 30
0.0
 11
2043.5957461804
 21
1084.1338394918
 31
0.0
  0
LINE
  5
235
330
B
100
AcDbEntity
  8
LEVEL001
  6
Continuous
 62
     7
100
AcDbLine
 10
2048.7517894188
 20
1072.8466394325
 30
0.0
 11
2044.1256839835
 21
1097.6598903674
 31
0.0
  0
LWPOLYLINE
  5
236
330
B
100
AcDbEntity
  8
LEVEL001
  6
Continuous
 62
     7
100
AcDbPolyline
 90
        6
 70
     1
 43
0.0
 10
2047.7366873827
 20
1094.6598903674
 10
2047.6143923403
 20
1097.6573966514
 10
2075.47506284
 20
1097.7423403788
 10
2075.5354240834
 20
1119.9484931829
 10
2078.5354118404
 20
1119.9399224398
 10
2078.4668458954
 20
1094.861906129
  0
LINE
  5
237
330
B
100
AcDbEntity
  8
LEVEL001
  6
Continuous
 62
     7
100
AcDbLine
 10
2073.5
 20
1072.0
 30
0.0
 11
2048.8391393552
 21
1072.0
 31
0.0
  0
LINE
  5
238
330
B
100
AcDbEntity
  8
LEVEL001
  6
Continuous
 62
     7
100
AcDbLine
 10
1123.0
 20
520.0834690451599
 30
0.0
 11
1123.0
 21
672.08173431831
 31
0.0
  0
LWPOLYLINE
  5
239
330
B
100
AcDbEntity
  8
LEVEL001
  6
Continuous
 62
     7
100
AcDbPolyline
 90
        3
 70
     0
 43
0.0
 10
1126.0
 20
512.0
 10
1126.0
 20
707.0
 10
1112.5
 20
707.0
  0
LINE
  5
23A
330
B
100
AcDbEntity
  8
LEVEL001
  6
Continuous
 62
     7
100
AcDbLine
 10
313.0
 20
520.0834690451599
 30
0.0
 11
313.0
 21
672.08173431831
 31
0.0
  0
LWPOLYLINE
  5
23B
330
B
100
AcDbEntity
  8
LEVEL001
  6
Continuous
 62
     7
100
AcDbPolyline
 90
        3
 70
     0
 43
0.0
 10
323.5
 20
707.0
 10
310.0
 20
707.0
 10
310.0
 20
512.0
  0
LWPOLYLINE
  5
23C
330
B
100
AcDbEntity
  8
LEVEL001
  6
Continuous
 62
     7
100
AcDbPolyline
 90
        6
 70
     0
 43
0.0
 10
312.0
 20
512.0
 10
254.0
 20
512.0
 10
254.0
 20
307.0
 10
1182.0
 20
307.0
 10
1182.0
 20
512.0
 10
1124.0
 20
512.0
  0
POINT
  5
23D
330
B
100
AcDbEntity
  8
LEVEL001
 62
     7
100
AcDbPoint
 10
195.0
 20
672.0
 30
0.0
  0
CIRCLE
  5
23E
330
B
100
AcDbEntity
  8
LEVEL001
  6
Continuous
 62
     7
100
AcDbCircle
 10
195.0
 20
672.0
 30
0.0
 40
12.5
  0
CIRCLE
  5
23F
330
B
100
AcDbEntity
  8
LEVEL001
  6
Continuous
 62
     7
100
AcDbCircle
 10
195.0
 20
672.0
 30
0.0
 40
16.25
  0
ARC
  5
240
330
B
100
AcDbEntity
  8
LEVEL001
  6
Continuous
 62
     7
100
AcDbCircle
 10
195.0
 20
672.0
 30
0.0
 40
17.5
100
AcDbArc
 50
180.0
 51
0.0
  0
LWPOLYLINE
  5
241
330
B
100
AcDbEntity
  8
LEVEL001
  6
Continuous
 62
     7
100
AcDbPolyline
 90
        4
 70
     0
 43
0.0
 10
177.5
 20
672.0
 10
177.5
 20
699.5
 10
212.5
 20
699.5
 10
212.5
 20
672.0
  0
LINE
  5
242
330
B
100
AcDbEntity
  8
LEVEL001
  6
Continuous
 62
     7
100
AcDbLine
 10
1611.3798260452
 20
500.26932298418
 30
0.0
 11
1611.5995552745
 21
517.6023068623
 31
0.0
  0
LINE
  5
243
330
B
100
AcDbEntity
  8
LEVEL001
  6
Continuous
 62
     7
100
AcDbLine
 10
1611.5995552745
 20
517.6023068623
 30
0.0
 11
1614.2252873347
 21
521.42795995433
 31
0.0
  0
POINT
  5
244
330
B
100
AcDbEntity
  8
LEVEL001
 62
     7
100
AcDbPoint
 10
1611.344278637
 20
520.59142610354
 30
0.0
  0
LINE
  5
245
330
B
100
AcDbEntity
  8
LEVEL001
  6
Continuous
 62
     7
100
AcDbLine
 10
1669.0
 20
537.8260391740099
 30
0.0
 11
1614.2252873347
 21
521.42795995433
 31
0.0
  0
LWPOLYLINE
  5
246
330
B
100
AcDbEntity
  8
LEVEL001
  6
Continuous
 62
     7
100
AcDbPolyline
 90
        3
 70
     0
 43
0.0
 10
1123.0
 20
501.23524881048
 10
1123.0
 20
520.0834690451599
 10
1124.0
 20
520.0834690451599
  0
LWPOLYLINE
  5
247
330
B
100
AcDbEntity
  8
LEVEL001
  6
Continuous
 62
     7
100
AcDbPolyline
 90
        3
 70
     0
 43
0.0
 10
312.0
 20
520.0834690451599
 10
313.0
 20
520.0834690451599
 10
313.0
 20
501.23524881048
  0
LINE
  5
248
330
B
100
AcDbEntity
  8
LEVEL001
  6
Continuous
 62
     7
100
AcDbLine
 10
312.0
 20
501.23524881048
 30
0.0
 11
1124.0
 21
501.23524881048
 31
0.0
  0
LWPOLYLINE
  5
249
330
B
100
AcDbEntity
  8
LEVEL001
  6
Continuous
 62
     7
100
AcDbPolyline
 90
       10
 70
     0
 43
0.0
 10
1112.5
 20
672.08173431831
 10
1123.0
 20
672.08173431831
 10
1123.0
 20
690.43432501784
 10
1124.0
 20
690.43432501784
 10
1124.0
 20
500.26932298418
 10
312.0
 20
500.26932298418
 10
312.0
 20
690.43432501784
 10
313.0
 20
690.43432501784
 10
313.0
 20
672.08173431831
 10
323.5
 20
672.08173431831
  0
TEXT
  5
24A
330
B
100
AcDbEntity
  8
LEVEL001
 62
     7
100
AcDbText
 10
2430.0
 20
50.0
 30
0.0
 40
20.0
  1
(A2) 1/5
 41
0.5
100
AcDbText
  0
DIMENSION
  5
24B
330
B
100
AcDbEntity
  8
LEVEL001
  6
Continuous
 62
     1
100
AcDbDimension
  2
*D0
 10
1347.25
 20
1100.6
 30
0.0
 11
1347.25
 21
648.7999999999999
 31
0.0
 71
     5
 42
-1.0
  3
GMM001
100
AcDbAlignedDimension
 13
1141.0
 23
197.0
 33
0.0
 14
1112.5
 24
1100.6
 34
0.0
 50
90.0
100
AcDbRotatedDimension
  0
DIMENSION
  5
24C
330
B
100
AcDbEntity
  8
LEVEL001
  6
Continuous
 62
     1
100
AcDbDimension
  2
*D1
 10
1084.5
 20
558.0
 30
0.0
 11
718.0
 21
558.0
 31
0.0
 71
     5
 42
-1.0
  3
GMM001
100
AcDbAlignedDimension
 13
351.5
 23
632.6
 33
0.0
 14
1084.5
 24
632.6
 34
0.0
100
AcDbRotatedDimension
  0
DIMENSION
  5
24D
330
B
100
AcDbEntity
  8
LEVEL001
  6
Continuous
 62
     1
100
AcDbDimension
  2
*D2
 10
253.0
 20
113.0
 30
0.0
 11
195.5
 21
113.0
 31
0.0
 71
     5
 42
-1.0
  3
GMM002
100
AcDbAlignedDimension
 13
138.0
 23
307.0
 33
0.0
 14
253.0
 24
307.0
 34
0.0
100
AcDbRotatedDimension
  0
DIMENSION
  5
24E
330
B
100
AcDbEntity
  8
LEVEL001
  6
Continuous
 62
     1
100
AcDbDimension
  2
*D3
 10
1183.0
 20
113.0
 30
0.0
 11
718.0
 21
113.0
 31
0.0
 71
     5
 42
-1.0
  3
GMM002
100
AcDbAlignedDimension
 13
253.0
 23
307.0
 33
0.0
 14
1183.0
 24
307.0
 34
0.0
100
AcDbRotatedDimension
  0
DIMENSION
  5
24F
330
B
100
AcDbEntity
  8
LEVEL001
  6
Continuous
 62
     1
100
AcDbDimension
  2
*D4
 10
1238.0
 20
113.0
 30
0.0
 11
1210.5
 21
113.0
 31
0.0
 71
     5
 42
-1.0
  3
GMM001
100
AcDbAlignedDimension
 13
1183.0
 23
307.0
 33
0.0
 14
1238.0
 24
876.95
 34
0.0
100
AcDbRotatedDimension
  0
LWPOLYLINE
  5
250
330
B
100
AcDbEntity
  8
LEVEL001
  6
Continuous
 62
     7
100
AcDbPolyline
 90
        4
 70
     1
 43
0.0
 10
1138.5
 20
1581.0
 10
1163.5
 20
1581.0
 10
1163.5
 20
1661.0
 10
1138.5
 20
1661.0
  0
POINT
  5
251
330
B
100
AcDbEntity
  8
LEVEL001
 62
     7
100
AcDbPoint
 10
1100.5
 20
1753.4916260704
 30
0.0
  0
CIRCLE
  5
252
330
B
100
AcDbEntity
  8
LEVEL001
  6
Continuous
 62
     7
100
AcDbCircle
 10
1148.85
 20
1739.4206565129
 30
0.0
 40
15.0
  0
LINE
  5
253
330
B
100
AcDbEntity
  8
LEVEL001
  6
Continuous
 62
     7
100
AcDbLine
 10
1137.773273295
 20
1749.5353055678
 30
0.0
 11
1117.0
 21
1749.5353055678
 31
0.0
  0
LINE
  5
254
330
B
100
AcDbEntity
  8
LEVEL001
  6
Continuous
 62
     7
100
AcDbLine
 10
1117.0
 20
1736.8353055678
 30
0.0
 11
1134.0744810416
 21
1736.8353055678
 31
0.0
  0
LINE
  5
255
330
B
100
AcDbEntity
  8
LEVEL001
  6
Continuous
 62
     7
100
AcDbLine
 10
1138.5
 20
1606.0
 30
0.0
 11
1117.0
 21
1606.0
 31
0.0
  0
LINE
  5
256
330
B
100
AcDbEntity
  8
LEVEL001
  6
Continuous
 62
     7
100
AcDbLine
 10
1117.0
 20
1636.0
 30
0.0
 11
1138.5
 21
1636.0
 31
0.0
  0
LINE
  5
257
330
B
100
AcDbEntity
  8
LEVEL001
  6
Continuous
 62
     7
100
AcDbLine
 10
1123.0
 20
1736.8353055678
 30
0.0
 11
1123.0
 21
1636.0
 31
0.0
  0
LINE
  5
258
330
B
100
AcDbEntity
  8
LEVEL001
  6
Continuous
 62
     7
100
AcDbLine
 10
1126.0
 20
1636.0
 30
0.0
 11
1126.0
 21
1736.8353055678
 31
0.0
  0
LINE
  5
259
330
B
100
AcDbEntity
  8
LEVEL001
  6
Continuous
 62
     7
100
AcDbLine
 10
1124.0
 20
1636.0
 30
0.0
 11
1124.0
 21
1736.8353055678
 31
0.0
  0
LINE
  5
25A
330
B
100
AcDbEntity
  8
LEVEL001
  6
Continuous
 62
     7
100
AcDbLine
 10
1123.0
 20
1606.0
 30
0.0
 11
1123.0
 21
1536.0
 31
0.0
  0
LINE
  5
25B
330
B
100
AcDbEntity
  8
LEVEL001
  6
Continuous
 62
     7
100
AcDbLine
 10
1126.0
 20
1536.0
 30
0.0
 11
1126.0
 21
1606.0
 31
0.0
  0
LINE
  5
25C
330
B
100
AcDbEntity
  8
LEVEL001
  6
Continuous
 62
     7
100
AcDbLine
 10
1124.0
 20
1536.0
 30
0.0
 11
1124.0
 21
1606.0
 31
0.0
  0
LWPOLYLINE
  5
25D
330
B
100
AcDbEntity
  8
LEVEL001
  6
Continuous
 62
     7
100
AcDbPolyline
 90
        3
 70
     0
 43
0.0
 10
1124.0
 20
1471.0
 10
1126.0
 20
1471.0
 10
1126.0
 20
1485.0
  0
LINE
  5
25E
330
B
100
AcDbEntity
  8
LEVEL001
  6
Continuous
 62
     7
100
AcDbLine
 10
1121.5
 20
1527.35
 30
0.0
 11
1119.5
 21
1527.35
 31
0.0
  0
LINE
  5
25F
330
B
100
AcDbEntity
  8
LEVEL001
  6
Continuous
 62
     7
100
AcDbLine
 10
1119.5
 20
1514.65
 30
0.0
 11
1121.5
 21
1514.65
 31
0.0
  0
LWPOLYLINE
  5
260
330
B
100
AcDbEntity
  8
LEVEL001
  6
Continuous
 62
     7
100
AcDbPolyline
 90
        4
 70
     0
 43
0.0
 10
1117.0
 20
1506.0
 10
1119.5
 20
1506.0
 10
1119.5
 20
1536.0
 10
1117.0
 20
1536.0
  0
ARC
  5
261
330
B
100
AcDbEntity
  8
LEVEL001
  6
Continuous
 62
     7
100
AcDbCircle
 10
768.0
 20
1621.0
 30
0.0
 40
4.5
100
AcDbArc
 50
270.0
 51
90.0
  0
LINE
  5
262
330
B
100
AcDbEntity
  8
LEVEL001
  6
Continuous
 62
     7
100
AcDbLine
 10
668.0
 20
1625.5
 30
0.0
 11
768.0
 21
1625.5
 31
0.0
  0
ARC
  5
263
330
B
100
AcDbEntity
  8
LEVEL001
  6
Continuous
 62
     7
100
AcDbCircle
 10
668.0
 20
1621.0
 30
0.0
 40
4.5
100
AcDbArc
 50
90.0
 51
270.0
  0
LINE
  5
264
330
B
100
AcDbEntity
  8
LEVEL001
  6
Continuous
 62
     7
100
AcDbLine
 10
668.0
 20
1616.5
 30
0.0
 11
768.0
 21
1616.5
 31
0.0
  0
POINT
  5
265
330
B
100
AcDbEntity
  8
LEVEL001
 62
     7
100
AcDbPoint
 10
314.5
 20
1542.0
 30
0.0
  0
POINT
  5
266
330
B
100
AcDbEntity
  8
LEVEL001
 62
     7
100
AcDbPoint
 10
314.5
 20
1492.0
 30
0.0
  0
LWPOLYLINE
  5
267
330
B
100
AcDbEntity
  8
LEVEL001
  6
Continuous
 62
     7
100
AcDbPolyline
 90
        4
 70
     1
 43
0.0
 10
272.5
 20
1581.0
 10
297.5
 20
1581.0
 10
297.5
 20
1661.0
 10
272.5
 20
1661.0
  0
LWPOLYLINE
  5
268
330
B
100
AcDbEntity
  8
LEVEL001
  6
Continuous
 62
     7
100
AcDbPolyline
 90
        4
 70
     0
 43
0.0
 10
319.0
 20
1548.0
 10
314.5
 20
1548.0
 10
314.5
 20
1486.0
 10
319.0
 20
1486.0
  0
LINE
  5
269
330
B
100
AcDbEntity
  8
LEVEL001
  6
Continuous
 62
     7
100
AcDbLine
 10
319.0
 20
1636.0
 30
0.0
 11
297.5
 21
1636.0
 31
0.0
  0
LINE
  5
26A
330
B
100
AcDbEntity
  8
LEVEL001
  6
Continuous
 62
     7
100
AcDbLine
 10
297.5
 20
1606.0
 30
0.0
 11
319.0
 21
1606.0
 31
0.0
  0
LWPOLYLINE
  5
26B
330
B
100
AcDbEntity
  8
LEVEL001
  6
Continuous
 62
     7
100
AcDbPolyline
 90
        8
 70
     1
 43
0.0
 10
314.5
 20
1487.0
 10
295.5
 20
1487.0
 10
295.5
 20
1497.0
 10
289.5
 20
1497.0
 10
289.5
 20
1537.0
 10
295.5
 20
1537.0
 10
295.5
 20
1547.0
 10
314.5
 20
1547.0
  0
LINE
  5
26C
330
B
100
AcDbEntity
  8
LEVEL001
  6
Continuous
 62
     7
100
AcDbLine
 10
310.0
 20
1606.0
 30
0.0
 11
310.0
 21
1547.0
 31
0.0
  0
LINE
  5
26D
330
B
100
AcDbEntity
  8
LEVEL001
  6
Continuous
 62
     7
100
AcDbLine
 10
312.0
 20
1606.0
 30
0.0
 11
312.0
 21
1547.0
 31
0.0
  0
LINE
  5
26E
330
B
100
AcDbEntity
  8
LEVEL001
  6
Continuous
 62
     7
100
AcDbLine
 10
313.0
 20
1606.0
 30
0.0
 11
313.0
 21
1547.0
 31
0.0
  0
LWPOLYLINE
  5
26F
330
B
100
AcDbEntity
  8
LEVEL001
  6
Continuous
 62
     7
100
AcDbPolyline
 90
        3
 70
     0
 43
0.0
 10
310.0
 20
1487.0
 10
310.0
 20
1471.0
 10
312.0
 20
1471.0
  0
LINE
  5
270
330
B
100
AcDbEntity
  8
LEVEL001
  6
Continuous
 62
     7
100
AcDbLine
 10
268.3
 20
1538.5
 30
0.0
 11
295.5
 21
1538.5
 31
0.0
  0
LINE
  5
271
330
B
100
AcDbEntity
  8
LEVEL001
  6
DASHDOT
 62
     1
100
AcDbLine
 10
1257.0
 20
1621.0
 30
0.0
 11
101.0
 21
1621.0
 31
0.0
  0
POINT
  5
272
330
B
100
AcDbEntity
  8
LEVEL001
 62
     7
100
AcDbPoint
 10
206.5
 20
1560.5
 30
0.0
  0
POINT
  5
273
330
B
100
AcDbEntity
  8
LEVEL001
 62
     7
100
AcDbPoint
 10
206.5
 20
1479.5
 30
0.0
  0
LINE
  5
274
330
B
100
AcDbEntity
  8
LEVEL001
  6
Continuous
 62
     7
100
AcDbLine
 10
254.0
 20
1703.5
 30
0.0
 11
310.0
 21
1703.5
 31
0.0
  0
LINE
  5
275
330
B
100
AcDbEntity
  8
LEVEL001
  6
Continuous
 62
     7
100
AcDbLine
 10
253.0
 20
1606.0
 30
0.0
 11
272.5
 21
1606.0
 31
0.0
  0
LINE
  5
276
330
B
100
AcDbEntity
  8
LEVEL001
  6
Continuous
 62
     7
100
AcDbLine
 10
272.5
 20
1636.0
 30
0.0
 11
253.0
 21
1636.0
 31
0.0
  0
LWPOLYLINE
  5
277
330
B
100
AcDbEntity
  8
LEVEL001
  6
Continuous
 62
     7
100
AcDbPolyline
 90
        4
 70
     0
 43
0.0
 10
253.0
 20
1472.5
 10
268.3
 20
1472.5
 10
268.3
 20
1567.5
 10
253.0
 20
1567.5
  0
LINE
  5
278
330
B
100
AcDbEntity
  8
LEVEL001
  6
Continuous
 62
     7
100
AcDbLine
 10
254.0
 20
1606.0
 30
0.0
 11
254.0
 21
1567.5
 31
0.0
  0
LINE
  5
279
330
B
100
AcDbEntity
  8
LEVEL001
  6
Continuous
 62
     7
100
AcDbLine
 10
1126.0
 20
1703.5
 30
0.0
 11
1183.0
 21
1703.5
 31
0.0
  0
LINE
  5
27A
330
B
100
AcDbEntity
  8
LEVEL001
  6
Continuous
 62
     7
100
AcDbLine
 10
1126.0
 20
1538.5
 30
0.0
 11
1183.0
 21
1538.5
 31
0.0
  0
LWPOLYLINE
  5
27B
330
B
100
AcDbEntity
  8
LEVEL001
  6
Continuous
 62
     7
100
AcDbPolyline
 90
        4
 70
     0
 43
0.0
 10
1163.5
 20
1636.0
 10
1183.5
 20
1636.0
 10
1183.5
 20
1606.0
 10
1163.5
 20
1606.0
  0
LINE
  5
27C
330
B
100
AcDbEntity
  8
LEVEL001
  6
Continuous
 62
     7
100
AcDbLine
 10
1183.0
 20
1536.0
 30
0.0
 11
1183.0
 21
1606.0
 31
0.0
  0
CIRCLE
  5
27D
330
B
100
AcDbEntity
  8
LEVEL001
  6
Continuous
 62
     7
100
AcDbCircle
 10
1215.85
 20
1521.0
 30
0.0
 40
15.0
  0
LINE
  5
27E
330
B
100
AcDbEntity
  8
LEVEL001
  6
Continuous
 62
     7
100
AcDbLine
 10
1202.8596189432
 20
1528.5
 30
0.0
 11
1195.0
 21
1528.5
 31
0.0
  0
LINE
  5
27F
330
B
100
AcDbEntity
  8
LEVEL001
  6
Continuous
 62
     7
100
AcDbLine
 10
1195.0
 20
1513.5
 30
0.0
 11
1202.8596189432
 21
1513.5
 31
0.0
  0
LWPOLYLINE
  5
280
330
B
100
AcDbEntity
  8
LEVEL001
  6
Continuous
 62
     7
100
AcDbPolyline
 90
        8
 70
     0
 43
0.0
 10
1226.0
 20
1532.0443424431
 10
1226.0
 20
1573.0
 10
1186.0
 20
1573.0
 10
1186.0
 20
1593.0
 10
1183.0
 20
1593.0
 10
1183.0
 20
1570.0
 10
1195.0
 20
1570.0
 10
1195.0
 20
1527.35
  0
LWPOLYLINE
  5
281
330
B
100
AcDbEntity
  8
LEVEL001
  6
Continuous
 62
     7
100
AcDbPolyline
 90
        8
 70
     0
 43
0.0
 10
1195.0
 20
1514.65
 10
1195.0
 20
1472.0
 10
1183.0
 20
1472.0
 10
1183.0
 20
1449.0
 10
1186.0
 20
1449.0
 10
1186.0
 20
1469.0
 10
1226.0
 20
1469.0
 10
1226.0
 20
1509.9556575569
  0
LINE
  5
282
330
B
100
AcDbEntity
  8
LEVEL001
  6
Continuous
 62
     7
100
AcDbLine
 10
1202.2603899982
 20
1527.35
 30
0.0
 11
1184.5
 21
1527.35
 31
0.0
  0
LINE
  5
283
330
B
100
AcDbEntity
  8
LEVEL001
  6
Continuous
 62
     7
100
AcDbLine
 10
1184.5
 20
1514.65
 30
0.0
 11
1202.2603899982
 21
1514.65
 31
0.0
  0
LWPOLYLINE
  5
284
330
B
100
AcDbEntity
  8
LEVEL001
  6
Continuous
 62
     7
100
AcDbPolyline
 90
        4
 70
     1
 43
0.0
 10
1121.5
 20
1506.0
 10
1184.5
 20
1506.0
 10
1184.5
 20
1536.0
 10
1121.5
 20
1536.0
  0
LWPOLYLINE
  5
285
330
B
100
AcDbEntity
  8
LEVEL001
  6
Continuous
 62
     7
100
AcDbPolyline
 90
        4
 70
     0
 43
0.0
 10
1124.5
 20
1506.0
 10
1124.5
 20
1485.0
 10
1181.5
 20
1485.0
 10
1181.5
 20
1506.0
  0
LWPOLYLINE
  5
286
330
B
100
AcDbEntity
  8
LEVEL001
  6
Continuous
 62
     7
100
AcDbPolyline
 90
        4
 70
     0
 43
0.0
 10
1183.0
 20
1636.0
 10
1183.0
 20
1871.0
 10
254.0
 20
1871.0
 10
254.0
 20
1636.0
  0
LINE
  5
287
330
B
100
AcDbEntity
  8
LEVEL001
  6
Continuous
 62
     7
100
AcDbLine
 10
1126.0
 20
1471.0
 30
0.0
 11
1126.0
 21
1371.0
 31
0.0
  0
LINE
  5
288
330
B
100
AcDbEntity
  8
LEVEL001
  6
Continuous
 62
     7
100
AcDbLine
 10
1123.0
 20
1506.0
 30
0.0
 11
1123.0
 21
1312.7856313776
 31
0.0
  0
LINE
  5
289
330
B
100
AcDbEntity
  8
LEVEL001
  6
Continuous
 62
     7
100
AcDbLine
 10
310.0
 20
1471.0
 30
0.0
 11
310.0
 21
1371.0
 31
0.0
  0
LINE
  5
28A
330
B
100
AcDbEntity
  8
LEVEL001
  6
Continuous
 62
     7
100
AcDbLine
 10
313.0
 20
1487.0
 30
0.0
 11
313.0
 21
1312.7856313776
 31
0.0
  0
LWPOLYLINE
  5
28B
330
B
100
AcDbEntity
  8
LEVEL001
  6
Continuous
 62
     7
100
AcDbPolyline
 90
        4
 70
     0
 43
0.0
 10
312.0
 20
1487.0
 10
312.0
 20
1312.7856313776
 10
1124.0
 20
1312.7856313776
 10
1124.0
 20
1506.0
  0
LWPOLYLINE
  5
28C
330
B
100
AcDbEntity
  8
LEVEL001
  6
Continuous
 62
     7
100
AcDbPolyline
 90
        3
 70
     0
 43
0.0
 10
255.0
 20
1371.0
 10
255.0
 20
1370.0
 10
312.0
 20
1370.0
  0
LWPOLYLINE
  5
28D
330
B
100
AcDbEntity
  8
LEVEL001
  6
Continuous
 62
     7
100
AcDbPolyline
 90
        3
 70
     0
 43
0.0
 10
254.0
 20
1472.5
 10
254.0
 20
1371.0
 10
312.0
 20
1371.0
  0
LWPOLYLINE
  5
28E
330
B
100
AcDbEntity
  8
LEVEL001
  6
Continuous
 62
     7
100
AcDbPolyline
 90
        3
 70
     0
 43
0.0
 10
1124.0
 20
1370.0
 10
1182.0
 20
1370.0
 10
1182.0
 20
1371.0
  0
LWPOLYLINE
  5
28F
330
B
100
AcDbEntity
  8
LEVEL001
  6
Continuous
 62
     7
100
AcDbPolyline
 90
        3
 70
     0
 43
0.0
 10
1124.0
 20
1371.0
 10
1183.0
 20
1371.0
 10
1183.0
 20
1506.0
  0
LWPOLYLINE
  5
290
330
B
100
AcDbEntity
  8
LEVEL001
  6
Continuous
 62
     7
100
AcDbPolyline
 90
        4
 70
     0
 43
0.0
 10
148.5
 20
1436.0
 10
148.5
 20
1434.5
 10
243.5
 20
1434.5
 10
243.5
 20
1436.0
  0
LWPOLYLINE
  5
291
330
B
100
AcDbEntity
  8
LEVEL001
  6
Continuous
 62
     7
100
AcDbPolyline
 90
        8
 70
     1
 43
0.0
 10
164.5
 20
1434.5
 10
164.5
 20
1430.5
 10
167.5
 20
1430.5
 10
167.5
 20
1427.5
 10
224.5
 20
1427.5
 10
224.5
 20
1430.5
 10
227.5
 20
1430.5
 10
227.5
 20
1434.5
  0
LINE
  5
292
330
B
100
AcDbEntity
  8
LEVEL001
  6
Continuous
 62
     7
100
AcDbLine
 10
183.0
 20
1426.5
 30
0.0
 11
184.5
 21
1425.0
 31
0.0
  0
LINE
  5
293
330
B
100
AcDbEntity
  8
LEVEL001
  6
Continuous
 62
     7
100
AcDbLine
 10
207.5
 20
1425.0
 30
0.0
 11
209.0
 21
1426.5
 31
0.0
  0
LWPOLYLINE
  5
294
330
B
100
AcDbEntity
  8
LEVEL001
  6
Continuous
 62
     7
100
AcDbPolyline
 90
        4
 70
     0
 43
0.0
 10
184.5
 20
1415.0
 10
188.0
 20
1414.5
 10
204.0
 20
1414.5
 10
207.5
 20
1415.0
  0
LWPOLYLINE
  5
295
330
B
100
AcDbEntity
  8
LEVEL001
  6
Continuous
 62
     7
100
AcDbPolyline
 90
        4
 70
     0
 43
0.0
 10
193.5
 20
1427.5
 10
193.5
 20
1416.5
 10
198.5
 20
1416.5
 10
198.5
 20
1427.5
  0
LWPOLYLINE
  5
296
330
B
100
AcDbEntity
  8
LEVEL001
  6
Continuous
 62
     7
100
AcDbPolyline
 90
        4
 70
     0
 43
0.0
 10
194.0
 20
1427.5
 10
194.0
 20
1417.5
 10
198.0
 20
1417.5
 10
198.0
 20
1427.5
  0
LINE
  5
297
330
B
100
AcDbEntity
  8
LEVEL001
  6
Continuous
 62
     7
100
AcDbLine
 10
195.5
 20
1427.5
 30
0.0
 11
195.5
 21
1416.5
 31
0.0
  0
LINE
  5
298
330
B
100
AcDbEntity
  8
LEVEL001
  6
Continuous
 62
     7
100
AcDbLine
 10
196.5
 20
1416.5
 30
0.0
 11
196.5
 21
1427.5
 31
0.0
  0
LINE
  5
299
330
B
100
AcDbEntity
  8
LEVEL001
  6
Continuous
 62
     7
100
AcDbLine
 10
194.0
 20
1417.5
 30
0.0
 11
193.5
 21
1416.5
 31
0.0
  0
LINE
  5
29A
330
B
100
AcDbEntity
  8
LEVEL001
  6
Continuous
 62
     7
100
AcDbLine
 10
198.0
 20
1417.5
 30
0.0
 11
198.5
 21
1416.5
 31
0.0
  0
LWPOLYLINE
  5
29B
330
B
100
AcDbEntity
  8
LEVEL001
  6
Continuous
 62
     7
100
AcDbPolyline
 90
        3
 70
     0
 43
0.0
 10
183.0
 20
1427.5
 10
183.0
 20
1426.5
 10
193.5
 20
1426.5
  0
LWPOLYLINE
  5
29C
330
B
100
AcDbEntity
  8
LEVEL001
  6
Continuous
 62
     7
100
AcDbPolyline
 90
        3
 70
     0
 43
0.0
 10
198.5
 20
1426.5
 10
209.0
 20
1426.5
 10
209.0
 20
1427.5
  0
LWPOLYLINE
  5
29D
330
B
100
AcDbEntity
  8
LEVEL001
  6
Continuous
 62
     7
100
AcDbPolyline
 90
        6
 70
     0
 43
0.0
 10
193.5
 20
1425.0
 10
184.5
 20
1425.0
 10
184.5
 20
1415.0
 10
207.5
 20
1415.0
 10
207.5
 20
1425.0
 10
198.5
 20
1425.0
  0
LWPOLYLINE
  5
29E
330
B
100
AcDbEntity
  8
LEVEL001
  6
Continuous
 62
     7
100
AcDbPolyline
 90
        3
 70
     0
 43
0.0
 10
159.75
 20
1434.5
 10
159.75
 20
1424.5
 10
184.5
 20
1424.5
  0
LWPOLYLINE
  5
29F
330
B
100
AcDbEntity
  8
LEVEL001
  6
Continuous
 62
     7
100
AcDbPolyline
 90
        3
 70
     0
 43
0.0
 10
163.5
 20
1424.5
 10
163.5
 20
1418.5
 10
184.5
 20
1418.5
  0
LINE
  5
2A0
330
B
100
AcDbEntity
  8
LEVEL001
  6
Continuous
 62
     7
100
AcDbLine
 10
167.5
 20
1430.5
 30
0.0
 11
224.5
 21
1430.5
 31
0.0
  0
LWPOLYLINE
  5
2A1
330
B
100
AcDbEntity
  8
LEVEL001
  6
Continuous
 62
     7
100
AcDbPolyline
 90
        3
 70
     0
 43
0.0
 10
232.25
 20
1434.5
 10
232.25
 20
1424.5
 10
207.5
 20
1424.5
  0
LWPOLYLINE
  5
2A2
330
B
100
AcDbEntity
  8
LEVEL001
  6
Continuous
 62
     7
100
AcDbPolyline
 90
        3
 70
     0
 43
0.0
 10
228.5
 20
1424.5
 10
228.5
 20
1418.5
 10
207.5
 20
1418.5
  0
LWPOLYLINE
  5
2A3
330
B
100
AcDbEntity
  8
LEVEL001
  6
Continuous
 62
     7
100
AcDbPolyline
 90
        4
 70
     1
 43
0.0
 10
253.0
 20
1786.0
 10
139.0
 20
1786.0
 10
139.0
 20
1436.0
 10
253.0
 20
1436.0
  0
LINE
  5
2A4
330
B
100
AcDbEntity
  8
LEVEL001
  6
Continuous
 62
     7
100
AcDbLine
 10
1044.5
 20
1777.5366379362
 30
0.0
 11
1098.5
 21
1777.5366379362
 31
0.0
  0
LWPOLYLINE
  5
2A5
330
B
100
AcDbEntity
  8
LEVEL001
  6
Continuous
 62
     7
100
AcDbPolyline
 90
        4
 70
     0
 43
0.0
 10
1044.5
 20
1775.5
 10
1044.5
 20
1780.5354118404
 10
1098.5
 20
1780.5354118404
 10
1098.5
 20
1775.5
  0
LWPOLYLINE
  5
2A6
330
B
100
AcDbEntity
  8
LEVEL001
  6
Continuous
 62
     7
100
AcDbPolyline
 90
        4
 70
     0
 43
0.0
 10
1066.5204450356
 20
1780.5354118404
 10
1068.8094010768
 20
1784.5
 10
1074.1905989232
 20
1784.5
 10
1076.4795549644
 20
1780.5354118404
  0
LINE
  5
2A7
330
B
100
AcDbEntity
  8
LEVEL001
  6
Continuous
 62
     7
100
AcDbLine
 10
337.5
 20
1777.5366379362
 30
0.0
 11
391.5
 21
1777.5366379362
 31
0.0
  0
LWPOLYLINE
  5
2A8
330
B
100
AcDbEntity
  8
LEVEL001
  6
Continuous
 62
     7
100
AcDbPolyline
 90
        4
 70
     0
 43
0.0
 10
337.5
 20
1775.5
 10
337.5
 20
1780.5354118404
 10
391.5
 20
1780.5354118404
 10
391.5
 20
1775.5
  0
LWPOLYLINE
  5
2A9
330
B
100
AcDbEntity
  8
LEVEL001
  6
Continuous
 62
     7
100
AcDbPolyline
 90
        4
 70
     0
 43
0.0
 10
359.52044503559
 20
1780.5354118404
 10
361.80940107679
 20
1784.5
 10
367.19059892321
 20
1784.5
 10
369.47955496441
 20
1780.5354118404
  0
LINE
  5
2AA
330
B
100
AcDbEntity
  8
LEVEL001
  6
DASHDOT
 62
     1
100
AcDbLine
 10
718.0
 20
1800.5
 30
0.0
 11
718.0
 21
1289.0
 31
0.0
  0
LWPOLYLINE
  5
2AB
330
B
100
AcDbEntity
  8
LEVEL001
  6
Continuous
 62
     7
100
AcDbPolyline
 90
        4
 70
     1
 43
0.0
 10
1117.0
 20
1466.5
 10
1117.0
 20
1775.5
 10
319.0
 20
1775.5
 10
319.0
 20
1466.5
  0
LINE
  5
2AC
330
B
100
AcDbEntity
  8
LEVEL001
  6
Continuous
 62
     7
100
AcDbLine
 10
1126.0
 20
1821.0
 30
0.0
 11
1126.0
 21
1749.5353055678
 31
0.0
  0
LINE
  5
2AD
330
B
100
AcDbEntity
  8
LEVEL001
  6
Continuous
 62
     7
100
AcDbLine
 10
1124.0
 20
1749.5353055678
 30
0.0
 11
1124.0
 21
1821.0
 31
0.0
  0
LINE
  5
2AE
330
B
100
AcDbEntity
  8
LEVEL001
  6
Continuous
 62
     7
100
AcDbLine
 10
1123.0
 20
1821.0
 30
0.0
 11
1123.0
 21
1749.5353055678
 31
0.0
  0
LINE
  5
2AF
330
B
100
AcDbEntity
  8
LEVEL001
  6
Continuous
 62
     7
100
AcDbLine
 10
310.0
 20
1636.0
 30
0.0
 11
310.0
 21
1821.0
 31
0.0
  0
LINE
  5
2B0
330
B
100
AcDbEntity
  8
LEVEL001
  6
Continuous
 62
     7
100
AcDbLine
 10
313.0
 20
1821.0
 30
0.0
 11
313.0
 21
1636.0
 31
0.0
  0
LINE
  5
2B1
330
B
100
AcDbEntity
  8
LEVEL001
  6
Continuous
 62
     7
100
AcDbLine
 10
312.0
 20
1821.0
 30
0.0
 11
312.0
 21
1636.0
 31
0.0
  0
LINE
  5
2B2
330
B
100
AcDbEntity
  8
LEVEL001
  6
Continuous
 62
     7
100
AcDbLine
 10
310.0
 20
1821.0
 30
0.0
 11
1126.0
 21
1821.0
 31
0.0
  0
DIMENSION
  5
2B3
330
B
100
AcDbEntity
  8
LEVEL001
  6
Continuous
 62
     1
100
AcDbDimension
  2
*D5
 10
1238.0
 20
1236.0
 30
0.0
 11
688.0
 21
1236.0
 31
0.0
 71
     5
 42
-1.0
  3
GMM001
100
AcDbAlignedDimension
 13
138.0
 23
1072.0
 33
0.0
 14
1238.0
 24
876.95
 34
0.0
100
AcDbRotatedDimension
  0
DIMENSION
  5
2B4
330
B
100
AcDbEntity
  8
LEVEL001
  6
Continuous
 62
     1
100
AcDbDimension
  2
*D6
 10
1610.7
 20
1236.0
 30
0.0
 11
1889.85
 21
1236.0
 31
0.0
 71
     5
 42
-1.0
  3
GMM001
100
AcDbAlignedDimension
 13
2169.0
 23
757.0
 33
0.0
 14
1610.7
 24
517.6023068623
 34
0.0
 50
180.0
100
AcDbRotatedDimension
  0
DIMENSION
  5
2B5
330
B
100
AcDbEntity
  8
LEVEL001
  6
Continuous
 62
     1
100
AcDbDimension
  2
*D7
 10
1669.0
 20
1177.0
 30
0.0
 11
1919.0
 21
1177.0
 31
0.0
 71
     5
 42
-1.0
  3
GMM002
100
AcDbAlignedDimension
 13
2169.0
 23
757.0
 33
0.0
 14
1669.0
 24
757.0
 34
0.0
 50
180.0
100
AcDbRotatedDimension
  0
DIMENSION
  5
2B6
330
B
100
AcDbEntity
  8
LEVEL001
  6
Continuous
 62
     1
100
AcDbDimension
  2
*D8
 10
1610.7
 20
1177.0
 30
0.0
 11
1665.85
 21
1177.0
 31
0.0
 70
   128
 71
     5
 42
-1.0
  3
GMM003
100
AcDbAlignedDimension
 13
1669.0
 23
757.0
 33
0.0
 14
1610.7
 24
517.6023068623
 34
0.0
 50
180.0
100
AcDbRotatedDimension
  0
DIMENSION
  5
2B7
330
B
100
AcDbEntity
  8
LEVEL001
  6
Continuous
 62
     1
100
AcDbDimension
  2
*D9
 10
1407.0
 20
1167.0
 30
0.0
 11
1407.0
 21
682.0
 31
0.0
 71
     5
 42
-1.0
  3
GMM001
100
AcDbAlignedDimension
 13
1148.85
 23
197.0
 33
0.0
 14
1148.85
 24
1167.0
 34
0.0
 50
90.0
100
AcDbRotatedDimension
  0
TEXT
  5
2B8
330
B
100
AcDbEntity
  8
LEVEL001
 62
     1
100
AcDbText
 10
1785.0
 20
1488.0
 30
0.0
 40
20.0
  1
安全カバ－
100
AcDbText
  0
TEXT
  5
2B9
330
B
100
AcDbEntity
  8
LEVEL001
 62
     1
100
AcDbText
 10
1785.0
 20
1728.0
 30
0.0
 40
20.0
  1
寸法（Ｗ×Ｄ×Ｈ）
100
AcDbText
  0
TEXT
  5
2BA
330
B
100
AcDbEntity
  8
LEVEL001
 62
     1
100
AcDbText
 10
1748.75
 20
1556.75
 30
0.0
 40
20.0
  1
材
100
AcDbText
  0
TEXT
  5
2BB
330
B
100
AcDbEntity
  8
LEVEL001
 62
     1
100
AcDbText
 10
1748.75
 20
1503.4166666667
 30
0.0
 40
20.0
  1
質
100
AcDbText
  0
TEXT
  5
2BC
330
B
100
AcDbEntity
  8
LEVEL001
 62
     1
100
AcDbText
 10
1785.0
 20
1608.0
 30
0.0
 40
20.0
  1
消  費  電  力
100
AcDbText
  0
TEXT
  5
2BD
330
B
100
AcDbEntity
  8
LEVEL001
 62
     1
100
AcDbText
 10
1785.0
 20
1648.0
 30
0.0
 40
20.0
  1
電          源
100
AcDbText
  0
TEXT
  5
2BE
330
B
100
AcDbEntity
  8
LEVEL001
 62
     1
100
AcDbText
 10
1785.0
 20
1688.0
 30
0.0
 40
20.0
  1
能          力
100
AcDbText
  0
TEXT
  5
2BF
330
B
100
AcDbEntity
  8
LEVEL001
 62
     1
100
AcDbText
 10
1785.0
 20
1768.0
 30
0.0
 40
20.0
  1
型          式
100
AcDbText
  0
TEXT
  5
2C0
330
B
100
AcDbEntity
  8
LEVEL001
 62
     1
100
AcDbText
 10
1785.0
 20
1808.0
 30
0.0
 40
20.0
  1
製　  品  　名
100
AcDbText
  0
TEXT
  5
2C1
330
B
100
AcDbEntity
  8
LEVEL001
 62
     1
100
AcDbText
 10
1785.0
 20
1408.0
 30
0.0
 40
20.0
  1
電源プラグ
100
AcDbText
  0
TEXT
  5
2C2
330
B
100
AcDbEntity
  8
LEVEL001
 62
     1
100
AcDbText
 10
1785.0
 20
1368.0
 30
0.0
 40
20.0
  1
製品重量
100
AcDbText
  0
TEXT
  5
2C3
330
B
100
AcDbEntity
  8
LEVEL001
 62
     1
100
AcDbText
 10
1785.0
 20
1448.0
 30
0.0
 40
20.0
  1
コ－ド長さ
100
AcDbText
  0
TEXT
  5
2C4
330
B
100
AcDbEntity
  8
LEVEL001
 62
     1
100
AcDbText
 10
2005.0
 20
1448.0
 30
0.0
 40
20.0
  1
３．０ｍ
100
AcDbText
  0
TEXT
  5
2C5
330
B
100
AcDbEntity
  8
LEVEL001
 62
     1
100
AcDbText
 10
1785.0
 20
1568.0
 30
0.0
 40
20.0
  1
ドラム
100
AcDbText
  0
TEXT
  5
2C6
330
B
100
AcDbEntity
  8
LEVEL001
 62
     1
100
AcDbText
 10
1785.0
 20
1528.0
 30
0.0
 40
20.0
  1
羽根
100
AcDbText
  0
TEXT
  5
2C7
330
B
100
AcDbEntity
  8
LEVEL001
 62
     1
100
AcDbText
 10
2005.0
 20
1568.0
 30
0.0
 40
20.0
  1
ＳＵＳ３０４
100
AcDbText
  0
TEXT
  5
2C8
330
B
100
AcDbEntity
  8
LEVEL001
 62
     1
100
AcDbText
 10
2005.0
 20
1488.0
 30
0.0
 40
20.0
  1
ＳＵＳ３０４
100
AcDbText
  0
TEXT
  5
2C9
330
B
100
AcDbEntity
  8
LEVEL001
 62
     1
100
AcDbText
 10
2005.0
 20
1808.0
 30
0.0
 40
20.0
  1
攪拌式ミキサ－
100
AcDbText
  0
TEXT
  5
2CA
330
B
100
AcDbEntity
  8
LEVEL001
 62
     1
100
AcDbText
 10
2005.0
 20
1528.0
 30
0.0
 40
20.0
  1
ＳＵＳ３０４
100
AcDbText
  0
TEXT
  5
2CB
330
B
100
AcDbEntity
  8
LEVEL001
 62
     1
100
AcDbText
 10
2005.0
 20
1648.0
 30
0.0
 40
20.0
  1
３相２００Ｖ　５０／６０Ｈｚ
100
AcDbText
  0
TEXT
  5
2CC
330
B
100
AcDbEntity
  8
LEVEL001
 62
     1
100
AcDbText
 10
2005.0
 20
1408.0
 30
0.0
 40
20.0
  1
４Ｐ２０Ａ
100
AcDbText
  0
TEXT
  5
2CD
330
B
100
AcDbEntity
  8
LEVEL001
 62
     1
100
AcDbText
 10
2005.0
 20
1768.0
 30
0.0
 40
20.0
  1
ス－パ－ミックス　ＳＳ－２５Ｐ型
100
AcDbText
  0
TEXT
  5
2CE
330
B
100
AcDbEntity
  8
LEVEL001
 62
     1
100
AcDbText
 10
2005.0
 20
1688.0
 30
0.0
 40
20.0
  1
１２ｋｇ～２５ｋｇ／回
100
AcDbText
  0
TEXT
  5
2CF
330
B
100
AcDbEntity
  8
LEVEL001
 62
     1
100
AcDbText
 10
2005.0
 20
1608.0
 30
0.0
 40
20.0
  1
１．５ｋＷ
100
AcDbText
  0
TEXT
  5
2D0
330
B
100
AcDbEntity
  8
LEVEL001
 62
     1
100
AcDbText
 10
2005.0
 20
1368.0
 30
0.0
 40
20.0
  1
１４０ｋｇ
100
AcDbText
  0
TEXT
  5
2D1
330
B
100
AcDbEntity
  8
LEVEL001
 62
     1
100
AcDbText
 10
2005.0
 20
1728.0
 30
0.0
 40
20.0
  1
１，１００×５５８．３×９７０
100
AcDbText
  0
DIMENSION
  5
2D2
330
B
100
AcDbEntity
  8
LEVEL001
  6
Continuous
 62
     1
100
AcDbDimension
  2
*D10
 10
1919.0
 20
805.7886320063699
 30
0.0
 11
2019.562769731
 21
767.88147420864
 31
0.0
 70
   132
 71
     5
 42
-1.0
  3
GMM004
100
AcDbRadialDimension
 15
2079.9451907004
 25
745.12030756595
 35
0.0
 40
0.0
  0
ENDSEC
  0
SECTION
  2
OBJECTS
  0
DICTIONARY
  5
52
330
0
100
AcDbDictionary
281
     1
  3
ACAD_COLOR
350
2D8
  3
ACAD_GROUP
350
53
  3
ACAD_LAYOUT
350
2DB
  3
ACAD_MATERIAL
350
2D7
  3
ACAD_MLINESTYLE
350
54
  3
ACAD_PLOTSETTINGS
350
2DC
  3
ACAD_PLOTSTYLENAME
350
2D5
  3
ACAD_TABLESTYLE
350
2D9
  3
ACDBHEADERROUNDTRIPXREC
350
2E7
  3
AcDbVariableDictionary
350
2E2
  0
DICTIONARY
  5
2D8
102
{ACAD_REACTORS
330
52
102
}
330
52
100
AcDbDictionary
281
     1
  0
DICTIONARY
  5
53
102
{ACAD_REACTORS
330
52
102
}
330
0
100
AcDbDictionary
281
     1
  0
DICTIONARY
  5
2DB
102
{ACAD_REACTORS
330
52
102
}
330
52
100
AcDbDictionary
281
     1
  3
Model
350
2DD
  3
レイアウト1
350
2DE
  0
DICTIONARY
  5
2D7
102
{ACAD_REACTORS
330
52
102
}
330
52
100
AcDbDictionary
281
     1
  0
DICTIONARY
  5
54
102
{ACAD_REACTORS
330
52
102
}
330
0
100
AcDbDictionary
281
     1
  3
STANDARD
350
55
  0
DICTIONARY
  5
2DC
102
{ACAD_REACTORS
330
52
102
}
330
52
100
AcDbDictionary
281
     1
  0
ACDBDICTIONARYWDFLT
  5
2D5
102
{ACAD_REACTORS
330
52
102
}
330
52
100
AcDbDictionary
281
     1
  3
Normal
350
2D6
100
AcDbDictionaryWithDefault
340
2D6
  0
DICTIONARY
  5
2D9
102
{ACAD_REACTORS
330
52
102
}
330
52
100
AcDbDictionary
281
     1
  3
Standard
350
2DA
  0
DICTIONARY
  5
2E7
102
{ACAD_REACTORS
330
52
102
}
330
52
100
AcDbDictionary
281
     1
  0
DICTIONARY
  5
2E2
102
{ACAD_REACTORS
330
52
102
}
330
52
100
AcDbDictionary
281
     1
  3
CTABLESTYLE
350
2E3
  3
DIMASSOC
350
2E4
  3
PROJECTNAME
350
2E5
  0
LAYOUT
  5
2DD
102
{ACAD_XDICTIONARY
360
2E8
102
}
102
{ACAD_REACTORS
330
2DB
102
}
330
2DB
100
AcDbPlotSettings
  1

  2
Microsoft XPS Document Writer
  4

  6

 40
0.0
 41
0.0
 42
0.0
 43
0.0
 44
0.0
 45
0.0
 46
0.0
 47
0.0
 48
0.0
 49
0.0
140
0.0
141
0.0
142
1.0
143
1.0
 70
  1712
 72
     0
 73
     0
 74
     0
  7

 75
     0
147
1.0
148
0.0
149
0.0
100
AcDbLayout
  1
Model
 70
     1
 71
     0
 10
0.0
 20
0.0
 11
12.0
 21
9.0
 12
0.0
 22
0.0
 32
0.0
 14
0.0
 24
0.0
 34
0.0
 15
0.0
 25
0.0
 35
0.0
146
0.0
 13
0.0
 23
0.0
 33
0.0
 16
1.0
 26
0.0
 36
0.0
 17
0.0
 27
1.0
 37
0.0
 76
     0
330
B
  0
LAYOUT
  5
2DE
102
{ACAD_XDICTIONARY
360
2EA
102
}
102
{ACAD_REACTORS
330
2DB
102
}
330
2DB
100
AcDbPlotSettings
  1

  2
Microsoft XPS Document Writer
  4

  6

 40
0.0
 41
0.0
 42
0.0
 43
0.0
 44
0.0
 45
0.0
 46
0.0
 47
0.0
 48
0.0
 49
0.0
140
0.0
141
0.0
142
1.0
143
1.0
 70
   688
 72
     0
 73
     0
 74
     5
  7

 75
    16
147
1.0
148
0.0
149
0.0
100
AcDbLayout
  1
レイアウト1
 70
     1
 71
     1
 10
0.0
 20
0.0
 11
12.0
 21
9.0
 12
0.0
 22
0.0
 32
0.0
 14
1.000000000000000E+20
 24
1.000000000000000E+20
 34
1.000000000000000E+20
 15
-1.000000000000000E+20
 25
-1.000000000000000E+20
 35
-1.000000000000000E+20
146
0.0
 13
0.0
 23
0.0
 33
0.0
 16
1.0
 26
0.0
 36
0.0
 17
0.0
 27
1.0
 37
0.0
 76
     0
330
C
  0
MLINESTYLE
  5
55
102
{ACAD_REACTORS
330
54
102
}
330
0
100
AcDbMlineStyle
  2
STANDARD
 70
     0
  3

 62
   256
 51
90.0
 52
90.0
 71
     2
 49
0.5
 62
   256
  6
BYLAYER
 49
-0.5
 62
   256
  6
BYLAYER
  0
ACDBPLACEHOLDER
  5
2D6
102
{ACAD_REACTORS
330
2D5
102
}
330
2D5
  0
TABLESTYLE
  5
2DA
102
{ACAD_REACTORS
330
2D9
102
}
330
2D9
100
AcDbTableStyle
  3
Standard
 70
     0
 71
     0
 40
0.06
 41
0.06
280
     0
281
     0
  7
STANDARD
140
0.18
170
     2
 62
     0
 63
     7
283
     0
274
    -2
284
     1
 64
     0
275
    -2
285
     1
 65
     0
276
    -2
286
     1
 66
     0
277
    -2
287
     1
 67
     0
278
    -2
288
     1
 68
     0
279
    -2
289
     1
 69
     0
  7
STANDARD
140
0.25
170
     5
 62
     0
 63
     7
283
     0
274
    -2
284
     1
 64
     0
275
    -2
285
     1
 65
     0
276
    -2
286
     1
 66
     0
277
    -2
287
     1
 67
     0
278
    -2
288
     1
 68
     0
279
    -2
289
     1
 69
     0
  7
STANDARD
140
0.18
170
     5
 62
     0
 63
     7
283
     0
274
    -2
284
     1
 64
     0
275
    -2
285
     1
 65
     0
276
    -2
286
     1
 66
     0
277
    -2
287
     1
 67
     0
278
    -2
288
     1
 68
     0
279
    -2
289
     1
 69
     0
  0
DICTIONARYVAR
  5
2E3
102
{ACAD_REACTORS
330
2E2
102
}
330
2E2
100
DictionaryVariables
280
     0
  1
STANDARD
  0
DICTIONARYVAR
  5
2E4
102
{ACAD_REACTORS
330
2E2
102
}
330
2E2
100
DictionaryVariables
280
     0
  1
1
  0
DICTIONARYVAR
  5
2E5
102
{ACAD_REACTORS
330
2E2
102
}
330
2E2
100
DictionaryVariables
280
     0
  1

  0
DICTIONARY
  5
2E8
330
2DD
100
AcDbDictionary
280
     1
281
     1
  3
ACAD_XREC_ROUNDTRIP
360
2E9
  0
DICTIONARY
  5
2EA
330
2DE
100
AcDbDictionary
280
     1
281
     1
  3
ACAD_XREC_ROUNDTRIP
360
2EB
  0
XRECORD
  5
2E9
102
{ACAD_REACTORS
330
2E8
102
}
330
2E8
100
AcDbXrecord
280
     1
102
SHADEPLOT
 70
     0
102
SHADEPLOTRESLEVEL
 70
     2
102
SHADEPLOTCUSTOMDPI
 70
   300
  0
XRECORD
  5
2EB
102
{ACAD_REACTORS
330
2EA
102
}
330
2EA
100
AcDbXrecord
280
     1
102
SHADEPLOT
 70
     0
102
SHADEPLOTRESLEVEL
 70
     2
102
SHADEPLOTCUSTOMDPI
 70
   300
  0
ENDSEC
  0
EOF
