  0
SECTION
  2
HEADER
  9
$ACADVER
  1
AC1015
  9
$ACADMAINTVER
 70
    20
  9
$DWGCODEPAGE
  3
ANSI_932
  9
$INSBASE
 10
0.0
 20
0.0
 30
0.0
  9
$EXTMIN
 10
0.0000000000000568
 20
0.0
 30
0.0
  9
$EXTMAX
 10
2176.0
 20
1512.0
 30
0.0
  9
$LIMMIN
 10
0.0
 20
0.0
  9
$LIMMAX
 10
2376.0
 20
1680.0
  9
$ORTHOMODE
 70
     0
  9
$REGENMODE
 70
     1
  9
$FILLMODE
 70
     1
  9
$QTEXTMODE
 70
     0
  9
$MIRRTEXT
 70
     1
  9
$LTSCALE
 40
47.52
  9
$ATTMODE
 70
     1
  9
$TEXTSIZE
 40
0.2
  9
$TRACEWID
 40
0.05
  9
$TEXTSTYLE
  7
STANDARD
  9
$CLAYER
  8
0
  9
$CELTYPE
  6
CONTINUOUS
  9
$CECOLOR
 62
   256
  9
$CELTSCALE
 40
1.0
  9
$DISPSILH
 70
     0
  9
$DIMSCALE
 40
1.0
  9
$DIMASZ
 40
0.18
  9
$DIMEXO
 40
0.0625
  9
$DIMDLI
 40
0.38
  9
$DIMRND
 40
0.0
  9
$DIMDLE
 40
0.0
  9
$DIMEXE
 40
0.18
  9
$DIMTP
 40
0.0
  9
$DIMTM
 40
0.0
  9
$DIMTXT
 40
0.18
  9
$DIMCEN
 40
0.09
  9
$DIMTSZ
 40
0.0
  9
$DIMTOL
 70
     0
  9
$DIMLIM
 70
     0
  9
$DIMTIH
 70
     1
  9
$DIMTOH
 70
     1
  9
$DIMSE1
 70
     0
  9
$DIMSE2
 70
     0
  9
$DIMTAD
 70
     0
  9
$DIMZIN
 70
     0
  9
$DIMBLK
  1

  9
$DIMASO
 70
     1
  9
$DIMSHO
 70
     1
  9
$DIMPOST
  1

  9
$DIMAPOST
  1

  9
$DIMALT
 70
     0
  9
$DIMALTD
 70
     2
  9
$DIMALTF
 40
25.4
  9
$DIMLFAC
 40
1.0
  9
$DIMTOFL
 70
     0
  9
$DIMTVP
 40
0.0
  9
$DIMTIX
 70
     0
  9
$DIMSOXD
 70
     0
  9
$DIMSAH
 70
     0
  9
$DIMBLK1
  1

  9
$DIMBLK2
  1

  9
$DIMSTYLE
  2
STANDARD
  9
$DIMCLRD
 70
     0
  9
$DIMCLRE
 70
     0
  9
$DIMCLRT
 70
     0
  9
$DIMTFAC
 40
1.0
  9
$DIMGAP
 40
0.09
  9
$DIMJUST
 70
     0
  9
$DIMSD1
 70
     0
  9
$DIMSD2
 70
     0
  9
$DIMTOLJ
 70
     1
  9
$DIMTZIN
 70
     0
  9
$DIMALTZ
 70
     0
  9
$DIMALTTZ
 70
     0
  9
$DIMUPT
 70
     0
  9
$DIMDEC
 70
     4
  9
$DIMTDEC
 70
     4
  9
$DIMALTU
 70
     2
  9
$DIMALTTD
 70
     2
  9
$DIMTXSTY
  7
STANDARD
  9
$DIMAUNIT
 70
     0
  9
$DIMADEC
 70
     0
  9
$DIMALTRND
 40
0.0
  9
$DIMAZIN
 70
     0
  9
$DIMDSEP
 70
    46
  9
$DIMATFIT
 70
     3
  9
$DIMFRAC
 70
     0
  9
$DIMLDRBLK
  1

  9
$DIMLUNIT
 70
     2
  9
$DIMLWD
 70
    -2
  9
$DIMLWE
 70
    -2
  9
$DIMTMOVE
 70
     0
  9
$LUNITS
 70
     2
  9
$LUPREC
 70
     4
  9
$SKETCHINC
 40
0.1
  9
$FILLETRAD
 40
0.0
  9
$AUNITS
 70
     0
  9
$AUPREC
 70
     0
  9
$MENU
  1
.
  9
$ELEVATION
 40
0.0
  9
$PELEVATION
 40
0.0
  9
$THICKNESS
 40
0.0
  9
$LIMCHECK
 70
     0
  9
$CHAMFERA
 40
0.0
  9
$CHAMFERB
 40
0.0
  9
$CHAMFERC
 40
0.0
  9
$CHAMFERD
 40
0.0
  9
$SKPOLY
 70
     0
  9
$TDCREATE
 40
2451212.682759178
  9
$TDUCREATE
 40
2451212.307759178
  9
$TDUPDATE
 40
2455485.680862442
  9
$TDUUPDATE
 40
2455485.305862442
  9
$TDINDWG
 40
0.0002451042
  9
$TDUSRTIMER
 40
0.0002451042
  9
$USRTIMER
 70
     1
  9
$ANGBASE
 50
0.0
  9
$ANGDIR
 70
     0
  9
$PDMODE
 70
     0
  9
$PDSIZE
 40
0.0
  9
$PLINEWID
 40
0.0
  9
$SPLFRAME
 70
     0
  9
$SPLINETYPE
 70
     6
  9
$SPLINESEGS
 70
     8
  9
$HANDSEED
  5
2DA
  9
$SURFTAB1
 70
     6
  9
$SURFTAB2
 70
     6
  9
$SURFTYPE
 70
     6
  9
$SURFU
 70
     6
  9
$SURFV
 70
     6
  9
$UCSBASE
  2

  9
$UCSNAME
  2

  9
$UCSORG
 10
0.0
 20
0.0
 30
0.0
  9
$UCSXDIR
 10
1.0
 20
0.0
 30
0.0
  9
$UCSYDIR
 10
0.0
 20
1.0
 30
0.0
  9
$UCSORTHOREF
  2

  9
$UCSORTHOVIEW
 70
     0
  9
$UCSORGTOP
 10
0.0
 20
0.0
 30
0.0
  9
$UCSORGBOTTOM
 10
0.0
 20
0.0
 30
0.0
  9
$UCSORGLEFT
 10
0.0
 20
0.0
 30
0.0
  9
$UCSORGRIGHT
 10
0.0
 20
0.0
 30
0.0
  9
$UCSORGFRONT
 10
0.0
 20
0.0
 30
0.0
  9
$UCSORGBACK
 10
0.0
 20
0.0
 30
0.0
  9
$PUCSBASE
  2

  9
$PUCSNAME
  2

  9
$PUCSORG
 10
0.0
 20
0.0
 30
0.0
  9
$PUCSXDIR
 10
1.0
 20
0.0
 30
0.0
  9
$PUCSYDIR
 10
0.0
 20
1.0
 30
0.0
  9
$PUCSORTHOREF
  2

  9
$PUCSORTHOVIEW
 70
     0
  9
$PUCSORGTOP
 10
0.0
 20
0.0
 30
0.0
  9
$PUCSORGBOTTOM
 10
0.0
 20
0.0
 30
0.0
  9
$PUCSORGLEFT
 10
0.0
 20
0.0
 30
0.0
  9
$PUCSORGRIGHT
 10
0.0
 20
0.0
 30
0.0
  9
$PUCSORGFRONT
 10
0.0
 20
0.0
 30
0.0
  9
$PUCSORGBACK
 10
0.0
 20
0.0
 30
0.0
  9
$USERI1
 70
     0
  9
$USERI2
 70
     0
  9
$USERI3
 70
     0
  9
$USERI4
 70
     0
  9
$USERI5
 70
     0
  9
$USERR1
 40
0.0
  9
$USERR2
 40
0.0
  9
$USERR3
 40
0.0
  9
$USERR4
 40
0.0
  9
$USERR5
 40
0.0
  9
$WORLDVIEW
 70
     1
  9
$SHADEDGE
 70
     3
  9
$SHADEDIF
 70
    70
  9
$TILEMODE
 70
     1
  9
$MAXACTVP
 70
    16
  9
$PINSBASE
 10
0.0
 20
0.0
 30
0.0
  9
$PLIMCHECK
 70
     0
  9
$PEXTMIN
 10
1.000000000000000E+20
 20
1.000000000000000E+20
 30
1.000000000000000E+20
  9
$PEXTMAX
 10
-1.000000000000000E+20
 20
-1.000000000000000E+20
 30
-1.000000000000000E+20
  9
$PLIMMIN
 10
0.0
 20
0.0
  9
$PLIMMAX
 10
12.0
 20
9.0
  9
$UNITMODE
 70
     0
  9
$VISRETAIN
 70
     1
  9
$PLINEGEN
 70
     0
  9
$PSLTSCALE
 70
     1
  9
$TREEDEPTH
 70
  3020
  9
$CMLSTYLE
  2
STANDARD
  9
$CMLJUST
 70
     0
  9
$CMLSCALE
 40
1.0
  9
$PROXYGRAPHICS
 70
     1
  9
$MEASUREMENT
 70
     0
  9
$CELWEIGHT
370
    -1
  9
$ENDCAPS
280
     0
  9
$JOINSTYLE
280
     0
  9
$LWDISPLAY
290
     0
  9
$INSUNITS
 70
     0
  9
$HYPERLINKBASE
  1

  9
$STYLESHEET
  1

  9
$XEDIT
290
     1
  9
$CEPSNTYPE
380
     0
  9
$PSTYLEMODE
290
     1
  9
$FINGERPRINTGUID
  2
{B45B4707-3627-44F5-B074-3A876CDBB77F}
  9
$VERSIONGUID
  2
{F392FCAC-946D-4F69-9426-FA95CCB02025}
  9
$EXTNAMES
290
     1
  9
$PSVPSCALE
 40
0.0
  9
$OLESTARTUP
290
     0
  0
ENDSEC
  0
SECTION
  2
CLASSES
  0
CLASS
  1
ACDBDICTIONARYWDFLT
  2
AcDbDictionaryWithDefault
  3
ObjectDBX Classes
 90
        0
280
     0
281
     0
  0
CLASS
  1
TABLESTYLE
  2
AcDbTableStyle
  3
ObjectDBX Classes
 90
     2047
280
     0
281
     0
  0
CLASS
  1
DICTIONARYVAR
  2
AcDbDictionaryVar
  3
ObjectDBX Classes
 90
        0
280
     0
281
     0
  0
CLASS
  1
ACDBPLACEHOLDER
  2
AcDbPlaceHolder
  3
ObjectDBX Classes
 90
        0
280
     0
281
     0
  0
CLASS
  1
LAYOUT
  2
AcDbLayout
  3
ObjectDBX Classes
 90
        0
280
     0
281
     0
  0
ENDSEC
  0
SECTION
  2
TABLES
  0
TABLE
  2
VPORT
  5
1
330
0
100
AcDbSymbolTable
 70
     2
  0
VPORT
  5
2D4
330
1
100
AcDbSymbolTableRecord
100
AcDbViewportTableRecord
  2
*Active
 70
     0
 10
0.0
 20
0.0
 11
1.0
 21
1.0
 12
1991.618772563152
 22
840.0
 13
0.0
 23
0.0
 14
1.0
 24
1.0
 15
0.0
 25
0.0
 16
0.0
 26
0.0
 36
1.0
 17
0.0
 27
0.0
 37
0.0
 40
2376.0
 41
2.155234657039711
 42
50.0
 43
0.0
 44
0.0
 50
0.0
 51
0.0
 71
     0
 72
   100
 73
     1
 74
     1
 75
     0
 76
     0
 77
     0
 78
     0
281
     0
 65
     1
110
0.0
120
0.0
130
0.0
111
1.0
121
0.0
131
0.0
112
0.0
122
1.0
132
0.0
 79
     0
146
0.0
  0
ENDTAB
  0
TABLE
  2
LTYPE
  5
9C
330
0
100
AcDbSymbolTable
 70
    25
  0
LTYPE
  5
2D
330
9C
100
AcDbSymbolTableRecord
100
AcDbLinetypeTableRecord
  2
BYBLOCK
 70
     0
  3

 72
    65
 73
     0
 40
0.0
  0
LTYPE
  5
2E
330
9C
100
AcDbSymbolTableRecord
100
AcDbLinetypeTableRecord
  2
BYLAYER
 70
     0
  3

 72
    65
 73
     0
 40
0.0
  0
LTYPE
  5
2F
330
9C
100
AcDbSymbolTableRecord
100
AcDbLinetypeTableRecord
  2
CONTINUOUS
 70
     0
  3
Solid line
 72
    65
 73
     0
 40
0.0
  0
LTYPE
  5
30
330
9C
100
AcDbSymbolTableRecord
100
AcDbLinetypeTableRecord
  2
BORDER
 70
     0
  3
__ __ . __ __ . __ __ . __ __ . __ __ . __ __ .
 72
    65
 73
     6
 40
1.75
 49
0.5
 74
     0
 49
-0.25
 74
     0
 49
0.5
 74
     0
 49
-0.25
 74
     0
 49
0.0
 74
     0
 49
-0.25
 74
     0
  0
LTYPE
  5
31
330
9C
100
AcDbSymbolTableRecord
100
AcDbLinetypeTableRecord
  2
BORDER2
 70
     0
  3
__.__.__.__.__.__.__.__.__.__.__.__.__.__.__.__
 72
    65
 73
     6
 40
0.875
 49
0.25
 74
     0
 49
-0.125
 74
     0
 49
0.25
 74
     0
 49
-0.125
 74
     0
 49
0.0
 74
     0
 49
-0.125
 74
     0
  0
LTYPE
  5
32
330
9C
100
AcDbSymbolTableRecord
100
AcDbLinetypeTableRecord
  2
BORDERX2
 70
     0
  3
____  ____  .  ____  ____  .  ____  ____  .  __
 72
    65
 73
     6
 40
3.5
 49
1.0
 74
     0
 49
-0.5
 74
     0
 49
1.0
 74
     0
 49
-0.5
 74
     0
 49
0.0
 74
     0
 49
-0.5
 74
     0
  0
LTYPE
  5
33
330
9C
100
AcDbSymbolTableRecord
100
AcDbLinetypeTableRecord
  2
CENTER
 70
     0
  3
____ _ ____ _ ____ _ ____ _ ____ _ ____ _ ____ 
 72
    65
 73
     4
 40
2.0
 49
1.25
 74
     0
 49
-0.25
 74
     0
 49
0.25
 74
     0
 49
-0.25
 74
     0
  0
LTYPE
  5
34
330
9C
100
AcDbSymbolTableRecord
100
AcDbLinetypeTableRecord
  2
CENTER2
 70
     0
  3
___ _ ___ _ ___ _ ___ _ ___ _ ___ _ ___ _ ___ _
 72
    65
 73
     4
 40
1.125
 49
0.75
 74
     0
 49
-0.125
 74
     0
 49
0.125
 74
     0
 49
-0.125
 74
     0
  0
LTYPE
  5
35
330
9C
100
AcDbSymbolTableRecord
100
AcDbLinetypeTableRecord
  2
CENTERX2
 70
     0
  3
________  __  ________  __  ________  __  _____
 72
    65
 73
     4
 40
4.0
 49
2.5
 74
     0
 49
-0.5
 74
     0
 49
0.5
 74
     0
 49
-0.5
 74
     0
  0
LTYPE
  5
36
330
9C
100
AcDbSymbolTableRecord
100
AcDbLinetypeTableRecord
  2
DASHDOT
 70
     0
  3
__ . __ . __ . __ . __ . __ . __ . __ . __ . __
 72
    65
 73
     4
 40
1.0
 49
0.5
 74
     0
 49
-0.25
 74
     0
 49
0.0
 74
     0
 49
-0.25
 74
     0
  0
LTYPE
  5
37
330
9C
100
AcDbSymbolTableRecord
100
AcDbLinetypeTableRecord
  2
DASHDOT2
 70
     0
  3
_._._._._._._._._._._._._._._._._._._._._._._._
 72
    65
 73
     4
 40
0.5
 49
0.25
 74
     0
 49
-0.125
 74
     0
 49
0.0
 74
     0
 49
-0.125
 74
     0
  0
LTYPE
  5
38
330
9C
100
AcDbSymbolTableRecord
100
AcDbLinetypeTableRecord
  2
DASHDOTX2
 70
     0
  3
____  .  ____  .  ____  .  ____  .  ____  .  __
 72
    65
 73
     4
 40
2.0
 49
1.0
 74
     0
 49
-0.5
 74
     0
 49
0.0
 74
     0
 49
-0.5
 74
     0
  0
LTYPE
  5
39
330
9C
100
AcDbSymbolTableRecord
100
AcDbLinetypeTableRecord
  2
DASHED
 70
     0
  3
__ __ __ __ __ __ __ __ __ __ __ __ __ __ __ __
 72
    65
 73
     2
 40
0.75
 49
0.5
 74
     0
 49
-0.25
 74
     0
  0
LTYPE
  5
3A
330
9C
100
AcDbSymbolTableRecord
100
AcDbLinetypeTableRecord
  2
DASHED2
 70
     0
  3
_ _ _ _ _ _ _ _ _ _ _ _ _ _ _ _ _ _ _ _ _ _ _ _
 72
    65
 73
     2
 40
0.375
 49
0.25
 74
     0
 49
-0.125
 74
     0
  0
LTYPE
  5
3B
330
9C
100
AcDbSymbolTableRecord
100
AcDbLinetypeTableRecord
  2
DASHEDX2
 70
     0
  3
____  ____  ____  ____  ____  ____  ____  ____ 
 72
    65
 73
     2
 40
1.5
 49
1.0
 74
     0
 49
-0.5
 74
     0
  0
LTYPE
  5
3C
330
9C
100
AcDbSymbolTableRecord
100
AcDbLinetypeTableRecord
  2
DIVIDE
 70
     0
  3
____ . . ____ . . ____ . . ____ . . ____ . . __
 72
    65
 73
     6
 40
1.25
 49
0.5
 74
     0
 49
-0.25
 74
     0
 49
0.0
 74
     0
 49
-0.25
 74
     0
 49
0.0
 74
     0
 49
-0.25
 74
     0
  0
LTYPE
  5
3D
330
9C
100
AcDbSymbolTableRecord
100
AcDbLinetypeTableRecord
  2
DIVIDE2
 70
     0
  3
__..__..__..__..__..__..__..__..__..__..__..__.
 72
    65
 73
     6
 40
0.625
 49
0.25
 74
     0
 49
-0.125
 74
     0
 49
0.0
 74
     0
 49
-0.125
 74
     0
 49
0.0
 74
     0
 49
-0.125
 74
     0
  0
LTYPE
  5
3E
330
9C
100
AcDbSymbolTableRecord
100
AcDbLinetypeTableRecord
  2
DIVIDEX2
 70
     0
  3
________  .  .  ________  .  .  ________  .  . 
 72
    65
 73
     6
 40
2.5
 49
1.0
 74
     0
 49
-0.5
 74
     0
 49
0.0
 74
     0
 49
-0.5
 74
     0
 49
0.0
 74
     0
 49
-0.5
 74
     0
  0
LTYPE
  5
3F
330
9C
100
AcDbSymbolTableRecord
100
AcDbLinetypeTableRecord
  2
DOT
 70
     0
  3
. . . . . . . . . . . . . . . . . . . . . . . .
 72
    65
 73
     2
 40
0.25
 49
0.0
 74
     0
 49
-0.25
 74
     0
  0
LTYPE
  5
40
330
9C
100
AcDbSymbolTableRecord
100
AcDbLinetypeTableRecord
  2
DOT2
 70
     0
  3
...............................................
 72
    65
 73
     2
 40
0.125
 49
0.0
 74
     0
 49
-0.125
 74
     0
  0
LTYPE
  5
41
330
9C
100
AcDbSymbolTableRecord
100
AcDbLinetypeTableRecord
  2
DOTX2
 70
     0
  3
.  .  .  .  .  .  .  .  .  .  .  .  .  .  .  . 
 72
    65
 73
     2
 40
0.5
 49
0.0
 74
     0
 49
-0.5
 74
     0
  0
LTYPE
  5
42
330
9C
100
AcDbSymbolTableRecord
100
AcDbLinetypeTableRecord
  2
HIDDEN
 70
     0
  3
__ __ __ __ __ __ __ __ __ __ __ __ __ __ __ __
 72
    65
 73
     2
 40
0.375
 49
0.25
 74
     0
 49
-0.125
 74
     0
  0
LTYPE
  5
43
330
9C
100
AcDbSymbolTableRecord
100
AcDbLinetypeTableRecord
  2
HIDDEN2
 70
     0
  3
_ _ _ _ _ _ _ _ _ _ _ _ _ _ _ _ _ _ _ _ _ _ _ _
 72
    65
 73
     2
 40
0.1875
 49
0.125
 74
     0
 49
-0.0625
 74
     0
  0
LTYPE
  5
44
330
9C
100
AcDbSymbolTableRecord
100
AcDbLinetypeTableRecord
  2
HIDDENX2
 70
     0
  3
____ ____ ____ ____ ____ ____ ____ ____ ____ __
 72
    65
 73
     2
 40
0.75
 49
0.5
 74
     0
 49
-0.25
 74
     0
  0
LTYPE
  5
45
330
9C
100
AcDbSymbolTableRecord
100
AcDbLinetypeTableRecord
  2
PHANTOM
 70
     0
  3
______  __  __  ______  __  __  ______  __  __ 
 72
    65
 73
     6
 40
2.5
 49
1.25
 74
     0
 49
-0.25
 74
     0
 49
0.25
 74
     0
 49
-0.25
 74
     0
 49
0.25
 74
     0
 49
-0.25
 74
     0
  0
LTYPE
  5
46
330
9C
100
AcDbSymbolTableRecord
100
AcDbLinetypeTableRecord
  2
PHANTOM2
 70
     0
  3
___ _ _ ___ _ _ ___ _ _ ___ _ _ ___ _ _ ___ _ _
 72
    65
 73
     6
 40
1.25
 49
0.625
 74
     0
 49
-0.125
 74
     0
 49
0.125
 74
     0
 49
-0.125
 74
     0
 49
0.125
 74
     0
 49
-0.125
 74
     0
  0
LTYPE
  5
47
330
9C
100
AcDbSymbolTableRecord
100
AcDbLinetypeTableRecord
  2
PHANTOMX2
 70
     0
  3
____________    ____    ____    ____________   
 72
    65
 73
     6
 40
5.0
 49
2.5
 74
     0
 49
-0.5
 74
     0
 49
0.5
 74
     0
 49
-0.5
 74
     0
 49
0.5
 74
     0
 49
-0.5
 74
     0
  0
ENDTAB
  0
TABLE
  2
LAYER
  5
9B
330
0
100
AcDbSymbolTable
 70
     5
  0
LAYER
  5
48
330
9B
100
AcDbSymbolTableRecord
100
AcDbLayerTableRecord
  2
0
 70
     0
 62
     7
  6
CONTINUOUS
370
    -3
390
2C4
  0
LAYER
  5
49
330
9B
100
AcDbSymbolTableRecord
100
AcDbLayerTableRecord
  2
LEVEL001
 70
     0
 62
     7
  6
CONTINUOUS
370
    -3
390
2C4
  0
LAYER
  5
4A
330
9B
100
AcDbSymbolTableRecord
100
AcDbLayerTableRecord
  2
内図枠(作図領域)
 70
     0
 62
     7
  6
CONTINUOUS
370
    -3
390
2C4
  0
LAYER
  5
4B
330
9B
100
AcDbSymbolTableRecord
100
AcDbLayerTableRecord
  2
外図枠(出力紙領域)
 70
     0
 62
     7
  6
CONTINUOUS
370
    -3
390
2C4
  0
LAYER
  5
4C
330
9B
100
AcDbSymbolTableRecord
100
AcDbLayerTableRecord
  2
部品表金額表示用
 70
     0
 62
     7
  6
CONTINUOUS
370
    -3
390
2C4
  0
ENDTAB
  0
TABLE
  2
STYLE
  5
6
330
0
100
AcDbSymbolTable
 70
     3
  0
STYLE
  5
7
330
6
100
AcDbSymbolTableRecord
100
AcDbTextStyleTableRecord
  2
STANDARD
 70
     0
 40
0.0
 41
1.0
 50
0.0
 71
     0
 42
0.2
  3
TXT
  4
BIGFONT
  0
STYLE
  5
8
330
6
100
AcDbSymbolTableRecord
100
AcDbTextStyleTableRecord
  2
STANDARD1
 70
     4
 40
0.0
 41
1.0
 50
0.0
 71
     0
 42
0.2
  3
TXT
  4
BIGFONT
  0
STYLE
  5
9
330
6
100
AcDbSymbolTableRecord
100
AcDbTextStyleTableRecord
  2
GMM001
 70
     0
 40
0.0
 41
1.0
 50
0.0
 71
     0
 42
1.0
  3
txt.shx
  4
bigfont.shx
  0
ENDTAB
  0
TABLE
  2
VIEW
  5
2
330
0
100
AcDbSymbolTable
 70
     0
  0
ENDTAB
  0
TABLE
  2
UCS
  5
3
330
0
100
AcDbSymbolTable
 70
     0
  0
ENDTAB
  0
TABLE
  2
APPID
  5
4
330
0
100
AcDbSymbolTable
 70
     1
  0
APPID
  5
5
330
4
100
AcDbSymbolTableRecord
100
AcDbRegAppTableRecord
  2
ACAD
 70
     0
  0
ENDTAB
  0
TABLE
  2
DIMSTYLE
  5
9A
330
0
100
AcDbSymbolTable
 70
     5
100
AcDbDimStyleTable
 71
     0
  0
DIMSTYLE
105
4D
330
9A
100
AcDbSymbolTableRecord
100
AcDbDimStyleTableRecord
  2
STANDARD
 70
     0
340
7
  0
DIMSTYLE
105
4E
102
{ACAD_REACTORS
330
24D
330
24E
330
29F
330
2A1
330
2A2
330
2A5
102
}
330
9A
100
AcDbSymbolTableRecord
100
AcDbDimStyleTableRecord
  2
GMM001
 70
     0
 41
12.0
 42
0.0
 43
32.0
 44
8.0
 46
15.0
 73
     0
 74
     0
 77
     1
 78
     8
140
24.0
141
4.0
143
0.0394
146
0.625
147
10.285714285714
172
     1
173
     1
176
     1
177
     1
178
     7
271
     6
272
     0
340
9
341
1E
343
1E
344
1E
  0
DIMSTYLE
105
4F
102
{ACAD_REACTORS
330
29D
330
29E
330
2A3
102
}
330
9A
100
AcDbSymbolTableRecord
100
AcDbDimStyleTableRecord
  2
GMM002
 70
     0
 41
12.0
 42
0.0
 43
32.0
 44
8.0
 46
15.0
 73
     0
 74
     0
 76
     1
 77
     1
 78
     8
140
24.0
141
4.0
143
0.0394
146
0.625
147
10.285714285714
172
     1
173
     1
176
     1
177
     1
178
     7
271
     6
272
     0
340
9
341
1E
343
1E
344
1E
  0
DIMSTYLE
105
50
102
{ACAD_REACTORS
330
2A4
102
}
330
9A
100
AcDbSymbolTableRecord
100
AcDbDimStyleTableRecord
  2
GMM003
 70
     0
 41
12.0
 42
0.0
 43
32.0
 44
8.0
 46
15.0
 73
     0
 74
     0
 77
     1
 78
     8
140
24.0
141
4.0
143
0.0394
146
0.625
147
10.285714285714
172
     1
173
     1
176
     1
177
     1
178
     7
271
     6
272
     0
288
     1
340
9
341
1E
343
1E
344
1E
  0
DIMSTYLE
105
51
102
{ACAD_REACTORS
330
2A6
102
}
330
9A
100
AcDbSymbolTableRecord
100
AcDbDimStyleTableRecord
  2
GMM004
 70
     0
  3
R<>
 41
12.0
 42
0.0
 43
32.0
 44
8.0
 46
15.0
 73
     0
 74
     0
 75
     1
 76
     1
 77
     1
 78
     8
140
24.0
141
4.0
143
0.0394
146
0.625
147
10.082803502399
172
     1
173
     1
176
     1
177
     1
178
     7
271
     6
272
     0
288
     1
340
9
341
26
343
26
344
1E
  0
ENDTAB
  0
TABLE
  2
BLOCK_RECORD
  5
A
330
0
100
AcDbSymbolTable
 70
    32
  0
BLOCK_RECORD
  5
B
330
A
100
AcDbSymbolTableRecord
100
AcDbBlockTableRecord
  2
*MODEL_SPACE
340
2CB
  0
BLOCK_RECORD
  5
C
330
A
100
AcDbSymbolTableRecord
100
AcDbBlockTableRecord
  2
*PAPER_SPACE
340
2CC
  0
BLOCK_RECORD
  5
D
330
A
100
AcDbSymbolTableRecord
100
AcDbBlockTableRecord
  2
*D0
340
0
  0
BLOCK_RECORD
  5
E
330
A
100
AcDbSymbolTableRecord
100
AcDbBlockTableRecord
  2
*D1
340
0
  0
BLOCK_RECORD
  5
F
330
A
100
AcDbSymbolTableRecord
100
AcDbBlockTableRecord
  2
*D2
340
0
  0
BLOCK_RECORD
  5
10
330
A
100
AcDbSymbolTableRecord
100
AcDbBlockTableRecord
  2
*D3
340
0
  0
BLOCK_RECORD
  5
11
330
A
100
AcDbSymbolTableRecord
100
AcDbBlockTableRecord
  2
*D4
340
0
  0
BLOCK_RECORD
  5
12
330
A
100
AcDbSymbolTableRecord
100
AcDbBlockTableRecord
  2
*D5
340
0
  0
BLOCK_RECORD
  5
13
330
A
100
AcDbSymbolTableRecord
100
AcDbBlockTableRecord
  2
*D6
340
0
  0
BLOCK_RECORD
  5
14
330
A
100
AcDbSymbolTableRecord
100
AcDbBlockTableRecord
  2
*D7
340
0
  0
BLOCK_RECORD
  5
15
330
A
100
AcDbSymbolTableRecord
100
AcDbBlockTableRecord
  2
*D8
340
0
  0
BLOCK_RECORD
  5
16
330
A
100
AcDbSymbolTableRecord
100
AcDbBlockTableRecord
  2
*D9
340
0
  0
BLOCK_RECORD
  5
17
330
A
100
AcDbSymbolTableRecord
100
AcDbBlockTableRecord
  2
*D10
340
0
  0
BLOCK_RECORD
  5
18
330
A
100
AcDbSymbolTableRecord
100
AcDbBlockTableRecord
  2
_ARCHTICK
340
0
  0
BLOCK_RECORD
  5
19
330
A
100
AcDbSymbolTableRecord
100
AcDbBlockTableRecord
  2
_OBLIQUE
340
0
  0
BLOCK_RECORD
  5
1A
330
A
100
AcDbSymbolTableRecord
100
AcDbBlockTableRecord
  2
_BOXBLANK
340
0
  0
BLOCK_RECORD
  5
1B
330
A
100
AcDbSymbolTableRecord
100
AcDbBlockTableRecord
  2
_BOXFILLED
340
0
  0
BLOCK_RECORD
  5
1C
330
A
100
AcDbSymbolTableRecord
100
AcDbBlockTableRecord
  2
_CLOSED
340
0
  0
BLOCK_RECORD
  5
1D
330
A
100
AcDbSymbolTableRecord
100
AcDbBlockTableRecord
  2
_OPEN
340
0
  0
BLOCK_RECORD
  5
1E
330
A
100
AcDbSymbolTableRecord
100
AcDbBlockTableRecord
  2
_OPEN30
340
0
102
{BLKREFS
331
AC
331
AD
331
B2
331
B3
331
B8
331
B9
331
BE
331
BF
331
C4
331
C5
331
CA
331
CB
331
D0
331
D1
331
D6
331
D7
331
DC
331
DD
331
E2
331
E3
331
E6
102
}
  0
BLOCK_RECORD
  5
1F
330
A
100
AcDbSymbolTableRecord
100
AcDbBlockTableRecord
  2
_OPEN90
340
0
  0
BLOCK_RECORD
  5
20
330
A
100
AcDbSymbolTableRecord
100
AcDbBlockTableRecord
  2
_CLOSEDBLANK
340
0
  0
BLOCK_RECORD
  5
21
330
A
100
AcDbSymbolTableRecord
100
AcDbBlockTableRecord
  2
_DOT
340
0
  0
BLOCK_RECORD
  5
22
330
A
100
AcDbSymbolTableRecord
100
AcDbBlockTableRecord
  2
_DOTSMALL
340
0
  0
BLOCK_RECORD
  5
23
330
A
100
AcDbSymbolTableRecord
100
AcDbBlockTableRecord
  2
_DATUMBLANK
340
0
  0
BLOCK_RECORD
  5
24
330
A
100
AcDbSymbolTableRecord
100
AcDbBlockTableRecord
  2
_DATUMFILLED
340
0
  0
BLOCK_RECORD
  5
25
330
A
100
AcDbSymbolTableRecord
100
AcDbBlockTableRecord
  2
_ORIGIN
340
0
  0
BLOCK_RECORD
  5
26
330
A
100
AcDbSymbolTableRecord
100
AcDbBlockTableRecord
  2
_NONE
340
0
  0
BLOCK_RECORD
  5
27
330
A
100
AcDbSymbolTableRecord
100
AcDbBlockTableRecord
  2
_DOTBLANK
340
0
  0
BLOCK_RECORD
  5
28
330
A
100
AcDbSymbolTableRecord
100
AcDbBlockTableRecord
  2
_INTEGRAL
340
0
  0
BLOCK_RECORD
  5
29
330
A
100
AcDbSymbolTableRecord
100
AcDbBlockTableRecord
  2
A2
340
0
102
{BLKREFS
331
139
102
}
  0
BLOCK_RECORD
  5
2A
330
A
100
AcDbSymbolTableRecord
100
AcDbBlockTableRecord
  2
BLOCK001
340
0
102
{BLKREFS
331
13A
102
}
  0
BLOCK_RECORD
  5
2B
330
A
100
AcDbSymbolTableRecord
100
AcDbBlockTableRecord
  2
BLOCK002
340
0
102
{BLKREFS
331
13B
102
}
  0
BLOCK_RECORD
  5
2C
330
A
100
AcDbSymbolTableRecord
100
AcDbBlockTableRecord
  2
BLOCK003
340
0
102
{BLKREFS
331
13C
102
}
  0
ENDTAB
  0
ENDSEC
  0
SECTION
  2
BLOCKS
  0
BLOCK
  5
56
330
B
100
AcDbEntity
  8
0
100
AcDbBlockBegin
  2
*MODEL_SPACE
 70
     0
 10
0.0
 20
0.0
 30
0.0
  3
*MODEL_SPACE
  1

  0
ENDBLK
  5
78
330
B
100
AcDbEntity
  8
0
100
AcDbBlockEnd
  0
BLOCK
  5
57
330
C
100
AcDbEntity
 67
     1
  8
0
100
AcDbBlockBegin
  2
*PAPER_SPACE
 70
     0
 10
0.0
 20
0.0
 30
0.0
  3
*PAPER_SPACE
  1

  0
ENDBLK
  5
79
330
C
100
AcDbEntity
 67
     1
  8
0
100
AcDbBlockEnd
  0
BLOCK
  5
58
330
D
100
AcDbEntity
  8
0
100
AcDbBlockBegin
  2
*D0
 70
     1
 10
0.0
 20
0.0
 30
0.0
  3
*D0
  1

  0
LINE
  5
A9
330
D
100
AcDbEntity
  8
LEVEL001
  6
Continuous
 62
     1
100
AcDbLine
 10
1124.85
 20
64.0
 30
0.0
 11
1328.0
 21
64.0
 31
0.0
  0
LINE
  5
AA
330
D
100
AcDbEntity
  8
LEVEL001
  6
Continuous
 62
     1
100
AcDbLine
 10
1124.85
 20
944.0
 30
0.0
 11
1328.0
 21
944.0
 31
0.0
  0
LINE
  5
AB
330
D
100
AcDbEntity
  8
LEVEL001
  6
Continuous
 62
     1
100
AcDbLine
 10
1320.0
 20
64.0
 30
0.0
 11
1320.0
 21
944.0
 31
0.0
  0
INSERT
  5
AC
330
D
100
AcDbEntity
  8
LEVEL001
  6
Continuous
 62
     1
100
AcDbBlockReference
  2
_OPEN30
 10
1320.0
 20
64.0
 30
0.0
 41
12.0
 42
12.0
 43
12.0
 50
270.0
  0
INSERT
  5
AD
330
D
100
AcDbEntity
  8
LEVEL001
  6
Continuous
 62
     1
100
AcDbBlockReference
  2
_OPEN30
 10
1320.0
 20
944.0
 30
0.0
 41
12.0
 42
12.0
 43
12.0
 50
90.0
  0
MTEXT
  5
AE
330
D
100
AcDbEntity
  8
LEVEL001
  6
ByBlock
 62
     7
100
AcDbMText
 10
1309.7142857143
 20
504.0
 30
0.0
 40
24.0
 41
0.0
 71
     8
 72
     1
  1
\A1;880
  7
GMM001
 11
0.0
 21
1.0
 31
0.0
 73
     1
 44
1.0
1001
ACAD
1000
MTEXTBEGIN
1070
    73
1070
     1
1070
    44
1040
1.0
1070
    74
1070
     0
1000
MTEXTEND
  0
ENDBLK
  5
7E
330
D
100
AcDbEntity
  8
0
100
AcDbBlockEnd
  0
BLOCK
  5
59
330
E
100
AcDbEntity
  8
0
100
AcDbBlockBegin
  2
*D1
 70
     1
 10
0.0
 20
0.0
 30
0.0
  3
*D1
  1

  0
LINE
  5
AF
330
E
100
AcDbEntity
  8
LEVEL001
  6
Continuous
 62
     1
100
AcDbLine
 10
513.4999999999999
 20
475.0
 30
0.0
 11
513.4999999999999
 21
398.0
 31
0.0
  0
LINE
  5
B0
330
E
100
AcDbEntity
  8
LEVEL001
  6
Continuous
 62
     1
100
AcDbLine
 10
1060.5
 20
475.0
 30
0.0
 11
1060.5
 21
398.0
 31
0.0
  0
LINE
  5
B1
330
E
100
AcDbEntity
  8
LEVEL001
  6
Continuous
 62
     1
100
AcDbLine
 10
513.4999999999999
 20
406.0
 30
0.0
 11
1060.5
 21
406.0
 31
0.0
  0
INSERT
  5
B2
330
E
100
AcDbEntity
  8
LEVEL001
  6
Continuous
 62
     1
100
AcDbBlockReference
  2
_OPEN30
 10
513.4999999999999
 20
406.0
 30
0.0
 41
12.0
 42
12.0
 43
12.0
 50
180.0
  0
INSERT
  5
B3
330
E
100
AcDbEntity
  8
LEVEL001
  6
Continuous
 62
     1
100
AcDbBlockReference
  2
_OPEN30
 10
1060.5
 20
406.0
 30
0.0
 41
12.0
 42
12.0
 43
12.0
  0
MTEXT
  5
B4
330
E
100
AcDbEntity
  8
LEVEL001
  6
ByBlock
 62
     7
100
AcDbMText
 10
787.0
 20
416.28571428571
 30
0.0
 40
24.0
 41
0.0
 71
     8
 72
     1
  1
\A1;547
  7
GMM001
 73
     1
 44
1.0
1001
ACAD
1000
MTEXTBEGIN
1070
    73
1070
     1
1070
    44
1040
1.0
1070
    74
1070
     0
1000
MTEXTEND
  0
ENDBLK
  5
7F
330
E
100
AcDbEntity
  8
0
100
AcDbBlockEnd
  0
BLOCK
  5
5A
330
F
100
AcDbEntity
  8
0
100
AcDbBlockBegin
  2
*D2
 70
     1
 10
0.0
 20
0.0
 30
0.0
  3
*D2
  1

  0
LINE
  5
B5
330
F
100
AcDbEntity
  8
LEVEL001
  6
Continuous
 62
     1
100
AcDbLine
 10
307.0
 20
174.0
 30
0.0
 11
307.0
 21
9.0
 31
0.0
  0
LINE
  5
B6
330
F
100
AcDbEntity
  8
LEVEL001
  6
Continuous
 62
     1
100
AcDbLine
 10
422.0
 20
174.0
 30
0.0
 11
422.0
 21
9.0
 31
0.0
  0
LINE
  5
B7
330
F
100
AcDbEntity
  8
LEVEL001
  6
Continuous
 62
     1
100
AcDbLine
 10
307.0
 20
17.0
 30
0.0
 11
422.0
 21
17.0
 31
0.0
  0
INSERT
  5
B8
330
F
100
AcDbEntity
  8
LEVEL001
  6
Continuous
 62
     1
100
AcDbBlockReference
  2
_OPEN30
 10
307.0
 20
17.0
 30
0.0
 41
12.0
 42
12.0
 43
12.0
 50
180.0
  0
INSERT
  5
B9
330
F
100
AcDbEntity
  8
LEVEL001
  6
Continuous
 62
     1
100
AcDbBlockReference
  2
_OPEN30
 10
422.0
 20
17.0
 30
0.0
 41
12.0
 42
12.0
 43
12.0
  0
MTEXT
  5
BA
330
F
100
AcDbEntity
  8
LEVEL001
  6
ByBlock
 62
     7
100
AcDbMText
 10
364.5
 20
27.285714285714
 30
0.0
 40
24.0
 41
0.0
 71
     8
 72
     1
  1
\A1;115
  7
GMM001
 73
     1
 44
1.0
1001
ACAD
1000
MTEXTBEGIN
1070
    73
1070
     1
1070
    44
1040
1.0
1070
    74
1070
     0
1000
MTEXTEND
  0
ENDBLK
  5
80
330
F
100
AcDbEntity
  8
0
100
AcDbBlockEnd
  0
BLOCK
  5
5B
330
10
100
AcDbEntity
  8
0
100
AcDbBlockBegin
  2
*D3
 70
     1
 10
0.0
 20
0.0
 30
0.0
  3
*D3
  1

  0
LINE
  5
BB
330
10
100
AcDbEntity
  8
LEVEL001
  6
Continuous
 62
     1
100
AcDbLine
 10
422.0
 20
174.0
 30
0.0
 11
422.0
 21
9.0
 31
0.0
  0
LINE
  5
BC
330
10
100
AcDbEntity
  8
LEVEL001
  6
Continuous
 62
     1
100
AcDbLine
 10
1152.0
 20
174.0
 30
0.0
 11
1152.0
 21
9.0
 31
0.0
  0
LINE
  5
BD
330
10
100
AcDbEntity
  8
LEVEL001
  6
Continuous
 62
     1
100
AcDbLine
 10
422.0
 20
17.0
 30
0.0
 11
1152.0
 21
17.0
 31
0.0
  0
INSERT
  5
BE
330
10
100
AcDbEntity
  8
LEVEL001
  6
Continuous
 62
     1
100
AcDbBlockReference
  2
_OPEN30
 10
422.0
 20
17.0
 30
0.0
 41
12.0
 42
12.0
 43
12.0
 50
180.0
  0
INSERT
  5
BF
330
10
100
AcDbEntity
  8
LEVEL001
  6
Continuous
 62
     1
100
AcDbBlockReference
  2
_OPEN30
 10
1152.0
 20
17.0
 30
0.0
 41
12.0
 42
12.0
 43
12.0
  0
MTEXT
  5
C0
330
10
100
AcDbEntity
  8
LEVEL001
  6
ByBlock
 62
     7
100
AcDbMText
 10
787.0
 20
27.285714285714
 30
0.0
 40
24.0
 41
0.0
 71
     8
 72
     1
  1
\A1;730
  7
GMM001
 73
     1
 44
1.0
1001
ACAD
1000
MTEXTBEGIN
1070
    73
1070
     1
1070
    44
1040
1.0
1070
    74
1070
     0
1000
MTEXTEND
  0
ENDBLK
  5
81
330
10
100
AcDbEntity
  8
0
100
AcDbBlockEnd
  0
BLOCK
  5
5C
330
11
100
AcDbEntity
  8
0
100
AcDbBlockBegin
  2
*D4
 70
     1
 10
0.0
 20
0.0
 30
0.0
  3
*D4
  1

  0
LINE
  5
C1
330
11
100
AcDbEntity
  8
LEVEL001
  6
Continuous
 62
     1
100
AcDbLine
 10
1152.0
 20
174.0
 30
0.0
 11
1152.0
 21
9.0
 31
0.0
  0
LINE
  5
C2
330
11
100
AcDbEntity
  8
LEVEL001
  6
Continuous
 62
     1
100
AcDbLine
 10
1207.0
 20
689.35
 30
0.0
 11
1207.0
 21
9.0
 31
0.0
  0
LINE
  5
C3
330
11
100
AcDbEntity
  8
LEVEL001
  6
Continuous
 62
     1
100
AcDbLine
 10
1152.0
 20
17.0
 30
0.0
 11
1207.0
 21
17.0
 31
0.0
  0
INSERT
  5
C4
330
11
100
AcDbEntity
  8
LEVEL001
  6
Continuous
 62
     1
100
AcDbBlockReference
  2
_OPEN30
 10
1152.0
 20
17.0
 30
0.0
 41
12.0
 42
12.0
 43
12.0
 50
180.0
  0
INSERT
  5
C5
330
11
100
AcDbEntity
  8
LEVEL001
  6
Continuous
 62
     1
100
AcDbBlockReference
  2
_OPEN30
 10
1207.0
 20
17.0
 30
0.0
 41
12.0
 42
12.0
 43
12.0
  0
MTEXT
  5
C6
330
11
100
AcDbEntity
  8
LEVEL001
  6
ByBlock
 62
     7
100
AcDbMText
 10
1179.5
 20
27.285714285714
 30
0.0
 40
24.0
 41
0.0
 71
     8
 72
     1
  1
\A1;55
  7
GMM001
 73
     1
 44
1.0
1001
ACAD
1000
MTEXTBEGIN
1070
    73
1070
     1
1070
    44
1040
1.0
1070
    74
1070
     0
1000
MTEXTEND
  0
ENDBLK
  5
82
330
11
100
AcDbEntity
  8
0
100
AcDbBlockEnd
  0
BLOCK
  5
5D
330
12
100
AcDbEntity
  8
0
100
AcDbBlockBegin
  2
*D5
 70
     1
 10
0.0
 20
0.0
 30
0.0
  3
*D5
  1

  0
LINE
  5
C7
330
12
100
AcDbEntity
  8
LEVEL001
  6
Continuous
 62
     1
100
AcDbLine
 10
1831.0
 20
574.0
 30
0.0
 11
1831.0
 21
996.0
 31
0.0
  0
LINE
  5
C8
330
12
100
AcDbEntity
  8
LEVEL001
  6
Continuous
 62
     1
100
AcDbLine
 10
1372.7
 20
392.0
 30
0.0
 11
1372.7
 21
996.0
 31
0.0
  0
LINE
  5
C9
330
12
100
AcDbEntity
  8
LEVEL001
  6
Continuous
 62
     1
100
AcDbLine
 10
1831.0
 20
988.0
 30
0.0
 11
1372.7
 21
988.0
 31
0.0
  0
INSERT
  5
CA
330
12
100
AcDbEntity
  8
LEVEL001
  6
Continuous
 62
     1
100
AcDbBlockReference
  2
_OPEN30
 10
1831.0
 20
988.0
 30
0.0
 41
12.0
 42
12.0
 43
12.0
  0
INSERT
  5
CB
330
12
100
AcDbEntity
  8
LEVEL001
  6
Continuous
 62
     1
100
AcDbBlockReference
  2
_OPEN30
 10
1372.7
 20
988.0
 30
0.0
 41
12.0
 42
12.0
 43
12.0
 50
180.0
  0
MTEXT
  5
CC
330
12
100
AcDbEntity
  8
LEVEL001
  6
ByBlock
 62
     7
100
AcDbMText
 10
1601.85
 20
998.2857142857099
 30
0.0
 40
24.0
 41
0.0
 71
     8
 72
     1
  1
\A1;458.3
  7
GMM001
 73
     1
 44
1.0
1001
ACAD
1000
MTEXTBEGIN
1070
    73
1070
     1
1070
    44
1040
1.0
1070
    74
1070
     0
1000
MTEXTEND
  0
ENDBLK
  5
83
330
12
100
AcDbEntity
  8
0
100
AcDbBlockEnd
  0
BLOCK
  5
5E
330
13
100
AcDbEntity
  8
0
100
AcDbBlockBegin
  2
*D6
 70
     1
 10
0.0
 20
0.0
 30
0.0
  3
*D6
  1

  0
LINE
  5
CD
330
13
100
AcDbEntity
  8
LEVEL001
  6
Continuous
 62
     1
100
AcDbLine
 10
307.0
 20
830.0
 30
0.0
 11
307.0
 21
996.0
 31
0.0
  0
LINE
  5
CE
330
13
100
AcDbEntity
  8
LEVEL001
  6
Continuous
 62
     1
100
AcDbLine
 10
1207.0
 20
689.35
 30
0.0
 11
1207.0
 21
996.0
 31
0.0
  0
LINE
  5
CF
330
13
100
AcDbEntity
  8
LEVEL001
  6
Continuous
 62
     1
100
AcDbLine
 10
307.0
 20
988.0
 30
0.0
 11
1207.0
 21
988.0
 31
0.0
  0
INSERT
  5
D0
330
13
100
AcDbEntity
  8
LEVEL001
  6
Continuous
 62
     1
100
AcDbBlockReference
  2
_OPEN30
 10
307.0
 20
988.0
 30
0.0
 41
12.0
 42
12.0
 43
12.0
 50
180.0
  0
INSERT
  5
D1
330
13
100
AcDbEntity
  8
LEVEL001
  6
Continuous
 62
     1
100
AcDbBlockReference
  2
_OPEN30
 10
1207.0
 20
988.0
 30
0.0
 41
12.0
 42
12.0
 43
12.0
  0
MTEXT
  5
D2
330
13
100
AcDbEntity
  8
LEVEL001
  6
ByBlock
 62
     7
100
AcDbMText
 10
757.0
 20
998.2857142857099
 30
0.0
 40
24.0
 41
0.0
 71
     8
 72
     1
  1
\A1;900
  7
GMM001
 73
     1
 44
1.0
1001
ACAD
1000
MTEXTBEGIN
1070
    73
1070
     1
1070
    44
1040
1.0
1070
    74
1070
     0
1000
MTEXTEND
  0
ENDBLK
  5
84
330
13
100
AcDbEntity
  8
0
100
AcDbBlockEnd
  0
BLOCK
  5
5F
330
14
100
AcDbEntity
  8
0
100
AcDbBlockBegin
  2
*D7
 70
     1
 10
0.0
 20
0.0
 30
0.0
  3
*D7
  1

  0
LINE
  5
D3
330
14
100
AcDbEntity
  8
LEVEL001
  6
Continuous
 62
     1
100
AcDbLine
 10
1831.0
 20
574.0
 30
0.0
 11
1831.0
 21
951.4931054991601
 31
0.0
  0
LINE
  5
D4
330
14
100
AcDbEntity
  8
LEVEL001
  6
Continuous
 62
     1
100
AcDbLine
 10
1431.0
 20
574.0
 30
0.0
 11
1431.0
 21
951.4931054991601
 31
0.0
  0
LINE
  5
D5
330
14
100
AcDbEntity
  8
LEVEL001
  6
Continuous
 62
     1
100
AcDbLine
 10
1831.0
 20
943.4931054991601
 30
0.0
 11
1431.0
 21
943.4931054991601
 31
0.0
  0
INSERT
  5
D6
330
14
100
AcDbEntity
  8
LEVEL001
  6
Continuous
 62
     1
100
AcDbBlockReference
  2
_OPEN30
 10
1831.0
 20
943.4931054991601
 30
0.0
 41
12.0
 42
12.0
 43
12.0
  0
INSERT
  5
D7
330
14
100
AcDbEntity
  8
LEVEL001
  6
Continuous
 62
     1
100
AcDbBlockReference
  2
_OPEN30
 10
1431.0
 20
943.4931054991601
 30
0.0
 41
12.0
 42
12.0
 43
12.0
 50
180.0
  0
MTEXT
  5
D8
330
14
100
AcDbEntity
  8
LEVEL001
  6
ByBlock
 62
     7
100
AcDbMText
 10
1631.0
 20
953.77881978487
 30
0.0
 40
24.0
 41
0.0
 71
     8
 72
     1
  1
\A1;400
  7
GMM001
 73
     1
 44
1.0
1001
ACAD
1000
MTEXTBEGIN
1070
    73
1070
     1
1070
    44
1040
1.0
1070
    74
1070
     0
1000
MTEXTEND
  0
ENDBLK
  5
85
330
14
100
AcDbEntity
  8
0
100
AcDbBlockEnd
  0
BLOCK
  5
60
330
15
100
AcDbEntity
  8
0
100
AcDbBlockBegin
  2
*D8
 70
     1
 10
0.0
 20
0.0
 30
0.0
  3
*D8
  1

  0
LINE
  5
D9
330
15
100
AcDbEntity
  8
LEVEL001
  6
Continuous
 62
     1
100
AcDbLine
 10
1431.0
 20
574.0
 30
0.0
 11
1431.0
 21
951.4931054991601
 31
0.0
  0
LINE
  5
DA
330
15
100
AcDbEntity
  8
LEVEL001
  6
Continuous
 62
     1
100
AcDbLine
 10
1372.7
 20
392.0
 30
0.0
 11
1372.7
 21
951.4931054991601
 31
0.0
  0
LINE
  5
DB
330
15
100
AcDbEntity
  8
LEVEL001
  6
Continuous
 62
     1
100
AcDbLine
 10
1431.0
 20
943.4931054991601
 30
0.0
 11
1372.7
 21
943.4931054991601
 31
0.0
  0
INSERT
  5
DC
330
15
100
AcDbEntity
  8
LEVEL001
  6
Continuous
 62
     1
100
AcDbBlockReference
  2
_OPEN30
 10
1431.0
 20
943.4931054991601
 30
0.0
 41
12.0
 42
12.0
 43
12.0
  0
INSERT
  5
DD
330
15
100
AcDbEntity
  8
LEVEL001
  6
Continuous
 62
     1
100
AcDbBlockReference
  2
_OPEN30
 10
1372.7
 20
943.4931054991601
 30
0.0
 41
12.0
 42
12.0
 43
12.0
 50
180.0
  0
MTEXT
  5
DE
330
15
100
AcDbEntity
  8
LEVEL001
  6
ByBlock
 62
     7
100
AcDbMText
 10
1412.85
 20
953.77881978487
 30
0.0
 40
24.0
 41
0.0
 71
     8
 72
     1
  1
\A1;58.3
  7
GMM001
 73
     1
 44
1.0
1001
ACAD
1000
MTEXTBEGIN
1070
    73
1070
     1
1070
    44
1040
1.0
1070
    74
1070
     0
1000
MTEXTEND
  0
ENDBLK
  5
86
330
15
100
AcDbEntity
  8
0
100
AcDbBlockEnd
  0
BLOCK
  5
61
330
16
100
AcDbEntity
  8
0
100
AcDbBlockBegin
  2
*D9
 70
     1
 10
0.0
 20
0.0
 30
0.0
  3
*D9
  1

  0
LINE
  5
DF
330
16
100
AcDbEntity
  8
LEVEL001
  6
Continuous
 62
     1
100
AcDbLine
 10
1117.0
 20
64.0
 30
0.0
 11
1284.0
 21
64.0
 31
0.0
  0
LINE
  5
E0
330
16
100
AcDbEntity
  8
LEVEL001
  6
Continuous
 62
     1
100
AcDbLine
 10
1088.5
 20
865.0
 30
0.0
 11
1284.0
 21
865.0
 31
0.0
  0
LINE
  5
E1
330
16
100
AcDbEntity
  8
LEVEL001
  6
Continuous
 62
     1
100
AcDbLine
 10
1276.0
 20
64.0
 30
0.0
 11
1276.0
 21
865.0
 31
0.0
  0
INSERT
  5
E2
330
16
100
AcDbEntity
  8
LEVEL001
  6
Continuous
 62
     1
100
AcDbBlockReference
  2
_OPEN30
 10
1276.0
 20
64.0
 30
0.0
 41
12.0
 42
12.0
 43
12.0
 50
270.0
  0
INSERT
  5
E3
330
16
100
AcDbEntity
  8
LEVEL001
  6
Continuous
 62
     1
100
AcDbBlockReference
  2
_OPEN30
 10
1276.0
 20
865.0
 30
0.0
 41
12.0
 42
12.0
 43
12.0
 50
90.0
  0
MTEXT
  5
E4
330
16
100
AcDbEntity
  8
LEVEL001
  6
ByBlock
 62
     7
100
AcDbMText
 10
1265.7142857143
 20
464.5
 30
0.0
 40
24.0
 41
0.0
 71
     8
 72
     1
  1
\A1;801
  7
GMM001
 11
0.0
 21
1.0
 31
0.0
 73
     1
 44
1.0
1001
ACAD
1000
MTEXTBEGIN
1070
    73
1070
     1
1070
    44
1040
1.0
1070
    74
1070
     0
1000
MTEXTEND
  0
ENDBLK
  5
87
330
16
100
AcDbEntity
  8
0
100
AcDbBlockEnd
  0
BLOCK
  5
62
330
17
100
AcDbEntity
  8
0
100
AcDbBlockBegin
  2
*D10
 70
     1
 10
0.0
 20
0.0
 30
0.0
  3
*D10
  1

  0
LINE
  5
E5
330
17
100
AcDbEntity
  8
LEVEL001
  6
Continuous
 62
     1
100
AcDbLine
 10
1631.0
 20
617.0
 30
0.0
 11
1760.6727019299
 21
559.1295379817199
 31
0.0
  0
INSERT
  5
E6
330
17
100
AcDbEntity
  8
LEVEL001
  6
Continuous
 62
     1
100
AcDbBlockReference
  2
_OPEN30
 10
1760.6727019299
 20
559.1295379817199
 30
0.0
 41
12.0
 42
12.0
 43
12.0
 50
335.9497014704
  0
MTEXT
  5
E7
330
17
100
AcDbEntity
  8
LEVEL001
  6
ByBlock
 62
     7
100
AcDbMText
 10
1714.0
 20
591.0
 30
0.0
 40
24.0
 41
0.0
 71
     8
 72
     1
  1
\A1;R142
  7
GMM001
 11
0.9131880417595999
 21
-0.40753846491745
 31
0.0
 73
     1
 44
1.0
1001
ACAD
1000
MTEXTBEGIN
1070
    73
1070
     1
1070
    44
1040
1.0
1070
    74
1070
     0
1000
MTEXTEND
  0
ENDBLK
  5
88
330
17
100
AcDbEntity
  8
0
100
AcDbBlockEnd
  0
BLOCK
  5
63
330
18
100
AcDbEntity
  8
0
100
AcDbBlockBegin
  2
_ARCHTICK
 70
     0
 10
0.0
 20
0.0
 30
0.0
  3
_ARCHTICK
  1

  0
LWPOLYLINE
  5
E8
330
18
100
AcDbEntity
  8
0
  6
ByBlock
 62
     0
100
AcDbPolyline
 90
        2
 70
     1
 43
0.15
 10
-0.5
 20
-0.5
 10
0.5
 20
0.5
  0
ENDBLK
  5
89
330
18
100
AcDbEntity
  8
0
100
AcDbBlockEnd
  0
BLOCK
  5
64
330
19
100
AcDbEntity
  8
0
100
AcDbBlockBegin
  2
_OBLIQUE
 70
     0
 10
0.0
 20
0.0
 30
0.0
  3
_OBLIQUE
  1

  0
LINE
  5
EC
330
19
100
AcDbEntity
  8
0
  6
ByBlock
 62
     0
100
AcDbLine
 10
-0.5
 20
-0.5
 30
0.0
 11
0.5
 21
0.5
 31
0.0
  0
ENDBLK
  5
95
330
19
100
AcDbEntity
  8
0
100
AcDbBlockEnd
  0
BLOCK
  5
65
330
1A
100
AcDbEntity
  8
0
100
AcDbBlockBegin
  2
_BOXBLANK
 70
     0
 10
0.0
 20
0.0
 30
0.0
  3
_BOXBLANK
  1

  0
LINE
  5
ED
330
1A
100
AcDbEntity
  8
0
  6
ByBlock
 62
     0
100
AcDbLine
 10
-0.5
 20
-0.5
 30
0.0
 11
0.5
 21
-0.5
 31
0.0
  0
LINE
  5
EE
330
1A
100
AcDbEntity
  8
0
  6
ByBlock
 62
     0
100
AcDbLine
 10
0.5
 20
-0.5
 30
0.0
 11
0.5
 21
0.5
 31
0.0
  0
LINE
  5
EF
330
1A
100
AcDbEntity
  8
0
  6
ByBlock
 62
     0
100
AcDbLine
 10
0.5
 20
0.5
 30
0.0
 11
-0.5
 21
0.5
 31
0.0
  0
LINE
  5
F0
330
1A
100
AcDbEntity
  8
0
  6
ByBlock
 62
     0
100
AcDbLine
 10
-0.5
 20
0.5
 30
0.0
 11
-0.5
 21
-0.5
 31
0.0
  0
LINE
  5
F1
330
1A
100
AcDbEntity
  8
0
  6
ByBlock
 62
     0
100
AcDbLine
 10
-0.5
 20
0.0
 30
0.0
 11
-1.0
 21
0.0
 31
0.0
  0
ENDBLK
  5
8A
330
1A
100
AcDbEntity
  8
0
100
AcDbBlockEnd
  0
BLOCK
  5
66
330
1B
100
AcDbEntity
  8
0
100
AcDbBlockBegin
  2
_BOXFILLED
 70
     0
 10
0.0
 20
0.0
 30
0.0
  3
_BOXFILLED
  1

  0
SOLID
  5
F2
330
1B
100
AcDbEntity
  8
0
  6
ByBlock
 62
     0
100
AcDbTrace
 10
-0.5
 20
0.5
 30
0.0
 11
0.5
 21
0.5
 31
0.0
 12
-0.5
 22
-0.5
 32
0.0
 13
0.5
 23
-0.5
 33
0.0
  0
LINE
  5
F3
330
1B
100
AcDbEntity
  8
0
  6
ByBlock
 62
     0
100
AcDbLine
 10
-0.5
 20
0.0
 30
0.0
 11
-1.0
 21
0.0
 31
0.0
  0
ENDBLK
  5
8B
330
1B
100
AcDbEntity
  8
0
100
AcDbBlockEnd
  0
BLOCK
  5
67
330
1C
100
AcDbEntity
  8
0
100
AcDbBlockBegin
  2
_CLOSED
 70
     0
 10
0.0
 20
0.0
 30
0.0
  3
_CLOSED
  1

  0
LINE
  5
F4
330
1C
100
AcDbEntity
  8
0
  6
ByBlock
 62
     0
100
AcDbLine
 10
-1.0
 20
0.16666666666667
 30
0.0
 11
0.0
 21
0.0
 31
0.0
  0
LINE
  5
F5
330
1C
100
AcDbEntity
  8
0
  6
ByBlock
 62
     0
100
AcDbLine
 10
0.0
 20
0.0
 30
0.0
 11
-1.0
 21
-0.16666666666667
 31
0.0
  0
LINE
  5
F6
330
1C
100
AcDbEntity
  8
0
  6
ByBlock
 62
     0
100
AcDbLine
 10
-1.0
 20
0.16666666666667
 30
0.0
 11
-1.0
 21
-0.16666666666667
 31
0.0
  0
LINE
  5
F7
330
1C
100
AcDbEntity
  8
0
  6
ByBlock
 62
     0
100
AcDbLine
 10
0.0
 20
0.0
 30
0.0
 11
-1.0
 21
0.0
 31
0.0
  0
ENDBLK
  5
8C
330
1C
100
AcDbEntity
  8
0
100
AcDbBlockEnd
  0
BLOCK
  5
68
330
1D
100
AcDbEntity
  8
0
100
AcDbBlockBegin
  2
_OPEN
 70
     0
 10
0.0
 20
0.0
 30
0.0
  3
_OPEN
  1

  0
LINE
  5
F8
330
1D
100
AcDbEntity
  8
0
  6
ByBlock
 62
     0
100
AcDbLine
 10
-1.0
 20
0.16666666666667
 30
0.0
 11
0.0
 21
0.0
 31
0.0
  0
LINE
  5
F9
330
1D
100
AcDbEntity
  8
0
  6
ByBlock
 62
     0
100
AcDbLine
 10
0.0
 20
0.0
 30
0.0
 11
-1.0
 21
-0.16666666666667
 31
0.0
  0
LINE
  5
FA
330
1D
100
AcDbEntity
  8
0
  6
ByBlock
 62
     0
100
AcDbLine
 10
0.0
 20
0.0
 30
0.0
 11
-1.0
 21
0.0
 31
0.0
  0
ENDBLK
  5
96
330
1D
100
AcDbEntity
  8
0
100
AcDbBlockEnd
  0
BLOCK
  5
69
330
1E
100
AcDbEntity
  8
0
100
AcDbBlockBegin
  2
_OPEN30
 70
     0
 10
0.0
 20
0.0
 30
0.0
  3
_OPEN30
  1

  0
LINE
  5
FB
330
1E
100
AcDbEntity
  8
0
  6
ByBlock
 62
     0
100
AcDbLine
 10
-1.0
 20
0.2679491924311
 30
0.0
 11
0.0
 21
0.0
 31
0.0
  0
LINE
  5
FC
330
1E
100
AcDbEntity
  8
0
  6
ByBlock
 62
     0
100
AcDbLine
 10
0.0
 20
0.0
 30
0.0
 11
-1.0
 21
-0.2679491924311
 31
0.0
  0
LINE
  5
FD
330
1E
100
AcDbEntity
  8
0
  6
ByBlock
 62
     0
100
AcDbLine
 10
0.0
 20
0.0
 30
0.0
 11
-1.0
 21
0.0
 31
0.0
  0
ENDBLK
  5
97
330
1E
100
AcDbEntity
  8
0
100
AcDbBlockEnd
  0
BLOCK
  5
6A
330
1F
100
AcDbEntity
  8
0
100
AcDbBlockBegin
  2
_OPEN90
 70
     0
 10
0.0
 20
0.0
 30
0.0
  3
_OPEN90
  1

  0
LINE
  5
FE
330
1F
100
AcDbEntity
  8
0
  6
ByBlock
 62
     0
100
AcDbLine
 10
-0.5
 20
0.5
 30
0.0
 11
0.0
 21
0.0
 31
0.0
  0
LINE
  5
FF
330
1F
100
AcDbEntity
  8
0
  6
ByBlock
 62
     0
100
AcDbLine
 10
0.0
 20
0.0
 30
0.0
 11
-0.5
 21
-0.5
 31
0.0
  0
LINE
  5
100
330
1F
100
AcDbEntity
  8
0
  6
ByBlock
 62
     0
100
AcDbLine
 10
0.0
 20
0.0
 30
0.0
 11
-1.0
 21
0.0
 31
0.0
  0
ENDBLK
  5
98
330
1F
100
AcDbEntity
  8
0
100
AcDbBlockEnd
  0
BLOCK
  5
6B
330
20
100
AcDbEntity
  8
0
100
AcDbBlockBegin
  2
_CLOSEDBLANK
 70
     0
 10
0.0
 20
0.0
 30
0.0
  3
_CLOSEDBLANK
  1

  0
LINE
  5
101
330
20
100
AcDbEntity
  8
0
  6
ByBlock
 62
     0
100
AcDbLine
 10
-1.0
 20
0.16666666666667
 30
0.0
 11
0.0
 21
0.0
 31
0.0
  0
LINE
  5
102
330
20
100
AcDbEntity
  8
0
  6
ByBlock
 62
     0
100
AcDbLine
 10
0.0
 20
0.0
 30
0.0
 11
-1.0
 21
-0.16666666666667
 31
0.0
  0
LINE
  5
103
330
20
100
AcDbEntity
  8
0
  6
ByBlock
 62
     0
100
AcDbLine
 10
-1.0
 20
0.16666666666667
 30
0.0
 11
-1.0
 21
-0.16666666666667
 31
0.0
  0
ENDBLK
  5
8D
330
20
100
AcDbEntity
  8
0
100
AcDbBlockEnd
  0
BLOCK
  5
6C
330
21
100
AcDbEntity
  8
0
100
AcDbBlockBegin
  2
_DOT
 70
     0
 10
0.0
 20
0.0
 30
0.0
  3
_DOT
  1

  0
LWPOLYLINE
  5
104
330
21
100
AcDbEntity
  8
0
  6
ByBlock
 62
     0
100
AcDbPolyline
 90
        2
 70
     1
 43
0.5
 10
-0.25
 20
0.0
 42
1.0
 10
0.25
 20
0.0
 42
1.0
  0
LINE
  5
108
330
21
100
AcDbEntity
  8
0
  6
ByBlock
 62
     0
100
AcDbLine
 10
-0.5
 20
0.0
 30
0.0
 11
-1.0
 21
0.0
 31
0.0
  0
ENDBLK
  5
90
330
21
100
AcDbEntity
  8
0
100
AcDbBlockEnd
  0
BLOCK
  5
6D
330
22
100
AcDbEntity
  8
0
100
AcDbBlockBegin
  2
_DOTSMALL
 70
     0
 10
0.0
 20
0.0
 30
0.0
  3
_DOTSMALL
  1

  0
LWPOLYLINE
  5
109
330
22
100
AcDbEntity
  8
0
  6
ByBlock
 62
     0
100
AcDbPolyline
 90
        2
 70
     1
 43
0.5
 10
-0.0625
 20
0.0
 42
1.0
 10
0.0625
 20
0.0
 42
1.0
  0
ENDBLK
  5
92
330
22
100
AcDbEntity
  8
0
100
AcDbBlockEnd
  0
BLOCK
  5
6E
330
23
100
AcDbEntity
  8
0
100
AcDbBlockBegin
  2
_DATUMBLANK
 70
     0
 10
0.0
 20
0.0
 30
0.0
  3
_DATUMBLANK
  1

  0
LINE
  5
10D
330
23
100
AcDbEntity
  8
0
  6
ByBlock
 62
     0
100
AcDbLine
 10
0.0
 20
0.5773502700000001
 30
0.0
 11
-1.0
 21
0.0
 31
0.0
  0
LINE
  5
10E
330
23
100
AcDbEntity
  8
0
  6
ByBlock
 62
     0
100
AcDbLine
 10
-1.0
 20
0.0
 30
0.0
 11
0.0
 21
-0.5773502700000001
 31
0.0
  0
LINE
  5
10F
330
23
100
AcDbEntity
  8
0
  6
ByBlock
 62
     0
100
AcDbLine
 10
0.0
 20
-0.5773502700000001
 30
0.0
 11
0.0
 21
0.5773502700000001
 31
0.0
  0
ENDBLK
  5
8E
330
23
100
AcDbEntity
  8
0
100
AcDbBlockEnd
  0
BLOCK
  5
6F
330
24
100
AcDbEntity
  8
0
100
AcDbBlockBegin
  2
_DATUMFILLED
 70
     0
 10
0.0
 20
0.0
 30
0.0
  3
_DATUMFILLED
  1

  0
SOLID
  5
110
330
24
100
AcDbEntity
  8
0
  6
ByBlock
 62
     0
100
AcDbTrace
 10
0.0
 20
0.5773502700000001
 30
0.0
 11
-1.0
 21
0.0
 31
0.0
 12
0.0
 22
-0.5773502700000001
 32
0.0
 13
0.0
 23
-0.5773502700000001
 33
0.0
  0
ENDBLK
  5
8F
330
24
100
AcDbEntity
  8
0
100
AcDbBlockEnd
  0
BLOCK
  5
70
330
25
100
AcDbEntity
  8
0
100
AcDbBlockBegin
  2
_ORIGIN
 70
     0
 10
0.0
 20
0.0
 30
0.0
  3
_ORIGIN
  1

  0
CIRCLE
  5
111
330
25
100
AcDbEntity
  8
0
  6
ByBlock
 62
     0
100
AcDbCircle
 10
0.0
 20
0.0
 30
0.0
 40
0.5
  0
LINE
  5
112
330
25
100
AcDbEntity
  8
0
  6
ByBlock
 62
     0
100
AcDbLine
 10
0.0
 20
0.0
 30
0.0
 11
-1.0
 21
0.0
 31
0.0
  0
ENDBLK
  5
99
330
25
100
AcDbEntity
  8
0
100
AcDbBlockEnd
  0
BLOCK
  5
71
330
26
100
AcDbEntity
  8
0
100
AcDbBlockBegin
  2
_NONE
 70
     0
 10
0.0
 20
0.0
 30
0.0
  3
_NONE
  1

  0
CIRCLE
  5
113
330
26
100
AcDbEntity
  8
0
  6
ByBlock
 62
     0
100
AcDbCircle
 10
0.0
 20
0.0
 30
0.0
 40
0.25
  0
ENDBLK
  5
94
330
26
100
AcDbEntity
  8
0
100
AcDbBlockEnd
  0
BLOCK
  5
72
330
27
100
AcDbEntity
  8
0
100
AcDbBlockBegin
  2
_DOTBLANK
 70
     0
 10
0.0
 20
0.0
 30
0.0
  3
_DOTBLANK
  1

  0
CIRCLE
  5
114
330
27
100
AcDbEntity
  8
0
  6
ByBlock
 62
     0
100
AcDbCircle
 10
0.0
 20
0.0
 30
0.0
 40
0.5
  0
LINE
  5
115
330
27
100
AcDbEntity
  8
0
  6
ByBlock
 62
     0
100
AcDbLine
 10
-0.5
 20
0.0
 30
0.0
 11
-1.0
 21
0.0
 31
0.0
  0
ENDBLK
  5
91
330
27
100
AcDbEntity
  8
0
100
AcDbBlockEnd
  0
BLOCK
  5
73
330
28
100
AcDbEntity
  8
0
100
AcDbBlockBegin
  2
_INTEGRAL
 70
     0
 10
0.0
 20
0.0
 30
0.0
  3
_INTEGRAL
  1

  0
ARC
  5
116
330
28
100
AcDbEntity
  8
0
  6
ByBlock
 62
     0
100
AcDbCircle
 10
0.444888
 20
-0.091335
 30
0.0
 40
0.454167
100
AcDbArc
 50
102.0
 51
168.0
  0
ARC
  5
117
330
28
100
AcDbEntity
  8
0
  6
ByBlock
 62
     0
100
AcDbCircle
 10
-0.444888
 20
0.091335
 30
0.0
 40
0.454167
100
AcDbArc
 50
282.0
 51
348.0
  0
ENDBLK
  5
93
330
28
100
AcDbEntity
  8
0
100
AcDbBlockEnd
  0
BLOCK
  5
74
330
29
100
AcDbEntity
  8
0
100
AcDbBlockBegin
  2
A2
 70
     0
 10
0.0
 20
0.0
 30
0.0
  3
A2
  1

  0
LWPOLYLINE
  5
118
330
29
100
AcDbEntity
  8
内図枠(作図領域)
  6
Continuous
 62
     7
100
AcDbPolyline
 90
        4
 70
     1
 43
0.0
 10
0.0000000000000142
 20
0.0
 10
544.0
 20
0.0
 10
544.0
 20
378.0
 10
0.0000000000000142
 20
378.0
  0
ENDBLK
  5
7A
330
29
100
AcDbEntity
  8
0
100
AcDbBlockEnd
  0
BLOCK
  5
75
330
2A
100
AcDbEntity
  8
0
100
AcDbBlockBegin
  2
BLOCK001
 70
     0
 10
0.0
 20
0.0
 30
0.0
  3
BLOCK001
  1

  0
LINE
  5
119
330
2A
100
AcDbEntity
  8
LEVEL001
  6
Continuous
 62
     7
100
AcDbLine
 10
1632.0
 20
144.0
 30
0.0
 11
2176.0
 21
144.0
 31
0.0
  0
LINE
  5
11A
330
2A
100
AcDbEntity
  8
LEVEL001
  6
Continuous
 62
     7
100
AcDbLine
 10
1632.0
 20
96.0
 30
0.0
 11
2176.0
 21
96.0
 31
0.0
  0
LINE
  5
11B
330
2A
100
AcDbEntity
  8
LEVEL001
  6
Continuous
 62
     7
100
AcDbLine
 10
1632.0
 20
144.0
 30
0.0
 11
1632.0
 21
96.0
 31
0.0
  0
LINE
  5
11C
330
2A
100
AcDbEntity
  8
LEVEL001
  6
Continuous
 62
     7
100
AcDbLine
 10
1664.0
 20
144.0
 30
0.0
 11
1664.0
 21
96.0
 31
0.0
  0
LINE
  5
11D
330
2A
100
AcDbEntity
  8
LEVEL001
  6
Continuous
 62
     7
100
AcDbLine
 10
1904.0
 20
144.0
 30
0.0
 11
1904.0
 21
96.0
 31
0.0
  0
LINE
  5
11E
330
2A
100
AcDbEntity
  8
LEVEL001
  6
Continuous
 62
     7
100
AcDbLine
 10
1936.0
 20
144.0
 30
0.0
 11
1936.0
 21
96.0
 31
0.0
  0
LINE
  5
11F
330
2A
100
AcDbEntity
  8
LEVEL001
  6
Continuous
 62
     7
100
AcDbLine
 10
2176.0
 20
144.0
 30
0.0
 11
2176.0
 21
96.0
 31
0.0
  0
ENDBLK
  5
7B
330
2A
100
AcDbEntity
  8
0
100
AcDbBlockEnd
  0
BLOCK
  5
76
330
2B
100
AcDbEntity
  8
0
100
AcDbBlockBegin
  2
BLOCK002
 70
     0
 10
0.0
 20
0.0
 30
0.0
  3
BLOCK002
  1

  0
LINE
  5
120
330
2B
100
AcDbEntity
  8
LEVEL001
  6
Continuous
 62
     7
100
AcDbLine
 10
1632.0
 20
96.0
 30
0.0
 11
2176.0
 21
96.0
 31
0.0
  0
LINE
  5
121
330
2B
100
AcDbEntity
  8
LEVEL001
  6
Continuous
 62
     7
100
AcDbLine
 10
1784.0
 20
64.0
 30
0.0
 11
2176.0
 21
64.0
 31
0.0
  0
LINE
  5
122
330
2B
100
AcDbEntity
  8
LEVEL001
  6
Continuous
 62
     7
100
AcDbLine
 10
1632.0
 20
32.0
 30
0.0
 11
2176.0
 21
32.0
 31
0.0
  0
LINE
  5
123
330
2B
100
AcDbEntity
  8
LEVEL001
  6
Continuous
 62
     7
100
AcDbLine
 10
1632.0
 20
0.0
 30
0.0
 11
2176.0
 21
0.0
 31
0.0
  0
LINE
  5
124
330
2B
100
AcDbEntity
  8
LEVEL001
  6
Continuous
 62
     7
100
AcDbLine
 10
1632.0
 20
96.0
 30
0.0
 11
1632.0
 21
0.0
 31
0.0
  0
LINE
  5
125
330
2B
100
AcDbEntity
  8
LEVEL001
  6
Continuous
 62
     7
100
AcDbLine
 10
1664.0
 20
96.0
 30
0.0
 11
1664.0
 21
32.0
 31
0.0
  0
LINE
  5
126
330
2B
100
AcDbEntity
  8
LEVEL001
  6
Continuous
 62
     7
100
AcDbLine
 10
1784.0
 20
96.0
 30
0.0
 11
1784.0
 21
32.0
 31
0.0
  0
LINE
  5
127
330
2B
100
AcDbEntity
  8
LEVEL001
  6
Continuous
 62
     7
100
AcDbLine
 10
1904.0
 20
96.0
 30
0.0
 11
1904.0
 21
32.0
 31
0.0
  0
LINE
  5
128
330
2B
100
AcDbEntity
  8
LEVEL001
  6
Continuous
 62
     7
100
AcDbLine
 10
1936.0
 20
96.0
 30
0.0
 11
1936.0
 21
32.0
 31
0.0
  0
LINE
  5
129
330
2B
100
AcDbEntity
  8
LEVEL001
  6
Continuous
 62
     7
100
AcDbLine
 10
2016.0
 20
96.0
 30
0.0
 11
2016.0
 21
32.0
 31
0.0
  0
LINE
  5
12A
330
2B
100
AcDbEntity
  8
LEVEL001
  6
Continuous
 62
     7
100
AcDbLine
 10
2044.0
 20
96.0
 30
0.0
 11
2044.0
 21
64.0
 31
0.0
  0
LINE
  5
12B
330
2B
100
AcDbEntity
  8
LEVEL001
  6
Continuous
 62
     7
100
AcDbLine
 10
2068.0
 20
96.0
 30
0.0
 11
2068.0
 21
64.0
 31
0.0
  0
LINE
  5
12C
330
2B
100
AcDbEntity
  8
LEVEL001
  6
Continuous
 62
     7
100
AcDbLine
 10
2096.0
 20
96.0
 30
0.0
 11
2096.0
 21
32.0
 31
0.0
  0
LINE
  5
12D
330
2B
100
AcDbEntity
  8
LEVEL001
  6
Continuous
 62
     7
100
AcDbLine
 10
2176.0
 20
96.0
 30
0.0
 11
2176.0
 21
0.0
 31
0.0
  0
ENDBLK
  5
7C
330
2B
100
AcDbEntity
  8
0
100
AcDbBlockEnd
  0
BLOCK
  5
77
330
2C
100
AcDbEntity
  8
0
100
AcDbBlockBegin
  2
BLOCK003
 70
     0
 10
0.0
 20
0.0
 30
0.0
  3
BLOCK003
  1

  0
TEXT
  5
12E
330
2C
100
AcDbEntity
  8
LEVEL001
  6
ByBlock
 62
     7
100
AcDbText
 10
1780.8000183105
 20
8.0
 30
0.0
 40
16.0
  1
さぬき麺機株式会社
100
AcDbText
  0
TEXT
  5
12F
330
2C
100
AcDbEntity
  8
LEVEL001
  6
ByBlock
 62
     7
100
AcDbText
 10
1648.0
 20
140.44442749023
 30
0.0
 40
16.0
  1
名称
  7
STANDARD1
100
AcDbText
  0
TEXT
  5
130
330
2C
100
AcDbEntity
  8
LEVEL001
  6
ByBlock
 62
     7
100
AcDbText
 10
1920.0
 20
140.44439697266
 30
0.0
 40
16.0
  1
図番
  7
STANDARD1
100
AcDbText
  0
TEXT
  5
131
330
2C
100
AcDbEntity
  8
LEVEL001
  6
ByBlock
 62
     7
100
AcDbText
 10
1648.0
 20
87.111111323039
 30
0.0
 40
16.0
  1
画法
  7
STANDARD1
100
AcDbText
  0
TEXT
  5
132
330
2C
100
AcDbEntity
  8
LEVEL001
  6
ByBlock
 62
     7
100
AcDbText
 10
1675.2000002861
 20
56.0
 30
0.0
 40
16.0
  1
第三角法
100
AcDbText
  0
TEXT
  5
133
330
2C
100
AcDbEntity
  8
LEVEL001
  6
ByBlock
 62
     7
100
AcDbText
 10
1795.2000002861
 20
72.0
 30
0.0
 40
16.0
  1
共通機種
100
AcDbText
  0
TEXT
  5
134
330
2C
100
AcDbEntity
  8
LEVEL001
  6
ByBlock
 62
     7
100
AcDbText
 10
1907.1999998112
 20
72.0
 30
0.0
 40
16.0
  1
個数
 41
0.80000001192093
100
AcDbText
  0
TEXT
  5
135
330
2C
100
AcDbEntity
  8
LEVEL001
  6
ByBlock
 62
     7
100
AcDbText
 10
1952.0
 20
72.0
 30
0.0
 40
16.0
  1
尺度
100
AcDbText
  0
TEXT
  5
136
330
2C
100
AcDbEntity
  8
LEVEL001
  6
ByBlock
 62
     7
100
AcDbText
 10
2024.0
 20
72.0
 30
0.0
 40
16.0
  1
年月日
100
AcDbText
  0
TEXT
  5
137
330
2C
100
AcDbEntity
  8
LEVEL001
  6
ByBlock
 62
     7
100
AcDbText
 10
2112.0
 20
72.0
 30
0.0
 40
16.0
  1
製図
100
AcDbText
  0
POINT
  5
138
330
2C
100
AcDbEntity
  8
LEVEL001
  6
ByBlock
 62
     7
100
AcDbPoint
 10
2016.0
 20
40.0
 30
0.0
  0
ENDBLK
  5
7D
330
2C
100
AcDbEntity
  8
0
100
AcDbBlockEnd
  0
ENDSEC
  0
SECTION
  2
ENTITIES
  0
INSERT
  5
139
330
B
100
AcDbEntity
  8
0
100
AcDbBlockReference
  2
A2
 10
0.0
 20
0.0
 30
0.0
 41
4.0
 42
4.0
  0
INSERT
  5
13A
330
B
100
AcDbEntity
  8
LEVEL001
100
AcDbBlockReference
  2
BLOCK001
 10
0.0
 20
0.0
 30
0.0
  0
INSERT
  5
13B
330
B
100
AcDbEntity
  8
LEVEL001
100
AcDbBlockReference
  2
BLOCK002
 10
0.0
 20
0.0
 30
0.0
  0
INSERT
  5
13C
330
B
100
AcDbEntity
  8
0
100
AcDbBlockReference
  2
BLOCK003
 10
0.0
 20
0.0
 30
0.0
  0
TEXT
  5
13D
330
B
100
AcDbEntity
  8
LEVEL001
 62
     7
100
AcDbText
 10
1736.0
 20
112.0
 30
0.0
 40
16.0
  1
SS-12P 承認図
100
AcDbText
  0
LINE
  5
13E
330
B
100
AcDbEntity
  8
LEVEL001
  6
Continuous
 62
     7
100
AcDbLine
 10
1334.0
 20
1157.0
 30
0.0
 11
1334.0
 21
1253.0
 31
0.0
  0
LINE
  5
13F
330
B
100
AcDbEntity
  8
LEVEL001
  6
Continuous
 62
     7
100
AcDbLine
 10
1302.0
 20
1061.0
 30
0.0
 11
1302.0
 21
1445.0
 31
0.0
  0
LINE
  5
140
330
B
100
AcDbEntity
  8
LEVEL001
  6
Continuous
 62
     7
100
AcDbLine
 10
1509.0
 20
1445.0
 30
0.0
 11
1509.0
 21
1061.0
 31
0.0
  0
LINE
  5
141
330
B
100
AcDbEntity
  8
LEVEL001
  6
Continuous
 62
     7
100
AcDbLine
 10
1949.0
 20
1093.0
 30
0.0
 11
1302.0
 21
1093.0
 31
0.0
  0
LINE
  5
142
330
B
100
AcDbEntity
  8
LEVEL001
  6
Continuous
 62
     7
100
AcDbLine
 10
1949.0
 20
1445.0
 30
0.0
 11
1302.0
 21
1445.0
 31
0.0
  0
LINE
  5
143
330
B
100
AcDbEntity
  8
LEVEL001
  6
Continuous
 62
     7
100
AcDbLine
 10
1302.0
 20
1413.0
 30
0.0
 11
1949.0
 21
1413.0
 31
0.0
  0
LINE
  5
144
330
B
100
AcDbEntity
  8
LEVEL001
  6
Continuous
 62
     7
100
AcDbLine
 10
1302.0
 20
1381.0
 30
0.0
 11
1949.0
 21
1381.0
 31
0.0
  0
LINE
  5
145
330
B
100
AcDbEntity
  8
LEVEL001
  6
Continuous
 62
     7
100
AcDbLine
 10
1302.0
 20
1349.0
 30
0.0
 11
1949.0
 21
1349.0
 31
0.0
  0
LINE
  5
146
330
B
100
AcDbEntity
  8
LEVEL001
  6
Continuous
 62
     7
100
AcDbLine
 10
1302.0
 20
1317.0
 30
0.0
 11
1949.0
 21
1317.0
 31
0.0
  0
LINE
  5
147
330
B
100
AcDbEntity
  8
LEVEL001
  6
Continuous
 62
     7
100
AcDbLine
 10
1302.0
 20
1285.0
 30
0.0
 11
1949.0
 21
1285.0
 31
0.0
  0
LINE
  5
148
330
B
100
AcDbEntity
  8
LEVEL001
  6
Continuous
 62
     7
100
AcDbLine
 10
1302.0
 20
1253.0
 30
0.0
 11
1949.0
 21
1253.0
 31
0.0
  0
LINE
  5
149
330
B
100
AcDbEntity
  8
LEVEL001
  6
Continuous
 62
     7
100
AcDbLine
 10
1334.0
 20
1221.0
 30
0.0
 11
1949.0
 21
1221.0
 31
0.0
  0
LINE
  5
14A
330
B
100
AcDbEntity
  8
LEVEL001
  6
Continuous
 62
     7
100
AcDbLine
 10
1334.0
 20
1189.0
 30
0.0
 11
1949.0
 21
1189.0
 31
0.0
  0
LINE
  5
14B
330
B
100
AcDbEntity
  8
LEVEL001
  6
Continuous
 62
     7
100
AcDbLine
 10
1302.0
 20
1157.0
 30
0.0
 11
1949.0
 21
1157.0
 31
0.0
  0
LINE
  5
14C
330
B
100
AcDbEntity
  8
LEVEL001
  6
Continuous
 62
     7
100
AcDbLine
 10
1302.0
 20
1125.0
 30
0.0
 11
1949.0
 21
1125.0
 31
0.0
  0
LINE
  5
14D
330
B
100
AcDbEntity
  8
LEVEL001
  6
Continuous
 62
     7
100
AcDbLine
 10
1949.0
 20
1445.0
 30
0.0
 11
1949.0
 21
1061.0
 31
0.0
  0
LINE
  5
14E
330
B
100
AcDbEntity
  8
LEVEL001
  6
Continuous
 62
     7
100
AcDbLine
 10
1302.0
 20
1061.0
 30
0.0
 11
1949.0
 21
1061.0
 31
0.0
  0
TEXT
  5
14F
330
B
100
AcDbEntity
  8
LEVEL001
 62
     7
100
AcDbText
 10
2008.0
 20
112.0
 30
0.0
 40
16.0
  1
SS-12P
 41
0.5
100
AcDbText
  0
TEXT
  5
150
330
B
100
AcDbEntity
  8
LEVEL001
 62
     7
100
AcDbText
 10
2021.0
 20
40.0
 30
0.0
 40
16.0
  1
14. 2.16
 41
0.5
100
AcDbText
  0
TEXT
  5
151
330
B
100
AcDbEntity
  8
LEVEL001
 62
     7
100
AcDbText
 10
2120.0
 20
40.0
 30
0.0
 40
16.0
  1
井上
100
AcDbText
  0
TEXT
  5
152
330
B
100
AcDbEntity
  8
LEVEL001
 62
     7
100
AcDbText
 10
1943.0
 20
40.0
 30
0.0
 40
16.0
  1
(A2) 1/4
 41
0.5
100
AcDbText
  0
POINT
  5
153
330
B
100
AcDbEntity
  8
LEVEL001
 62
     7
100
AcDbPoint
 10
374.5
 20
1234.5
 30
0.0
  0
POINT
  5
154
330
B
100
AcDbEntity
  8
LEVEL001
 62
     7
100
AcDbPoint
 10
374.5
 20
1153.5
 30
0.0
  0
LWPOLYLINE
  5
155
330
B
100
AcDbEntity
  8
LEVEL001
  6
Continuous
 62
     7
100
AcDbPolyline
 90
        4
 70
     1
 43
0.0
 10
421.0
 20
1440.0
 10
307.0
 20
1440.0
 10
307.0
 20
1120.0
 10
421.0
 20
1120.0
  0
POINT
  5
156
330
B
100
AcDbEntity
  8
LEVEL001
 62
     7
100
AcDbPoint
 10
476.4999999999999
 20
1216.0
 30
0.0
  0
POINT
  5
157
330
B
100
AcDbEntity
  8
LEVEL001
 62
     7
100
AcDbPoint
 10
476.4999999999999
 20
1166.0
 30
0.0
  0
LINE
  5
158
330
B
100
AcDbEntity
  8
LEVEL001
  6
Continuous
 62
     7
100
AcDbLine
 10
499.5
 20
1457.0366379362
 30
0.0
 11
553.5
 21
1457.0366379362
 31
0.0
  0
LINE
  5
159
330
B
100
AcDbEntity
  8
LEVEL001
  6
Continuous
 62
     7
100
AcDbLine
 10
1020.5
 20
1457.0366379362
 30
0.0
 11
1074.5
 21
1457.0366379362
 31
0.0
  0
ARC
  5
15A
330
B
100
AcDbEntity
  8
LEVEL001
  6
Continuous
 62
     7
100
AcDbCircle
 10
837.0
 20
1295.0
 30
0.0
 40
4.5
100
AcDbArc
 50
270.0
 51
90.0
  0
LINE
  5
15B
330
B
100
AcDbEntity
  8
LEVEL001
  6
Continuous
 62
     7
100
AcDbLine
 10
737.0
 20
1299.5
 30
0.0
 11
837.0
 21
1299.5
 31
0.0
  0
ARC
  5
15C
330
B
100
AcDbEntity
  8
LEVEL001
  6
Continuous
 62
     7
100
AcDbCircle
 10
737.0
 20
1295.0
 30
0.0
 40
4.5
100
AcDbArc
 50
90.0
 51
270.0
  0
LINE
  5
15D
330
B
100
AcDbEntity
  8
LEVEL001
  6
Continuous
 62
     7
100
AcDbLine
 10
737.0
 20
1290.5
 30
0.0
 11
837.0
 21
1290.5
 31
0.0
  0
LWPOLYLINE
  5
15E
330
B
100
AcDbEntity
  8
LEVEL001
  6
Continuous
 62
     7
100
AcDbPolyline
 90
        4
 70
     1
 43
0.0
 10
1093.0
 20
1132.0
 10
1093.0
 20
1455.0
 10
481.0
 20
1455.0
 10
481.0
 20
1132.0
  0
LWPOLYLINE
  5
15F
330
B
100
AcDbEntity
  8
LEVEL001
  6
Continuous
 62
     7
100
AcDbPolyline
 90
        4
 70
     1
 43
0.0
 10
434.4999999999999
 20
1255.0
 10
459.4999999999999
 20
1255.0
 10
459.4999999999999
 20
1335.0
 10
434.4999999999999
 20
1335.0
  0
LWPOLYLINE
  5
160
330
B
100
AcDbEntity
  8
LEVEL001
  6
Continuous
 62
     7
100
AcDbPolyline
 90
        4
 70
     1
 43
0.0
 10
1114.5
 20
1255.0
 10
1139.5
 20
1255.0
 10
1139.5
 20
1335.0
 10
1114.5
 20
1335.0
  0
POINT
  5
161
330
B
100
AcDbEntity
  8
LEVEL001
 62
     7
100
AcDbPoint
 10
1076.5
 20
1427.4916260704
 30
0.0
  0
CIRCLE
  5
162
330
B
100
AcDbEntity
  8
LEVEL001
  6
Continuous
 62
     7
100
AcDbCircle
 10
1124.85
 20
1413.4206565129
 30
0.0
 40
15.0
  0
LINE
  5
163
330
B
100
AcDbEntity
  8
LEVEL001
  6
Continuous
 62
     7
100
AcDbLine
 10
1113.773273295
 20
1423.5353055678
 30
0.0
 11
1093.0
 21
1423.5353055678
 31
0.0
  0
LINE
  5
164
330
B
100
AcDbEntity
  8
LEVEL001
  6
Continuous
 62
     7
100
AcDbLine
 10
1093.0
 20
1410.8353055678
 30
0.0
 11
1110.0744810416
 21
1410.8353055678
 31
0.0
  0
LINE
  5
165
330
B
100
AcDbEntity
  8
LEVEL001
  6
Continuous
 62
     7
100
AcDbLine
 10
1102.0
 20
1377.5
 30
0.0
 11
1152.0
 21
1377.5
 31
0.0
  0
LINE
  5
166
330
B
100
AcDbEntity
  8
LEVEL001
  6
Continuous
 62
     7
100
AcDbLine
 10
1102.0
 20
1212.5
 30
0.0
 11
1152.0
 21
1212.5
 31
0.0
  0
LINE
  5
167
330
B
100
AcDbEntity
  8
LEVEL001
  6
Continuous
 62
     7
100
AcDbLine
 10
422.0
 20
1377.5
 30
0.0
 11
472.0
 21
1377.5
 31
0.0
  0
LINE
  5
168
330
B
100
AcDbEntity
  8
LEVEL001
  6
Continuous
 62
     7
100
AcDbLine
 10
1102.0
 20
1145.0
 30
0.0
 11
1102.0
 21
1095.0
 31
0.0
  0
LINE
  5
169
330
B
100
AcDbEntity
  8
LEVEL001
  6
Continuous
 62
     7
100
AcDbLine
 10
472.0
 20
1145.0
 30
0.0
 11
472.0
 21
1095.0
 31
0.0
  0
LWPOLYLINE
  5
16A
330
B
100
AcDbEntity
  8
LEVEL001
  6
Continuous
 62
     7
100
AcDbPolyline
 90
        3
 70
     0
 43
0.0
 10
423.0
 20
1095.0
 10
423.0
 20
1094.0
 10
474.0
 20
1094.0
  0
LWPOLYLINE
  5
16B
330
B
100
AcDbEntity
  8
LEVEL001
  6
Continuous
 62
     7
100
AcDbPolyline
 90
        3
 70
     0
 43
0.0
 10
1100.0
 20
1094.0
 10
1151.0
 20
1094.0
 10
1151.0
 20
1095.0
  0
LWPOLYLINE
  5
16C
330
B
100
AcDbEntity
  8
LEVEL001
  6
Continuous
 62
     7
100
AcDbPolyline
 90
        4
 70
     0
 43
0.0
 10
1020.5
 20
1455.0
 10
1020.5
 20
1460.0354118404
 10
1074.5
 20
1460.0354118404
 10
1074.5
 20
1455.0
  0
LWPOLYLINE
  5
16D
330
B
100
AcDbEntity
  8
LEVEL001
  6
Continuous
 62
     7
100
AcDbPolyline
 90
        4
 70
     0
 43
0.0
 10
499.5
 20
1455.0
 10
499.5
 20
1460.0354118404
 10
553.5
 20
1460.0354118404
 10
553.5
 20
1455.0
  0
LWPOLYLINE
  5
16E
330
B
100
AcDbEntity
  8
LEVEL001
  6
Continuous
 62
     7
100
AcDbPolyline
 90
        4
 70
     0
 43
0.0
 10
521.52044503559
 20
1460.0354118404
 10
523.8094010767899
 20
1464.0
 10
529.19059892321
 20
1464.0
 10
531.47955496441
 20
1460.0354118404
  0
LWPOLYLINE
  5
16F
330
B
100
AcDbEntity
  8
LEVEL001
  6
Continuous
 62
     7
100
AcDbPolyline
 90
        4
 70
     0
 43
0.0
 10
1042.5204450356
 20
1460.0354118404
 10
1044.8094010768
 20
1464.0
 10
1050.1905989232
 20
1464.0
 10
1052.4795549644
 20
1460.0354118404
  0
LWPOLYLINE
  5
170
330
B
100
AcDbEntity
  8
LEVEL001
  6
Continuous
 62
     7
100
AcDbPolyline
 90
        4
 70
     0
 43
0.0
 10
481.0
 20
1222.0
 10
476.4999999999999
 20
1222.0
 10
476.4999999999999
 20
1160.0
 10
481.0
 20
1160.0
  0
LINE
  5
171
330
B
100
AcDbEntity
  8
LEVEL001
  6
Continuous
 62
     7
100
AcDbLine
 10
421.0
 20
1280.0
 30
0.0
 11
434.4999999999999
 21
1280.0
 31
0.0
  0
LINE
  5
172
330
B
100
AcDbEntity
  8
LEVEL001
  6
Continuous
 62
     7
100
AcDbLine
 10
434.4999999999999
 20
1310.0
 30
0.0
 11
421.0
 21
1310.0
 31
0.0
  0
LWPOLYLINE
  5
173
330
B
100
AcDbEntity
  8
LEVEL001
  6
Continuous
 62
     7
100
AcDbPolyline
 90
        4
 70
     0
 43
0.0
 10
1139.5
 20
1310.0
 10
1152.5
 20
1310.0
 10
1152.5
 20
1280.0
 10
1139.5
 20
1280.0
  0
LINE
  5
174
330
B
100
AcDbEntity
  8
LEVEL001
  6
Continuous
 62
     7
100
AcDbLine
 10
1114.5
 20
1280.0
 30
0.0
 11
1093.0
 21
1280.0
 31
0.0
  0
LINE
  5
175
330
B
100
AcDbEntity
  8
LEVEL001
  6
Continuous
 62
     7
100
AcDbLine
 10
481.0
 20
1310.0
 30
0.0
 11
459.4999999999999
 21
1310.0
 31
0.0
  0
LINE
  5
176
330
B
100
AcDbEntity
  8
LEVEL001
  6
Continuous
 62
     7
100
AcDbLine
 10
459.4999999999999
 20
1280.0
 30
0.0
 11
481.0
 21
1280.0
 31
0.0
  0
LINE
  5
177
330
B
100
AcDbEntity
  8
LEVEL001
  6
Continuous
 62
     7
100
AcDbLine
 10
1093.0
 20
1310.0
 30
0.0
 11
1114.5
 21
1310.0
 31
0.0
  0
LINE
  5
178
330
B
100
AcDbEntity
  8
LEVEL001
  6
Continuous
 62
     7
100
AcDbLine
 10
1099.0
 20
1410.8353055678
 30
0.0
 11
1099.0
 21
1310.0
 31
0.0
  0
LINE
  5
179
330
B
100
AcDbEntity
  8
LEVEL001
  6
Continuous
 62
     7
100
AcDbLine
 10
1102.0
 20
1310.0
 30
0.0
 11
1102.0
 21
1410.8353055678
 31
0.0
  0
LINE
  5
17A
330
B
100
AcDbEntity
  8
LEVEL001
  6
Continuous
 62
     7
100
AcDbLine
 10
1100.0
 20
1310.0
 30
0.0
 11
1100.0
 21
1410.8353055678
 31
0.0
  0
LWPOLYLINE
  5
17B
330
B
100
AcDbEntity
  8
LEVEL001
  6
Continuous
 62
     7
100
AcDbPolyline
 90
        4
 70
     0
 43
0.0
 10
1152.0
 20
1310.0
 10
1152.0
 20
1495.0
 10
422.0
 20
1495.0
 10
422.0
 20
1310.0
  0
LINE
  5
17C
330
B
100
AcDbEntity
  8
LEVEL001
  6
Continuous
 62
     7
100
AcDbLine
 10
1099.0
 20
1280.0
 30
0.0
 11
1099.0
 21
1210.0
 31
0.0
  0
LINE
  5
17D
330
B
100
AcDbEntity
  8
LEVEL001
  6
Continuous
 62
     7
100
AcDbLine
 10
1102.0
 20
1210.0
 30
0.0
 11
1102.0
 21
1280.0
 31
0.0
  0
LINE
  5
17E
330
B
100
AcDbEntity
  8
LEVEL001
  6
Continuous
 62
     7
100
AcDbLine
 10
1100.0
 20
1210.0
 30
0.0
 11
1100.0
 21
1280.0
 31
0.0
  0
LINE
  5
17F
330
B
100
AcDbEntity
  8
LEVEL001
  6
Continuous
 62
     7
100
AcDbLine
 10
1152.0
 20
1210.0
 30
0.0
 11
1152.0
 21
1280.0
 31
0.0
  0
LWPOLYLINE
  5
180
330
B
100
AcDbEntity
  8
LEVEL001
  6
Continuous
 62
     7
100
AcDbPolyline
 90
        3
 70
     0
 43
0.0
 10
1100.0
 20
1145.0
 10
1102.0
 20
1145.0
 10
1102.0
 20
1159.0
  0
LINE
  5
181
330
B
100
AcDbEntity
  8
LEVEL001
  6
Continuous
 62
     7
100
AcDbLine
 10
1100.0
 20
1423.5353055678
 30
0.0
 11
1100.0
 21
1445.0
 31
0.0
  0
LINE
  5
182
330
B
100
AcDbEntity
  8
LEVEL001
  6
Continuous
 62
     7
100
AcDbLine
 10
474.0
 20
1445.0
 30
0.0
 11
474.0
 21
1310.0
 31
0.0
  0
LINE
  5
183
330
B
100
AcDbEntity
  8
LEVEL001
  6
Continuous
 62
     7
100
AcDbLine
 10
1099.0
 20
1445.0
 30
0.0
 11
1099.0
 21
1423.5353055678
 31
0.0
  0
LINE
  5
184
330
B
100
AcDbEntity
  8
LEVEL001
  6
Continuous
 62
     7
100
AcDbLine
 10
475.0
 20
1445.0
 30
0.0
 11
475.0
 21
1310.0
 31
0.0
  0
LWPOLYLINE
  5
185
330
B
100
AcDbEntity
  8
LEVEL001
  6
Continuous
 62
     7
100
AcDbPolyline
 90
        3
 70
     0
 43
0.0
 10
472.0
 20
1310.0
 10
472.0
 20
1445.0
 10
481.0
 20
1445.0
  0
LWPOLYLINE
  5
186
330
B
100
AcDbEntity
  8
LEVEL001
  6
Continuous
 62
     7
100
AcDbPolyline
 90
        3
 70
     0
 43
0.0
 10
1093.0
 20
1445.0
 10
1102.0
 20
1445.0
 10
1102.0
 20
1423.5353055678
  0
LWPOLYLINE
  5
187
330
B
100
AcDbEntity
  8
LEVEL001
  6
Continuous
 62
     7
100
AcDbPolyline
 90
        4
 70
     0
 43
0.0
 10
421.0
 20
1146.5
 10
430.2999999999999
 20
1146.5
 10
430.2999999999999
 20
1241.5
 10
421.0
 20
1241.5
  0
LWPOLYLINE
  5
188
330
B
100
AcDbEntity
  8
LEVEL001
  6
Continuous
 62
     7
100
AcDbPolyline
 90
        8
 70
     1
 43
0.0
 10
476.4999999999999
 20
1161.0
 10
457.5
 20
1161.0
 10
457.5
 20
1171.0
 10
451.4999999999999
 20
1171.0
 10
451.4999999999999
 20
1211.0
 10
457.5
 20
1211.0
 10
457.5
 20
1221.0
 10
476.4999999999999
 20
1221.0
  0
LINE
  5
189
330
B
100
AcDbEntity
  8
LEVEL001
  6
Continuous
 62
     7
100
AcDbLine
 10
422.0
 20
1280.0
 30
0.0
 11
422.0
 21
1241.5
 31
0.0
  0
LWPOLYLINE
  5
18A
330
B
100
AcDbEntity
  8
LEVEL001
  6
Continuous
 62
     7
100
AcDbPolyline
 90
        3
 70
     0
 43
0.0
 10
422.0
 20
1146.5
 10
422.0
 20
1095.0
 10
474.0
 20
1095.0
  0
LINE
  5
18B
330
B
100
AcDbEntity
  8
LEVEL001
  6
Continuous
 62
     7
100
AcDbLine
 10
472.0
 20
1280.0
 30
0.0
 11
472.0
 21
1221.0
 31
0.0
  0
LINE
  5
18C
330
B
100
AcDbEntity
  8
LEVEL001
  6
Continuous
 62
     7
100
AcDbLine
 10
474.0
 20
1280.0
 30
0.0
 11
474.0
 21
1221.0
 31
0.0
  0
LINE
  5
18D
330
B
100
AcDbEntity
  8
LEVEL001
  6
Continuous
 62
     7
100
AcDbLine
 10
475.0
 20
1280.0
 30
0.0
 11
475.0
 21
1221.0
 31
0.0
  0
LINE
  5
18E
330
B
100
AcDbEntity
  8
LEVEL001
  6
Continuous
 62
     7
100
AcDbLine
 10
475.0
 20
1161.0
 30
0.0
 11
475.0
 21
1036.7856313776
 31
0.0
  0
LWPOLYLINE
  5
18F
330
B
100
AcDbEntity
  8
LEVEL001
  6
Continuous
 62
     7
100
AcDbPolyline
 90
        3
 70
     0
 43
0.0
 10
472.0
 20
1161.0
 10
472.0
 20
1145.0
 10
474.0
 20
1145.0
  0
LINE
  5
190
330
B
100
AcDbEntity
  8
LEVEL001
  6
Continuous
 62
     7
100
AcDbLine
 10
430.2999999999999
 20
1212.5
 30
0.0
 11
457.5
 21
1212.5
 31
0.0
  0
LWPOLYLINE
  5
191
330
B
100
AcDbEntity
  8
LEVEL001
  6
Continuous
 62
     7
100
AcDbPolyline
 90
        4
 70
     0
 43
0.0
 10
316.5
 20
1120.0
 10
316.5
 20
1118.5
 10
411.5
 20
1118.5
 10
411.5
 20
1120.0
  0
LWPOLYLINE
  5
192
330
B
100
AcDbEntity
  8
LEVEL001
  6
Continuous
 62
     7
100
AcDbPolyline
 90
        8
 70
     1
 43
0.0
 10
332.5
 20
1118.5
 10
332.5
 20
1114.5
 10
335.5
 20
1114.5
 10
335.5
 20
1111.5
 10
392.5
 20
1111.5
 10
392.5
 20
1114.5
 10
395.5
 20
1114.5
 10
395.5
 20
1118.5
  0
LINE
  5
193
330
B
100
AcDbEntity
  8
LEVEL001
  6
Continuous
 62
     7
100
AcDbLine
 10
351.0
 20
1110.5
 30
0.0
 11
352.5
 21
1109.0
 31
0.0
  0
LINE
  5
194
330
B
100
AcDbEntity
  8
LEVEL001
  6
Continuous
 62
     7
100
AcDbLine
 10
375.5
 20
1109.0
 30
0.0
 11
377.0
 21
1110.5
 31
0.0
  0
LWPOLYLINE
  5
195
330
B
100
AcDbEntity
  8
LEVEL001
  6
Continuous
 62
     7
100
AcDbPolyline
 90
        4
 70
     0
 43
0.0
 10
352.5
 20
1099.0
 10
356.0
 20
1098.5
 10
372.0
 20
1098.5
 10
375.5
 20
1099.0
  0
LWPOLYLINE
  5
196
330
B
100
AcDbEntity
  8
LEVEL001
  6
Continuous
 62
     7
100
AcDbPolyline
 90
        4
 70
     0
 43
0.0
 10
361.5
 20
1111.5
 10
361.5
 20
1100.5
 10
366.5
 20
1100.5
 10
366.5
 20
1111.5
  0
LWPOLYLINE
  5
197
330
B
100
AcDbEntity
  8
LEVEL001
  6
Continuous
 62
     7
100
AcDbPolyline
 90
        4
 70
     0
 43
0.0
 10
362.0
 20
1111.5
 10
362.0
 20
1101.5
 10
366.0
 20
1101.5
 10
366.0
 20
1111.5
  0
LINE
  5
198
330
B
100
AcDbEntity
  8
LEVEL001
  6
Continuous
 62
     7
100
AcDbLine
 10
363.5
 20
1111.5
 30
0.0
 11
363.5
 21
1100.5
 31
0.0
  0
LINE
  5
199
330
B
100
AcDbEntity
  8
LEVEL001
  6
Continuous
 62
     7
100
AcDbLine
 10
364.5
 20
1100.5
 30
0.0
 11
364.5
 21
1111.5
 31
0.0
  0
LINE
  5
19A
330
B
100
AcDbEntity
  8
LEVEL001
  6
Continuous
 62
     7
100
AcDbLine
 10
362.0
 20
1101.5
 30
0.0
 11
361.5
 21
1100.5
 31
0.0
  0
LINE
  5
19B
330
B
100
AcDbEntity
  8
LEVEL001
  6
Continuous
 62
     7
100
AcDbLine
 10
366.0
 20
1101.5
 30
0.0
 11
366.5
 21
1100.5
 31
0.0
  0
LWPOLYLINE
  5
19C
330
B
100
AcDbEntity
  8
LEVEL001
  6
Continuous
 62
     7
100
AcDbPolyline
 90
        3
 70
     0
 43
0.0
 10
351.0
 20
1111.5
 10
351.0
 20
1110.5
 10
361.5
 20
1110.5
  0
LWPOLYLINE
  5
19D
330
B
100
AcDbEntity
  8
LEVEL001
  6
Continuous
 62
     7
100
AcDbPolyline
 90
        3
 70
     0
 43
0.0
 10
366.5
 20
1110.5
 10
377.0
 20
1110.5
 10
377.0
 20
1111.5
  0
LWPOLYLINE
  5
19E
330
B
100
AcDbEntity
  8
LEVEL001
  6
Continuous
 62
     7
100
AcDbPolyline
 90
        6
 70
     0
 43
0.0
 10
361.5
 20
1109.0
 10
352.5
 20
1109.0
 10
352.5
 20
1099.0
 10
375.5
 20
1099.0
 10
375.5
 20
1109.0
 10
366.5
 20
1109.0
  0
LWPOLYLINE
  5
19F
330
B
100
AcDbEntity
  8
LEVEL001
  6
Continuous
 62
     7
100
AcDbPolyline
 90
        3
 70
     0
 43
0.0
 10
327.75
 20
1118.5
 10
327.75
 20
1108.5
 10
352.5
 20
1108.5
  0
LWPOLYLINE
  5
1A0
330
B
100
AcDbEntity
  8
LEVEL001
  6
Continuous
 62
     7
100
AcDbPolyline
 90
        3
 70
     0
 43
0.0
 10
331.5
 20
1108.5
 10
331.5
 20
1102.5
 10
352.5
 20
1102.5
  0
LINE
  5
1A1
330
B
100
AcDbEntity
  8
LEVEL001
  6
Continuous
 62
     7
100
AcDbLine
 10
335.5
 20
1114.5
 30
0.0
 11
392.5
 21
1114.5
 31
0.0
  0
LWPOLYLINE
  5
1A2
330
B
100
AcDbEntity
  8
LEVEL001
  6
Continuous
 62
     7
100
AcDbPolyline
 90
        3
 70
     0
 43
0.0
 10
400.25
 20
1118.5
 10
400.25
 20
1108.5
 10
375.5
 20
1108.5
  0
LWPOLYLINE
  5
1A3
330
B
100
AcDbEntity
  8
LEVEL001
  6
Continuous
 62
     7
100
AcDbPolyline
 90
        3
 70
     0
 43
0.0
 10
396.5
 20
1108.5
 10
396.5
 20
1102.5
 10
375.5
 20
1102.5
  0
LINE
  5
1A4
330
B
100
AcDbEntity
  8
LEVEL001
  6
DASHDOT
 62
     1
100
AcDbLine
 10
1233.0
 20
1295.0
 30
0.0
 11
263.0
 21
1295.0
 31
0.0
  0
LINE
  5
1A5
330
B
100
AcDbEntity
  8
LEVEL001
  6
Continuous
 62
     7
100
AcDbLine
 10
1097.5
 20
1201.35
 30
0.0
 11
1095.5
 21
1201.35
 31
0.0
  0
LINE
  5
1A6
330
B
100
AcDbEntity
  8
LEVEL001
  6
Continuous
 62
     7
100
AcDbLine
 10
1095.5
 20
1188.65
 30
0.0
 11
1097.5
 21
1188.65
 31
0.0
  0
LWPOLYLINE
  5
1A7
330
B
100
AcDbEntity
  8
LEVEL001
  6
Continuous
 62
     7
100
AcDbPolyline
 90
        4
 70
     0
 43
0.0
 10
1093.0
 20
1180.0
 10
1095.5
 20
1180.0
 10
1095.5
 20
1210.0
 10
1093.0
 20
1210.0
  0
CIRCLE
  5
1A8
330
B
100
AcDbEntity
  8
LEVEL001
  6
Continuous
 62
     7
100
AcDbCircle
 10
1184.85
 20
1195.0
 30
0.0
 40
15.0
  0
LINE
  5
1A9
330
B
100
AcDbEntity
  8
LEVEL001
  6
Continuous
 62
     7
100
AcDbLine
 10
1171.8596189432
 20
1202.5
 30
0.0
 11
1164.0
 21
1202.5
 31
0.0
  0
LINE
  5
1AA
330
B
100
AcDbEntity
  8
LEVEL001
  6
Continuous
 62
     7
100
AcDbLine
 10
1164.0
 20
1187.5
 30
0.0
 11
1171.8596189432
 21
1187.5
 31
0.0
  0
LWPOLYLINE
  5
1AB
330
B
100
AcDbEntity
  8
LEVEL001
  6
Continuous
 62
     7
100
AcDbPolyline
 90
        8
 70
     0
 43
0.0
 10
1195.0
 20
1206.0443424431
 10
1195.0
 20
1247.0
 10
1155.0
 20
1247.0
 10
1155.0
 20
1267.0
 10
1152.0
 20
1267.0
 10
1152.0
 20
1244.0
 10
1164.0
 20
1244.0
 10
1164.0
 20
1201.35
  0
LWPOLYLINE
  5
1AC
330
B
100
AcDbEntity
  8
LEVEL001
  6
Continuous
 62
     7
100
AcDbPolyline
 90
        8
 70
     0
 43
0.0
 10
1164.0
 20
1188.65
 10
1164.0
 20
1146.0
 10
1152.0
 20
1146.0
 10
1152.0
 20
1123.0
 10
1155.0
 20
1123.0
 10
1155.0
 20
1143.0
 10
1195.0
 20
1143.0
 10
1195.0
 20
1183.9556575569
  0
LINE
  5
1AD
330
B
100
AcDbEntity
  8
LEVEL001
  6
Continuous
 62
     7
100
AcDbLine
 10
1171.2603899982
 20
1201.35
 30
0.0
 11
1153.5
 21
1201.35
 31
0.0
  0
LINE
  5
1AE
330
B
100
AcDbEntity
  8
LEVEL001
  6
Continuous
 62
     7
100
AcDbLine
 10
1153.5
 20
1188.65
 30
0.0
 11
1171.2603899982
 21
1188.65
 31
0.0
  0
LWPOLYLINE
  5
1AF
330
B
100
AcDbEntity
  8
LEVEL001
  6
Continuous
 62
     7
100
AcDbPolyline
 90
        4
 70
     1
 43
0.0
 10
1097.5
 20
1180.0
 10
1153.5
 20
1180.0
 10
1153.5
 20
1210.0
 10
1097.5
 20
1210.0
  0
LWPOLYLINE
  5
1B0
330
B
100
AcDbEntity
  8
LEVEL001
  6
Continuous
 62
     7
100
AcDbPolyline
 90
        4
 70
     0
 43
0.0
 10
1100.5
 20
1180.0
 10
1100.5
 20
1159.0
 10
1150.5
 20
1159.0
 10
1150.5
 20
1180.0
  0
LINE
  5
1B1
330
B
100
AcDbEntity
  8
LEVEL001
  6
Continuous
 62
     7
100
AcDbLine
 10
1099.0
 20
1180.0
 30
0.0
 11
1099.0
 21
1036.7856313776
 31
0.0
  0
LWPOLYLINE
  5
1B2
330
B
100
AcDbEntity
  8
LEVEL001
  6
Continuous
 62
     7
100
AcDbPolyline
 90
        3
 70
     0
 43
0.0
 10
1100.0
 20
1095.0
 10
1152.0
 20
1095.0
 10
1152.0
 20
1180.0
  0
LWPOLYLINE
  5
1B3
330
B
100
AcDbEntity
  8
LEVEL001
  6
Continuous
 62
     7
100
AcDbPolyline
 90
        4
 70
     0
 43
0.0
 10
474.0
 20
1161.0
 10
474.0
 20
1036.7856313776
 10
1100.0
 20
1036.7856313776
 10
1100.0
 20
1180.0
  0
LWPOLYLINE
  5
1B4
330
B
100
AcDbEntity
  8
LEVEL001
  6
Continuous
 62
     7
100
AcDbPolyline
 90
        4
 70
     0
 43
0.0
 10
1056.0
 20
174.0
 10
1056.0
 20
165.0
 10
1146.0
 20
165.0
 10
1146.0
 20
174.0
  0
LWPOLYLINE
  5
1B5
330
B
100
AcDbEntity
  8
LEVEL001
  6
Continuous
 62
     7
100
AcDbPolyline
 90
        4
 70
     0
 43
0.0
 10
428.0
 20
174.0
 10
428.0
 20
165.0
 10
518.0
 20
165.0
 10
518.0
 20
174.0
  0
POINT
  5
1B6
330
B
100
AcDbEntity
  8
LEVEL001
 62
     7
100
AcDbPoint
 10
1076.5
 20
812.9832742850199
 30
0.0
  0
LINE
  5
1B7
330
B
100
AcDbEntity
  8
LEVEL001
  6
Continuous
 62
     7
100
AcDbLine
 10
485.5
 20
840.1838410231999
 30
0.0
 11
1088.5
 21
840.1838410231999
 31
0.0
  0
LWPOLYLINE
  5
1B8
330
B
100
AcDbEntity
  8
LEVEL001
  6
Continuous
 62
     7
100
AcDbPolyline
 90
        4
 70
     0
 43
0.0
 10
1088.5
 20
840.0615459808101
 10
1088.5
 20
474.0
 10
485.5
 20
474.0
 10
485.5
 20
840.0615459808101
  0
LWPOLYLINE
  5
1B9
330
B
100
AcDbEntity
  8
LEVEL001
  6
Continuous
 62
     7
100
AcDbPolyline
 90
        4
 70
     1
 43
0.0
 10
307.0
 20
174.0
 10
421.0
 20
174.0
 10
421.0
 20
830.0
 10
307.0
 20
830.0
  0
POINT
  5
1BA
330
B
100
AcDbEntity
  8
LEVEL001
 62
     7
100
AcDbPoint
 10
322.0
 20
815.0
 30
0.0
  0
POINT
  5
1BB
330
B
100
AcDbEntity
  8
LEVEL001
 62
     7
100
AcDbPoint
 10
322.0
 20
620.0
 30
0.0
  0
POINT
  5
1BC
330
B
100
AcDbEntity
  8
LEVEL001
 62
     7
100
AcDbPoint
 10
364.0
 20
429.0
 30
0.0
  0
POINT
  5
1BD
330
B
100
AcDbEntity
  8
LEVEL001
 62
     7
100
AcDbPoint
 10
374.5
 20
830.0
 30
0.0
  0
POINT
  5
1BE
330
B
100
AcDbEntity
  8
LEVEL001
 62
     7
100
AcDbPoint
 10
406.0
 20
815.0
 30
0.0
  0
POINT
  5
1BF
330
B
100
AcDbEntity
  8
LEVEL001
 62
     7
100
AcDbPoint
 10
406.0
 20
620.0
 30
0.0
  0
LWPOLYLINE
  5
1C0
330
B
100
AcDbEntity
  8
LEVEL001
  6
Continuous
 62
     7
100
AcDbPolyline
 90
        4
 70
     1
 43
0.0
 10
1100.5
 20
574.0
 10
1150.5
 20
574.0
 10
1150.5
 20
580.0
 10
1100.5
 20
580.0
  0
LINE
  5
1C1
330
B
100
AcDbEntity
  8
LEVEL001
  6
Continuous
 62
     7
100
AcDbLine
 10
1155.0
 20
591.0
 30
0.0
 11
1155.0
 21
516.0
 31
0.0
  0
LWPOLYLINE
  5
1C2
330
B
100
AcDbEntity
  8
LEVEL001
  6
Continuous
 62
     7
100
AcDbPolyline
 90
        8
 70
     1
 43
0.0
 10
1195.0
 20
513.0
 10
1195.0
 20
594.0
 10
1164.0
 20
594.0
 10
1164.0
 20
591.0
 10
1152.0
 20
591.0
 10
1152.0
 20
516.0
 10
1164.0
 20
516.0
 10
1164.0
 20
513.0
  0
LWPOLYLINE
  5
1C3
330
B
100
AcDbEntity
  8
LEVEL001
  6
Continuous
 62
     7
100
AcDbPolyline
 90
        3
 70
     0
 43
0.0
 10
474.0
 20
387.08346904516
 10
475.0
 20
387.08346904516
 10
475.0
 20
367.43678312012
  0
LINE
  5
1C4
330
B
100
AcDbEntity
  8
LEVEL001
  6
Continuous
 62
     7
100
AcDbLine
 10
475.0
 20
387.08346904516
 30
0.0
 11
475.0
 21
489.0817343183099
 31
0.0
  0
LWPOLYLINE
  5
1C5
330
B
100
AcDbEntity
  8
LEVEL001
  6
Continuous
 62
     7
100
AcDbPolyline
 90
        3
 70
     0
 43
0.0
 10
1099.0
 20
367.43678312012
 10
1099.0
 20
387.08346904516
 10
1100.0
 20
387.08346904516
  0
LINE
  5
1C6
330
B
100
AcDbEntity
  8
LEVEL001
  6
Continuous
 62
     7
100
AcDbLine
 10
1099.0
 20
387.08346904516
 30
0.0
 11
1099.0
 21
489.0817343183099
 31
0.0
  0
LINE
  5
1C7
330
B
100
AcDbEntity
  8
LEVEL001
  6
Continuous
 62
     7
100
AcDbLine
 10
474.0
 20
367.43678312012
 30
0.0
 11
1100.0
 21
367.43678312012
 31
0.0
  0
POINT
  5
1C8
330
B
100
AcDbEntity
  8
LEVEL001
 62
     7
100
AcDbPoint
 10
476.4999999999999
 20
820.0598903673601
 30
0.0
  0
POINT
  5
1C9
330
B
100
AcDbEntity
  8
LEVEL001
 62
     7
100
AcDbPoint
 10
737.0
 20
884.0598903673599
 30
0.0
  0
POINT
  5
1CA
330
B
100
AcDbEntity
  8
LEVEL001
 62
     7
100
AcDbPoint
 10
837.0
 20
884.0598903673599
 30
0.0
  0
ARC
  5
1CB
330
B
100
AcDbEntity
  8
LEVEL001
  6
Continuous
 62
     7
100
AcDbCircle
 10
750.4999999999999
 20
896.05989036737
 30
0.0
 40
9.0
100
AcDbArc
 50
90.0
 51
180.00000000003
  0
ARC
  5
1CC
330
B
100
AcDbEntity
  8
LEVEL001
  6
Continuous
 62
     7
100
AcDbCircle
 10
750.4999999999999
 20
896.05989036737
 30
0.0
 40
18.0
100
AcDbArc
 50
90.0
 51
180.00000000001
  0
ARC
  5
1CD
330
B
100
AcDbEntity
  8
LEVEL001
  6
Continuous
 62
     7
100
AcDbCircle
 10
823.4999999999999
 20
896.05989036737
 30
0.0
 40
9.0
100
AcDbArc
 50
0.0
 51
90.0
  0
ARC
  5
1CE
330
B
100
AcDbEntity
  8
LEVEL001
  6
Continuous
 62
     7
100
AcDbCircle
 10
823.4999999999999
 20
896.05989036737
 30
0.0
 40
18.0
100
AcDbArc
 50
0.0
 51
90.0
  0
LINE
  5
1CF
330
B
100
AcDbEntity
  8
LEVEL001
  6
Continuous
 62
     7
100
AcDbLine
 10
732.5
 20
896.05989036736
 30
0.0
 11
732.5
 21
884.0598903673599
 31
0.0
  0
LINE
  5
1D0
330
B
100
AcDbEntity
  8
LEVEL001
  6
Continuous
 62
     7
100
AcDbLine
 10
741.5
 20
896.05989036736
 30
0.0
 11
741.5
 21
884.0598903673599
 31
0.0
  0
LINE
  5
1D1
330
B
100
AcDbEntity
  8
LEVEL001
  6
Continuous
 62
     7
100
AcDbLine
 10
841.5
 20
896.05989036736
 30
0.0
 11
841.5
 21
884.0598903673599
 31
0.0
  0
LINE
  5
1D2
330
B
100
AcDbEntity
  8
LEVEL001
  6
Continuous
 62
     7
100
AcDbLine
 10
832.4999999999999
 20
896.05989036736
 30
0.0
 11
832.4999999999999
 21
884.0598903673599
 31
0.0
  0
LINE
  5
1D3
330
B
100
AcDbEntity
  8
LEVEL001
  6
Continuous
 62
     7
100
AcDbLine
 10
750.4999999999999
 20
905.05989036736
 30
0.0
 11
823.4999999999999
 21
905.05989036736
 31
0.0
  0
LINE
  5
1D4
330
B
100
AcDbEntity
  8
LEVEL001
  6
Continuous
 62
     7
100
AcDbLine
 10
750.4999999999999
 20
914.05989036736
 30
0.0
 11
823.4999999999999
 21
914.05989036736
 31
0.0
  0
LWPOLYLINE
  5
1D5
330
B
100
AcDbEntity
  8
LEVEL001
  6
Continuous
 62
     7
100
AcDbPolyline
 90
        4
 70
     1
 43
0.0
 10
481.0
 20
862.0598903673601
 10
1093.0
 20
862.0598903673601
 10
1093.0
 20
884.0598903673599
 10
481.0
 20
884.0598903673599
  0
LWPOLYLINE
  5
1D6
330
B
100
AcDbEntity
  8
LEVEL001
  6
Continuous
 62
     7
100
AcDbPolyline
 90
        4
 70
     0
 43
0.0
 10
434.4999999999999
 20
589.0
 10
434.4999999999999
 20
657.0
 10
459.4999999999999
 20
657.0
 10
459.4999999999999
 20
589.0
  0
ARC
  5
1D7
330
B
100
AcDbEntity
  8
LEVEL001
  6
Continuous
 62
     7
100
AcDbCircle
 10
1118.5
 20
842.58246260842
 30
0.0
 40
12.7
100
AcDbArc
 50
270.0
 51
0.0
  0
LINE
  5
1D8
330
B
100
AcDbEntity
  8
LEVEL001
  6
Continuous
 62
     7
100
AcDbLine
 10
1131.2
 20
842.5824626084299
 30
0.0
 11
1131.2
 21
914.9160877157399
 31
0.0
  0
LWPOLYLINE
  5
1D9
330
B
100
AcDbEntity
  8
LEVEL001
  6
Continuous
 62
     7
100
AcDbPolyline
 90
        3
 70
     0
 43
0.0
 10
1118.5
 20
914.9160877157399
 10
1118.5
 20
842.5824626084299
 10
1088.5
 20
842.5824626084299
  0
LINE
  5
1DA
330
B
100
AcDbEntity
  8
LEVEL001
  6
Continuous
 62
     7
100
AcDbLine
 10
1088.5
 20
829.88246260843
 30
0.0
 11
1118.5
 21
829.88246260843
 31
0.0
  0
LWPOLYLINE
  5
1DB
330
B
100
AcDbEntity
  8
LEVEL001
  6
Continuous
 62
     7
100
AcDbPolyline
 90
        3
 70
     0
 43
0.0
 10
1088.5
 20
787.8817602093199
 10
1091.5
 20
787.8817602093199
 10
1091.5
 20
829.88246260843
  0
LWPOLYLINE
  5
1DC
330
B
100
AcDbEntity
  8
LEVEL001
  6
Continuous
 62
     7
100
AcDbPolyline
 90
        3
 70
     0
 43
0.0
 10
1091.5
 20
842.5824626084299
 10
1091.5
 20
847.83188588927
 10
1088.5
 20
847.83188588927
  0
CIRCLE
  5
1DD
330
B
100
AcDbEntity
  8
LEVEL001
  6
Continuous
 62
     7
100
AcDbCircle
 10
1124.85
 20
928.5056977174999
 30
0.0
 40
15.0
  0
LWPOLYLINE
  5
1DE
330
B
100
AcDbEntity
  8
LEVEL001
  6
Continuous
 62
     7
100
AcDbPolyline
 90
        4
 70
     0
 43
0.0
 10
1060.0
 20
165.0
 10
1060.0
 20
163.0
 10
1142.0
 20
163.0
 10
1142.0
 20
165.0
  0
LWPOLYLINE
  5
1DF
330
B
100
AcDbEntity
  8
LEVEL001
  6
Continuous
 62
     7
100
AcDbPolyline
 90
        4
 70
     1
 43
0.0
 10
1085.0
 20
64.0
 10
1117.0
 20
64.0
 10
1117.0
 20
139.0
 10
1085.0
 20
139.0
  0
LWPOLYLINE
  5
1E0
330
B
100
AcDbEntity
  8
LEVEL001
  6
Continuous
 62
     7
100
AcDbPolyline
 90
        8
 70
     0
 43
0.0
 10
1078.0
 20
163.0
 10
1078.0
 20
84.0
 10
1083.0
 20
84.0
 10
1083.0
 20
144.0
 10
1119.0
 20
144.0
 10
1119.0
 20
84.0
 10
1124.0
 20
84.0
 10
1124.0
 20
163.0
  0
LWPOLYLINE
  5
1E1
330
B
100
AcDbEntity
  8
LEVEL001
  6
Continuous
 62
     7
100
AcDbPolyline
 90
        4
 70
     0
 43
0.0
 10
432.0
 20
165.0
 10
432.0
 20
163.0
 10
514.0
 20
163.0
 10
514.0
 20
165.0
  0
LWPOLYLINE
  5
1E2
330
B
100
AcDbEntity
  8
LEVEL001
  6
Continuous
 62
     7
100
AcDbPolyline
 90
        4
 70
     1
 43
0.0
 10
457.0
 20
64.0
 10
489.0
 20
64.0
 10
489.0
 20
139.0
 10
457.0
 20
139.0
  0
LWPOLYLINE
  5
1E3
330
B
100
AcDbEntity
  8
LEVEL001
  6
Continuous
 62
     7
100
AcDbPolyline
 90
        8
 70
     0
 43
0.0
 10
450.0
 20
163.0
 10
450.0
 20
84.0
 10
455.0
 20
84.0
 10
455.0
 20
144.0
 10
491.0
 20
144.0
 10
491.0
 20
84.0
 10
496.0
 20
84.0
 10
496.0
 20
163.0
  0
LWPOLYLINE
  5
1E4
330
B
100
AcDbEntity
  8
LEVEL001
  6
Continuous
 62
     7
100
AcDbPolyline
 90
        6
 70
     0
 43
0.0
 10
474.0
 20
379.0
 10
423.0
 20
379.0
 10
423.0
 20
174.0
 10
1151.0
 20
174.0
 10
1151.0
 20
379.0
 10
1100.0
 20
379.0
  0
LWPOLYLINE
  5
1E5
330
B
100
AcDbEntity
  8
LEVEL001
  6
Continuous
 62
     7
100
AcDbPolyline
 90
       10
 70
     0
 43
0.0
 10
1088.5
 20
489.0817343183099
 10
1099.0
 20
489.0817343183099
 10
1099.0
 20
507.43432501784
 10
1100.0
 20
507.43432501784
 10
1100.0
 20
366.47085729382
 10
474.0
 20
366.47085729382
 10
474.0
 20
507.43432501784
 10
475.0
 20
507.43432501784
 10
475.0
 20
489.0817343183099
 10
485.5
 20
489.0817343183099
  0
LINE
  5
1E6
330
B
100
AcDbEntity
  8
LEVEL001
  6
Continuous
 62
     7
100
AcDbLine
 10
1102.0
 20
524.0
 30
0.0
 11
1102.0
 21
574.0
 31
0.0
  0
LINE
  5
1E7
330
B
100
AcDbEntity
  8
LEVEL001
  6
Continuous
 62
     7
100
AcDbLine
 10
472.0
 20
524.0
 30
0.0
 11
472.0
 21
574.0
 31
0.0
  0
LINE
  5
1E8
330
B
100
AcDbEntity
  8
LEVEL001
  6
Continuous
 62
     7
100
AcDbLine
 10
434.4999999999999
 20
632.0
 30
0.0
 11
421.0
 21
632.0
 31
0.0
  0
LINE
  5
1E9
330
B
100
AcDbEntity
  8
LEVEL001
  6
Continuous
 62
     7
100
AcDbLine
 10
421.0
 20
602.0
 30
0.0
 11
434.4999999999999
 21
602.0
 31
0.0
  0
LINE
  5
1EA
330
B
100
AcDbEntity
  8
LEVEL001
  6
Continuous
 62
     7
100
AcDbLine
 10
485.5
 20
632.0
 30
0.0
 11
459.4999999999999
 21
632.0
 31
0.0
  0
LINE
  5
1EB
330
B
100
AcDbEntity
  8
LEVEL001
  6
Continuous
 62
     7
100
AcDbLine
 10
459.4999999999999
 20
602.0
 30
0.0
 11
485.5
 21
602.0
 31
0.0
  0
LINE
  5
1EC
330
B
100
AcDbEntity
  8
LEVEL001
  6
Continuous
 62
     7
100
AcDbLine
 10
1088.5
 20
632.0
 30
0.0
 11
1114.5
 21
632.0
 31
0.0
  0
LWPOLYLINE
  5
1ED
330
B
100
AcDbEntity
  8
LEVEL001
  6
Continuous
 62
     7
100
AcDbPolyline
 90
        3
 70
     0
 43
0.0
 10
1139.5
 20
632.0
 10
1152.5
 20
632.0
 10
1152.5
 20
610.0
  0
LWPOLYLINE
  5
1EE
330
B
100
AcDbEntity
  8
LEVEL001
  6
Continuous
 62
     7
100
AcDbPolyline
 90
        4
 70
     0
 43
0.0
 10
1114.5
 20
610.0
 10
1114.5
 20
657.0
 10
1139.5
 20
657.0
 10
1139.5
 20
610.0
  0
LINE
  5
1EF
330
B
100
AcDbEntity
  8
LEVEL001
  6
Continuous
 62
     7
100
AcDbLine
 10
1095.5
 20
601.35
 30
0.0
 11
1097.5
 21
601.35
 31
0.0
  0
LINE
  5
1F0
330
B
100
AcDbEntity
  8
LEVEL001
  6
Continuous
 62
     7
100
AcDbLine
 10
1097.5
 20
588.6499999999999
 30
0.0
 11
1095.5
 21
588.6499999999999
 31
0.0
  0
LWPOLYLINE
  5
1F1
330
B
100
AcDbEntity
  8
LEVEL001
  6
Continuous
 62
     7
100
AcDbPolyline
 90
        5
 70
     0
 43
0.0
 10
1153.5
 20
591.0
 10
1153.5
 20
610.0
 10
1097.5
 20
610.0
 10
1097.5
 20
580.0
 10
1152.0
 20
580.0
  0
LWPOLYLINE
  5
1F2
330
B
100
AcDbEntity
  8
LEVEL001
  6
Continuous
 62
     7
100
AcDbPolyline
 90
        4
 70
     0
 43
0.0
 10
1088.5
 20
580.0
 10
1095.5
 20
580.0
 10
1095.5
 20
610.0
 10
1088.5
 20
610.0
  0
LWPOLYLINE
  5
1F3
330
B
100
AcDbEntity
  8
LEVEL001
  6
Continuous
 62
     7
100
AcDbPolyline
 90
        4
 70
     0
 43
0.0
 10
1088.5
 20
862.0598903673601
 10
1088.5
 20
840.0615459808101
 10
485.5
 20
840.0615459808101
 10
485.5
 20
862.0598903673601
  0
LWPOLYLINE
  5
1F4
330
B
100
AcDbEntity
  8
LEVEL001
  6
Continuous
 62
     7
100
AcDbPolyline
 90
        6
 70
     0
 43
0.0
 10
481.0
 20
867.0598903673599
 10
479.4999999999999
 20
867.0598903673599
 10
479.4999999999999
 20
800.05989036736
 10
476.4999999999999
 20
800.05989036736
 10
476.4999999999999
 20
870.0598903673601
 10
481.0
 20
870.0598903673601
  0
LWPOLYLINE
  5
1F5
330
B
100
AcDbEntity
  8
LEVEL001
  6
Continuous
 62
     7
100
AcDbPolyline
 90
        4
 70
     0
 43
0.0
 10
499.5
 20
884.0598903673599
 10
499.5
 20
884.34849318289
 10
553.5
 20
884.34849318289
 10
553.5
 20
884.0598903673599
  0
LWPOLYLINE
  5
1F6
330
B
100
AcDbEntity
  8
LEVEL001
  6
Continuous
 62
     7
100
AcDbPolyline
 90
        4
 70
     0
 43
0.0
 10
1020.5
 20
884.0598903673599
 10
1020.5
 20
884.34849318289
 10
1074.5
 20
884.34849318289
 10
1074.5
 20
884.0598903673599
  0
LWPOLYLINE
  5
1F7
330
B
100
AcDbEntity
  8
LEVEL001
  6
Continuous
 62
     7
100
AcDbPolyline
 90
        4
 70
     0
 43
0.0
 10
472.0
 20
574.0
 10
472.0
 20
589.0
 10
422.0
 20
589.0
 10
422.0
 20
574.0
  0
LWPOLYLINE
  5
1F8
330
B
100
AcDbEntity
  8
LEVEL001
  6
HIDDEN
 62
     1
100
AcDbPolyline
 90
        6
 70
     0
 43
0.0
 10
485.5
 20
865.0
 10
513.4999999999999
 20
865.0
 10
513.4999999999999
 20
475.0
 10
1060.5
 20
475.0
 10
1060.5
 20
865.0
 10
1088.5
 20
865.0
  0
ELLIPSE
  5
1F9
330
B
100
AcDbEntity
  8
LEVEL001
  6
HIDDEN
 62
     1
100
AcDbEllipse
 10
575.4999999999999
 20
519.06571080565
 30
0.0
 11
-6.349999999999998
 21
0.0
 31
0.0
210
0.0
220
0.0
230
0.9999999999999998
 40
0.70710678118295
 41
0.0
 42
3.1415926535898
  0
LINE
  5
1FA
330
B
100
AcDbEntity
  8
LEVEL001
  6
HIDDEN
 62
     1
100
AcDbLine
 10
569.1499999999999
 20
599.5
 30
0.0
 11
569.1499999999999
 21
519.06571080565
 31
0.0
  0
LINE
  5
1FB
330
B
100
AcDbEntity
  8
LEVEL001
  6
HIDDEN
 62
     1
100
AcDbLine
 10
581.85
 20
519.06571080565
 30
0.0
 11
581.85
 21
599.5
 31
0.0
  0
LINE
  5
1FC
330
B
100
AcDbEntity
  8
LEVEL001
  6
HIDDEN
 62
     1
100
AcDbLine
 10
521.4999999999999
 20
624.14142842854
 30
0.0
 11
521.4999999999999
 21
609.8585715714599
 31
0.0
  0
LINE
  5
1FD
330
B
100
AcDbEntity
  8
LEVEL001
  6
HIDDEN
 62
     1
100
AcDbLine
 10
525.8153415618299
 20
607.3671079591699
 30
0.0
 11
538.1846584383599
 21
614.50853638752
 31
0.0
  0
ARC
  5
1FE
330
B
100
AcDbEntity
  8
LEVEL001
  6
HIDDEN
 62
     1
100
AcDbCircle
 10
528.5
 20
617.0
 30
0.0
 40
10.0
100
AcDbArc
 50
225.57299599921
 51
254.42700400234
  0
ARC
  5
1FF
330
B
100
AcDbEntity
  8
LEVEL001
  6
HIDDEN
 62
     1
100
AcDbCircle
 10
528.5
 20
617.0
 30
0.0
 40
10.0
100
AcDbArc
 50
345.57299599768
 51
134.42700400081
  0
ELLIPSE
  5
200
330
B
100
AcDbEntity
  8
LEVEL001
  6
HIDDEN
 62
     1
100
AcDbEllipse
 10
669.5
 20
519.06571080565
 30
0.0
 11
-6.349999999999998
 21
0.0
 31
0.0
210
0.0
220
0.0
230
0.9999999999999998
 40
0.70710678118295
 41
0.0
 42
6.283185307179586
  0
ELLIPSE
  5
201
330
B
100
AcDbEntity
  8
LEVEL001
  6
HIDDEN
 62
     1
100
AcDbEllipse
 10
763.4999999999999
 20
714.9342891943499
 30
0.0
 11
-6.349999999999998
 21
0.0
 31
0.0
210
0.0
220
0.0
230
0.9999999999999998
 40
0.70710678118295
 41
0.0
 42
6.283185307179586
  0
LWPOLYLINE
  5
202
330
B
100
AcDbEntity
  8
LEVEL001
  6
HIDDEN
 62
     1
100
AcDbPolyline
 90
        4
 70
     0
 43
0.0
 10
616.15
 20
634.4999999999999
 10
616.15
 20
755.4999999999999
 10
628.8499999999999
 20
755.4999999999999
 10
628.8499999999999
 20
634.4999999999999
  0
LWPOLYLINE
  5
203
330
B
100
AcDbEntity
  8
LEVEL001
  6
HIDDEN
 62
     1
100
AcDbPolyline
 90
        4
 70
     0
 43
0.0
 10
804.1499999999999
 20
599.5
 10
804.1499999999999
 20
478.5
 10
816.8499999999999
 20
478.5
 10
816.8499999999999
 20
599.5
  0
ELLIPSE
  5
204
330
B
100
AcDbEntity
  8
LEVEL001
  6
HIDDEN
 62
     1
100
AcDbEllipse
 10
857.5000000000001
 20
714.9342891943499
 30
0.0
 11
-6.349999999999998
 21
0.0
 31
0.0
210
0.0
220
0.0
230
0.9999999999999998
 40
0.70710678118295
 41
3.1415926535898
 42
6.283185307179586
  0
LINE
  5
205
330
B
100
AcDbEntity
  8
LEVEL001
  6
HIDDEN
 62
     1
100
AcDbLine
 10
851.1499999999999
 20
634.4999999999999
 30
0.0
 11
851.1499999999999
 21
714.9342891943499
 31
0.0
  0
LINE
  5
206
330
B
100
AcDbEntity
  8
LEVEL001
  6
HIDDEN
 62
     1
100
AcDbLine
 10
863.85
 20
714.9342891943499
 30
0.0
 11
863.85
 21
634.4999999999999
 31
0.0
  0
CIRCLE
  5
207
330
B
100
AcDbEntity
  8
LEVEL001
  6
HIDDEN
 62
     1
100
AcDbCircle
 10
904.4999999999999
 20
617.0
 30
0.0
 40
6.349999999999999
  0
ELLIPSE
  5
208
330
B
100
AcDbEntity
  8
LEVEL001
  6
HIDDEN
 62
     1
100
AcDbEllipse
 10
951.5
 20
519.06571080565
 30
0.0
 11
-6.349999999999998
 21
0.0
 31
0.0
210
0.0
220
0.0
230
0.9999999999999998
 40
0.70710678118295
 41
0.0
 42
3.1415926535898
  0
LINE
  5
209
330
B
100
AcDbEntity
  8
LEVEL001
  6
HIDDEN
 62
     1
100
AcDbLine
 10
945.1499999999999
 20
599.5
 30
0.0
 11
945.1499999999999
 21
519.06571080565
 31
0.0
  0
LINE
  5
20A
330
B
100
AcDbEntity
  8
LEVEL001
  6
HIDDEN
 62
     1
100
AcDbLine
 10
957.85
 20
519.06571080565
 30
0.0
 11
957.85
 21
599.5
 31
0.0
  0
LWPOLYLINE
  5
20B
330
B
100
AcDbEntity
  8
LEVEL001
  6
HIDDEN
 62
     1
100
AcDbPolyline
 90
        4
 70
     0
 43
0.0
 10
992.1499999999999
 20
634.4999999999999
 10
992.1499999999999
 20
755.4999999999999
 10
1004.85
 20
755.4999999999999
 10
1004.85
 20
634.4999999999999
  0
LINE
  5
20C
330
B
100
AcDbEntity
  8
LEVEL001
  6
HIDDEN
 62
     1
100
AcDbLine
 10
1048.5146889596
 20
514.7844814106499
 30
0.0
 11
1035.7353110404
 21
518.09737749552
 31
0.0
  0
ELLIPSE
  5
20D
330
B
100
AcDbEntity
  8
LEVEL001
  6
HIDDEN
 62
     1
100
AcDbEllipse
 10
1045.5
 20
519.06571080565
 30
0.0
 11
-10.0
 21
0.0
 31
0.0
210
0.0
220
0.0
230
1.0
 40
0.4490128060628101
 41
-2.311761028997899
 42
0.21736592660656
  0
ELLIPSE
  5
20E
330
B
100
AcDbEntity
  8
LEVEL001
  6
HIDDEN
 62
     1
100
AcDbEllipse
 10
1045.5
 20
519.06571080565
 30
0.0
 11
-10.0
 21
0.0
 31
0.0
210
0.0
220
0.0
230
1.0
 40
0.4490128060628101
 41
1.877029175786899
 42
2.311761028997899
  0
LINE
  5
20F
330
B
100
AcDbEntity
  8
LEVEL001
  6
HIDDEN
 62
     1
100
AcDbLine
 10
1035.5
 20
604.6256313292899
 30
0.0
 11
1035.5
 21
519.06571080565
 31
0.0
  0
LINE
  5
210
330
B
100
AcDbEntity
  8
LEVEL001
  6
HIDDEN
 62
     1
100
AcDbLine
 10
1052.25
 20
515.7528147207699
 30
0.0
 11
1052.25
 21
607.93852741417
 31
0.0
  0
ELLIPSE
  5
211
330
B
100
AcDbEntity
  8
LEVEL001
  6
HIDDEN
 62
     1
100
AcDbEllipse
 10
763.4999999999999
 20
629.3743686707101
 30
0.0
 11
-6.349999999999998
 21
0.0
 31
0.0
210
0.0
220
0.0
230
0.9999999999999998
 40
0.8641613216108899
 41
0.0
 42
3.1415926535898
  0
LINE
  5
212
330
B
100
AcDbEntity
  8
LEVEL001
  6
HIDDEN
 62
     1
100
AcDbLine
 10
757.15
 20
629.3743686707101
 30
0.0
 11
757.15
 21
714.9342891943499
 31
0.0
  0
LINE
  5
213
330
B
100
AcDbEntity
  8
LEVEL001
  6
HIDDEN
 62
     1
100
AcDbLine
 10
769.85
 20
714.9342891943499
 30
0.0
 11
769.85
 21
629.3743686707101
 31
0.0
  0
LINE
  5
214
330
B
100
AcDbEntity
  8
LEVEL001
  6
HIDDEN
 62
     1
100
AcDbLine
 10
663.1499999999999
 20
604.6256313292899
 30
0.0
 11
663.1499999999999
 21
519.06571080565
 31
0.0
  0
LINE
  5
215
330
B
100
AcDbEntity
  8
LEVEL001
  6
HIDDEN
 62
     1
100
AcDbLine
 10
675.85
 20
519.06571080565
 30
0.0
 11
675.85
 21
604.6256313292899
 31
0.0
  0
ELLIPSE
  5
216
330
B
100
AcDbEntity
  8
LEVEL001
  6
HIDDEN
 62
     1
100
AcDbEllipse
 10
669.5
 20
604.6256313292899
 30
0.0
 11
-6.349999999999998
 21
0.0
 31
0.0
210
0.0
220
0.0
230
0.9999999999999998
 40
0.8641613216108899
 41
3.1415926535898
 42
6.283185307179586
  0
ELLIPSE
  5
217
330
B
100
AcDbEntity
  8
LEVEL001
  6
HIDDEN
 62
     1
100
AcDbEllipse
 10
1045.5
 20
604.6256313292899
 30
0.0
 11
-10.0
 21
0.0
 31
0.0
210
0.0
220
0.0
230
1.0
 40
0.4490128060628101
 41
-2.311761028997899
 42
0.0
  0
LWPOLYLINE
  5
218
330
B
100
AcDbEntity
  8
LEVEL001
  6
HIDDEN
 62
     1
100
AcDbPolyline
 90
        4
 70
     0
 43
0.0
 10
757.15
 20
634.4999999999999
 10
519.5
 20
634.4999999999999
 10
519.5
 20
599.5
 10
663.1499999999999
 20
599.5
  0
LINE
  5
219
330
B
100
AcDbEntity
  8
LEVEL001
  6
HIDDEN
 62
     1
100
AcDbLine
 10
675.85
 20
599.5
 30
0.0
 11
1035.5
 21
599.5
 31
0.0
  0
LWPOLYLINE
  5
21A
330
B
100
AcDbEntity
  8
LEVEL001
  6
HIDDEN
 62
     1
100
AcDbPolyline
 90
        4
 70
     0
 43
0.0
 10
1052.25
 20
599.5
 10
1054.5
 20
599.5
 10
1054.5
 20
634.4999999999999
 10
769.85
 20
634.4999999999999
  0
LWPOLYLINE
  5
21B
330
B
100
AcDbEntity
  8
LEVEL001
  6
Continuous
 62
     7
100
AcDbPolyline
 90
        3
 70
     0
 43
0.0
 10
1102.0
 20
379.0
 10
1102.0
 20
524.0
 10
1088.5
 20
524.0
  0
LWPOLYLINE
  5
21C
330
B
100
AcDbEntity
  8
LEVEL001
  6
Continuous
 62
     7
100
AcDbPolyline
 90
        3
 70
     0
 43
0.0
 10
485.5
 20
524.0
 10
472.0
 20
524.0
 10
472.0
 20
379.0
  0
LWPOLYLINE
  5
21D
330
B
100
AcDbEntity
  8
LEVEL001
  6
Continuous
 62
     7
100
AcDbPolyline
 90
        4
 70
     0
 43
0.0
 10
1151.0
 20
174.0
 10
1152.0
 20
174.0
 10
1152.0
 20
574.0
 10
1088.5
 20
574.0
  0
LWPOLYLINE
  5
21E
330
B
100
AcDbEntity
  8
LEVEL001
  6
Continuous
 62
     7
100
AcDbPolyline
 90
        4
 70
     0
 43
0.0
 10
485.5
 20
574.0
 10
422.0
 20
574.0
 10
422.0
 20
174.0
 10
423.0
 20
174.0
  0
LWPOLYLINE
  5
21F
330
B
100
AcDbEntity
  8
LEVEL001
  6
Continuous
 62
     7
100
AcDbPolyline
 90
        4
 70
     1
 43
0.0
 10
316.5
 20
614.5
 10
411.5
 20
614.5
 10
411.5
 20
820.5
 10
316.5
 20
820.5
  0
CIRCLE
  5
220
330
B
100
AcDbEntity
  8
LEVEL001
  6
Continuous
 62
     7
100
AcDbCircle
 10
344.0
 20
664.5
 30
0.0
 40
12.5
  0
CIRCLE
  5
221
330
B
100
AcDbEntity
  8
LEVEL001
  6
Continuous
 62
     7
100
AcDbCircle
 10
344.0
 20
664.5
 30
0.0
 40
16.25
  0
CIRCLE
  5
222
330
B
100
AcDbEntity
  8
LEVEL001
  6
Continuous
 62
     7
100
AcDbCircle
 10
384.0
 20
664.5
 30
0.0
 40
16.25
  0
CIRCLE
  5
223
330
B
100
AcDbEntity
  8
LEVEL001
  6
Continuous
 62
     7
100
AcDbCircle
 10
384.0
 20
664.5
 30
0.0
 40
12.5
  0
LWPOLYLINE
  5
224
330
B
100
AcDbEntity
  8
LEVEL001
  6
Continuous
 62
     7
100
AcDbPolyline
 90
        4
 70
     1
 43
0.0
 10
332.5
 20
694.5
 10
395.5
 20
694.5
 10
395.5
 20
778.5
 10
332.5
 20
778.5
  0
LWPOLYLINE
  5
225
330
B
100
AcDbEntity
  8
LEVEL001
  6
Continuous
 62
     7
100
AcDbPolyline
 90
        4
 70
     1
 43
0.0
 10
338.0
 20
705.0
 10
390.0
 20
705.0
 10
390.0
 20
768.0
 10
338.0
 20
768.0
  0
LWPOLYLINE
  5
226
330
B
100
AcDbEntity
  8
LEVEL001
  6
Continuous
 62
     7
100
AcDbPolyline
 90
        4
 70
     0
 43
0.0
 10
361.5
 20
752.9249721603199
 10
362.0
 20
757.95
 10
366.0
 20
757.95
 10
366.5
 20
752.9249721603199
  0
LWPOLYLINE
  5
227
330
B
100
AcDbEntity
  8
LEVEL001
  6
Continuous
 62
     7
100
AcDbPolyline
 90
        4
 70
     0
 43
0.0
 10
361.5
 20
730.47502783968
 10
362.0
 20
725.45
 10
366.0
 20
725.45
 10
366.5
 20
730.47502783968
  0
LINE
  5
228
330
B
100
AcDbEntity
  8
LEVEL001
  6
Continuous
 62
     7
100
AcDbLine
 10
363.5
 20
757.95
 30
0.0
 11
363.5
 21
753.1891252930799
 31
0.0
  0
LINE
  5
229
330
B
100
AcDbEntity
  8
LEVEL001
  6
Continuous
 62
     7
100
AcDbLine
 10
364.5
 20
757.95
 30
0.0
 11
364.5
 21
753.1891252930799
 31
0.0
  0
CIRCLE
  5
22A
330
B
100
AcDbEntity
  8
LEVEL001
  6
Continuous
 62
     7
100
AcDbCircle
 10
364.0
 20
741.7
 30
0.0
 40
8.0
  0
ARC
  5
22B
330
B
100
AcDbEntity
  8
LEVEL001
  6
Continuous
 62
     7
100
AcDbCircle
 10
364.00000000055
 20
726.2434194268299
 30
0.0
 40
4.9565805731756
100
AcDbArc
 50
58.91685076569801
 51
121.08314923835
  0
ARC
  5
22C
330
B
100
AcDbEntity
  8
LEVEL001
  6
Continuous
 62
     7
100
AcDbCircle
 10
376.08444130397
 20
732.0629796410099
 30
0.0
 40
4.9565805731756
100
AcDbArc
 50
110.34542219431
 51
172.51172066702
  0
ARC
  5
22D
330
B
100
AcDbEntity
  8
LEVEL001
  6
Continuous
 62
     7
100
AcDbCircle
 10
379.06905182826
 20
745.1394127449
 30
0.0
 40
4.9565805731756
100
AcDbArc
 50
161.77399362284
 51
223.9402920955
  0
ARC
  5
22E
330
B
100
AcDbEntity
  8
LEVEL001
  6
Continuous
 62
     7
100
AcDbCircle
 10
370.70635897366
 20
755.62589790065
 30
0.0
 40
4.9565805731756
100
AcDbArc
 50
213.20256505139
 51
275.36886352403
  0
ARC
  5
22F
330
B
100
AcDbEntity
  8
LEVEL001
  6
Continuous
 62
     7
100
AcDbCircle
 10
357.29364102753
 20
755.62589790067
 30
0.0
 40
4.9565805731756
100
AcDbArc
 50
264.63113648001
 51
326.79743495271
  0
ARC
  5
230
330
B
100
AcDbEntity
  8
LEVEL001
  6
Continuous
 62
     7
100
AcDbCircle
 10
348.93094817291
 20
745.13941274494
 30
0.0
 40
4.9565805731756
100
AcDbArc
 50
316.05970790858
 51
18.226006381268
  0
ARC
  5
231
330
B
100
AcDbEntity
  8
LEVEL001
  6
Continuous
 62
     7
100
AcDbCircle
 10
351.91555869715
 20
732.06297964104
 30
0.0
 40
4.9565805731756
100
AcDbArc
 50
7.488279337145799
 51
69.654577809832
  0
ARC
  5
232
330
B
100
AcDbEntity
  8
LEVEL001
  6
Continuous
 62
     7
100
AcDbCircle
 10
364.0
 20
741.7
 30
0.0
 40
11.5
100
AcDbArc
 50
231.42857143249
 51
257.14285714496
  0
ARC
  5
233
330
B
100
AcDbEntity
  8
LEVEL001
  6
Continuous
 62
     7
100
AcDbCircle
 10
364.0
 20
741.7
 30
0.0
 40
11.5
100
AcDbArc
 50
282.85714285913
 51
308.57142857552
  0
ARC
  5
234
330
B
100
AcDbEntity
  8
LEVEL001
  6
Continuous
 62
     7
100
AcDbCircle
 10
364.0
 20
741.7
 30
0.0
 40
11.5
100
AcDbArc
 50
334.28571428416
 51
0.0
  0
ARC
  5
235
330
B
100
AcDbEntity
  8
LEVEL001
  6
Continuous
 62
     7
100
AcDbCircle
 10
364.0
 20
741.7
 30
0.0
 40
11.5
100
AcDbArc
 50
180.00000000275
 51
205.71428571282
  0
ARC
  5
236
330
B
100
AcDbEntity
  8
LEVEL001
  6
Continuous
 62
     7
100
AcDbCircle
 10
364.0
 20
741.7
 30
0.0
 40
11.5
100
AcDbArc
 50
128.57142857079
 51
154.28571428177
  0
ARC
  5
237
330
B
100
AcDbEntity
  8
LEVEL001
  6
Continuous
 62
     7
100
AcDbCircle
 10
364.0
 20
741.7
 30
0.0
 40
11.5
100
AcDbArc
 50
25.71428571019
 51
51.42857142824699
  0
ARC
  5
238
330
B
100
AcDbEntity
  8
LEVEL001
  6
Continuous
 62
     7
100
AcDbCircle
 10
363.99999999999
 20
741.7
 30
0.0
 40
11.5
100
AcDbArc
 50
77.142857139132
 51
102.85714285367
  0
ARC
  5
239
330
B
100
AcDbEntity
  8
LEVEL001
  6
Continuous
 62
     7
100
AcDbCircle
 10
364.0
 20
741.7
 30
0.0
 40
13.0
100
AcDbArc
 50
100.39033808316
 51
259.60966191684
  0
ARC
  5
23A
330
B
100
AcDbEntity
  8
LEVEL001
  6
Continuous
 62
     7
100
AcDbCircle
 10
364.00000000002
 20
741.7
 30
0.0
 40
13.0
100
AcDbArc
 50
280.39033808307
 51
79.609661916936
  0
ARC
  5
23B
330
B
100
AcDbEntity
  8
LEVEL001
  6
Continuous
 62
     7
100
AcDbCircle
 10
364.0
 20
741.7
 30
0.0
 40
20.0
100
AcDbArc
 50
299.99999999981
 51
240.0000000002
  0
LWPOLYLINE
  5
23C
330
B
100
AcDbEntity
  8
LEVEL001
  6
Continuous
 62
     7
100
AcDbPolyline
 90
        4
 70
     1
 43
0.0
 10
335.5
 20
702.5
 10
392.5
 20
702.5
 10
392.5
 20
770.5
 10
335.5
 20
770.5
  0
CIRCLE
  5
23D
330
B
100
AcDbEntity
  8
LEVEL001
  6
Continuous
 62
     7
100
AcDbCircle
 10
364.0
 20
429.0
 30
0.0
 40
12.5
  0
CIRCLE
  5
23E
330
B
100
AcDbEntity
  8
LEVEL001
  6
Continuous
 62
     7
100
AcDbCircle
 10
364.0
 20
429.0
 30
0.0
 40
16.25
  0
ARC
  5
23F
330
B
100
AcDbEntity
  8
LEVEL001
  6
Continuous
 62
     7
100
AcDbCircle
 10
364.0
 20
429.0
 30
0.0
 40
17.5
100
AcDbArc
 50
180.0
 51
0.0
  0
LWPOLYLINE
  5
240
330
B
100
AcDbEntity
  8
LEVEL001
  6
Continuous
 62
     7
100
AcDbPolyline
 90
        4
 70
     0
 43
0.0
 10
346.5
 20
429.0
 10
346.5
 20
456.5
 10
381.5
 20
456.5
 10
381.5
 20
429.0
  0
LINE
  5
241
330
B
100
AcDbEntity
  8
LEVEL001
  6
DASHDOT
 62
     1
100
AcDbLine
 10
1233.0
 20
617.0
 30
0.0
 11
263.0
 21
617.0
 31
0.0
  0
LINE
  5
242
330
B
100
AcDbEntity
  8
LEVEL001
  6
Continuous
 62
     7
100
AcDbLine
 10
263.0
 20
64.0
 30
0.0
 11
1233.0
 21
64.0
 31
0.0
  0
LWPOLYLINE
  5
243
330
B
100
AcDbEntity
  8
LEVEL001
  6
Continuous
 62
     7
100
AcDbPolyline
 90
        4
 70
     1
 43
0.0
 10
476.4999999999999
 20
794.0
 10
476.4999999999999
 20
829.0
 10
451.4999999999999
 20
829.0
 10
451.4999999999999
 20
794.0
  0
LINE
  5
244
330
B
100
AcDbEntity
  8
LEVEL001
  6
Continuous
 62
     7
100
AcDbLine
 10
457.5
 20
829.0
 30
0.0
 11
457.5
 21
794.0
 31
0.0
  0
LWPOLYLINE
  5
245
330
B
100
AcDbEntity
  8
LEVEL001
  6
Continuous
 62
     7
100
AcDbPolyline
 90
        4
 70
     0
 43
0.0
 10
421.0
 20
829.0
 10
430.2999999999999
 20
829.0
 10
430.2999999999999
 20
794.0
 10
421.0
 20
794.0
  0
LINE
  5
246
330
B
100
AcDbEntity
  8
LEVEL001
  6
DASHDOT
 62
     1
100
AcDbLine
 10
787.0
 20
937.0
 30
0.0
 11
787.0
 21
86.0
 31
0.0
  0
CIRCLE
  5
247
330
B
100
AcDbEntity
  8
LEVEL001
  6
Continuous
 62
     7
100
AcDbCircle
 10
1184.85
 20
689.35
 30
0.0
 40
15.0
  0
ARC
  5
248
330
B
100
AcDbEntity
  8
LEVEL001
  6
Continuous
 62
     7
100
AcDbCircle
 10
1174.5
 20
605.35
 30
0.0
 40
4.0
100
AcDbArc
 50
269.99999999992
 51
0.0
  0
LINE
  5
249
330
B
100
AcDbEntity
  8
LEVEL001
  6
Continuous
 62
     7
100
AcDbLine
 10
1153.5
 20
601.35
 30
0.0
 11
1174.5
 21
601.35
 31
0.0
  0
LINE
  5
24A
330
B
100
AcDbEntity
  8
LEVEL001
  6
Continuous
 62
     7
100
AcDbLine
 10
1178.5
 20
605.35
 30
0.0
 11
1178.5
 21
675.76038999824
 31
0.0
  0
LINE
  5
24B
330
B
100
AcDbEntity
  8
LEVEL001
  6
Continuous
 62
     7
100
AcDbLine
 10
1191.2
 20
675.76038999824
 30
0.0
 11
1191.2
 21
605.35
 31
0.0
  0
ARC
  5
24C
330
B
100
AcDbEntity
  8
LEVEL001
  6
Continuous
 62
     7
100
AcDbCircle
 10
1174.5
 20
605.35
 30
0.0
 40
16.7
100
AcDbArc
 50
317.18442609921
 51
0.0
  0
DIMENSION
  5
24D
330
B
100
AcDbEntity
  8
LEVEL001
  6
Continuous
 62
     1
100
AcDbDimension
  2
*D0
 10
1320.0
 20
944.0
 30
0.0
 11
1320.0
 21
504.0
 31
0.0
 71
     5
 42
-1.0
  3
GMM001
100
AcDbAlignedDimension
 13
1124.85
 23
64.0
 33
0.0
 14
1124.85
 24
944.0
 34
0.0
 50
90.0
100
AcDbRotatedDimension
  0
DIMENSION
  5
24E
330
B
100
AcDbEntity
  8
LEVEL001
  6
Continuous
 62
     1
100
AcDbDimension
  2
*D1
 10
1060.5
 20
406.0
 30
0.0
 11
787.0
 21
406.0
 31
0.0
 71
     5
 42
-1.0
  3
GMM001
100
AcDbAlignedDimension
 13
513.4999999999999
 23
475.0
 33
0.0
 14
1060.5
 24
475.0
 34
0.0
100
AcDbRotatedDimension
  0
LWPOLYLINE
  5
24F
330
B
100
AcDbEntity
  8
LEVEL001
  6
Continuous
 62
     7
100
AcDbPolyline
 90
        4
 70
     0
 43
0.0
 10
1437.0
 20
174.0
 10
1437.0
 20
165.0
 10
1527.0
 20
165.0
 10
1527.0
 20
174.0
  0
LINE
  5
250
330
B
100
AcDbEntity
  8
LEVEL001
  6
Continuous
 62
     7
100
AcDbLine
 10
1496.9817058854
 20
840.0615459808101
 30
0.0
 11
1488.1188671294
 21
622.8293970204999
 31
0.0
  0
LINE
  5
251
330
B
100
AcDbEntity
  8
LEVEL001
  6
Continuous
 62
     7
100
AcDbLine
 10
1765.0182941146
 20
840.0615459808101
 30
0.0
 11
1773.8811328706
 21
622.8293970204999
 31
0.0
  0
POINT
  5
252
330
B
100
AcDbEntity
  8
LEVEL001
 62
     7
100
AcDbPoint
 10
1765.1222266356
 20
812.9832742850199
 30
0.0
  0
POINT
  5
253
330
B
100
AcDbEntity
  8
LEVEL001
 62
     7
100
AcDbPoint
 10
1489.5
 20
830.0
 30
0.0
  0
POINT
  5
254
330
B
100
AcDbEntity
  8
LEVEL001
 62
     7
100
AcDbPoint
 10
1570.5
 20
830.0
 30
0.0
  0
LWPOLYLINE
  5
255
330
B
100
AcDbEntity
  8
LEVEL001
  6
Continuous
 62
     7
100
AcDbPolyline
 90
       18
 70
     0
 43
0.0
 10
1523.5
 20
589.4999999999799
 10
1523.5
 20
594.0
 10
1482.0
 20
594.0
 10
1482.0
 20
591.0
 10
1474.0
 20
591.0
 10
1459.0
 20
576.0
 10
1459.0
 20
516.0
 10
1482.0
 20
516.0
 10
1482.0
 20
513.0
 10
1580.0
 20
513.0
 10
1580.0
 20
516.0
 10
1603.0
 20
516.0
 10
1603.0
 20
576.0
 10
1588.0
 20
591.0
 10
1580.0
 20
591.0
 10
1580.0
 20
594.0
 10
1538.5
 20
594.0
 10
1538.5
 20
589.4999999999799
  0
LINE
  5
256
330
B
100
AcDbEntity
  8
LEVEL001
  6
Continuous
 62
     7
100
AcDbLine
 10
1479.0
 20
591.0
 30
0.0
 11
1479.0
 21
516.0
 31
0.0
  0
LINE
  5
257
330
B
100
AcDbEntity
  8
LEVEL001
  6
Continuous
 62
     7
100
AcDbLine
 10
1583.0
 20
591.0
 30
0.0
 11
1583.0
 21
516.0
 31
0.0
  0
ARC
  5
258
330
B
100
AcDbEntity
  8
LEVEL001
  6
Continuous
 62
     7
100
AcDbCircle
 10
1531.0
 20
589.4999999999799
 30
0.0
 40
7.499999999976999
100
AcDbArc
 50
180.0
 51
0.0
  0
ARC
  5
259
330
B
100
AcDbEntity
  8
LEVEL001
  6
Continuous
 62
     7
100
AcDbCircle
 10
1531.0
 20
595.0
 30
0.0
 40
6.3499999999999
100
AcDbArc
 50
180.0
 51
0.0
  0
POINT
  5
25A
330
B
100
AcDbEntity
  8
LEVEL001
 62
     7
100
AcDbPoint
 10
1631.0
 20
884.0598903673599
 30
0.0
  0
ARC
  5
25B
330
B
100
AcDbEntity
  8
LEVEL001
  6
Continuous
 62
     7
100
AcDbCircle
 10
1631.0
 20
909.55989036736
 30
0.0
 40
4.5
100
AcDbArc
 50
0.0
 51
180.0
  0
LINE
  5
25C
330
B
100
AcDbEntity
  8
LEVEL001
  6
Continuous
 62
     7
100
AcDbLine
 10
1626.5
 20
909.55989036736
 30
0.0
 11
1626.5
 21
884.0598903673599
 31
0.0
  0
LINE
  5
25D
330
B
100
AcDbEntity
  8
LEVEL001
  6
Continuous
 62
     7
100
AcDbLine
 10
1635.5
 20
909.55989036736
 30
0.0
 11
1635.5
 21
884.0598903673599
 31
0.0
  0
CIRCLE
  5
25E
330
B
100
AcDbEntity
  8
LEVEL001
  6
Continuous
 62
     7
100
AcDbCircle
 10
1631.0
 20
617.0
 30
0.0
 40
15.0
  0
ARC
  5
25F
330
B
100
AcDbEntity
  8
LEVEL001
  6
Continuous
 62
     7
100
AcDbCircle
 10
1631.0
 20
617.0
 30
0.0
 40
40.0
100
AcDbArc
 50
0.0
 51
180.0
  0
LWPOLYLINE
  5
260
330
B
100
AcDbEntity
  8
LEVEL001
  6
Continuous
 62
     7
100
AcDbPolyline
 90
        4
 70
     0
 43
0.0
 10
1671.0
 20
617.0
 10
1671.0
 20
589.0
 10
1713.5
 20
589.0
 10
1713.5
 20
574.0
  0
LINE
  5
261
330
B
100
AcDbEntity
  8
LEVEL001
  6
Continuous
 62
     7
100
AcDbLine
 10
1591.0
 20
589.0
 30
0.0
 11
1671.0
 21
589.0
 31
0.0
  0
LWPOLYLINE
  5
262
330
B
100
AcDbEntity
  8
LEVEL001
  6
Continuous
 62
     7
100
AcDbPolyline
 90
        4
 70
     1
 43
0.0
 10
1763.1438457048
 20
787.8817602093199
 10
1775.1338708408
 20
788.37094037887
 10
1772.687969993
 20
848.32106605883
 10
1760.697944857
 20
847.83188588927
  0
LINE
  5
263
330
B
100
AcDbEntity
  8
LEVEL001
  6
Continuous
 62
     7
100
AcDbLine
 10
1748.4711844985
 20
835.97360476871
 30
0.0
 11
1745.2605160874
 21
914.66852608532
 31
0.0
  0
ARC
  5
264
330
B
100
AcDbEntity
  8
LEVEL001
  6
Continuous
 62
     7
100
AcDbCircle
 10
1754.815906133
 20
836.23246260843
 30
0.0
 40
6.3499999999999
100
AcDbArc
 50
182.3363106412
 51
2.336310641203999
  0
CIRCLE
  5
265
330
B
100
AcDbEntity
  8
LEVEL001
  6
Continuous
 62
     7
100
AcDbCircle
 10
1751.0512570781
 20
928.5056977174999
 30
0.0
 40
15.0
  0
LINE
  5
266
330
B
100
AcDbEntity
  8
LEVEL001
  6
Continuous
 62
     7
100
AcDbLine
 10
1757.9499593563
 20
915.1862417647599
 30
0.0
 11
1761.1606277674
 21
836.4913204481499
 31
0.0
  0
LWPOLYLINE
  5
267
330
B
100
AcDbEntity
  8
LEVEL001
  6
Continuous
 62
     7
100
AcDbPolyline
 90
        4
 70
     1
 43
0.0
 10
1430.0
 20
174.0
 10
1431.0
 20
174.0
 10
1431.0
 20
379.0
 10
1430.0
 20
379.0
  0
LWPOLYLINE
  5
268
330
B
100
AcDbEntity
  8
LEVEL001
  6
Continuous
 62
     7
100
AcDbPolyline
 90
        4
 70
     0
 43
0.0
 10
1497.8792147492
 20
862.0598903673601
 10
1496.9817058854
 20
840.0615459808101
 10
1493.9841996014
 20
840.1838410231999
 10
1494.8767189586
 20
862.0598903673601
  0
LINE
  5
269
330
B
100
AcDbEntity
  8
LEVEL001
  6
Continuous
 62
     7
100
AcDbLine
 10
1764.1207852508
 20
862.0598903673601
 30
0.0
 11
1765.0182941146
 21
840.0615459808101
 31
0.0
  0
LINE
  5
26A
330
B
100
AcDbEntity
  8
LEVEL001
  6
Continuous
 62
     7
100
AcDbLine
 10
1767.6921261864
 20
848.11724098818
 30
0.0
 11
1767.1189700877
 21
862.1655537725199
 31
0.0
  0
LWPOLYLINE
  5
26B
330
B
100
AcDbEntity
  8
LEVEL001
  6
Continuous
 62
     7
100
AcDbPolyline
 90
        3
 70
     0
 43
0.0
 10
1496.5712055976
 20
830.0
 10
1456.0
 20
830.0
 10
1456.0
 20
574.0
  0
LWPOLYLINE
  5
26C
330
B
100
AcDbEntity
  8
LEVEL001
  6
Continuous
 62
     7
100
AcDbPolyline
 90
        3
 70
     0
 43
0.0
 10
1776.0
 20
574.0
 10
1776.0
 20
830.0
 10
1773.435449844
 20
830.0
  0
LINE
  5
26D
330
B
100
AcDbEntity
  8
LEVEL001
  6
Continuous
 62
     7
100
AcDbLine
 10
1776.0
 20
224.0
 30
0.0
 11
1776.0
 21
474.4424713886799
 31
0.0
  0
LINE
  5
26E
330
B
100
AcDbEntity
  8
LEVEL001
  6
Continuous
 62
     7
100
AcDbLine
 10
1776.0
 20
495.1479949969299
 30
0.0
 11
1776.0
 21
524.0
 31
0.0
  0
LWPOLYLINE
  5
26F
330
B
100
AcDbEntity
  8
LEVEL001
  6
Continuous
 62
     7
100
AcDbPolyline
 90
        3
 70
     0
 43
0.0
 10
1590.0
 20
589.0
 10
1591.0
 20
589.0
 10
1591.0
 20
617.0
  0
LWPOLYLINE
  5
270
330
B
100
AcDbEntity
  8
LEVEL001
  6
Continuous
 62
     7
100
AcDbPolyline
 90
        6
 70
     0
 43
0.0
 10
1459.0
 20
574.0
 10
1431.0
 20
574.0
 10
1431.0
 20
174.0
 10
1831.0
 20
174.0
 10
1831.0
 20
574.0
 10
1603.0
 20
574.0
  0
LWPOLYLINE
  5
271
330
B
100
AcDbEntity
  8
LEVEL001
  6
Continuous
 62
     7
100
AcDbPolyline
 90
        5
 70
     0
 43
0.0
 10
1481.0
 20
516.0
 10
1481.0
 20
224.0
 10
1781.0
 20
224.0
 10
1781.0
 20
524.0
 10
1603.0
 20
524.0
  0
ARC
  5
272
330
B
100
AcDbEntity
  8
LEVEL001
  6
Continuous
 62
     7
100
AcDbCircle
 10
1531.0
 20
595.0
 30
0.0
 40
15.0
100
AcDbArc
 50
356.17744627074
 51
64.95478563826001
  0
ARC
  5
273
330
B
100
AcDbEntity
  8
LEVEL001
  6
Continuous
 62
     7
100
AcDbCircle
 10
1531.0
 20
594.9999999999899
 30
0.0
 40
15.0
100
AcDbArc
 50
115.04521436177
 51
183.82255372925
  0
LINE
  5
274
330
B
100
AcDbEntity
  8
LEVEL001
  6
Continuous
 62
     7
100
AcDbLine
 10
1481.0
 20
416.10298322975
 30
0.0
 11
1781.0
 21
496.48774095909
 31
0.0
  0
LINE
  5
275
330
B
100
AcDbEntity
  8
LEVEL001
  6
Continuous
 62
     7
100
AcDbLine
 10
1781.0
 20
475.78221735084
 30
0.0
 11
1481.0
 21
395.3974596215
 31
0.0
  0
LWPOLYLINE
  5
276
330
B
100
AcDbEntity
  8
LEVEL001
  6
Continuous
 62
     7
100
AcDbPolyline
 90
        5
 70
     0
 43
0.0
 10
1431.0
 20
381.99999999995
 10
1373.0444504228
 20
366.47085729382
 10
1372.7856313776
 20
367.43678312012
 10
1372.6976986521
 20
387.08346904516
 10
1431.0
 20
402.7055236082
  0
ARC
  5
277
330
B
100
AcDbEntity
  8
LEVEL001
  6
Continuous
 62
     7
100
AcDbCircle
 10
1631.0
 20
617.0
 30
0.0
 40
143.0
100
AcDbArc
 50
177.6636893588
 51
189.25560746079
  0
ARC
  5
278
330
B
100
AcDbEntity
  8
LEVEL001
  6
Continuous
 62
     7
100
AcDbCircle
 10
1631.0
 20
617.0
 30
0.0
 40
143.0
100
AcDbArc
 50
226.65824177278
 51
319.43203079963
  0
ARC
  5
279
330
B
100
AcDbEntity
  8
LEVEL001
  6
Continuous
 62
     7
100
AcDbCircle
 10
1631.0
 20
617.0
 30
0.0
 40
143.0
100
AcDbArc
 50
342.5003904237
 51
2.336310641200499
  0
LWPOLYLINE
  5
27A
330
B
100
AcDbEntity
  8
LEVEL001
  6
Continuous
 62
     7
100
AcDbPolyline
 90
        4
 70
     0
 43
0.0
 10
1760.11745753
 20
862.0598903673601
 10
1791.0
 20
862.0598903673601
 10
1791.0
 20
884.0598903673599
 10
1759.2198811189
 20
884.0598903673599
  0
LWPOLYLINE
  5
27B
330
B
100
AcDbEntity
  8
LEVEL001
  6
Continuous
 62
     7
100
AcDbPolyline
 90
        4
 70
     0
 43
0.0
 10
1746.509315605299
 20
884.0598903673599
 10
1468.0
 20
884.0598903673599
 10
1468.0
 20
862.0598903673601
 10
1747.4068920164
 20
862.0598903673601
  0
LWPOLYLINE
  5
27C
330
B
100
AcDbEntity
  8
LEVEL001
  6
Continuous
 62
     7
100
AcDbPolyline
 90
        4
 70
     0
 43
0.0
 10
1735.0
 20
174.0
 10
1735.0
 20
165.0
 10
1825.0
 20
165.0
 10
1825.0
 20
174.0
  0
LINE
  5
27D
330
B
100
AcDbEntity
  8
LEVEL001
  6
HIDDEN
 62
     1
100
AcDbLine
 10
1499.0
 20
865.0
 30
0.0
 11
1489.1180358908
 21
622.7886320063699
 31
0.0
  0
LINE
  5
27E
330
B
100
AcDbEntity
  8
LEVEL001
  6
HIDDEN
 62
     1
100
AcDbLine
 10
1499.0
 20
865.0
 30
0.0
 11
1763.0
 21
865.0
 31
0.0
  0
LINE
  5
27F
330
B
100
AcDbEntity
  8
LEVEL001
  6
HIDDEN
 62
     1
100
AcDbLine
 10
1763.0
 20
865.0
 30
0.0
 11
1772.8819641092
 21
622.7886320063699
 31
0.0
  0
ARC
  5
280
330
B
100
AcDbEntity
  8
LEVEL001
  6
HIDDEN
 62
     1
100
AcDbCircle
 10
1631.0
 20
616.99999999999
 30
0.0
 40
142.0
100
AcDbArc
 50
177.66368935879
 51
2.3363106412053
  0
ARC
  5
281
330
B
100
AcDbEntity
  8
LEVEL001
  6
HIDDEN
 62
     1
100
AcDbCircle
 10
1631.0
 20
617.0
 30
0.0
 40
143.0
100
AcDbArc
 50
189.25560746079
 51
226.65824177278
  0
ARC
  5
282
330
B
100
AcDbEntity
  8
LEVEL001
  6
HIDDEN
 62
     1
100
AcDbCircle
 10
1631.0
 20
617.0
 30
0.0
 40
143.0
100
AcDbArc
 50
319.43203079963
 51
342.5003904237
  0
LWPOLYLINE
  5
283
330
B
100
AcDbEntity
  8
LEVEL001
  6
Continuous
 62
     7
100
AcDbPolyline
 90
        4
 70
     1
 43
0.0
 10
1435.0
 20
730.2
 10
1445.0
 20
730.2
 10
1445.0
 20
753.2
 10
1435.0
 20
753.2
  0
LWPOLYLINE
  5
284
330
B
100
AcDbEntity
  8
LEVEL001
  6
Continuous
 62
     7
100
AcDbPolyline
 90
        4
 70
     0
 43
0.0
 10
1435.0
 20
753.2
 10
1434.5
 20
749.7
 10
1434.5
 20
733.7
 10
1435.0
 20
730.2
  0
LWPOLYLINE
  5
285
330
B
100
AcDbEntity
  8
LEVEL001
  6
Continuous
 62
     7
100
AcDbPolyline
 90
        3
 70
     0
 43
0.0
 10
1436.5
 20
730.2
 10
1437.5
 20
725.45
 10
1447.5
 20
725.45
  0
LWPOLYLINE
  5
286
330
B
100
AcDbEntity
  8
LEVEL001
  6
Continuous
 62
     7
100
AcDbPolyline
 90
        4
 70
     0
 43
0.0
 10
1447.5
 20
754.7
 10
1446.5
 20
754.7
 10
1446.5
 20
728.7
 10
1447.5
 20
728.7
  0
LINE
  5
287
330
B
100
AcDbEntity
  8
LEVEL001
  6
Continuous
 62
     7
100
AcDbLine
 10
1445.0
 20
730.2
 30
0.0
 11
1446.5
 21
728.7
 31
0.0
  0
LWPOLYLINE
  5
288
330
B
100
AcDbEntity
  8
LEVEL001
  6
Continuous
 62
     7
100
AcDbPolyline
 90
        4
 70
     1
 43
0.0
 10
1450.5
 20
694.5
 10
1454.5
 20
694.5
 10
1454.5
 20
778.5
 10
1450.5
 20
778.5
  0
LWPOLYLINE
  5
289
330
B
100
AcDbEntity
  8
LEVEL001
  6
Continuous
 62
     7
100
AcDbPolyline
 90
        4
 70
     0
 43
0.0
 10
1450.5
 20
770.5
 10
1447.5
 20
770.5
 10
1447.5
 20
702.5
 10
1450.5
 20
702.5
  0
LINE
  5
28A
330
B
100
AcDbEntity
  8
LEVEL001
  6
Continuous
 62
     7
100
AcDbLine
 10
1445.0
 20
753.2
 30
0.0
 11
1446.5
 21
754.7
 31
0.0
  0
LWPOLYLINE
  5
28B
330
B
100
AcDbEntity
  8
LEVEL001
  6
Continuous
 62
     7
100
AcDbPolyline
 90
        3
 70
     0
 43
0.0
 10
1436.5
 20
753.2
 10
1437.5
 20
757.95
 10
1447.5
 20
757.95
  0
LWPOLYLINE
  5
28C
330
B
100
AcDbEntity
  8
LEVEL001
  6
Continuous
 62
     7
100
AcDbPolyline
 90
        4
 70
     0
 43
0.0
 10
1454.5
 20
680.75
 10
1443.0
 20
680.75
 10
1443.0
 20
648.2499999999999
 10
1454.5
 20
648.2499999999999
  0
LWPOLYLINE
  5
28D
330
B
100
AcDbEntity
  8
LEVEL001
  6
Continuous
 62
     7
100
AcDbPolyline
 90
        4
 70
     0
 43
0.0
 10
1443.0
 20
677.0
 10
1437.0
 20
677.0
 10
1437.0
 20
652.0
 10
1443.0
 20
652.0
  0
LWPOLYLINE
  5
28E
330
B
100
AcDbEntity
  8
LEVEL001
  6
Continuous
 62
     7
100
AcDbPolyline
 90
        4
 70
     0
 43
0.0
 10
1456.0
 20
820.5
 10
1454.5
 20
820.5
 10
1454.5
 20
614.5
 10
1456.0
 20
614.5
  0
LINE
  5
28F
330
B
100
AcDbEntity
  8
LEVEL001
  6
DASHDOT
 62
     1
100
AcDbLine
 10
1850.0
 20
617.0
 30
0.0
 11
1386.0
 21
617.0
 31
0.0
  0
LWPOLYLINE
  5
290
330
B
100
AcDbEntity
  8
LEVEL001
  6
Continuous
 62
     7
100
AcDbPolyline
 90
        6
 70
     1
 43
0.0
 10
1770.1164763717
 20
859.28535302431
 10
1769.9941813293
 20
862.2828593083099
 10
1792.97506284
 20
863.22045463328
 10
1793.0354240834
 20
884.34849318289
 10
1796.0354118404
 20
884.33992243977
 10
1795.9668458954
 20
860.34002038348
  0
LWPOLYLINE
  5
291
330
B
100
AcDbEntity
  8
LEVEL001
  6
Continuous
 62
     7
100
AcDbPolyline
 90
        5
 70
     0
 43
0.0
 10
1796.014589263
 20
877.0514672524299
 10
1800.0
 20
874.75048929057
 10
1800.0
 20
869.36929144415
 10
1796.0
 20
867.0598903673599
 10
1795.9859222463
 20
867.0598903673599
  0
LINE
  5
292
330
B
100
AcDbEntity
  8
LEVEL001
  6
DASHDOT
 62
     1
100
AcDbLine
 10
1631.0
 20
937.0
 30
0.0
 11
1631.0
 21
86.0
 31
0.0
  0
CIRCLE
  5
293
330
B
100
AcDbEntity
  8
LEVEL001
  6
Continuous
 62
     7
100
AcDbCircle
 10
1531.0
 20
689.35
 30
0.0
 40
15.0
  0
LINE
  5
294
330
B
100
AcDbEntity
  8
LEVEL001
  6
Continuous
 62
     7
100
AcDbLine
 10
1524.65
 20
595.0
 30
0.0
 11
1524.65
 21
675.76038999824
 31
0.0
  0
LINE
  5
295
330
B
100
AcDbEntity
  8
LEVEL001
  6
Continuous
 62
     7
100
AcDbLine
 10
1537.35
 20
675.76038999824
 30
0.0
 11
1537.35
 21
595.0
 31
0.0
  0
LWPOLYLINE
  5
296
330
B
100
AcDbEntity
  8
LEVEL001
  6
Continuous
 62
     7
100
AcDbPolyline
 90
        3
 70
     0
 43
0.0
 10
1441.0
 20
163.0
 10
1523.0
 20
163.0
 10
1523.0
 20
165.0
  0
LINE
  5
297
330
B
100
AcDbEntity
  8
LEVEL001
  6
Continuous
 62
     7
100
AcDbLine
 10
1523.0
 20
163.0
 30
0.0
 11
1472.7949948362
 21
91.405292345335
 31
0.0
  0
LINE
  5
298
330
B
100
AcDbEntity
  8
LEVEL001
  6
Continuous
 62
     7
100
AcDbLine
 10
1441.0
 20
165.0
 30
0.0
 11
1441.0
 21
101.5
 31
0.0
  0
CIRCLE
  5
299
330
B
100
AcDbEntity
  8
LEVEL001
  6
Continuous
 62
     7
100
AcDbCircle
 10
1458.5
 20
101.5
 30
0.0
 40
5.0
  0
ARC
  5
29A
330
B
100
AcDbEntity
  8
LEVEL001
  6
Continuous
 62
     7
100
AcDbCircle
 10
1458.5
 20
101.49999999999
 30
0.0
 40
17.5
100
AcDbArc
 50
179.99999999998
 51
324.7713787037101
  0
ARC
  5
29B
330
B
100
AcDbEntity
  8
LEVEL001
  6
Continuous
 62
     7
100
AcDbCircle
 10
1458.5
 20
101.5
 30
0.0
 40
37.5
100
AcDbArc
 50
117.81813928465
 51
27.142386627723
  0
LINE
  5
29C
330
B
100
AcDbEntity
  8
LEVEL001
  6
Continuous
 62
     7
100
AcDbLine
 10
1357.0
 20
64.0
 30
0.0
 11
1622.0
 21
64.0
 31
0.0
  0
DIMENSION
  5
29D
330
B
100
AcDbEntity
  8
LEVEL001
  6
Continuous
 62
     1
100
AcDbDimension
  2
*D2
 10
422.0
 20
17.0
 30
0.0
 11
364.5
 21
17.0
 31
0.0
 71
     5
 42
-1.0
  3
GMM002
100
AcDbAlignedDimension
 13
307.0
 23
174.0
 33
0.0
 14
422.0
 24
174.0
 34
0.0
100
AcDbRotatedDimension
  0
DIMENSION
  5
29E
330
B
100
AcDbEntity
  8
LEVEL001
  6
Continuous
 62
     1
100
AcDbDimension
  2
*D3
 10
1152.0
 20
17.0
 30
0.0
 11
787.0
 21
17.0
 31
0.0
 71
     5
 42
-1.0
  3
GMM002
100
AcDbAlignedDimension
 13
422.0
 23
174.0
 33
0.0
 14
1152.0
 24
174.0
 34
0.0
100
AcDbRotatedDimension
  0
DIMENSION
  5
29F
330
B
100
AcDbEntity
  8
LEVEL001
  6
Continuous
 62
     1
100
AcDbDimension
  2
*D4
 10
1207.0
 20
17.0
 30
0.0
 11
1179.5
 21
17.0
 31
0.0
 71
     5
 42
-1.0
  3
GMM001
100
AcDbAlignedDimension
 13
1152.0
 23
174.0
 33
0.0
 14
1207.0
 24
689.35
 34
0.0
100
AcDbRotatedDimension
  0
LINE
  5
2A0
330
B
100
AcDbEntity
  8
LEVEL001
  6
DASHDOT
 62
     1
100
AcDbLine
 10
787.0
 20
1511.0
 30
0.0
 11
787.0
 21
1030.0
 31
0.0
  0
DIMENSION
  5
2A1
330
B
100
AcDbEntity
  8
LEVEL001
  6
Continuous
 62
     1
100
AcDbDimension
  2
*D5
 10
1372.7
 20
988.0
 30
0.0
 11
1601.85
 21
988.0
 31
0.0
 71
     5
 42
-1.0
  3
GMM001
100
AcDbAlignedDimension
 13
1831.0
 23
574.0
 33
0.0
 14
1372.7
 24
392.0
 34
0.0
 50
180.0
100
AcDbRotatedDimension
  0
DIMENSION
  5
2A2
330
B
100
AcDbEntity
  8
LEVEL001
  6
Continuous
 62
     1
100
AcDbDimension
  2
*D6
 10
1207.0
 20
988.0
 30
0.0
 11
757.0
 21
988.0
 31
0.0
 71
     5
 42
-1.0
  3
GMM001
100
AcDbAlignedDimension
 13
307.0
 23
830.0
 33
0.0
 14
1207.0
 24
689.35
 34
0.0
100
AcDbRotatedDimension
  0
DIMENSION
  5
2A3
330
B
100
AcDbEntity
  8
LEVEL001
  6
Continuous
 62
     1
100
AcDbDimension
  2
*D7
 10
1431.0
 20
943.4931054991601
 30
0.0
 11
1631.0
 21
943.4931054991601
 31
0.0
 71
     5
 42
-1.0
  3
GMM002
100
AcDbAlignedDimension
 13
1831.0
 23
574.0
 33
0.0
 14
1431.0
 24
574.0
 34
0.0
 50
180.0
100
AcDbRotatedDimension
  0
DIMENSION
  5
2A4
330
B
100
AcDbEntity
  8
LEVEL001
  6
Continuous
 62
     1
100
AcDbDimension
  2
*D8
 10
1372.7
 20
943.4931054991601
 30
0.0
 11
1412.85
 21
943.4931054991601
 31
0.0
 70
   128
 71
     5
 42
-1.0
  3
GMM003
100
AcDbAlignedDimension
 13
1431.0
 23
574.0
 33
0.0
 14
1372.7
 24
392.0
 34
0.0
 50
180.0
100
AcDbRotatedDimension
  0
DIMENSION
  5
2A5
330
B
100
AcDbEntity
  8
LEVEL001
  6
Continuous
 62
     1
100
AcDbDimension
  2
*D9
 10
1276.0
 20
865.0
 30
0.0
 11
1276.0
 21
464.5
 31
0.0
 71
     5
 42
-1.0
  3
GMM001
100
AcDbAlignedDimension
 13
1117.0
 23
64.0
 33
0.0
 14
1088.5
 24
865.0
 34
0.0
 50
90.0
100
AcDbRotatedDimension
  0
DIMENSION
  5
2A6
330
B
100
AcDbEntity
  8
LEVEL001
  6
Continuous
 62
     1
100
AcDbDimension
  2
*D10
 10
1631.0
 20
617.0
 30
0.0
 11
1709.8908697386
 21
581.7925044142
 31
0.0
 70
   132
 71
     5
 42
-1.0
  3
GMM004
100
AcDbRadialDimension
 15
1760.6727019299
 25
559.1295379817199
 35
0.0
 40
0.0
  0
TEXT
  5
2A7
330
B
100
AcDbEntity
  8
LEVEL001
 62
     1
100
AcDbText
 10
1338.0
 20
1161.0
 30
0.0
 40
16.0
  1
安全カバ－
100
AcDbText
  0
TEXT
  5
2A8
330
B
100
AcDbEntity
  8
LEVEL001
 62
     1
100
AcDbText
 10
1338.0
 20
1353.0
 30
0.0
 40
16.0
  1
寸法（Ｗ×Ｄ×Ｈ）
100
AcDbText
  0
TEXT
  5
2A9
330
B
100
AcDbEntity
  8
LEVEL001
 62
     1
100
AcDbText
 10
1309.0
 20
1216.0
 30
0.0
 40
16.0
  1
材
100
AcDbText
  0
TEXT
  5
2AA
330
B
100
AcDbEntity
  8
LEVEL001
 62
     1
100
AcDbText
 10
1309.0
 20
1173.3333333333
 30
0.0
 40
16.0
  1
質
100
AcDbText
  0
TEXT
  5
2AB
330
B
100
AcDbEntity
  8
LEVEL001
 62
     1
100
AcDbText
 10
1338.0
 20
1257.0
 30
0.0
 40
16.0
  1
消  費  電  力
100
AcDbText
  0
TEXT
  5
2AC
330
B
100
AcDbEntity
  8
LEVEL001
 62
     1
100
AcDbText
 10
1338.0
 20
1289.0
 30
0.0
 40
16.0
  1
電          源
100
AcDbText
  0
TEXT
  5
2AD
330
B
100
AcDbEntity
  8
LEVEL001
 62
     1
100
AcDbText
 10
1338.0
 20
1321.0
 30
0.0
 40
16.0
  1
能          力
100
AcDbText
  0
TEXT
  5
2AE
330
B
100
AcDbEntity
  8
LEVEL001
 62
     1
100
AcDbText
 10
1338.0
 20
1385.0
 30
0.0
 40
16.0
  1
型          式
100
AcDbText
  0
TEXT
  5
2AF
330
B
100
AcDbEntity
  8
LEVEL001
 62
     1
100
AcDbText
 10
1338.0
 20
1417.0
 30
0.0
 40
16.0
  1
製　  品  　名
100
AcDbText
  0
TEXT
  5
2B0
330
B
100
AcDbEntity
  8
LEVEL001
 62
     1
100
AcDbText
 10
1338.0
 20
1097.0
 30
0.0
 40
16.0
  1
電源プラグ
100
AcDbText
  0
TEXT
  5
2B1
330
B
100
AcDbEntity
  8
LEVEL001
 62
     1
100
AcDbText
 10
1338.0
 20
1065.0
 30
0.0
 40
16.0
  1
製品重量
100
AcDbText
  0
TEXT
  5
2B2
330
B
100
AcDbEntity
  8
LEVEL001
 62
     1
100
AcDbText
 10
1338.0
 20
1129.0
 30
0.0
 40
16.0
  1
コ－ド長さ
100
AcDbText
  0
TEXT
  5
2B3
330
B
100
AcDbEntity
  8
LEVEL001
 62
     1
100
AcDbText
 10
1514.0
 20
1129.0
 30
0.0
 40
16.0
  1
３．０ｍ
100
AcDbText
  0
TEXT
  5
2B4
330
B
100
AcDbEntity
  8
LEVEL001
 62
     1
100
AcDbText
 10
1338.0
 20
1225.0
 30
0.0
 40
16.0
  1
ドラム
100
AcDbText
  0
TEXT
  5
2B5
330
B
100
AcDbEntity
  8
LEVEL001
 62
     1
100
AcDbText
 10
1338.0
 20
1193.0
 30
0.0
 40
16.0
  1
羽根
100
AcDbText
  0
TEXT
  5
2B6
330
B
100
AcDbEntity
  8
LEVEL001
 62
     1
100
AcDbText
 10
1514.0
 20
1225.0
 30
0.0
 40
16.0
  1
ＳＵＳ３０４
100
AcDbText
  0
TEXT
  5
2B7
330
B
100
AcDbEntity
  8
LEVEL001
 62
     1
100
AcDbText
 10
1514.0
 20
1161.0
 30
0.0
 40
16.0
  1
ＳＵＳ３０４
100
AcDbText
  0
TEXT
  5
2B8
330
B
100
AcDbEntity
  8
LEVEL001
 62
     1
100
AcDbText
 10
1514.0
 20
1417.0
 30
0.0
 40
16.0
  1
攪拌式ミキサ－
100
AcDbText
  0
TEXT
  5
2B9
330
B
100
AcDbEntity
  8
LEVEL001
 62
     1
100
AcDbText
 10
1514.0
 20
1193.0
 30
0.0
 40
16.0
  1
ＳＵＳ３０４
100
AcDbText
  0
TEXT
  5
2BA
330
B
100
AcDbEntity
  8
LEVEL001
 62
     1
100
AcDbText
 10
1514.0
 20
1385.0
 30
0.0
 40
16.0
  1
ス－パ－ミックス　ＳＳ－１２Ｐ型
100
AcDbText
  0
TEXT
  5
2BB
330
B
100
AcDbEntity
  8
LEVEL001
 62
     1
100
AcDbText
 10
1514.0
 20
1353.0
 30
0.0
 40
16.0
  1
９００×４５８．３×８８０
100
AcDbText
  0
TEXT
  5
2BC
330
B
100
AcDbEntity
  8
LEVEL001
 62
     1
100
AcDbText
 10
1514.0
 20
1321.0
 30
0.0
 40
16.0
  1
６ｋｇ～１２ｋｇ／回
100
AcDbText
  0
TEXT
  5
2BD
330
B
100
AcDbEntity
  8
LEVEL001
 62
     1
100
AcDbText
 10
1514.0
 20
1289.0
 30
0.0
 40
16.0
  1
３相２００Ｖ　５０／６０Ｈｚ
100
AcDbText
  0
TEXT
  5
2BE
330
B
100
AcDbEntity
  8
LEVEL001
 62
     1
100
AcDbText
 10
1514.0
 20
1257.0
 30
0.0
 40
16.0
  1
７５０Ｗ
100
AcDbText
  0
TEXT
  5
2BF
330
B
100
AcDbEntity
  8
LEVEL001
 62
     1
100
AcDbText
 10
1514.0
 20
1065.0
 30
0.0
 40
16.0
  1
１００ｋｇ
100
AcDbText
  0
TEXT
  5
2C0
330
B
100
AcDbEntity
  8
LEVEL001
 62
     1
100
AcDbText
 10
1514.0
 20
1097.0
 30
0.0
 40
16.0
  1
４Ｐ２０Ａ
100
AcDbText
  0
ENDSEC
  0
SECTION
  2
OBJECTS
  0
DICTIONARY
  5
52
330
0
100
AcDbDictionary
281
     1
  3
ACAD_COLOR
350
2C6
  3
ACAD_GROUP
350
53
  3
ACAD_LAYOUT
350
2C9
  3
ACAD_MATERIAL
350
2C5
  3
ACAD_MLINESTYLE
350
54
  3
ACAD_PLOTSETTINGS
350
2CA
  3
ACAD_PLOTSTYLENAME
350
2C3
  3
ACAD_TABLESTYLE
350
2C7
  3
ACDBHEADERROUNDTRIPXREC
350
2D5
  3
AcDbVariableDictionary
350
2D0
  0
DICTIONARY
  5
2C6
102
{ACAD_REACTORS
330
52
102
}
330
52
100
AcDbDictionary
281
     1
  0
DICTIONARY
  5
53
102
{ACAD_REACTORS
330
52
102
}
330
0
100
AcDbDictionary
281
     1
  0
DICTIONARY
  5
2C9
102
{ACAD_REACTORS
330
52
102
}
330
52
100
AcDbDictionary
281
     1
  3
Model
350
2CB
  3
レイアウト1
350
2CC
  0
DICTIONARY
  5
2C5
102
{ACAD_REACTORS
330
52
102
}
330
52
100
AcDbDictionary
281
     1
  0
DICTIONARY
  5
54
102
{ACAD_REACTORS
330
52
102
}
330
0
100
AcDbDictionary
281
     1
  3
STANDARD
350
55
  0
DICTIONARY
  5
2CA
102
{ACAD_REACTORS
330
52
102
}
330
52
100
AcDbDictionary
281
     1
  0
ACDBDICTIONARYWDFLT
  5
2C3
102
{ACAD_REACTORS
330
52
102
}
330
52
100
AcDbDictionary
281
     1
  3
Normal
350
2C4
100
AcDbDictionaryWithDefault
340
2C4
  0
DICTIONARY
  5
2C7
102
{ACAD_REACTORS
330
52
102
}
330
52
100
AcDbDictionary
281
     1
  3
Standard
350
2C8
  0
DICTIONARY
  5
2D5
102
{ACAD_REACTORS
330
52
102
}
330
52
100
AcDbDictionary
281
     1
  0
DICTIONARY
  5
2D0
102
{ACAD_REACTORS
330
52
102
}
330
52
100
AcDbDictionary
281
     1
  3
CTABLESTYLE
350
2D1
  3
DIMASSOC
350
2D2
  3
PROJECTNAME
350
2D3
  0
LAYOUT
  5
2CB
102
{ACAD_XDICTIONARY
360
2D6
102
}
102
{ACAD_REACTORS
330
2C9
102
}
330
2C9
100
AcDbPlotSettings
  1

  2
Microsoft XPS Document Writer
  4

  6

 40
0.0
 41
0.0
 42
0.0
 43
0.0
 44
0.0
 45
0.0
 46
0.0
 47
0.0
 48
0.0
 49
0.0
140
0.0
141
0.0
142
1.0
143
1.0
 70
  1712
 72
     0
 73
     0
 74
     0
  7

 75
     0
147
1.0
148
0.0
149
0.0
100
AcDbLayout
  1
Model
 70
     1
 71
     0
 10
0.0
 20
0.0
 11
12.0
 21
9.0
 12
0.0
 22
0.0
 32
0.0
 14
0.0
 24
0.0
 34
0.0
 15
0.0
 25
0.0
 35
0.0
146
0.0
 13
0.0
 23
0.0
 33
0.0
 16
1.0
 26
0.0
 36
0.0
 17
0.0
 27
1.0
 37
0.0
 76
     0
330
B
  0
LAYOUT
  5
2CC
102
{ACAD_XDICTIONARY
360
2D8
102
}
102
{ACAD_REACTORS
330
2C9
102
}
330
2C9
100
AcDbPlotSettings
  1

  2
Microsoft XPS Document Writer
  4

  6

 40
0.0
 41
0.0
 42
0.0
 43
0.0
 44
0.0
 45
0.0
 46
0.0
 47
0.0
 48
0.0
 49
0.0
140
0.0
141
0.0
142
1.0
143
1.0
 70
   688
 72
     0
 73
     0
 74
     5
  7

 75
    16
147
1.0
148
0.0
149
0.0
100
AcDbLayout
  1
レイアウト1
 70
     1
 71
     1
 10
0.0
 20
0.0
 11
12.0
 21
9.0
 12
0.0
 22
0.0
 32
0.0
 14
1.000000000000000E+20
 24
1.000000000000000E+20
 34
1.000000000000000E+20
 15
-1.000000000000000E+20
 25
-1.000000000000000E+20
 35
-1.000000000000000E+20
146
0.0
 13
0.0
 23
0.0
 33
0.0
 16
1.0
 26
0.0
 36
0.0
 17
0.0
 27
1.0
 37
0.0
 76
     0
330
C
  0
MLINESTYLE
  5
55
102
{ACAD_REACTORS
330
54
102
}
330
0
100
AcDbMlineStyle
  2
STANDARD
 70
     0
  3

 62
   256
 51
90.0
 52
90.0
 71
     2
 49
0.5
 62
   256
  6
BYLAYER
 49
-0.5
 62
   256
  6
BYLAYER
  0
ACDBPLACEHOLDER
  5
2C4
102
{ACAD_REACTORS
330
2C3
102
}
330
2C3
  0
TABLESTYLE
  5
2C8
102
{ACAD_REACTORS
330
2C7
102
}
330
2C7
100
AcDbTableStyle
  3
Standard
 70
     0
 71
     0
 40
0.06
 41
0.06
280
     0
281
     0
  7
STANDARD
140
0.18
170
     2
 62
     0
 63
     7
283
     0
274
    -2
284
     1
 64
     0
275
    -2
285
     1
 65
     0
276
    -2
286
     1
 66
     0
277
    -2
287
     1
 67
     0
278
    -2
288
     1
 68
     0
279
    -2
289
     1
 69
     0
  7
STANDARD
140
0.25
170
     5
 62
     0
 63
     7
283
     0
274
    -2
284
     1
 64
     0
275
    -2
285
     1
 65
     0
276
    -2
286
     1
 66
     0
277
    -2
287
     1
 67
     0
278
    -2
288
     1
 68
     0
279
    -2
289
     1
 69
     0
  7
STANDARD
140
0.18
170
     5
 62
     0
 63
     7
283
     0
274
    -2
284
     1
 64
     0
275
    -2
285
     1
 65
     0
276
    -2
286
     1
 66
     0
277
    -2
287
     1
 67
     0
278
    -2
288
     1
 68
     0
279
    -2
289
     1
 69
     0
  0
DICTIONARYVAR
  5
2D1
102
{ACAD_REACTORS
330
2D0
102
}
330
2D0
100
DictionaryVariables
280
     0
  1
STANDARD
  0
DICTIONARYVAR
  5
2D2
102
{ACAD_REACTORS
330
2D0
102
}
330
2D0
100
DictionaryVariables
280
     0
  1
1
  0
DICTIONARYVAR
  5
2D3
102
{ACAD_REACTORS
330
2D0
102
}
330
2D0
100
DictionaryVariables
280
     0
  1

  0
DICTIONARY
  5
2D6
330
2CB
100
AcDbDictionary
280
     1
281
     1
  3
ACAD_XREC_ROUNDTRIP
360
2D7
  0
DICTIONARY
  5
2D8
330
2CC
100
AcDbDictionary
280
     1
281
     1
  3
ACAD_XREC_ROUNDTRIP
360
2D9
  0
XRECORD
  5
2D7
102
{ACAD_REACTORS
330
2D6
102
}
330
2D6
100
AcDbXrecord
280
     1
102
SHADEPLOT
 70
     0
102
SHADEPLOTRESLEVEL
 70
     2
102
SHADEPLOTCUSTOMDPI
 70
   300
  0
XRECORD
  5
2D9
102
{ACAD_REACTORS
330
2D8
102
}
330
2D8
100
AcDbXrecord
280
     1
102
SHADEPLOT
 70
     0
102
SHADEPLOTRESLEVEL
 70
     2
102
SHADEPLOTCUSTOMDPI
 70
   300
  0
ENDSEC
  0
EOF
