   0
SECTION
   2
HEADER
   9
$ACADVER
   1
AC1015
   9
$DWGCODEPAGE
   3
ANSI_932
   9
$LIMMIN
  10
0.0
  20
0.0
   9
$LIMMAX
  10
 2376.0000000000
  20
 1680.0000000000
   9
$EXTMIN
  10
0.0
  20
0.0
  30
0.0
   9
$EXTMAX
  10
 2376.0000000000
  20
 1680.0000000000
  30
0.0
   9
$LTSCALE
  40
 47.520000000000
   9
$HANDSEED
   5
280
   0
ENDSEC
   0
SECTION
   2
TABLES
  0
TABLE
  2
VPORT
  5
8
100
AcDbSymbolTable
 70
     1
  0
VPORT
  5
27F
100
AcDbSymbolTableRecord
100
AcDbViewportTableRecord
  2
*ACTIVE
 70
     0
 10
0.0
 20
0.0
 11
1.0
 21
1.0
  12
 1188.0000000000
  22
 840.00000000000
 13
0.0
 23
0.0
 14
1.0
 24
1.0
 15
0.0
 25
0.0
 16
0.0
 26
0.0
 36
1.0
 17
0.0
 27
0.0
 37
0.0
  40
 2376.0000000000
  41
 1.4787878787879
 42
50.0
 43
0.0
 44
0.0
 50
0.0
 51
0.0
 71
     0
 72
   100
 73
     1
 74
     1
 75
     0
 76
     0
 77
     0
 78
     0
  0
ENDTAB
  0
TABLE
  2
LTYPE
  5
5
100
AcDbSymbolTable
 70
    25
  0
LTYPE
  5
12
100
AcDbSymbolTableRecord
100
AcDbLinetypeTableRecord
  2
BYBLOCK
 70
     0
  3

 72
    65
 73
     0
 40
0.0
  0
LTYPE
  5
13
100
AcDbSymbolTableRecord
100
AcDbLinetypeTableRecord
  2
BYLAYER
 70
     0
  3

 72
    65
 73
     0
 40
0.0
  0
LTYPE
  5
14
100
AcDbSymbolTableRecord
100
AcDbLinetypeTableRecord
  2
CONTINUOUS
 70
     0
  3
Solid line
 72
    65
 73
     0
 40
0.0
  0
LTYPE
  5
20
100
AcDbSymbolTableRecord
100
AcDbLinetypeTableRecord
  2
BORDER
 70
     0
  3
__ __ . __ __ . __ __ . __ __ . __ __ . __ __ .
 72
    65
 73
     6
 40
1.75
 49
0.5
 74
     0
 49
-0.25
 74
     0
 49
0.5
 74
     0
 49
-0.25
 74
     0
 49
0.0
 74
     0
 49
-0.25
 74
     0
  0
LTYPE
  5
21
100
AcDbSymbolTableRecord
100
AcDbLinetypeTableRecord
  2
BORDER2
 70
     0
  3
__.__.__.__.__.__.__.__.__.__.__.__.__.__.__.__
 72
    65
 73
     6
 40
0.875
 49
0.25
 74
     0
 49
-0.125
 74
     0
 49
0.25
 74
     0
 49
-0.125
 74
     0
 49
0.0
 74
     0
 49
-0.125
 74
     0
  0
LTYPE
  5
22
100
AcDbSymbolTableRecord
100
AcDbLinetypeTableRecord
  2
BORDERX2
 70
     0
  3
____  ____  .  ____  ____  .  ____  ____  .  __
 72
    65
 73
     6
 40
3.5
 49
1.0
 74
     0
 49
-0.5
 74
     0
 49
1.0
 74
     0
 49
-0.5
 74
     0
 49
0.0
 74
     0
 49
-0.5
 74
     0
  0
LTYPE
  5
23
100
AcDbSymbolTableRecord
100
AcDbLinetypeTableRecord
  2
CENTER
 70
     0
  3
____ _ ____ _ ____ _ ____ _ ____ _ ____ _ ____ 
 72
    65
 73
     4
 40
2.0
 49
1.25
 74
     0
 49
-0.25
 74
     0
 49
0.25
 74
     0
 49
-0.25
 74
     0
  0
LTYPE
  5
24
100
AcDbSymbolTableRecord
100
AcDbLinetypeTableRecord
  2
CENTER2
 70
     0
  3
___ _ ___ _ ___ _ ___ _ ___ _ ___ _ ___ _ ___ _
 72
    65
 73
     4
 40
1.125
 49
0.75
 74
     0
 49
-0.125
 74
     0
 49
0.125
 74
     0
 49
-0.125
 74
     0
  0
LTYPE
  5
25
100
AcDbSymbolTableRecord
100
AcDbLinetypeTableRecord
  2
CENTERX2
 70
     0
  3
________  __  ________  __  ________  __  _____
 72
    65
 73
     4
 40
4.0
 49
2.5
 74
     0
 49
-0.5
 74
     0
 49
0.5
 74
     0
 49
-0.5
 74
     0
  0
LTYPE
  5
26
100
AcDbSymbolTableRecord
100
AcDbLinetypeTableRecord
  2
DASHDOT
 70
     0
  3
__ . __ . __ . __ . __ . __ . __ . __ . __ . __
 72
    65
 73
     4
 40
1.0
 49
0.5
 74
     0
 49
-0.25
 74
     0
 49
0.0
 74
     0
 49
-0.25
 74
     0
  0
LTYPE
  5
27
100
AcDbSymbolTableRecord
100
AcDbLinetypeTableRecord
  2
DASHDOT2
 70
     0
  3
_._._._._._._._._._._._._._._._._._._._._._._._
 72
    65
 73
     4
 40
0.5
 49
0.25
 74
     0
 49
-0.125
 74
     0
 49
0.0
 74
     0
 49
-0.125
 74
     0
  0
LTYPE
  5
28
100
AcDbSymbolTableRecord
100
AcDbLinetypeTableRecord
  2
DASHDOTX2
 70
     0
  3
____  .  ____  .  ____  .  ____  .  ____  .  __
 72
    65
 73
     4
 40
2.0
 49
1.0
 74
     0
 49
-0.5
 74
     0
 49
0.0
 74
     0
 49
-0.5
 74
     0
  0
LTYPE
  5
29
100
AcDbSymbolTableRecord
100
AcDbLinetypeTableRecord
  2
DASHED
 70
     0
  3
__ __ __ __ __ __ __ __ __ __ __ __ __ __ __ __
 72
    65
 73
     2
 40
0.75
 49
0.5
 74
     0
 49
-0.25
 74
     0
  0
LTYPE
  5
2A
100
AcDbSymbolTableRecord
100
AcDbLinetypeTableRecord
  2
DASHED2
 70
     0
  3
_ _ _ _ _ _ _ _ _ _ _ _ _ _ _ _ _ _ _ _ _ _ _ _
 72
    65
 73
     2
 40
0.375
 49
0.25
 74
     0
 49
-0.125
 74
     0
  0
LTYPE
  5
2B
100
AcDbSymbolTableRecord
100
AcDbLinetypeTableRecord
  2
DASHEDX2
 70
     0
  3
____  ____  ____  ____  ____  ____  ____  ____ 
 72
    65
 73
     2
 40
1.5
 49
1.0
 74
     0
 49
-0.5
 74
     0
  0
LTYPE
  5
2C
100
AcDbSymbolTableRecord
100
AcDbLinetypeTableRecord
  2
DIVIDE
 70
     0
  3
____ . . ____ . . ____ . . ____ . . ____ . . __
 72
    65
 73
     6
 40
1.25
 49
0.5
 74
     0
 49
-0.25
 74
     0
 49
0.0
 74
     0
 49
-0.25
 74
     0
 49
0.0
 74
     0
 49
-0.25
 74
     0
  0
LTYPE
  5
2D
100
AcDbSymbolTableRecord
100
AcDbLinetypeTableRecord
  2
DIVIDE2
 70
     0
  3
__..__..__..__..__..__..__..__..__..__..__..__.
 72
    65
 73
     6
 40
0.625
 49
0.25
 74
     0
 49
-0.125
 74
     0
 49
0.0
 74
     0
 49
-0.125
 74
     0
 49
0.0
 74
     0
 49
-0.125
 74
     0
  0
LTYPE
  5
2E
100
AcDbSymbolTableRecord
100
AcDbLinetypeTableRecord
  2
DIVIDEX2
 70
     0
  3
________  .  .  ________  .  .  ________  .  . 
 72
    65
 73
     6
 40
2.5
 49
1.0
 74
     0
 49
-0.5
 74
     0
 49
0.0
 74
     0
 49
-0.5
 74
     0
 49
0.0
 74
     0
 49
-0.5
 74
     0
  0
LTYPE
  5
2F
100
AcDbSymbolTableRecord
100
AcDbLinetypeTableRecord
  2
DOT
 70
     0
  3
. . . . . . . . . . . . . . . . . . . . . . . .
 72
    65
 73
     2
 40
0.25
 49
0.0
 74
     0
 49
-0.25
 74
     0
  0
LTYPE
  5
30
100
AcDbSymbolTableRecord
100
AcDbLinetypeTableRecord
  2
DOT2
 70
     0
  3
...............................................
 72
    65
 73
     2
 40
0.125
 49
0.0
 74
     0
 49
-0.125
 74
     0
  0
LTYPE
  5
31
100
AcDbSymbolTableRecord
100
AcDbLinetypeTableRecord
  2
DOTX2
 70
     0
  3
.  .  .  .  .  .  .  .  .  .  .  .  .  .  .  . 
 72
    65
 73
     2
 40
0.5
 49
0.0
 74
     0
 49
-0.5
 74
     0
  0
LTYPE
  5
32
100
AcDbSymbolTableRecord
100
AcDbLinetypeTableRecord
  2
HIDDEN
 70
     0
  3
__ __ __ __ __ __ __ __ __ __ __ __ __ __ __ __
 72
    65
 73
     2
 40
0.375
 49
0.25
 74
     0
 49
-0.125
 74
     0
  0
LTYPE
  5
33
100
AcDbSymbolTableRecord
100
AcDbLinetypeTableRecord
  2
HIDDEN2
 70
     0
  3
_ _ _ _ _ _ _ _ _ _ _ _ _ _ _ _ _ _ _ _ _ _ _ _
 72
    65
 73
     2
 40
0.1875
 49
0.125
 74
     0
 49
-0.0625
 74
     0
  0
LTYPE
  5
34
100
AcDbSymbolTableRecord
100
AcDbLinetypeTableRecord
  2
HIDDENX2
 70
     0
  3
____ ____ ____ ____ ____ ____ ____ ____ ____ __
 72
    65
 73
     2
 40
0.75
 49
0.5
 74
     0
 49
-0.25
 74
     0
  0
LTYPE
  5
35
100
AcDbSymbolTableRecord
100
AcDbLinetypeTableRecord
  2
PHANTOM
 70
     0
  3
______  __  __  ______  __  __  ______  __  __ 
 72
    65
 73
     6
 40
2.5
 49
1.25
 74
     0
 49
-0.25
 74
     0
 49
0.25
 74
     0
 49
-0.25
 74
     0
 49
0.25
 74
     0
 49
-0.25
 74
     0
  0
LTYPE
  5
36
100
AcDbSymbolTableRecord
100
AcDbLinetypeTableRecord
  2
PHANTOM2
 70
     0
  3
___ _ _ ___ _ _ ___ _ _ ___ _ _ ___ _ _ ___ _ _
 72
    65
 73
     6
 40
1.25
 49
0.625
 74
     0
 49
-0.125
 74
     0
 49
0.125
 74
     0
 49
-0.125
 74
     0
 49
0.125
 74
     0
 49
-0.125
 74
     0
  0
LTYPE
  5
37
100
AcDbSymbolTableRecord
100
AcDbLinetypeTableRecord
  2
PHANTOMX2
 70
     0
  3
____________    ____    ____    ____________   
 72
    65
 73
     6
 40
5.0
 49
2.5
 74
     0
 49
-0.5
 74
     0
 49
0.5
 74
     0
 49
-0.5
 74
     0
 49
0.5
 74
     0
 49
-0.5
 74
     0
  0
ENDTAB
   0
TABLE
   2
LAYER
   5
2
 100
AcDbSymbolTable
  70
5
   0
LAYER
   5
E
 100
AcDbSymbolTableRecord
 100
AcDbLayerTableRecord
   2
0
  70
0
  62
7
   6
CONTINUOUS
 390
30
   0
LAYER
   5
39
 100
AcDbSymbolTableRecord
 100
AcDbLayerTableRecord
   2
LEVEL001
  70
0
  62
7
   6
CONTINUOUS
 390
30
   0
LAYER
   5
3A
 100
AcDbSymbolTableRecord
 100
AcDbLayerTableRecord
   2
内図枠(作図領域)
  70
0
  62
7
   6
CONTINUOUS
 390
30
   0
LAYER
   5
3B
 100
AcDbSymbolTableRecord
 100
AcDbLayerTableRecord
   2
外図枠(出力紙領域)
  70
0
  62
7
   6
CONTINUOUS
 390
30
   0
LAYER
   5
3C
 100
AcDbSymbolTableRecord
 100
AcDbLayerTableRecord
   2
部品表金額表示用
  70
0
  62
7
   6
CONTINUOUS
 390
30
   0
ENDTAB
  0
TABLE
  2
STYLE
  5
3
100
AcDbSymbolTable
  70
6
  0
STYLE
  5
F
100
AcDbSymbolTableRecord
100
AcDbTextStyleTableRecord
  2
STANDARD
 70
     0
 40
0.0
 41
1.0
 50
0.0
 71
     0
 42
0.2
  3
TXT
  4
BIGFONT
  0
STYLE
  5
38
100
AcDbSymbolTableRecord
100
AcDbTextStyleTableRecord
  2
STANDARD1
 70
     4
 40
0.0
 41
1.0
 50
0.0
 71
     0
 42
0.2
  3
TXT
  4
BIGFONT
   0
STYLE
   5
3D
 100
AcDbSymbolTableRecord
 100
AcDbTextStyleTableRecord
   2
GMM001
  70
0
  40
0.0
  41
 1.0000000000000
  50
0.0
  71
     0
  42
1.0
   3
txt.shx
   4
bigfont.shx
   0
STYLE
   5
3E
 100
AcDbSymbolTableRecord
 100
AcDbTextStyleTableRecord
   2
GMM002
  70
4
  40
0.0
  41
 1.0000000000000
  50
0.0
  71
     0
  42
1.0
   3
txt.shx
   4
bigfont.shx
   0
STYLE
   5
3F
 100
AcDbSymbolTableRecord
 100
AcDbTextStyleTableRecord
   2
GMM003
  70
0
  40
0.0
  41
 0.80000001192093
  50
0.0
  71
     0
  42
1.0
   3
txt.shx
   4
bigfont.shx
   0
STYLE
   5
40
 100
AcDbSymbolTableRecord
 100
AcDbTextStyleTableRecord
   2
GMM004
  70
0
  40
0.0
  41
 0.50000000000000
  50
0.0
  71
     0
  42
1.0
   3
txt.shx
   4
bigfont.shx
   0
ENDTAB
  0
TABLE
  2
VIEW
  5
6
100
AcDbSymbolTable
 70
     0
  0
ENDTAB
  0
TABLE
  2
UCS
  5
7
100
AcDbSymbolTable
 70
     0
  0
ENDTAB
  0
TABLE
  2
APPID
  5
9
100
AcDbSymbolTable
 70
     1
  0
APPID
  5
10
100
AcDbSymbolTableRecord
100
AcDbRegAppTableRecord
  2
ACAD
 70
     0
  0
ENDTAB
   0
TABLE
   2
DIMSTYLE
   5
A
 100
AcDbSymbolTable
  70
4
 100
AcDbDimStyleTable
  0
DIMSTYLE
105
1D
100
AcDbSymbolTableRecord
100
AcDbDimStyleTableRecord
  2
STANDARD
 70
     0
  3

  4

  5

  6

  7

 40
1.0
 41
0.18
 42
0.0625
 43
0.38
 44
0.18
 45
0.0
 46
0.0
 47
0.0
 48
0.0
140
0.18
141
0.09
142
0.0
143
25.4
144
1.0
145
0.0
146
1.0
147
0.09
 71
     0
 72
     0
 73
     1
 74
     1
 75
     0
 76
     0
 77
     0
 78
     0
170
     0
171
     2
172
     0
173
     0
174
     0
175
     0
176
     0
177
     0
178
     0
270
     2
271
     4
272
     4
273
     2
274
     2
340
F
275
     0
280
     0
281
     0
282
     0
283
     1
284
     0
285
     0
286
     0
287
     3
288
     0
   0
DIMSTYLE
 105
41
 100
AcDbSymbolTableRecord
 100
AcDbDimStyleTableRecord
   2
GMM001
  70
0
   3

   4

   5

   6
_OPEN30
   7
_OPEN30
  40
 1.0000000000000
  41
 12.000000000000
  42
0.0
  43
 32.000000000000
  44
 8.0000000000000
  45
0.0
  46
0.0
  47
0.0
  48
0.0
 140
 16.000000000000
 141
 4.0000000000000
 142
0.0
 143
 0.39400000000000E-1
 144
 1.0000000000000
 145
0.0
 146
 0.62500000000000
 147
 6.8571428571429
  71
0
  72
0
  73
0
  74
0
  75
0
  76
0
  77
3
  78
8
 170
0
 171
2
 172
1
 173
1
 174
0
 175
0
 176
1
 177
1
 178
7
 270
2
 271
6
 272
0
 273
2
 274
2
 340
3D
 275
0
 280
0
 281
0
 282
0
 283
1
 284
0
 285
0
 286
0
 287
5
 288
1
   0
DIMSTYLE
 105
42
 100
AcDbSymbolTableRecord
 100
AcDbDimStyleTableRecord
   2
GMM002
  70
0
   3
R<>
   4

   5

   6
_NONE
   7
_OPEN30
  40
 1.0000000000000
  41
 12.000000000000
  42
0.0
  43
 32.000000000000
  44
 8.0000000000000
  45
0.0
  46
0.0
  47
0.0
  48
0.0
 140
 16.000000000000
 141
 4.0000000000000
 142
0.0
 143
 0.39400000000000E-1
 144
 1.0000000000000
 145
0.0
 146
 0.62500000000000
 147
 5.2444329062508
  71
0
  72
0
  73
0
  74
0
  75
0
  76
0
  77
3
  78
8
 170
0
 171
2
 172
1
 173
1
 174
0
 175
0
 176
1
 177
1
 178
7
 270
2
 271
6
 272
0
 273
2
 274
2
 340
3D
 275
0
 280
0
 281
0
 282
0
 283
1
 284
0
 285
0
 286
0
 287
0
 288
1
   0
ENDTAB
  0
TABLE
  2
BLOCK_RECORD
  5
1
100
AcDbSymbolTable
 70
     0
  0
BLOCK_RECORD
  5
18
100
AcDbSymbolTableRecord
100
AcDbBlockTableRecord
  2
*MODEL_SPACE
  0
BLOCK_RECORD
  5
15
100
AcDbSymbolTableRecord
100
AcDbBlockTableRecord
  2
*PAPER_SPACE
   0
BLOCK_RECORD
   5
43
 100
AcDbSymbolTableRecord
 100
AcDbBlockTableRecord
   2
BLOCK001
   0
BLOCK_RECORD
   5
44
 100
AcDbSymbolTableRecord
 100
AcDbBlockTableRecord
   2
BLOCK002
   0
BLOCK_RECORD
   5
45
 100
AcDbSymbolTableRecord
 100
AcDbBlockTableRecord
   2
BLOCK003
   0
BLOCK_RECORD
   5
46
 100
AcDbSymbolTableRecord
 100
AcDbBlockTableRecord
   2
*D1
   0
BLOCK_RECORD
   5
47
 100
AcDbSymbolTableRecord
 100
AcDbBlockTableRecord
   2
*D2
   0
BLOCK_RECORD
   5
48
 100
AcDbSymbolTableRecord
 100
AcDbBlockTableRecord
   2
*D3
   0
BLOCK_RECORD
   5
49
 100
AcDbSymbolTableRecord
 100
AcDbBlockTableRecord
   2
*D4
   0
BLOCK_RECORD
   5
4A
 100
AcDbSymbolTableRecord
 100
AcDbBlockTableRecord
   2
*D5
   0
BLOCK_RECORD
   5
4B
 100
AcDbSymbolTableRecord
 100
AcDbBlockTableRecord
   2
*D6
   0
BLOCK_RECORD
   5
4C
 100
AcDbSymbolTableRecord
 100
AcDbBlockTableRecord
   2
*D7
   0
BLOCK_RECORD
   5
4D
 100
AcDbSymbolTableRecord
 100
AcDbBlockTableRecord
   2
*D8
   0
BLOCK_RECORD
   5
4E
 100
AcDbSymbolTableRecord
 100
AcDbBlockTableRecord
   2
GMM001
   0
BLOCK_RECORD
   5
4F
 100
AcDbSymbolTableRecord
 100
AcDbBlockTableRecord
   2
_ARCHTICK
   0
BLOCK_RECORD
   5
50
 100
AcDbSymbolTableRecord
 100
AcDbBlockTableRecord
   2
_BOXBLANK
   0
BLOCK_RECORD
   5
51
 100
AcDbSymbolTableRecord
 100
AcDbBlockTableRecord
   2
_BOXFILLED
   0
BLOCK_RECORD
   5
52
 100
AcDbSymbolTableRecord
 100
AcDbBlockTableRecord
   2
_CLOSED
   0
BLOCK_RECORD
   5
53
 100
AcDbSymbolTableRecord
 100
AcDbBlockTableRecord
   2
_CLOSEDBLANK
   0
BLOCK_RECORD
   5
54
 100
AcDbSymbolTableRecord
 100
AcDbBlockTableRecord
   2
_DATUMBLANK
   0
BLOCK_RECORD
   5
55
 100
AcDbSymbolTableRecord
 100
AcDbBlockTableRecord
   2
_DATUMFILLED
   0
BLOCK_RECORD
   5
56
 100
AcDbSymbolTableRecord
 100
AcDbBlockTableRecord
   2
_DOT
   0
BLOCK_RECORD
   5
57
 100
AcDbSymbolTableRecord
 100
AcDbBlockTableRecord
   2
_DOTBLANK
   0
BLOCK_RECORD
   5
58
 100
AcDbSymbolTableRecord
 100
AcDbBlockTableRecord
   2
_DOTSMALL
   0
BLOCK_RECORD
   5
59
 100
AcDbSymbolTableRecord
 100
AcDbBlockTableRecord
   2
_INTEGRAL
   0
BLOCK_RECORD
   5
5A
 100
AcDbSymbolTableRecord
 100
AcDbBlockTableRecord
   2
_NONE
   0
BLOCK_RECORD
   5
5B
 100
AcDbSymbolTableRecord
 100
AcDbBlockTableRecord
   2
_OBLIQUE
   0
BLOCK_RECORD
   5
5C
 100
AcDbSymbolTableRecord
 100
AcDbBlockTableRecord
   2
_OPEN
   0
BLOCK_RECORD
   5
5D
 100
AcDbSymbolTableRecord
 100
AcDbBlockTableRecord
   2
_OPEN30
   0
BLOCK_RECORD
   5
5E
 100
AcDbSymbolTableRecord
 100
AcDbBlockTableRecord
   2
_OPEN90
   0
BLOCK_RECORD
   5
5F
 100
AcDbSymbolTableRecord
 100
AcDbBlockTableRecord
   2
_ORIGIN
   0
ENDTAB
   0
ENDSEC
  0
SECTION
  2
BLOCKS
  0
BLOCK
  5
19
100
AcDbEntity
  8
0
100
AcDbBlockBegin
  2
*MODEL_SPACE
 70
     0
 10
0.0
 20
0.0
 30
0.0
  3
*MODEL_SPACE
  1

  0
ENDBLK
  5
1A
100
AcDbEntity
  8
0
100
AcDbBlockEnd
  0
BLOCK
  5
16
100
AcDbEntity
 67
     1
  8
0
100
AcDbBlockBegin
  2
*PAPER_SPACE
 70
     0
 10
0.0
 20
0.0
 30
0.0
  3
*PAPER_SPACE
  1

  0
ENDBLK
  5
17
100
AcDbEntity
 67
     1
  8
0
100
AcDbBlockEnd
   0
BLOCK
   5
60
 100
AcDbEntity
   8
0
 100
AcDbBlockBegin
   2
_ARCHTICK
  70
0
  10
0.0
  20
0.0
  30
0.0
   3
_ARCHTICK
   0
POLYLINE
   5
61
 100
AcDbEntity
   8
0
 370
-2
   6
BYBLOCK
  62
0
 100
AcDb2dPolyline
  66
1
  10
0.0
  20
0.0
  30
0.0
  70
1
  40
 0.15000000000000
  41
 0.15000000000000
   0
VERTEX
   5
62
 100
AcDbEntity
   8
0
   6
BYBLOCK
  62
0
 100
AcDbVertex
 100
AcDb2dVertex
  10
-0.50000000000000
  20
-0.50000000000000
  30
0.0
  40
 0.15000000000000
  41
 0.15000000000000
   0
VERTEX
   5
63
 100
AcDbEntity
   8
0
   6
BYBLOCK
  62
0
 100
AcDbVertex
 100
AcDb2dVertex
  10
 0.50000000000000
  20
 0.50000000000000
  30
0.0
  40
 0.15000000000000
  41
 0.15000000000000
   0
SEQEND
   5
64
 100
AcDbEntity
   8
0
   6
BYBLOCK
  62
0
   0
ENDBLK
   5
65
 100
AcDbEntity
   8
0
 100
AcDbBlockEnd
   0
BLOCK
   5
66
 100
AcDbEntity
   8
0
 100
AcDbBlockBegin
   2
_OBLIQUE
  70
0
  10
0.0
  20
0.0
  30
0.0
   3
_OBLIQUE
   0
LINE
   5
67
 100
AcDbEntity
   8
0
 370
-2
 100
AcDbLine
   6
BYBLOCK
  62
0
  10
-0.50000000000000
  20
-0.50000000000000
  30
0.0
  11
 0.50000000000000
  21
 0.50000000000000
  31
0.0
   0
ENDBLK
   5
68
 100
AcDbEntity
   8
0
 100
AcDbBlockEnd
   0
BLOCK
   5
69
 100
AcDbEntity
   8
0
 100
AcDbBlockBegin
   2
_BOXBLANK
  70
0
  10
0.0
  20
0.0
  30
0.0
   3
_BOXBLANK
   0
LINE
   5
6A
 100
AcDbEntity
   8
0
 370
-2
 100
AcDbLine
   6
BYBLOCK
  62
0
  10
-0.50000000000000
  20
-0.50000000000000
  30
0.0
  11
 0.50000000000000
  21
-0.50000000000000
  31
0.0
   0
LINE
   5
6B
 100
AcDbEntity
   8
0
 370
-2
 100
AcDbLine
   6
BYBLOCK
  62
0
  10
 0.50000000000000
  20
-0.50000000000000
  30
0.0
  11
 0.50000000000000
  21
 0.50000000000000
  31
0.0
   0
LINE
   5
6C
 100
AcDbEntity
   8
0
 370
-2
 100
AcDbLine
   6
BYBLOCK
  62
0
  10
 0.50000000000000
  20
 0.50000000000000
  30
0.0
  11
-0.50000000000000
  21
 0.50000000000000
  31
0.0
   0
LINE
   5
6D
 100
AcDbEntity
   8
0
 370
-2
 100
AcDbLine
   6
BYBLOCK
  62
0
  10
-0.50000000000000
  20
 0.50000000000000
  30
0.0
  11
-0.50000000000000
  21
-0.50000000000000
  31
0.0
   0
LINE
   5
6E
 100
AcDbEntity
   8
0
 370
-2
 100
AcDbLine
   6
BYBLOCK
  62
0
  10
-0.50000000000000
  20
0.0
  30
0.0
  11
-1.0000000000000
  21
0.0
  31
0.0
   0
ENDBLK
   5
6F
 100
AcDbEntity
   8
0
 100
AcDbBlockEnd
   0
BLOCK
   5
70
 100
AcDbEntity
   8
0
 100
AcDbBlockBegin
   2
_BOXFILLED
  70
0
  10
0.0
  20
0.0
  30
0.0
   3
_BOXFILLED
   0
SOLID
   5
71
 100
AcDbEntity
   8
0
 100
AcDbTrace
   6
BYBLOCK
  62
0
  10
-0.50000000000000
  20
 0.50000000000000
  30
0.0
  11
 0.50000000000000
  21
 0.50000000000000
  31
0.0
  12
-0.50000000000000
  22
-0.50000000000000
  32
0.0
  13
 0.50000000000000
  23
-0.50000000000000
  33
0.0
   0
LINE
   5
72
 100
AcDbEntity
   8
0
 370
-2
 100
AcDbLine
   6
BYBLOCK
  62
0
  10
-0.50000000000000
  20
0.0
  30
0.0
  11
-1.0000000000000
  21
0.0
  31
0.0
   0
ENDBLK
   5
73
 100
AcDbEntity
   8
0
 100
AcDbBlockEnd
   0
BLOCK
   5
74
 100
AcDbEntity
   8
0
 100
AcDbBlockBegin
   2
_CLOSED
  70
0
  10
0.0
  20
0.0
  30
0.0
   3
_CLOSED
   0
LINE
   5
75
 100
AcDbEntity
   8
0
 370
-2
 100
AcDbLine
   6
BYBLOCK
  62
0
  10
-1.0000000000000
  20
 0.16666666666667
  30
0.0
  11
0.0
  21
0.0
  31
0.0
   0
LINE
   5
76
 100
AcDbEntity
   8
0
 370
-2
 100
AcDbLine
   6
BYBLOCK
  62
0
  10
0.0
  20
0.0
  30
0.0
  11
-1.0000000000000
  21
-0.16666666666667
  31
0.0
   0
LINE
   5
77
 100
AcDbEntity
   8
0
 370
-2
 100
AcDbLine
   6
BYBLOCK
  62
0
  10
-1.0000000000000
  20
 0.16666666666667
  30
0.0
  11
-1.0000000000000
  21
-0.16666666666667
  31
0.0
   0
LINE
   5
78
 100
AcDbEntity
   8
0
 370
-2
 100
AcDbLine
   6
BYBLOCK
  62
0
  10
0.0
  20
0.0
  30
0.0
  11
-1.0000000000000
  21
0.0
  31
0.0
   0
ENDBLK
   5
79
 100
AcDbEntity
   8
0
 100
AcDbBlockEnd
   0
BLOCK
   5
7A
 100
AcDbEntity
   8
0
 100
AcDbBlockBegin
   2
_OPEN
  70
0
  10
0.0
  20
0.0
  30
0.0
   3
_OPEN
   0
LINE
   5
7B
 100
AcDbEntity
   8
0
 370
-2
 100
AcDbLine
   6
BYBLOCK
  62
0
  10
-1.0000000000000
  20
 0.16666666666667
  30
0.0
  11
0.0
  21
0.0
  31
0.0
   0
LINE
   5
7C
 100
AcDbEntity
   8
0
 370
-2
 100
AcDbLine
   6
BYBLOCK
  62
0
  10
0.0
  20
0.0
  30
0.0
  11
-1.0000000000000
  21
-0.16666666666667
  31
0.0
   0
LINE
   5
7D
 100
AcDbEntity
   8
0
 370
-2
 100
AcDbLine
   6
BYBLOCK
  62
0
  10
0.0
  20
0.0
  30
0.0
  11
-1.0000000000000
  21
0.0
  31
0.0
   0
ENDBLK
   5
7E
 100
AcDbEntity
   8
0
 100
AcDbBlockEnd
   0
BLOCK
   5
7F
 100
AcDbEntity
   8
0
 100
AcDbBlockBegin
   2
_OPEN30
  70
0
  10
0.0
  20
0.0
  30
0.0
   3
_OPEN30
   0
LINE
   5
80
 100
AcDbEntity
   8
0
 370
-2
 100
AcDbLine
   6
BYBLOCK
  62
0
  10
-1.0000000000000
  20
 0.26794919243110
  30
0.0
  11
0.0
  21
0.0
  31
0.0
   0
LINE
   5
81
 100
AcDbEntity
   8
0
 370
-2
 100
AcDbLine
   6
BYBLOCK
  62
0
  10
0.0
  20
0.0
  30
0.0
  11
-1.0000000000000
  21
-0.26794919243110
  31
0.0
   0
LINE
   5
82
 100
AcDbEntity
   8
0
 370
-2
 100
AcDbLine
   6
BYBLOCK
  62
0
  10
0.0
  20
0.0
  30
0.0
  11
-1.0000000000000
  21
0.0
  31
0.0
   0
ENDBLK
   5
83
 100
AcDbEntity
   8
0
 100
AcDbBlockEnd
   0
BLOCK
   5
84
 100
AcDbEntity
   8
0
 100
AcDbBlockBegin
   2
_OPEN90
  70
0
  10
0.0
  20
0.0
  30
0.0
   3
_OPEN90
   0
LINE
   5
85
 100
AcDbEntity
   8
0
 370
-2
 100
AcDbLine
   6
BYBLOCK
  62
0
  10
-0.50000000000000
  20
 0.50000000000000
  30
0.0
  11
0.0
  21
0.0
  31
0.0
   0
LINE
   5
86
 100
AcDbEntity
   8
0
 370
-2
 100
AcDbLine
   6
BYBLOCK
  62
0
  10
0.0
  20
0.0
  30
0.0
  11
-0.50000000000000
  21
-0.50000000000000
  31
0.0
   0
LINE
   5
87
 100
AcDbEntity
   8
0
 370
-2
 100
AcDbLine
   6
BYBLOCK
  62
0
  10
0.0
  20
0.0
  30
0.0
  11
-1.0000000000000
  21
0.0
  31
0.0
   0
ENDBLK
   5
88
 100
AcDbEntity
   8
0
 100
AcDbBlockEnd
   0
BLOCK
   5
89
 100
AcDbEntity
   8
0
 100
AcDbBlockBegin
   2
_CLOSEDBLANK
  70
0
  10
0.0
  20
0.0
  30
0.0
   3
_CLOSEDBLANK
   0
LINE
   5
8A
 100
AcDbEntity
   8
0
 370
-2
 100
AcDbLine
   6
BYBLOCK
  62
0
  10
-1.0000000000000
  20
 0.16666666666667
  30
0.0
  11
0.0
  21
0.0
  31
0.0
   0
LINE
   5
8B
 100
AcDbEntity
   8
0
 370
-2
 100
AcDbLine
   6
BYBLOCK
  62
0
  10
0.0
  20
0.0
  30
0.0
  11
-1.0000000000000
  21
-0.16666666666667
  31
0.0
   0
LINE
   5
8C
 100
AcDbEntity
   8
0
 370
-2
 100
AcDbLine
   6
BYBLOCK
  62
0
  10
-1.0000000000000
  20
 0.16666666666667
  30
0.0
  11
-1.0000000000000
  21
-0.16666666666667
  31
0.0
   0
ENDBLK
   5
8D
 100
AcDbEntity
   8
0
 100
AcDbBlockEnd
   0
BLOCK
   5
8E
 100
AcDbEntity
   8
0
 100
AcDbBlockBegin
   2
_DOT
  70
0
  10
0.0
  20
0.0
  30
0.0
   3
_DOT
   0
POLYLINE
   5
8F
 100
AcDbEntity
   8
0
 370
-2
   6
BYBLOCK
  62
0
 100
AcDb2dPolyline
  66
1
  10
0.0
  20
0.0
  30
0.0
  70
1
  40
 0.50000000000000
  41
 0.50000000000000
   0
VERTEX
   5
90
 100
AcDbEntity
   8
0
   6
BYBLOCK
  62
0
 100
AcDbVertex
 100
AcDb2dVertex
  10
-0.25000000000000
  20
0.0
  30
0.0
  42
 1.0000000000000
  40
 0.50000000000000
  41
 0.50000000000000
   0
VERTEX
   5
91
 100
AcDbEntity
   8
0
   6
BYBLOCK
  62
0
 100
AcDbVertex
 100
AcDb2dVertex
  10
 0.25000000000000
  20
0.0
  30
0.0
  42
 1.0000000000000
  40
 0.50000000000000
  41
 0.50000000000000
   0
SEQEND
   5
92
 100
AcDbEntity
   8
0
   6
BYBLOCK
  62
0
   0
LINE
   5
93
 100
AcDbEntity
   8
0
 370
-2
 100
AcDbLine
   6
BYBLOCK
  62
0
  10
-0.50000000000000
  20
0.0
  30
0.0
  11
-1.0000000000000
  21
0.0
  31
0.0
   0
ENDBLK
   5
94
 100
AcDbEntity
   8
0
 100
AcDbBlockEnd
   0
BLOCK
   5
95
 100
AcDbEntity
   8
0
 100
AcDbBlockBegin
   2
_DOTSMALL
  70
0
  10
0.0
  20
0.0
  30
0.0
   3
_DOTSMALL
   0
POLYLINE
   5
96
 100
AcDbEntity
   8
0
 370
-2
   6
BYBLOCK
  62
0
 100
AcDb2dPolyline
  66
1
  10
0.0
  20
0.0
  30
0.0
  70
1
  40
 0.50000000000000
  41
 0.50000000000000
   0
VERTEX
   5
97
 100
AcDbEntity
   8
0
   6
BYBLOCK
  62
0
 100
AcDbVertex
 100
AcDb2dVertex
  10
-0.62500000000000E-1
  20
0.0
  30
0.0
  42
 1.0000000000000
  40
 0.50000000000000
  41
 0.50000000000000
   0
VERTEX
   5
98
 100
AcDbEntity
   8
0
   6
BYBLOCK
  62
0
 100
AcDbVertex
 100
AcDb2dVertex
  10
 0.62500000000000E-1
  20
0.0
  30
0.0
  42
 1.0000000000000
  40
 0.50000000000000
  41
 0.50000000000000
   0
SEQEND
   5
99
 100
AcDbEntity
   8
0
   6
BYBLOCK
  62
0
   0
ENDBLK
   5
9A
 100
AcDbEntity
   8
0
 100
AcDbBlockEnd
   0
BLOCK
   5
9B
 100
AcDbEntity
   8
0
 100
AcDbBlockBegin
   2
_DATUMBLANK
  70
0
  10
0.0
  20
0.0
  30
0.0
   3
_DATUMBLANK
   0
LINE
   5
9C
 100
AcDbEntity
   8
0
 370
-2
 100
AcDbLine
   6
BYBLOCK
  62
0
  10
0.0
  20
 0.57735027000000
  30
0.0
  11
-1.0000000000000
  21
0.0
  31
0.0
   0
LINE
   5
9D
 100
AcDbEntity
   8
0
 370
-2
 100
AcDbLine
   6
BYBLOCK
  62
0
  10
-1.0000000000000
  20
0.0
  30
0.0
  11
0.0
  21
-0.57735027000000
  31
0.0
   0
LINE
   5
9E
 100
AcDbEntity
   8
0
 370
-2
 100
AcDbLine
   6
BYBLOCK
  62
0
  10
0.0
  20
-0.57735027000000
  30
0.0
  11
0.0
  21
 0.57735027000000
  31
0.0
   0
ENDBLK
   5
9F
 100
AcDbEntity
   8
0
 100
AcDbBlockEnd
   0
BLOCK
   5
A0
 100
AcDbEntity
   8
0
 100
AcDbBlockBegin
   2
_DATUMFILLED
  70
0
  10
0.0
  20
0.0
  30
0.0
   3
_DATUMFILLED
   0
SOLID
   5
A1
 100
AcDbEntity
   8
0
 100
AcDbTrace
   6
BYBLOCK
  62
0
  10
0.0
  20
 0.57735027000000
  30
0.0
  11
-1.0000000000000
  21
0.0
  31
0.0
  12
0.0
  22
-0.57735027000000
  32
0.0
  13
0.0
  23
-0.57735027000000
  33
0.0
   0
ENDBLK
   5
A2
 100
AcDbEntity
   8
0
 100
AcDbBlockEnd
   0
BLOCK
   5
A3
 100
AcDbEntity
   8
0
 100
AcDbBlockBegin
   2
_ORIGIN
  70
0
  10
0.0
  20
0.0
  30
0.0
   3
_ORIGIN
   0
CIRCLE
   5
A4
 100
AcDbEntity
   8
0
 370
-2
 100
AcDbCircle
   6
BYBLOCK
  62
0
  10
0.0
  20
0.0
  30
0.0
  40
 0.50000000000000
   0
LINE
   5
A5
 100
AcDbEntity
   8
0
 370
-2
 100
AcDbLine
   6
BYBLOCK
  62
0
  10
0.0
  20
0.0
  30
0.0
  11
-1.0000000000000
  21
0.0
  31
0.0
   0
ENDBLK
   5
A6
 100
AcDbEntity
   8
0
 100
AcDbBlockEnd
   0
BLOCK
   5
A7
 100
AcDbEntity
   8
0
 100
AcDbBlockBegin
   2
_NONE
  70
0
  10
0.0
  20
0.0
  30
0.0
   3
_NONE
   0
CIRCLE
   5
A8
 100
AcDbEntity
   8
0
 370
-2
 100
AcDbCircle
   6
BYBLOCK
  62
0
  10
0.0
  20
0.0
  30
0.0
  40
 0.25000000000000
   0
ENDBLK
   5
A9
 100
AcDbEntity
   8
0
 100
AcDbBlockEnd
   0
BLOCK
   5
AA
 100
AcDbEntity
   8
0
 100
AcDbBlockBegin
   2
_DOTBLANK
  70
0
  10
0.0
  20
0.0
  30
0.0
   3
_DOTBLANK
   0
CIRCLE
   5
AB
 100
AcDbEntity
   8
0
 370
-2
 100
AcDbCircle
   6
BYBLOCK
  62
0
  10
0.0
  20
0.0
  30
0.0
  40
 0.50000000000000
   0
LINE
   5
AC
 100
AcDbEntity
   8
0
 370
-2
 100
AcDbLine
   6
BYBLOCK
  62
0
  10
-0.50000000000000
  20
0.0
  30
0.0
  11
-1.0000000000000
  21
0.0
  31
0.0
   0
ENDBLK
   5
AD
 100
AcDbEntity
   8
0
 100
AcDbBlockEnd
   0
BLOCK
   5
AE
 100
AcDbEntity
   8
0
 100
AcDbBlockBegin
   2
_INTEGRAL
  70
0
  10
0.0
  20
0.0
  30
0.0
   3
_INTEGRAL
   0
ARC
   5
AF
 100
AcDbEntity
   8
0
 370
-2
   6
BYBLOCK
  62
0
 100
AcDbCircle
  10
 0.44488800000000
  20
-0.91335000000000E-1
  30
0.0
  40
 0.45416700000000
 100
AcDbArc
  50
 102.00000000000
  51
 168.00000000000
   0
ARC
   5
B0
 100
AcDbEntity
   8
0
 370
-2
   6
BYBLOCK
  62
0
 100
AcDbCircle
  10
-0.44488800000000
  20
 0.91335000000000E-1
  30
0.0
  40
 0.45416700000000
 100
AcDbArc
  50
 282.00000000000
  51
 348.00000000000
   0
ENDBLK
   5
B1
 100
AcDbEntity
   8
0
 100
AcDbBlockEnd
   0
BLOCK
   5
B2
 100
AcDbEntity
   8
0
 100
AcDbBlockBegin
   2
BLOCK001
  70
64
  10
0.0
  20
0.0
  30
0.0
   3
BLOCK001
   0
LINE
   5
B3
 100
AcDbEntity
   8
LEVEL001
 370
30
 100
AcDbLine
   6
CONTINUOUS
  62
7
  10
 1771.0856377636
  20
 144.00000000000
  30
0.0
  11
 2315.0856377636
  21
 144.00000000000
  31
0.0
   0
LINE
   5
B4
 100
AcDbEntity
   8
LEVEL001
 370
30
 100
AcDbLine
   6
CONTINUOUS
  62
7
  10
 1771.0856377636
  20
 96.000000000000
  30
0.0
  11
 2315.0856377636
  21
 96.000000000000
  31
0.0
   0
LINE
   5
B5
 100
AcDbEntity
   8
LEVEL001
 370
30
 100
AcDbLine
   6
CONTINUOUS
  62
7
  10
 1771.0856377636
  20
 144.00000000000
  30
0.0
  11
 1771.0856377636
  21
 96.000000000000
  31
0.0
   0
LINE
   5
B6
 100
AcDbEntity
   8
LEVEL001
 370
30
 100
AcDbLine
   6
CONTINUOUS
  62
7
  10
 1803.0856377636
  20
 144.00000000000
  30
0.0
  11
 1803.0856377636
  21
 96.000000000000
  31
0.0
   0
LINE
   5
B7
 100
AcDbEntity
   8
LEVEL001
 370
30
 100
AcDbLine
   6
CONTINUOUS
  62
7
  10
 2043.0856377636
  20
 144.00000000000
  30
0.0
  11
 2043.0856377636
  21
 96.000000000000
  31
0.0
   0
LINE
   5
B8
 100
AcDbEntity
   8
LEVEL001
 370
30
 100
AcDbLine
   6
CONTINUOUS
  62
7
  10
 2075.0856377636
  20
 144.00000000000
  30
0.0
  11
 2075.0856377636
  21
 96.000000000000
  31
0.0
   0
LINE
   5
B9
 100
AcDbEntity
   8
LEVEL001
 370
30
 100
AcDbLine
   6
CONTINUOUS
  62
7
  10
 2315.0856377636
  20
 144.00000000000
  30
0.0
  11
 2315.0856377636
  21
 96.000000000000
  31
0.0
   0
ENDBLK
   5
BA
 100
AcDbEntity
   8
0
 100
AcDbBlockEnd
   0
BLOCK
   5
BB
 100
AcDbEntity
   8
0
 100
AcDbBlockBegin
   2
BLOCK002
  70
64
  10
0.0
  20
0.0
  30
0.0
   3
BLOCK002
   0
LINE
   5
BC
 100
AcDbEntity
   8
LEVEL001
 370
30
 100
AcDbLine
   6
CONTINUOUS
  62
7
  10
 1771.0856377636
  20
 96.000000000000
  30
0.0
  11
 2315.0856377636
  21
 96.000000000000
  31
0.0
   0
LINE
   5
BD
 100
AcDbEntity
   8
LEVEL001
 370
30
 100
AcDbLine
   6
CONTINUOUS
  62
7
  10
 1923.0856377636
  20
 64.000000000000
  30
0.0
  11
 2315.0856377636
  21
 64.000000000000
  31
0.0
   0
LINE
   5
BE
 100
AcDbEntity
   8
LEVEL001
 370
30
 100
AcDbLine
   6
CONTINUOUS
  62
7
  10
 1771.0856377636
  20
 32.000000000000
  30
0.0
  11
 2315.0856377636
  21
 32.000000000000
  31
0.0
   0
LINE
   5
BF
 100
AcDbEntity
   8
LEVEL001
 370
30
 100
AcDbLine
   6
CONTINUOUS
  62
7
  10
 1771.0856377636
  20
0.0
  30
0.0
  11
 2315.0856377636
  21
0.0
  31
0.0
   0
LINE
   5
C0
 100
AcDbEntity
   8
LEVEL001
 370
30
 100
AcDbLine
   6
CONTINUOUS
  62
7
  10
 1771.0856377636
  20
 96.000000000000
  30
0.0
  11
 1771.0856377636
  21
0.0
  31
0.0
   0
LINE
   5
C1
 100
AcDbEntity
   8
LEVEL001
 370
30
 100
AcDbLine
   6
CONTINUOUS
  62
7
  10
 1803.0856377636
  20
 96.000000000000
  30
0.0
  11
 1803.0856377636
  21
 32.000000000000
  31
0.0
   0
LINE
   5
C2
 100
AcDbEntity
   8
LEVEL001
 370
30
 100
AcDbLine
   6
CONTINUOUS
  62
7
  10
 1923.0856377636
  20
 96.000000000000
  30
0.0
  11
 1923.0856377636
  21
 32.000000000000
  31
0.0
   0
LINE
   5
C3
 100
AcDbEntity
   8
LEVEL001
 370
30
 100
AcDbLine
   6
CONTINUOUS
  62
7
  10
 2043.0856377636
  20
 96.000000000000
  30
0.0
  11
 2043.0856377636
  21
 32.000000000000
  31
0.0
   0
LINE
   5
C4
 100
AcDbEntity
   8
LEVEL001
 370
30
 100
AcDbLine
   6
CONTINUOUS
  62
7
  10
 2075.0856377636
  20
 96.000000000000
  30
0.0
  11
 2075.0856377636
  21
 32.000000000000
  31
0.0
   0
LINE
   5
C5
 100
AcDbEntity
   8
LEVEL001
 370
30
 100
AcDbLine
   6
CONTINUOUS
  62
7
  10
 2155.0856377636
  20
 96.000000000000
  30
0.0
  11
 2155.0856377636
  21
 32.000000000000
  31
0.0
   0
LINE
   5
C6
 100
AcDbEntity
   8
LEVEL001
 370
30
 100
AcDbLine
   6
CONTINUOUS
  62
7
  10
 2183.0856377636
  20
 96.000000000000
  30
0.0
  11
 2183.0856377636
  21
 32.000000000000
  31
0.0
   0
LINE
   5
C7
 100
AcDbEntity
   8
LEVEL001
 370
30
 100
AcDbLine
   6
CONTINUOUS
  62
7
  10
 2207.0856377636
  20
 96.000000000000
  30
0.0
  11
 2207.0856377636
  21
 32.000000000000
  31
0.0
   0
LINE
   5
C8
 100
AcDbEntity
   8
LEVEL001
 370
30
 100
AcDbLine
   6
CONTINUOUS
  62
7
  10
 2235.0856377636
  20
 96.000000000000
  30
0.0
  11
 2235.0856377636
  21
 32.000000000000
  31
0.0
   0
LINE
   5
C9
 100
AcDbEntity
   8
LEVEL001
 370
30
 100
AcDbLine
   6
CONTINUOUS
  62
7
  10
 2315.0856377636
  20
 96.000000000000
  30
0.0
  11
 2315.0856377636
  21
0.0
  31
0.0
   0
ENDBLK
   5
CA
 100
AcDbEntity
   8
0
 100
AcDbBlockEnd
   0
BLOCK
   5
CB
 100
AcDbEntity
   8
0
 100
AcDbBlockBegin
   2
BLOCK003
  70
64
  10
0.0
  20
0.0
  30
0.0
   3
BLOCK003
   0
MTEXT
   5
CD
 100
AcDbEntity
   8
LEVEL001
 370
30
  62
7
 100
AcDbMText
  10
 1919.8856560742
  20
 8.0000000000000
  30
0.0
  40
 16.000000000000
  41
0.0
  71
7
  72
1
   1
\T1.800000;さぬき麺機株式会社
   7
GMM001
  44
 0.79999984000003
   0
TEXT
   5
CE
 100
AcDbEntity
   8
LEVEL001
 370
30
  62
7
 100
AcDbText
  10
 1781.0856377636
  20
 140.44442749023
  30
0.0
  40
 4.0000000000000
   1
名称
   7
STANDARD1
 100
AcDbText
   0
TEXT
   5
CF
 100
AcDbEntity
   8
LEVEL001
 370
30
  62
7
 100
AcDbText
  10
 2053.0856377636
  20
 140.44439697266
  30
0.0
  40
 4.0000000000000
   1
図番
   7
STANDARD1
 100
AcDbText
   0
TEXT
   5
D0
 100
AcDbEntity
   8
LEVEL001
 370
30
  62
7
 100
AcDbText
  10
 1781.0856377636
  20
 87.111111323039
  30
0.0
  40
 4.0000000000000
   1
画法
   7
STANDARD1
 100
AcDbText
   0
MTEXT
   5
D2
 100
AcDbEntity
   8
LEVEL001
 370
30
  62
7
 100
AcDbMText
  10
 1814.2856380497
  20
 56.000000000000
  30
0.0
  40
 16.000000000000
  41
0.0
  71
7
  72
1
   1
\T1.700000;第三角法
   7
GMM001
  44
 0.79999984000003
   0
MTEXT
   5
D4
 100
AcDbEntity
   8
LEVEL001
 370
30
  62
7
 100
AcDbMText
  10
 1934.2856380497
  20
 72.000000000000
  30
0.0
  40
 16.000000000000
  41
0.0
  71
7
  72
1
   1
\T1.700000;共通機種
   7
GMM001
  44
 0.79999984000003
   0
MTEXT
   5
D6
 100
AcDbEntity
   8
LEVEL001
 370
30
  62
7
 100
AcDbMText
  10
 2046.2856375749
  20
 72.000000000000
  30
0.0
  40
 16.000000000000
  41
0.0
  71
7
  72
1
   1
\T1.000000;個数
   7
GMM003
  44
 0.79999984000003
   0
MTEXT
   5
D8
 100
AcDbEntity
   8
LEVEL001
 370
30
  62
7
 100
AcDbMText
  10
 2091.0856377636
  20
 72.000000000000
  30
0.0
  40
 16.000000000000
  41
0.0
  71
7
  72
1
   1
\T2.000000;尺度
   7
GMM001
  44
 0.79999984000003
   0
MTEXT
   5
DA
 100
AcDbEntity
   8
LEVEL001
 370
30
  62
7
 100
AcDbMText
  10
 2163.0856377636
  20
 72.000000000000
  30
0.0
  40
 16.000000000000
  41
0.0
  71
7
  72
1
   1
\T1.500000;年月日
   7
GMM001
  44
 0.79999984000003
   0
MTEXT
   5
DC
 100
AcDbEntity
   8
LEVEL001
 370
30
  62
7
 100
AcDbMText
  10
 2251.0856377636
  20
 72.000000000000
  30
0.0
  40
 16.000000000000
  41
0.0
  71
7
  72
1
   1
\T2.000000;製図
   7
GMM001
  44
 0.79999984000003
   0
ENDBLK
   5
DD
 100
AcDbEntity
   8
0
 100
AcDbBlockEnd
   0
BLOCK
   5
DE
 100
AcDbEntity
   8
0
 100
AcDbBlockBegin
   2
*D1
  70
65
  10
0.0
  20
0.0
  30
0.0
   3
*D1
   0
LINE
   5
DF
 100
AcDbEntity
   8
LEVEL001
 370
9
 100
AcDbLine
   6
CONTINUOUS
  62
1
  10
 1204.0856377636
  20
 219.50000000000
  30
0.0
  11
 1650.0856377636
  21
 219.50000000000
  31
0.0
   0
LINE
   5
E0
 100
AcDbEntity
   8
LEVEL001
 370
9
 100
AcDbLine
   6
CONTINUOUS
  62
1
  10
 1554.3856377636
  20
 829.50000000000
  30
0.0
  11
 1650.0856377636
  21
 829.50000000000
  31
0.0
   0
LINE
   5
E1
 100
AcDbEntity
   8
LEVEL001
 370
9
 100
AcDbLine
   6
CONTINUOUS
  62
1
  10
 1642.0856377636
  20
 219.50000000000
  30
0.0
  11
 1642.0856377636
  21
 524.50000000000
  31
0.0
   0
LINE
   5
E2
 100
AcDbEntity
   8
LEVEL001
 370
9
 100
AcDbLine
   6
CONTINUOUS
  62
1
  10
 1642.0856377636
  20
 829.50000000000
  30
0.0
  11
 1642.0856377636
  21
 524.50000000000
  31
0.0
   0
INSERT
   5
E3
 100
AcDbEntity
   8
LEVEL001
   6
CONTINUOUS
  62
1
 100
AcDbBlockReference
   2
_OPEN30
  10
 1642.0856377636
  20
 219.50000000000
  30
0.0
  41
 12.000000000000
  42
 12.000000000000
  43
 12.000000000000
  50
 270.00000000000
   0
INSERT
   5
E4
 100
AcDbEntity
   8
LEVEL001
   6
CONTINUOUS
  62
1
 100
AcDbBlockReference
   2
_OPEN30
  10
 1642.0856377636
  20
 829.50000000000
  30
0.0
  41
 12.000000000000
  42
 12.000000000000
  43
 12.000000000000
  50
 90.000000000000
   0
MTEXT
   5
E5
 100
AcDbEntity
   8
LEVEL001
 370
30
  62
7
 100
AcDbMText
  10
 1635.2284949065
  20
 524.50000000000
  30
0.0
  40
 16.000000000000
  41
0.0
  71
8
  72
1
   1
\A1;610
   7
GMM001
  11
0.0
  21
 1.0000000000000
  31
0.0
   0
ENDBLK
   5
E6
 100
AcDbEntity
   8
0
 100
AcDbBlockEnd
   0
BLOCK
   5
E7
 100
AcDbEntity
   8
0
 100
AcDbBlockBegin
   2
*D2
  70
65
  10
0.0
  20
0.0
  30
0.0
   3
*D2
   0
LINE
   5
E8
 100
AcDbEntity
   8
LEVEL001
 370
9
 100
AcDbLine
   6
CONTINUOUS
  62
1
  10
 1744.3856377636
  20
 765.69999999988
  30
0.0
  11
 1744.3856377636
  21
 930.00000000000
  31
0.0
   0
LINE
   5
E9
 100
AcDbEntity
   8
LEVEL001
 370
9
 100
AcDbLine
   6
CONTINUOUS
  62
1
  10
 2094.3856377636
  20
 849.00000000000
  30
0.0
  11
 2094.3856377636
  21
 930.00000000000
  31
0.0
   0
LINE
   5
EA
 100
AcDbEntity
   8
LEVEL001
 370
9
 100
AcDbLine
   6
CONTINUOUS
  62
1
  10
 1744.3856377636
  20
 922.00000000000
  30
0.0
  11
 1919.3856377636
  21
 922.00000000000
  31
0.0
   0
LINE
   5
EB
 100
AcDbEntity
   8
LEVEL001
 370
9
 100
AcDbLine
   6
CONTINUOUS
  62
1
  10
 2094.3856377636
  20
 922.00000000000
  30
0.0
  11
 1919.3856377636
  21
 922.00000000000
  31
0.0
   0
INSERT
   5
EC
 100
AcDbEntity
   8
LEVEL001
   6
CONTINUOUS
  62
1
 100
AcDbBlockReference
   2
_OPEN30
  10
 1744.3856377636
  20
 922.00000000000
  30
0.0
  41
 12.000000000000
  42
 12.000000000000
  43
 12.000000000000
  50
 180.00000000000
   0
INSERT
   5
ED
 100
AcDbEntity
   8
LEVEL001
   6
CONTINUOUS
  62
1
 100
AcDbBlockReference
   2
_OPEN30
  10
 2094.3856377636
  20
 922.00000000000
  30
0.0
  41
 12.000000000000
  42
 12.000000000000
  43
 12.000000000000
  50
0.0
   0
MTEXT
   5
EE
 100
AcDbEntity
   8
LEVEL001
 370
30
  62
7
 100
AcDbMText
  10
 1919.3856377636
  20
 928.85714285714
  30
0.0
  40
 16.000000000000
  41
0.0
  71
8
  72
1
   1
\A1;350
   7
GMM001
   0
ENDBLK
   5
EF
 100
AcDbEntity
   8
0
 100
AcDbBlockEnd
   0
BLOCK
   5
F0
 100
AcDbEntity
   8
0
 100
AcDbBlockBegin
   2
*D3
  70
65
  10
0.0
  20
0.0
  30
0.0
   3
*D3
   0
LINE
   5
F1
 100
AcDbEntity
   8
LEVEL001
 370
9
 100
AcDbLine
   6
CONTINUOUS
  62
1
  10
 1932.3856377636
  20
 570.00000000000
  30
0.0
  11
 1883.6500212145
  21
 535.00229036667
  31
0.0
   0
LINE
   5
F2
 100
AcDbEntity
   8
LEVEL001
 370
9
 100
AcDbLine
   6
CONTINUOUS
  62
1
  10
 1883.6500212145
  20
 535.00229036667
  30
0.0
  11
 1834.9144046654
  21
 500.00458073333
  31
0.0
   0
INSERT
   5
F3
 100
AcDbEntity
   8
LEVEL001
   6
CONTINUOUS
  62
1
 100
AcDbBlockReference
   2
_OPEN30
  10
 1834.9144046654
  20
 500.00458073333
  30
0.0
  41
 12.000000000000
  42
 12.000000000000
  43
 12.000000000000
  50
 215.68264200930
   0
MTEXT
   5
F4
 100
AcDbEntity
   8
LEVEL001
 370
30
  62
7
 100
AcDbMText
  10
 1869.0856377636
  20
 531.00000000000
  30
0.0
  40
 16.000000000000
  41
0.0
  71
8
  72
1
   1
\A1;R120
   7
GMM001
  11
 0.81226027581834
  21
 0.58329516055554
  31
0.0
   0
ENDBLK
   5
F5
 100
AcDbEntity
   8
0
 100
AcDbBlockEnd
   0
BLOCK
   5
F6
 100
AcDbEntity
   8
0
 100
AcDbBlockBegin
   2
*D4
  70
65
  10
0.0
  20
0.0
  30
0.0
   3
*D4
   0
LINE
   5
F7
 100
AcDbEntity
   8
LEVEL001
 370
9
 100
AcDbLine
   6
CONTINUOUS
  62
1
  10
 1041.5856377636
  20
 449.00000000000
  30
0.0
  11
 1041.5856377636
  21
 374.00000000000
  31
0.0
   0
LINE
   5
F8
 100
AcDbEntity
   8
LEVEL001
 370
9
 100
AcDbLine
   6
CONTINUOUS
  62
1
  10
 1366.5856377636
  20
 449.00000000000
  30
0.0
  11
 1366.5856377636
  21
 374.00000000000
  31
0.0
   0
LINE
   5
F9
 100
AcDbEntity
   8
LEVEL001
 370
9
 100
AcDbLine
   6
CONTINUOUS
  62
1
  10
 1041.5856377636
  20
 382.00000000000
  30
0.0
  11
 1204.0856377636
  21
 382.00000000000
  31
0.0
   0
LINE
   5
FA
 100
AcDbEntity
   8
LEVEL001
 370
9
 100
AcDbLine
   6
CONTINUOUS
  62
1
  10
 1366.5856377636
  20
 382.00000000000
  30
0.0
  11
 1204.0856377636
  21
 382.00000000000
  31
0.0
   0
INSERT
   5
FB
 100
AcDbEntity
   8
LEVEL001
   6
CONTINUOUS
  62
1
 100
AcDbBlockReference
   2
_OPEN30
  10
 1041.5856377636
  20
 382.00000000000
  30
0.0
  41
 12.000000000000
  42
 12.000000000000
  43
 12.000000000000
  50
 180.00000000000
   0
INSERT
   5
FC
 100
AcDbEntity
   8
LEVEL001
   6
CONTINUOUS
  62
1
 100
AcDbBlockReference
   2
_OPEN30
  10
 1366.5856377636
  20
 382.00000000000
  30
0.0
  41
 12.000000000000
  42
 12.000000000000
  43
 12.000000000000
  50
0.0
   0
MTEXT
   5
FD
 100
AcDbEntity
   8
LEVEL001
 370
30
  62
7
 100
AcDbMText
  10
 1204.0856377636
  20
 388.85714285714
  30
0.0
  40
 16.000000000000
  41
0.0
  71
8
  72
1
   1
\A1;325
   7
GMM001
   0
ENDBLK
   5
FE
 100
AcDbEntity
   8
0
 100
AcDbBlockEnd
   0
BLOCK
   5
FF
 100
AcDbEntity
   8
0
 100
AcDbBlockBegin
   2
*D5
  70
65
  10
0.0
  20
0.0
  30
0.0
   3
*D5
   0
LINE
   5
100
 100
AcDbEntity
   8
LEVEL001
 370
9
 100
AcDbLine
   6
CONTINUOUS
  62
1
  10
 852.38563776364
  20
 757.49999999996
  30
0.0
  11
 852.38563776364
  21
 930.00000000000
  31
0.0
   0
LINE
   5
101
 100
AcDbEntity
   8
LEVEL001
 370
9
 100
AcDbLine
   6
CONTINUOUS
  62
1
  10
 1534.3856377636
  20
 849.00000000000
  30
0.0
  11
 1534.3856377636
  21
 930.00000000000
  31
0.0
   0
LINE
   5
102
 100
AcDbEntity
   8
LEVEL001
 370
9
 100
AcDbLine
   6
CONTINUOUS
  62
1
  10
 852.38563776364
  20
 922.00000000000
  30
0.0
  11
 1193.3856377636
  21
 922.00000000000
  31
0.0
   0
LINE
   5
103
 100
AcDbEntity
   8
LEVEL001
 370
9
 100
AcDbLine
   6
CONTINUOUS
  62
1
  10
 1534.3856377636
  20
 922.00000000000
  30
0.0
  11
 1193.3856377636
  21
 922.00000000000
  31
0.0
   0
INSERT
   5
104
 100
AcDbEntity
   8
LEVEL001
   6
CONTINUOUS
  62
1
 100
AcDbBlockReference
   2
_OPEN30
  10
 852.38563776364
  20
 922.00000000000
  30
0.0
  41
 12.000000000000
  42
 12.000000000000
  43
 12.000000000000
  50
 180.00000000000
   0
INSERT
   5
105
 100
AcDbEntity
   8
LEVEL001
   6
CONTINUOUS
  62
1
 100
AcDbBlockReference
   2
_OPEN30
  10
 1534.3856377636
  20
 922.00000000000
  30
0.0
  41
 12.000000000000
  42
 12.000000000000
  43
 12.000000000000
  50
0.0
   0
MTEXT
   5
106
 100
AcDbEntity
   8
LEVEL001
 370
30
  62
7
 100
AcDbMText
  10
 1193.3856377636
  20
 928.85714285714
  30
0.0
  40
 16.000000000000
  41
0.0
  71
8
  72
1
   1
\A1;682
   7
GMM001
   0
ENDBLK
   5
107
 100
AcDbEntity
   8
0
 100
AcDbBlockEnd
   0
BLOCK
   5
108
 100
AcDbEntity
   8
0
 100
AcDbBlockBegin
   2
*D6
  70
65
  10
0.0
  20
0.0
  30
0.0
   3
*D6
   0
LINE
   5
109
 100
AcDbEntity
   8
LEVEL001
 370
9
 100
AcDbLine
   6
CONTINUOUS
  62
1
  10
 852.38563776364
  20
 700.90719168540
  30
0.0
  11
 852.38563776364
  21
 128.00000000000
  31
0.0
   0
LINE
   5
10A
 100
AcDbEntity
   8
LEVEL001
 370
9
 100
AcDbLine
   6
CONTINUOUS
  62
1
  10
 852.38563776364
  20
 136.00000000000
  30
0.0
  11
 920.88563776364
  21
 136.00000000000
  31
0.0
   0
LINE
   5
10B
 100
AcDbEntity
   8
LEVEL001
 370
9
 100
AcDbLine
   6
CONTINUOUS
  62
1
  10
 989.38563776364
  20
 136.00000000000
  30
0.0
  11
 920.88563776364
  21
 136.00000000000
  31
0.0
   0
INSERT
   5
10C
 100
AcDbEntity
   8
LEVEL001
   6
CONTINUOUS
  62
1
 100
AcDbBlockReference
   2
_OPEN30
  10
 852.38563776364
  20
 136.00000000000
  30
0.0
  41
 12.000000000000
  42
 12.000000000000
  43
 12.000000000000
  50
 180.00000000000
   0
INSERT
   5
10D
 100
AcDbEntity
   8
LEVEL001
   6
CONTINUOUS
  62
1
 100
AcDbBlockReference
   2
_OPEN30
  10
 989.38563776364
  20
 136.00000000000
  30
0.0
  41
 12.000000000000
  42
 12.000000000000
  43
 12.000000000000
  50
0.0
   0
MTEXT
   5
10E
 100
AcDbEntity
   8
LEVEL001
 370
30
  62
7
 100
AcDbMText
  10
 920.88563776364
  20
 142.85714285714
  30
0.0
  40
 16.000000000000
  41
0.0
  71
8
  72
1
   1
\A1;137
   7
GMM001
   0
ENDBLK
   5
10F
 100
AcDbEntity
   8
0
 100
AcDbBlockEnd
   0
BLOCK
   5
110
 100
AcDbEntity
   8
0
 100
AcDbBlockBegin
   2
*D7
  70
65
  10
0.0
  20
0.0
  30
0.0
   3
*D7
   0
LINE
   5
111
 100
AcDbEntity
   8
LEVEL001
 370
9
 100
AcDbLine
   6
CONTINUOUS
  62
1
  10
 989.38563776364
  20
 279.00000000000
  30
0.0
  11
 989.38563776364
  21
 128.00000000000
  31
0.0
   0
LINE
   5
112
 100
AcDbEntity
   8
LEVEL001
 370
9
 100
AcDbLine
   6
CONTINUOUS
  62
1
  10
 989.38563776364
  20
 136.00000000000
  30
0.0
  11
 1204.3856377636
  21
 136.00000000000
  31
0.0
   0
LINE
   5
113
 100
AcDbEntity
   8
LEVEL001
 370
9
 100
AcDbLine
   6
CONTINUOUS
  62
1
  10
 1419.3856377636
  20
 136.00000000000
  30
0.0
  11
 1204.3856377636
  21
 136.00000000000
  31
0.0
   0
INSERT
   5
114
 100
AcDbEntity
   8
LEVEL001
   6
CONTINUOUS
  62
1
 100
AcDbBlockReference
   2
_OPEN30
  10
 989.38563776364
  20
 136.00000000000
  30
0.0
  41
 12.000000000000
  42
 12.000000000000
  43
 12.000000000000
  50
 180.00000000000
   0
INSERT
   5
115
 100
AcDbEntity
   8
LEVEL001
   6
CONTINUOUS
  62
1
 100
AcDbBlockReference
   2
_OPEN30
  10
 1419.3856377636
  20
 136.00000000000
  30
0.0
  41
 12.000000000000
  42
 12.000000000000
  43
 12.000000000000
  50
0.0
   0
MTEXT
   5
116
 100
AcDbEntity
   8
LEVEL001
 370
30
  62
7
 100
AcDbMText
  10
 1204.3856377636
  20
 142.85714285714
  30
0.0
  40
 16.000000000000
  41
0.0
  71
8
  72
1
   1
\A1;430
   7
GMM001
   0
ENDBLK
   5
117
 100
AcDbEntity
   8
0
 100
AcDbBlockEnd
   0
BLOCK
   5
118
 100
AcDbEntity
   8
0
 100
AcDbBlockBegin
   2
*D8
  70
65
  10
0.0
  20
0.0
  30
0.0
   3
*D8
   0
LINE
   5
119
 100
AcDbEntity
   8
LEVEL001
 370
9
 100
AcDbLine
   6
CONTINUOUS
  62
1
  10
 1419.3856377636
  20
 279.00000000000
  30
0.0
  11
 1419.3856377636
  21
 128.00000000000
  31
0.0
   0
LINE
   5
11A
 100
AcDbEntity
   8
LEVEL001
 370
9
 100
AcDbLine
   6
CONTINUOUS
  62
1
  10
 1534.3856377636
  20
 279.00000000000
  30
0.0
  11
 1534.3856377636
  21
 128.00000000000
  31
0.0
   0
LINE
   5
11B
 100
AcDbEntity
   8
LEVEL001
 370
9
 100
AcDbLine
   6
CONTINUOUS
  62
1
  10
 1419.3856377636
  20
 136.00000000000
  30
0.0
  11
 1476.8856377636
  21
 136.00000000000
  31
0.0
   0
LINE
   5
11C
 100
AcDbEntity
   8
LEVEL001
 370
9
 100
AcDbLine
   6
CONTINUOUS
  62
1
  10
 1534.3856377636
  20
 136.00000000000
  30
0.0
  11
 1476.8856377636
  21
 136.00000000000
  31
0.0
   0
INSERT
   5
11D
 100
AcDbEntity
   8
LEVEL001
   6
CONTINUOUS
  62
1
 100
AcDbBlockReference
   2
_OPEN30
  10
 1419.3856377636
  20
 136.00000000000
  30
0.0
  41
 12.000000000000
  42
 12.000000000000
  43
 12.000000000000
  50
 180.00000000000
   0
INSERT
   5
11E
 100
AcDbEntity
   8
LEVEL001
   6
CONTINUOUS
  62
1
 100
AcDbBlockReference
   2
_OPEN30
  10
 1534.3856377636
  20
 136.00000000000
  30
0.0
  41
 12.000000000000
  42
 12.000000000000
  43
 12.000000000000
  50
0.0
   0
MTEXT
   5
11F
 100
AcDbEntity
   8
LEVEL001
 370
30
  62
7
 100
AcDbMText
  10
 1476.8856377636
  20
 142.85714285714
  30
0.0
  40
 16.000000000000
  41
0.0
  71
8
  72
1
   1
\A1;115
   7
GMM001
   0
ENDBLK
   5
120
 100
AcDbEntity
   8
0
 100
AcDbBlockEnd
   0
BLOCK
   5
121
 100
AcDbEntity
   8
0
 100
AcDbBlockBegin
   2
GMM001
  70
64
  10
0.0
  20
0.0
  30
0.0
   3
GMM001
   0
LWPOLYLINE
   5
122
 100
AcDbEntity
   8
LEVEL001
 370
30
   6
CONTINUOUS
  62
7
 100
AcDbPolyline
  90
4
  70
1
  10
-568.00000000000
  20
 394.00000000000
  10
-568.00000000000
  20
0.0
  10
0.0
  20
0.0
  10
0.0
  20
 394.00000000000
   0
ENDBLK
   5
123
 100
AcDbEntity
   8
0
 100
AcDbBlockEnd
   0
ENDSEC
   0
SECTION
   2
ENTITIES
   0
LINE
   5
124
 100
AcDbEntity
   8
LEVEL001
 370
30
 100
AcDbLine
   6
CONTINUOUS
  62
7
  10
 1541.0856377636
  20
 219.50000000000
  30
0.0
  11
 867.08563776364
  21
 219.50000000000
  31
0.0
   0
LWPOLYLINE
   5
125
 100
AcDbEntity
   8
LEVEL001
 370
30
   6
CONTINUOUS
  62
7
 100
AcDbPolyline
  90
4
  70
1
  10
 900.78563776364
  20
 264.50000000000
  10
 900.78563776364
  20
 289.00000000000
  10
 1450.7856377636
  20
 289.00000000000
  10
 1450.7856377636
  20
 264.50000000000
   0
LWPOLYLINE
   5
126
 100
AcDbEntity
   8
LEVEL001
 370
30
   6
CONTINUOUS
  62
7
 100
AcDbPolyline
  90
7
  70
0
  10
 1533.3856377636
  20
 290.00000000000
  10
 1420.3856377636
  20
 290.00000000000
  10
 1420.3856377636
  20
 829.00000000000
  10
 1534.3856377636
  20
 829.00000000000
  10
 1534.3856377636
  20
 289.00000000000
  10
 1447.3856377636
  20
 289.00000000000
  10
 1447.3856377636
  20
 290.00000000000
   0
LWPOLYLINE
   5
127
 100
AcDbEntity
   8
LEVEL001
 370
30
   6
CONTINUOUS
  62
7
 100
AcDbPolyline
  90
7
  70
0
  10
 891.78563776364
  20
 293.00000000000
  10
 987.78563776364
  20
 293.00000000000
  10
 987.78563776364
  20
 800.00000000000
  10
 890.78563776364
  20
 800.00000000000
  10
 890.78563776364
  20
 292.00000000000
  10
 905.78563776364
  20
 292.00000000000
  10
 905.78563776364
  20
 293.00000000000
   0
LWPOLYLINE
   5
128
 100
AcDbEntity
   8
LEVEL001
 370
30
   6
CONTINUOUS
  62
7
 100
AcDbPolyline
  90
4
  70
1
  10
 860.78563776364
  20
 631.50000000000
  10
 890.78563776364
  20
 631.50000000000
  10
 890.78563776364
  20
 656.50000000000
  10
 860.78563776364
  20
 656.50000000000
   0
LWPOLYLINE
   5
129
 100
AcDbEntity
   8
LEVEL001
 370
30
   6
CONTINUOUS
  62
7
 100
AcDbPolyline
  90
4
  70
0
  10
 1021.5856377636
  20
 727.50000000000
  10
 1019.0856377636
  20
 727.50000000000
  10
 1019.0856377636
  20
 702.50000000000
  10
 1021.5856377636
  20
 702.50000000000
   0
LINE
   5
12A
 100
AcDbEntity
   8
LEVEL001
 370
30
 100
AcDbLine
   6
CONTINUOUS
  62
7
  10
 1019.0856377636
  20
 710.00000000000
  30
0.0
  11
 1013.7856377636
  21
 710.00000000000
  31
0.0
   0
LINE
   5
12B
 100
AcDbEntity
   8
LEVEL001
 370
30
 100
AcDbLine
   6
CONTINUOUS
  62
7
  10
 1013.7856377636
  20
 720.00000000000
  30
0.0
  11
 1019.0856377636
  21
 720.00000000000
  31
0.0
   0
LWPOLYLINE
   5
12C
 100
AcDbEntity
   8
LEVEL001
 370
30
   6
CONTINUOUS
  62
7
 100
AcDbPolyline
  90
4
  70
0
  10
 989.78563776364
  20
 727.50000000000
  10
 1013.7856377636
  20
 727.50000000000
  10
 1013.7856377636
  20
 702.50000000000
  10
 989.78563776364
  20
 702.50000000000
   0
LWPOLYLINE
   5
12D
 100
AcDbEntity
   8
LEVEL001
 370
30
   6
CONTINUOUS
  62
7
 100
AcDbPolyline
  90
4
  70
0
  10
 1021.5856377636
  20
 612.55203820035
  10
 1016.2856377636
  20
 612.55203820035
  10
 1016.2856377636
  20
 587.55203820035
  10
 1021.5856377636
  20
 587.55203820035
   0
LWPOLYLINE
   5
12E
 100
AcDbEntity
   8
LEVEL001
 370
30
   6
CONTINUOUS
  62
7
 100
AcDbPolyline
  90
4
  70
0
  10
 1021.5856377636
  20
 552.44796179957
  10
 1016.2856377636
  20
 552.44796179957
  10
 1016.2856377636
  20
 527.44796179957
  10
 1021.5856377636
  20
 527.44796179957
   0
LWPOLYLINE
   5
12F
 100
AcDbEntity
   8
LEVEL001
 370
30
   6
CONTINUOUS
  62
7
 100
AcDbPolyline
  90
8
  70
0
  10
 989.78563776364
  20
 600.25000000000
  10
 1005.2856377636
  20
 600.25000000000
  10
 1005.2856377636
  20
 623.00000000000
  10
 1016.2856377636
  20
 623.00000000000
  10
 1016.2856377636
  20
 517.00000000000
  10
 1005.2856377636
  20
 517.00000000000
  10
 1005.2856377636
  20
 539.75000000000
  10
 989.78563776364
  20
 539.75000000000
   0
LWPOLYLINE
   5
130
 100
AcDbEntity
   8
LEVEL001
 370
30
   6
CONTINUOUS
  62
7
 100
AcDbPolyline
  90
3
  70
0
  10
 1418.3856377636
  20
 289.00000000000
  10
 1418.3856377636
  20
 524.00000000000
  10
 1420.3856377636
  20
 524.00000000000
   0
LWPOLYLINE
   5
131
 100
AcDbEntity
   8
LEVEL001
 370
30
   6
CONTINUOUS
  62
7
 100
AcDbPolyline
  90
3
  70
0
  10
 989.78563776364
  20
 289.00000000000
  10
 989.78563776364
  20
 799.00000000000
  10
 987.78563776364
  20
 799.00000000000
   0
LINE
   5
132
 100
AcDbEntity
   8
LEVEL001
 370
30
 100
AcDbLine
   6
CONTINUOUS
  62
7
  10
 989.78563776364
  20
 349.00000000000
  30
0.0
  11
 1418.3856377636
  21
 349.00000000000
  31
0.0
   0
LINE
   5
133
 100
AcDbEntity
   8
LEVEL001
 370
30
 100
AcDbLine
   6
CONTINUOUS
  62
7
  10
 989.78563776364
  20
 484.57468343461
  30
0.0
  11
 1021.5856377636
  21
 484.57468343461
  31
0.0
   0
LINE
   5
134
 100
AcDbEntity
   8
LEVEL001
 370
30
 100
AcDbLine
   6
CONTINUOUS
  62
7
  10
 1386.5856377636
  20
 484.57468343461
  30
0.0
  11
 1418.3856377636
  21
 484.57468343461
  31
0.0
   0
LINE
   5
135
 100
AcDbEntity
   8
LEVEL001
 370
30
 100
AcDbLine
   6
CONTINUOUS
  62
7
  10
 1394.0856377636
  20
 829.00000000000
  30
0.0
  11
 1394.0856377636
  21
 794.00000000000
  31
0.0
   0
LINE
   5
136
 100
AcDbEntity
   8
LEVEL001
 370
30
 100
AcDbLine
   6
CONTINUOUS
  62
7
  10
 1323.0856377636
  20
 762.00000000000
  30
0.0
  11
 1325.5856377636
  21
 762.00000000000
  31
0.0
   0
LINE
   5
137
 100
AcDbEntity
   8
LEVEL001
 370
30
 100
AcDbLine
   6
CONTINUOUS
  62
7
  10
 1325.5856377636
  20
 752.00000000000
  30
0.0
  11
 1323.0856377636
  21
 752.00000000000
  31
0.0
   0
LWPOLYLINE
   5
138
 100
AcDbEntity
   8
LEVEL001
 370
30
   6
CONTINUOUS
  62
7
 100
AcDbPolyline
  90
3
  70
0
  10
 1323.0856377636
  20
 765.00000000000
  10
 1271.0856377636
  20
 765.00000000000
  10
 1271.0856377636
  20
 749.00000000000
   0
CIRCLE
   5
139
 100
AcDbEntity
   8
LEVEL001
 370
30
 100
AcDbCircle
   6
CONTINUOUS
  62
7
  10
 1259.0856377636
  20
 757.00000000000
  30
0.0
  40
 5.0000000000000
   0
LINE
   5
13A
 100
AcDbEntity
   8
LEVEL001
 370
30
 100
AcDbLine
   6
CONTINUOUS
  62
7
  10
 1259.0856377636
  20
 762.00000000000
  30
0.0
  11
 1271.0856377636
  21
 762.00000000000
  31
0.0
   0
LINE
   5
13B
 100
AcDbEntity
   8
LEVEL001
 370
30
 100
AcDbLine
   6
CONTINUOUS
  62
7
  10
 1259.0856377636
  20
 752.00000000000
  30
0.0
  11
 1271.0856377636
  21
 752.00000000000
  31
0.0
   0
LINE
   5
13C
 100
AcDbEntity
   8
LEVEL001
 370
30
 100
AcDbLine
   6
CONTINUOUS
  62
7
  10
 1085.0856377636
  20
 762.00000000000
  30
0.0
  11
 1082.5856377636
  21
 762.00000000000
  31
0.0
   0
LINE
   5
13D
 100
AcDbEntity
   8
LEVEL001
 370
30
 100
AcDbLine
   6
CONTINUOUS
  62
7
  10
 1082.5856377636
  20
 752.00000000000
  30
0.0
  11
 1085.0856377636
  21
 752.00000000000
  31
0.0
   0
LWPOLYLINE
   5
13E
 100
AcDbEntity
   8
LEVEL001
 370
30
   6
CONTINUOUS
  62
7
 100
AcDbPolyline
  90
3
  70
0
  10
 1085.0856377636
  20
 765.00000000000
  10
 1137.0856377636
  20
 765.00000000000
  10
 1137.0856377636
  20
 749.00000000000
   0
CIRCLE
   5
13F
 100
AcDbEntity
   8
LEVEL001
 370
30
 100
AcDbCircle
   6
CONTINUOUS
  62
7
  10
 1149.0856377636
  20
 757.00000000000
  30
0.0
  40
 5.0000000000000
   0
LINE
   5
140
 100
AcDbEntity
   8
LEVEL001
 370
30
 100
AcDbLine
   6
CONTINUOUS
  62
7
  10
 1149.0856377636
  20
 762.00000000000
  30
0.0
  11
 1137.0856377636
  21
 762.00000000000
  31
0.0
   0
LINE
   5
141
 100
AcDbEntity
   8
LEVEL001
 370
30
 100
AcDbLine
   6
CONTINUOUS
  62
7
  10
 1149.0856377636
  20
 752.00000000000
  30
0.0
  11
 1137.0856377636
  21
 752.00000000000
  31
0.0
   0
LWPOLYLINE
   5
142
 100
AcDbEntity
   8
LEVEL001
 370
30
   6
CONTINUOUS
  62
7
 100
AcDbPolyline
  90
12
  70
1
  10
 1021.5856377636
  20
 770.00000000000
  10
 1021.5856377636
  20
 772.00000000000
  10
 1039.0856377636
  20
 772.00000000000
  10
 1039.0856377636
  20
 785.00000000000
  10
 1369.0856377636
  20
 785.00000000000
  10
 1369.0856377636
  20
 772.00000000000
  10
 1386.5856377636
  20
 772.00000000000
  10
 1386.5856377636
  20
 770.00000000000
  10
 1323.0856377636
  20
 770.00000000000
  10
 1323.0856377636
  20
 747.00000000000
  10
 1085.0856377636
  20
 747.00000000000
  10
 1085.0856377636
  20
 770.00000000000
   0
LINE
   5
143
 100
AcDbEntity
   8
LEVEL001
 370
30
 100
AcDbLine
   6
CONTINUOUS
  62
7
  10
 1085.0856377636
  20
 749.00000000000
  30
0.0
  11
 1323.0856377636
  21
 749.00000000000
  31
0.0
   0
LWPOLYLINE
   5
144
 100
AcDbEntity
   8
LEVEL001
 370
30
   6
CONTINUOUS
  62
7
 100
AcDbPolyline
  90
4
  70
1
  10
 1325.5856377636
  20
 730.00000000000
  10
 1365.5856377636
  20
 730.00000000000
  10
 1365.5856377636
  20
 768.00000000000
  10
 1325.5856377636
  20
 768.00000000000
   0
LWPOLYLINE
   5
145
 100
AcDbEntity
   8
LEVEL001
 370
30
   6
CONTINUOUS
  62
7
 100
AcDbPolyline
  90
3
  70
0
  10
 1325.5856377636
  20
 742.00000000000
  10
 1345.5856377636
  20
 742.00000000000
  10
 1345.5856377636
  20
 768.00000000000
   0
LWPOLYLINE
   5
146
 100
AcDbEntity
   8
LEVEL001
 370
30
   6
CONTINUOUS
  62
7
 100
AcDbPolyline
  90
4
  70
1
  10
 1082.5856377636
  20
 730.00000000000
  10
 1042.5856377636
  20
 730.00000000000
  10
 1042.5856377636
  20
 768.00000000000
  10
 1082.5856377636
  20
 768.00000000000
   0
LWPOLYLINE
   5
147
 100
AcDbEntity
   8
LEVEL001
 370
30
   6
CONTINUOUS
  62
7
 100
AcDbPolyline
  90
3
  70
0
  10
 1082.5856377636
  20
 742.00000000000
  10
 1062.5856377636
  20
 742.00000000000
  10
 1062.5856377636
  20
 768.00000000000
   0
POINT
   5
148
 100
AcDbEntity
   8
LEVEL001
 100
AcDbPoint
  62
7
  10
 1052.5856377636
  20
 758.00000000000
  30
0.0
   0
POINT
   5
149
 100
AcDbEntity
   8
LEVEL001
 100
AcDbPoint
  62
7
  10
 1052.5856377636
  20
 754.00000000000
  30
0.0
   0
POINT
   5
14A
 100
AcDbEntity
   8
LEVEL001
 100
AcDbPoint
  62
7
  10
 1052.5856377636
  20
 742.00000000000
  30
0.0
   0
POINT
   5
14B
 100
AcDbEntity
   8
LEVEL001
 100
AcDbPoint
  62
7
  10
 1052.5856377636
  20
 738.00000000000
  30
0.0
   0
POINT
   5
14C
 100
AcDbEntity
   8
LEVEL001
 100
AcDbPoint
  62
7
  10
 1355.5856377636
  20
 758.00000000000
  30
0.0
   0
POINT
   5
14D
 100
AcDbEntity
   8
LEVEL001
 100
AcDbPoint
  62
7
  10
 1355.5856377636
  20
 754.00000000000
  30
0.0
   0
POINT
   5
14E
 100
AcDbEntity
   8
LEVEL001
 100
AcDbPoint
  62
7
  10
 1355.5856377636
  20
 742.00000000000
  30
0.0
   0
POINT
   5
14F
 100
AcDbEntity
   8
LEVEL001
 100
AcDbPoint
  62
7
  10
 1355.5856377636
  20
 738.00000000000
  30
0.0
   0
LWPOLYLINE
   5
150
 100
AcDbEntity
   8
LEVEL001
 370
30
   6
CONTINUOUS
  62
7
 100
AcDbPolyline
  90
4
  70
0
  10
 1021.5856377636
  20
 770.00000000000
  10
 1021.5856377636
  20
 448.00000000000
  10
 1386.5856377636
  20
 448.00000000000
  10
 1386.5856377636
  20
 770.00000000000
   0
LINE
   5
151
 100
AcDbEntity
   8
LEVEL001
 370
30
 100
AcDbLine
   6
CONTINUOUS
  62
7
  10
 1021.5856377636
  20
 732.00000000000
  30
0.0
  11
 1042.5856377636
  21
 732.00000000000
  31
0.0
   0
LINE
   5
152
 100
AcDbEntity
   8
LEVEL001
 370
30
 100
AcDbLine
   6
CONTINUOUS
  62
7
  10
 1082.5856377636
  20
 732.00000000000
  30
0.0
  11
 1325.5856377636
  21
 732.00000000000
  31
0.0
   0
LINE
   5
153
 100
AcDbEntity
   8
LEVEL001
 370
30
 100
AcDbLine
   6
CONTINUOUS
  62
7
  10
 1365.5856377636
  20
 732.00000000000
  30
0.0
  11
 1386.5856377636
  21
 732.00000000000
  31
0.0
   0
LINE
   5
154
 100
AcDbEntity
   8
LEVEL001
 370
30
 100
AcDbLine
   6
CONTINUOUS
  62
7
  10
 1386.5856377636
  20
 627.00000000000
  30
0.0
  11
 1420.3856377636
  21
 627.00000000000
  31
0.0
   0
LINE
   5
155
 100
AcDbEntity
   8
LEVEL001
 370
30
 100
AcDbLine
   6
CONTINUOUS
  62
7
  10
 1418.3856377636
  20
 524.00000000000
  30
0.0
  11
 1386.5856377636
  21
 524.00000000000
  31
0.0
   0
LWPOLYLINE
   5
156
 100
AcDbEntity
   8
LEVEL001
 370
30
   6
CONTINUOUS
  62
7
 100
AcDbPolyline
  90
4
  70
0
  10
 1391.8856377636
  20
 524.00000000000
  10
 1391.8856377636
  20
 517.00000000000
  10
 1402.8856377636
  20
 517.00000000000
  10
 1402.8856377636
  20
 524.00000000000
   0
LWPOLYLINE
   5
157
 100
AcDbEntity
   8
LEVEL001
 370
9
   6
HIDDEN
  62
1
 100
AcDbPolyline
  90
4
  70
0
  10
 1041.5856377636
  20
 770.00000000000
  10
 1041.5856377636
  20
 449.00000000000
  10
 1366.5856377636
  20
 449.00000000000
  10
 1366.5856377636
  20
 770.00000000000
   0
CIRCLE
   5
158
 100
AcDbEntity
   8
LEVEL001
 370
30
 100
AcDbCircle
   6
CONTINUOUS
  62
7
  10
 926.78563776364
  20
 763.00000000000
  30
0.0
  40
 12.500000000000
   0
CIRCLE
   5
159
 100
AcDbEntity
   8
LEVEL001
 370
30
 100
AcDbCircle
   6
CONTINUOUS
  62
7
  10
 926.78563776364
  20
 763.00000000000
  30
0.0
  40
 16.250000000000
   0
LWPOLYLINE
   5
15A
 100
AcDbEntity
   8
LEVEL001
 370
30
   6
CONTINUOUS
  62
7
 100
AcDbPolyline
  90
4
  70
1
  10
 1429.8856377636
  20
 618.50000000000
  10
 1524.8856377636
  20
 618.50000000000
  10
 1524.8856377636
  20
 824.50000000000
  10
 1429.8856377636
  20
 824.50000000000
   0
POINT
   5
15B
 100
AcDbEntity
   8
LEVEL001
 100
AcDbPoint
  62
7
  10
 1435.3856377636
  20
 819.00000000000
  30
0.0
   0
POINT
   5
15C
 100
AcDbEntity
   8
LEVEL001
 100
AcDbPoint
  62
7
  10
 1519.3856377636
  20
 819.00000000000
  30
0.0
   0
POINT
   5
15D
 100
AcDbEntity
   8
LEVEL001
 100
AcDbPoint
  62
7
  10
 1435.3856377636
  20
 624.00000000000
  30
0.0
   0
POINT
   5
15E
 100
AcDbEntity
   8
LEVEL001
 100
AcDbPoint
  62
7
  10
 1519.3856377636
  20
 624.00000000000
  30
0.0
   0
CIRCLE
   5
15F
 100
AcDbEntity
   8
LEVEL001
 370
30
 100
AcDbCircle
   6
CONTINUOUS
  62
7
  10
 1457.3856377636
  20
 668.50000000000
  30
0.0
  40
 12.500000000000
   0
CIRCLE
   5
160
 100
AcDbEntity
   8
LEVEL001
 370
30
 100
AcDbCircle
   6
CONTINUOUS
  62
7
  10
 1457.3856377636
  20
 668.50000000000
  30
0.0
  40
 16.250000000000
   0
CIRCLE
   5
161
 100
AcDbEntity
   8
LEVEL001
 370
30
 100
AcDbCircle
   6
CONTINUOUS
  62
7
  10
 1497.3856377636
  20
 668.50000000000
  30
0.0
  40
 16.250000000000
   0
CIRCLE
   5
162
 100
AcDbEntity
   8
LEVEL001
 370
30
 100
AcDbCircle
   6
CONTINUOUS
  62
7
  10
 1497.3856377636
  20
 668.50000000000
  30
0.0
  40
 12.500000000000
   0
LINE
   5
163
 100
AcDbEntity
   8
LEVEL001
 370
30
 100
AcDbLine
   6
CONTINUOUS
  62
7
  10
 1418.3856377636
  20
 1060.5000000000
  30
0.0
  11
 1418.3856377636
  21
 1380.5000000000
  31
0.0
   0
LWPOLYLINE
   5
164
 100
AcDbEntity
   8
LEVEL001
 370
30
   6
CONTINUOUS
  62
7
 100
AcDbPolyline
  90
4
  70
0
  10
 1021.5856377636
  20
 1263.0520382004
  10
 1016.2856377636
  20
 1263.0520382004
  10
 1016.2856377636
  20
 1238.0520382004
  10
 1021.5856377636
  20
 1238.0520382004
   0
LWPOLYLINE
   5
165
 100
AcDbEntity
   8
LEVEL001
 370
30
   6
CONTINUOUS
  62
7
 100
AcDbPolyline
  90
4
  70
0
  10
 1021.5856377636
  20
 1202.9479617996
  10
 1016.2856377636
  20
 1202.9479617996
  10
 1016.2856377636
  20
 1177.9479617996
  10
 1021.5856377636
  20
 1177.9479617996
   0
LWPOLYLINE
   5
166
 100
AcDbEntity
   8
LEVEL001
 370
30
   6
CONTINUOUS
  62
7
 100
AcDbPolyline
  90
4
  70
0
  10
 1021.5856377636
  20
 1118.0000000000
  10
 1019.0856377636
  20
 1118.0000000000
  10
 1019.0856377636
  20
 1143.0000000000
  10
 1021.5856377636
  20
 1143.0000000000
   0
LINE
   5
167
 100
AcDbEntity
   8
LEVEL001
 370
30
 100
AcDbLine
   6
CONTINUOUS
  62
7
  10
 1019.0856377636
  20
 1125.5000000000
  30
0.0
  11
 1013.7856377636
  21
 1125.5000000000
  31
0.0
   0
LINE
   5
168
 100
AcDbEntity
   8
LEVEL001
 370
30
 100
AcDbLine
   6
CONTINUOUS
  62
7
  10
 1013.7856377636
  20
 1135.5000000000
  30
0.0
  11
 1019.0856377636
  21
 1135.5000000000
  31
0.0
   0
LWPOLYLINE
   5
169
 100
AcDbEntity
   8
LEVEL001
 370
30
   6
CONTINUOUS
  62
7
 100
AcDbPolyline
  90
4
  70
0
  10
 989.78563776364
  20
 1143.0000000000
  10
 1013.7856377636
  20
 1143.0000000000
  10
 1013.7856377636
  20
 1118.0000000000
  10
 989.78563776364
  20
 1118.0000000000
   0
LWPOLYLINE
   5
16A
 100
AcDbEntity
   8
LEVEL001
 370
30
   6
CONTINUOUS
  62
7
 100
AcDbPolyline
  90
8
  70
0
  10
 989.78563776364
  20
 1250.7500000000
  10
 1005.2856377636
  20
 1250.7500000000
  10
 1005.2856377636
  20
 1273.5000000000
  10
 1016.2856377636
  20
 1273.5000000000
  10
 1016.2856377636
  20
 1167.5000000000
  10
 1005.2856377636
  20
 1167.5000000000
  10
 1005.2856377636
  20
 1190.2500000000
  10
 989.78563776364
  20
 1190.2500000000
   0
LINE
   5
16B
 100
AcDbEntity
   8
LEVEL001
 370
9
 100
AcDbLine
   6
DASHDOT
  62
1
  10
 1577.0856377636
  20
 1220.5000000000
  30
0.0
  11
 831.08563776364
  21
 1220.5000000000
  31
0.0
   0
LINE
   5
16C
 100
AcDbEntity
   8
LEVEL001
 370
30
 100
AcDbLine
   6
CONTINUOUS
  62
7
  10
 1386.5856377636
  20
 1277.5000000000
  30
0.0
  11
 1418.3856377636
  21
 1277.5000000000
  31
0.0
   0
LINE
   5
16D
 100
AcDbEntity
   8
LEVEL001
 370
30
 100
AcDbLine
   6
CONTINUOUS
  62
7
  10
 1400.0856377636
  20
 1163.5000000000
  30
0.0
  11
 1418.3856377636
  21
 1163.5000000000
  31
0.0
   0
LWPOLYLINE
   5
16E
 100
AcDbEntity
   8
LEVEL001
 370
30
   6
CONTINUOUS
  62
7
 100
AcDbPolyline
  90
5
  70
0
  10
 1254.0856377636
  20
 1074.5000000000
  10
 1254.0856377636
  20
 1054.5000000000
  10
 1264.0856377636
  20
 1054.5000000000
  10
 1264.0856377636
  20
 1074.5000000000
  10
 1271.0856377636
  20
 1074.5000000000
   0
LINE
   5
16F
 100
AcDbEntity
   8
LEVEL001
 370
30
 100
AcDbLine
   6
CONTINUOUS
  62
7
  10
 1264.0856377636
  20
 1084.5000000000
  30
0.0
  11
 1271.0856377636
  21
 1084.5000000000
  31
0.0
   0
ARC
   5
170
 100
AcDbEntity
   8
LEVEL001
 370
30
   6
CONTINUOUS
  62
7
 100
AcDbCircle
  10
 1264.0856377636
  20
 1074.5000000000
  30
0.0
  40
 10.000000000000
 100
AcDbArc
  50
 90.000000000000
  51
 180.00000000000
   0
LWPOLYLINE
   5
171
 100
AcDbEntity
   8
LEVEL001
 370
30
   6
CONTINUOUS
  62
7
 100
AcDbPolyline
  90
4
  70
0
  10
 1323.0856377636
  20
 1087.5000000000
  10
 1323.0856377636
  20
 1071.5000000000
  10
 1271.0856377636
  20
 1071.5000000000
  10
 1271.0856377636
  20
 1087.5000000000
   0
LINE
   5
172
 100
AcDbEntity
   8
LEVEL001
 370
30
 100
AcDbLine
   6
CONTINUOUS
  62
7
  10
 1323.0856377636
  20
 1084.5000000000
  30
0.0
  11
 1325.5856377636
  21
 1084.5000000000
  31
0.0
   0
LINE
   5
173
 100
AcDbEntity
   8
LEVEL001
 370
30
 100
AcDbLine
   6
CONTINUOUS
  62
7
  10
 1325.5856377636
  20
 1074.5000000000
  30
0.0
  11
 1323.0856377636
  21
 1074.5000000000
  31
0.0
   0
LWPOLYLINE
   5
174
 100
AcDbEntity
   8
LEVEL001
 370
30
   6
CONTINUOUS
  62
7
 100
AcDbPolyline
  90
4
  70
0
  10
 1365.5856377636
  20
 1087.5000000000
  10
 1365.5856377636
  20
 1086.5000000000
  10
 1325.5856377636
  20
 1086.5000000000
  10
 1325.5856377636
  20
 1087.5000000000
   0
LWPOLYLINE
   5
175
 100
AcDbEntity
   8
LEVEL001
 370
30
   6
CONTINUOUS
  62
7
 100
AcDbPolyline
  90
4
  70
0
  10
 1345.5856377636
  20
 1086.5000000000
  10
 1345.5856377636
  20
 1068.5000000000
  10
 1325.5856377636
  20
 1068.5000000000
  10
 1325.5856377636
  20
 1086.5000000000
   0
LWPOLYLINE
   5
176
 100
AcDbEntity
   8
LEVEL001
 370
30
   6
CONTINUOUS
  62
7
 100
AcDbPolyline
  90
5
  70
0
  10
 1154.0856377636
  20
 1074.5000000000
  10
 1154.0856377636
  20
 1054.5000000000
  10
 1144.0856377636
  20
 1054.5000000000
  10
 1144.0856377636
  20
 1074.5000000000
  10
 1137.0856377636
  20
 1074.5000000000
   0
LINE
   5
177
 100
AcDbEntity
   8
LEVEL001
 370
30
 100
AcDbLine
   6
CONTINUOUS
  62
7
  10
 1144.0856377636
  20
 1084.5000000000
  30
0.0
  11
 1137.0856377636
  21
 1084.5000000000
  31
0.0
   0
ARC
   5
178
 100
AcDbEntity
   8
LEVEL001
 370
30
   6
CONTINUOUS
  62
7
 100
AcDbCircle
  10
 1144.0856377636
  20
 1074.5000000000
  30
0.0
  40
 10.000000000000
 100
AcDbArc
  50
0.0
  51
 90.000000000000
   0
LWPOLYLINE
   5
179
 100
AcDbEntity
   8
LEVEL001
 370
30
   6
CONTINUOUS
  62
7
 100
AcDbPolyline
  90
4
  70
0
  10
 1085.0856377636
  20
 1087.5000000000
  10
 1085.0856377636
  20
 1071.5000000000
  10
 1137.0856377636
  20
 1071.5000000000
  10
 1137.0856377636
  20
 1087.5000000000
   0
LINE
   5
17A
 100
AcDbEntity
   8
LEVEL001
 370
30
 100
AcDbLine
   6
CONTINUOUS
  62
7
  10
 1085.0856377636
  20
 1084.5000000000
  30
0.0
  11
 1082.5856377636
  21
 1084.5000000000
  31
0.0
   0
LINE
   5
17B
 100
AcDbEntity
   8
LEVEL001
 370
30
 100
AcDbLine
   6
CONTINUOUS
  62
7
  10
 1082.5856377636
  20
 1074.5000000000
  30
0.0
  11
 1085.0856377636
  21
 1074.5000000000
  31
0.0
   0
LWPOLYLINE
   5
17C
 100
AcDbEntity
   8
LEVEL001
 370
30
   6
CONTINUOUS
  62
7
 100
AcDbPolyline
  90
4
  70
0
  10
 1042.5856377636
  20
 1087.5000000000
  10
 1042.5856377636
  20
 1086.5000000000
  10
 1082.5856377636
  20
 1086.5000000000
  10
 1082.5856377636
  20
 1087.5000000000
   0
LWPOLYLINE
   5
17D
 100
AcDbEntity
   8
LEVEL001
 370
30
   6
CONTINUOUS
  62
7
 100
AcDbPolyline
  90
4
  70
0
  10
 1062.5856377636
  20
 1086.5000000000
  10
 1062.5856377636
  20
 1068.5000000000
  10
 1082.5856377636
  20
 1068.5000000000
  10
 1082.5856377636
  20
 1086.5000000000
   0
LWPOLYLINE
   5
17E
 100
AcDbEntity
   8
LEVEL001
 370
30
   6
CONTINUOUS
  62
7
 100
AcDbPolyline
  90
4
  70
1
  10
 1070.5856377636
  20
 1137.5000000000
  10
 1337.5856377636
  20
 1137.5000000000
  10
 1337.5856377636
  20
 1269.5000000000
  10
 1070.5856377636
  20
 1269.5000000000
   0
LINE
   5
17F
 100
AcDbEntity
   8
LEVEL001
 370
30
 100
AcDbLine
   6
CONTINUOUS
  62
7
  10
 1039.0856377636
  20
 1087.5000000000
  30
0.0
  11
 1039.0856377636
  21
 1348.5000000000
  31
0.0
   0
LINE
   5
180
 100
AcDbEntity
   8
LEVEL001
 370
30
 100
AcDbLine
   6
CONTINUOUS
  62
7
  10
 1137.0856377636
  20
 1071.5000000000
  30
0.0
  11
 1144.0856377636
  21
 1071.5000000000
  31
0.0
   0
LINE
   5
181
 100
AcDbEntity
   8
LEVEL001
 370
30
 100
AcDbLine
   6
CONTINUOUS
  62
7
  10
 1202.5856377636
  20
 1269.5000000000
  30
0.0
  11
 1202.5856377636
  21
 1137.5000000000
  31
0.0
   0
LINE
   5
182
 100
AcDbEntity
   8
LEVEL001
 370
30
 100
AcDbLine
   6
CONTINUOUS
  62
7
  10
 1205.5856377636
  20
 1269.5000000000
  30
0.0
  11
 1205.5856377636
  21
 1137.5000000000
  31
0.0
   0
LINE
   5
183
 100
AcDbEntity
   8
LEVEL001
 370
30
 100
AcDbLine
   6
CONTINUOUS
  62
7
  10
 1073.5856377636
  20
 1269.5000000000
  30
0.0
  11
 1073.5856377636
  21
 1137.5000000000
  31
0.0
   0
LINE
   5
184
 100
AcDbEntity
   8
LEVEL001
 370
30
 100
AcDbLine
   6
CONTINUOUS
  62
7
  10
 1103.5856377636
  20
 1269.5000000000
  30
0.0
  11
 1103.5856377636
  21
 1137.5000000000
  31
0.0
   0
LINE
   5
185
 100
AcDbEntity
   8
LEVEL001
 370
30
 100
AcDbLine
   6
CONTINUOUS
  62
7
  10
 1106.5856377636
  20
 1269.5000000000
  30
0.0
  11
 1106.5856377636
  21
 1137.5000000000
  31
0.0
   0
LINE
   5
186
 100
AcDbEntity
   8
LEVEL001
 370
30
 100
AcDbLine
   6
CONTINUOUS
  62
7
  10
 1136.5856377636
  20
 1269.5000000000
  30
0.0
  11
 1136.5856377636
  21
 1137.5000000000
  31
0.0
   0
LINE
   5
187
 100
AcDbEntity
   8
LEVEL001
 370
30
 100
AcDbLine
   6
CONTINUOUS
  62
7
  10
 1139.5856377636
  20
 1269.5000000000
  30
0.0
  11
 1139.5856377636
  21
 1137.5000000000
  31
0.0
   0
LINE
   5
188
 100
AcDbEntity
   8
LEVEL001
 370
30
 100
AcDbLine
   6
CONTINUOUS
  62
7
  10
 1169.5856377636
  20
 1269.5000000000
  30
0.0
  11
 1169.5856377636
  21
 1137.5000000000
  31
0.0
   0
LINE
   5
189
 100
AcDbEntity
   8
LEVEL001
 370
30
 100
AcDbLine
   6
CONTINUOUS
  62
7
  10
 1172.5856377636
  20
 1269.5000000000
  30
0.0
  11
 1172.5856377636
  21
 1137.5000000000
  31
0.0
   0
LINE
   5
18A
 100
AcDbEntity
   8
LEVEL001
 370
30
 100
AcDbLine
   6
CONTINUOUS
  62
7
  10
 1235.5856377636
  20
 1269.5000000000
  30
0.0
  11
 1235.5856377636
  21
 1137.5000000000
  31
0.0
   0
LINE
   5
18B
 100
AcDbEntity
   8
LEVEL001
 370
30
 100
AcDbLine
   6
CONTINUOUS
  62
7
  10
 1238.5856377636
  20
 1269.5000000000
  30
0.0
  11
 1238.5856377636
  21
 1137.5000000000
  31
0.0
   0
LINE
   5
18C
 100
AcDbEntity
   8
LEVEL001
 370
30
 100
AcDbLine
   6
CONTINUOUS
  62
7
  10
 1268.5856377636
  20
 1269.5000000000
  30
0.0
  11
 1268.5856377636
  21
 1137.5000000000
  31
0.0
   0
LINE
   5
18D
 100
AcDbEntity
   8
LEVEL001
 370
30
 100
AcDbLine
   6
CONTINUOUS
  62
7
  10
 1271.5856377636
  20
 1269.5000000000
  30
0.0
  11
 1271.5856377636
  21
 1137.5000000000
  31
0.0
   0
LINE
   5
18E
 100
AcDbEntity
   8
LEVEL001
 370
30
 100
AcDbLine
   6
CONTINUOUS
  62
7
  10
 1301.5856377636
  20
 1269.5000000000
  30
0.0
  11
 1301.5856377636
  21
 1137.5000000000
  31
0.0
   0
LINE
   5
18F
 100
AcDbEntity
   8
LEVEL001
 370
30
 100
AcDbLine
   6
CONTINUOUS
  62
7
  10
 1304.5856377636
  20
 1269.5000000000
  30
0.0
  11
 1304.5856377636
  21
 1137.5000000000
  31
0.0
   0
LINE
   5
190
 100
AcDbEntity
   8
LEVEL001
 370
30
 100
AcDbLine
   6
CONTINUOUS
  62
7
  10
 1334.5856377636
  20
 1269.5000000000
  30
0.0
  11
 1334.5856377636
  21
 1137.5000000000
  31
0.0
   0
LINE
   5
191
 100
AcDbEntity
   8
LEVEL001
 370
30
 100
AcDbLine
   6
CONTINUOUS
  62
7
  10
 1337.5856377636
  20
 1205.0000000000
  30
0.0
  11
 1070.5856377636
  21
 1205.0000000000
  31
0.0
   0
LINE
   5
192
 100
AcDbEntity
   8
LEVEL001
 370
30
 100
AcDbLine
   6
CONTINUOUS
  62
7
  10
 1337.5856377636
  20
 1202.0000000000
  30
0.0
  11
 1070.5856377636
  21
 1202.0000000000
  31
0.0
   0
LINE
   5
193
 100
AcDbEntity
   8
LEVEL001
 370
30
 100
AcDbLine
   6
CONTINUOUS
  62
7
  10
 1337.5856377636
  20
 1238.0000000000
  30
0.0
  11
 1070.5856377636
  21
 1238.0000000000
  31
0.0
   0
LINE
   5
194
 100
AcDbEntity
   8
LEVEL001
 370
30
 100
AcDbLine
   6
CONTINUOUS
  62
7
  10
 1337.5856377636
  20
 1235.0000000000
  30
0.0
  11
 1070.5856377636
  21
 1235.0000000000
  31
0.0
   0
LINE
   5
195
 100
AcDbEntity
   8
LEVEL001
 370
30
 100
AcDbLine
   6
CONTINUOUS
  62
7
  10
 1337.5856377636
  20
 1268.0000000000
  30
0.0
  11
 1070.5856377636
  21
 1268.0000000000
  31
0.0
   0
LINE
   5
196
 100
AcDbEntity
   8
LEVEL001
 370
30
 100
AcDbLine
   6
CONTINUOUS
  62
7
  10
 1337.5856377636
  20
 1172.0000000000
  30
0.0
  11
 1070.5856377636
  21
 1172.0000000000
  31
0.0
   0
LINE
   5
197
 100
AcDbEntity
   8
LEVEL001
 370
30
 100
AcDbLine
   6
CONTINUOUS
  62
7
  10
 1337.5856377636
  20
 1169.0000000000
  30
0.0
  11
 1070.5856377636
  21
 1169.0000000000
  31
0.0
   0
LINE
   5
198
 100
AcDbEntity
   8
LEVEL001
 370
30
 100
AcDbLine
   6
CONTINUOUS
  62
7
  10
 1337.5856377636
  20
 1139.0000000000
  30
0.0
  11
 1070.5856377636
  21
 1139.0000000000
  31
0.0
   0
LINE
   5
199
 100
AcDbEntity
   8
LEVEL001
 370
30
 100
AcDbLine
   6
CONTINUOUS
  62
7
  10
 1154.0856377636
  20
 1071.5000000000
  30
0.0
  11
 1254.0856377636
  21
 1071.5000000000
  31
0.0
   0
LINE
   5
19A
 100
AcDbEntity
   8
LEVEL001
 370
30
 100
AcDbLine
   6
CONTINUOUS
  62
7
  10
 1264.0856377636
  20
 1071.5000000000
  30
0.0
  11
 1271.0856377636
  21
 1071.5000000000
  31
0.0
   0
LWPOLYLINE
   5
19B
 100
AcDbEntity
   8
LEVEL001
 370
30
   6
CONTINUOUS
  62
7
 100
AcDbPolyline
  90
6
  70
0
  10
 1386.5856377636
  20
 1174.0000000000
  10
 1386.5856377636
  20
 1348.5000000000
  10
 1021.5856377636
  20
 1348.5000000000
  10
 1021.5856377636
  20
 1087.5000000000
  10
 1386.5856377636
  20
 1087.5000000000
  10
 1386.5856377636
  20
 1114.0000000000
   0
LINE
   5
19C
 100
AcDbEntity
   8
LEVEL001
 370
30
 100
AcDbLine
   6
CONTINUOUS
  62
7
  10
 1369.0856377636
  20
 1087.5000000000
  30
0.0
  11
 1369.0856377636
  21
 1114.0000000000
  31
0.0
   0
LINE
   5
19D
 100
AcDbEntity
   8
LEVEL001
 370
30
 100
AcDbLine
   6
CONTINUOUS
  62
7
  10
 1369.0856377636
  20
 1174.0000000000
  30
0.0
  11
 1369.0856377636
  21
 1348.5000000000
  31
0.0
   0
LWPOLYLINE
   5
19E
 100
AcDbEntity
   8
LEVEL001
 370
30
   6
CONTINUOUS
  62
7
 100
AcDbPolyline
  90
4
  70
0
  10
 1021.5856377636
  20
 1348.5000000000
  10
 1021.5856377636
  20
 1351.5000000000
  10
 1386.5856377636
  20
 1351.5000000000
  10
 1386.5856377636
  20
 1348.5000000000
   0
LINE
   5
19F
 100
AcDbEntity
   8
LEVEL001
 370
9
 100
AcDbLine
   6
DASHDOT
  62
1
  10
 1204.0856377636
  20
 1451.0000000000
  30
0.0
  11
 1204.0856377636
  21
 1013.0000000000
  31
0.0
   0
CIRCLE
   5
1A0
 100
AcDbEntity
   8
LEVEL001
 370
30
 100
AcDbCircle
   6
CONTINUOUS
  62
7
  10
 1401.3856377636
  20
 244.50000000000
  30
0.0
  40
 3.4000000000000
   0
ARC
   5
1A1
 100
AcDbEntity
   8
LEVEL001
 370
30
   6
CONTINUOUS
  62
7
 100
AcDbCircle
  10
 1401.3856377636
  20
 244.50000000000
  30
0.0
  40
 7.5000000000000
 100
AcDbArc
  50
 216.97275005927
  51
0.0
   0
LINE
   5
1A2
 100
AcDbEntity
   8
LEVEL001
 370
30
 100
AcDbLine
   6
CONTINUOUS
  62
7
  10
 1408.8856377636
  20
 244.50000000000
  30
0.0
  11
 1408.8856377636
  21
 264.50000000000
  31
0.0
   0
LINE
   5
1A3
 100
AcDbEntity
   8
LEVEL001
 370
30
 100
AcDbLine
   6
CONTINUOUS
  62
7
  10
 1376.0737051973
  20
 264.50000000000
  30
0.0
  11
 1395.3937254363
  21
 239.98923657671
  31
0.0
   0
ARC
   5
1A4
 100
AcDbEntity
   8
LEVEL001
 370
30
   6
CONTINUOUS
  62
7
 100
AcDbCircle
  10
 1401.3856377636
  20
 244.50000000000
  30
0.0
  40
 25.000000000000
 100
AcDbArc
  50
 145.69924996130
  51
 53.130102354156
   0
CIRCLE
   5
1A5
 100
AcDbEntity
   8
LEVEL001
 370
30
 100
AcDbCircle
   6
CONTINUOUS
  62
7
  10
 942.78563776364
  20
 244.50000000000
  30
0.0
  40
 3.4000000000000
   0
ARC
   5
1A6
 100
AcDbEntity
   8
LEVEL001
 370
30
   6
CONTINUOUS
  62
7
 100
AcDbCircle
  10
 942.78563776364
  20
 244.50000000000
  30
0.0
  40
 7.5000000000000
 100
AcDbArc
  50
 216.97275005927
  51
0.0
   0
LINE
   5
1A7
 100
AcDbEntity
   8
LEVEL001
 370
30
 100
AcDbLine
   6
CONTINUOUS
  62
7
  10
 950.28563776364
  20
 244.50000000000
  30
0.0
  11
 950.28563776364
  21
 264.50000000000
  31
0.0
   0
LINE
   5
1A8
 100
AcDbEntity
   8
LEVEL001
 370
30
 100
AcDbLine
   6
CONTINUOUS
  62
7
  10
 917.47370519733
  20
 264.50000000000
  30
0.0
  11
 936.79372543626
  21
 239.98923657671
  31
0.0
   0
ARC
   5
1A9
 100
AcDbEntity
   8
LEVEL001
 370
30
   6
CONTINUOUS
  62
7
 100
AcDbCircle
  10
 942.78563776364
  20
 244.50000000000
  30
0.0
  40
 25.000000000000
 100
AcDbArc
  50
 145.69924996130
  51
 53.130102354156
   0
LWPOLYLINE
   5
1AA
 100
AcDbEntity
   8
LEVEL001
 370
30
   6
CONTINUOUS
  62
7
 100
AcDbPolyline
  90
8
  70
1
  10
 1349.0856377636
  20
 1114.0000000000
  10
 1349.0856377636
  20
 1174.0000000000
  10
 1394.0856377636
  20
 1174.0000000000
  10
 1394.0856377636
  20
 1164.0000000000
  10
 1400.0856377636
  20
 1164.0000000000
  10
 1400.0856377636
  20
 1124.0000000000
  10
 1394.0856377636
  20
 1124.0000000000
  10
 1394.0856377636
  20
 1114.0000000000
   0
LINE
   5
1AB
 100
AcDbEntity
   8
LEVEL001
 370
30
 100
AcDbLine
   6
CONTINUOUS
  62
7
  10
 1375.0856377636
  20
 1174.0000000000
  30
0.0
  11
 1375.0856377636
  21
 1114.0000000000
  31
0.0
   0
LINE
   5
1AC
 100
AcDbEntity
   8
LEVEL001
 370
30
 100
AcDbLine
   6
CONTINUOUS
  62
7
  10
 1373.0856377636
  20
 1114.0000000000
  30
0.0
  11
 1373.0856377636
  21
 1174.0000000000
  31
0.0
   0
LWPOLYLINE
   5
1AD
 100
AcDbEntity
   8
LEVEL001
 370
30
   6
CONTINUOUS
  62
7
 100
AcDbPolyline
  90
7
  70
0
  10
 1349.0856377636
  20
 785.00000000000
  10
 1349.0856377636
  20
 787.00000000000
  10
 1373.0856377636
  20
 787.00000000000
  10
 1373.0856377636
  20
 829.00000000000
  10
 1375.0856377636
  20
 829.00000000000
  10
 1375.0856377636
  20
 785.00000000000
  10
 1369.0856377636
  20
 785.00000000000
   0
LWPOLYLINE
   5
1AE
 100
AcDbEntity
   8
LEVEL001
 370
30
   6
CONTINUOUS
  62
7
 100
AcDbPolyline
  90
4
  70
0
  10
 1375.0856377636
  20
 829.00000000000
  10
 1400.0856377636
  20
 829.00000000000
  10
 1400.0856377636
  20
 794.00000000000
  10
 1375.0856377636
  20
 794.00000000000
   0
ARC
   5
1AF
 100
AcDbEntity
   8
LEVEL001
 370
30
   6
CONTINUOUS
  62
7
 100
AcDbCircle
  10
 926.78563776364
  20
 763.00000000000
  30
0.0
  40
 17.500000000000
 100
AcDbArc
  50
 180.00000000000
  51
0.0
   0
LWPOLYLINE
   5
1B0
 100
AcDbEntity
   8
LEVEL001
 370
30
   6
CONTINUOUS
  62
7
 100
AcDbPolyline
  90
4
  70
0
  10
 909.28563776364
  20
 763.00000000000
  10
 909.28563776364
  20
 790.50000000000
  10
 944.28563776364
  20
 790.50000000000
  10
 944.28563776364
  20
 763.00000000000
   0
LINE
   5
1B1
 100
AcDbEntity
   8
LEVEL001
 370
30
 100
AcDbLine
   6
CONTINUOUS
  62
7
  10
 1154.0856377636
  20
 1060.5000000000
  30
0.0
  11
 1254.0856377636
  21
 1060.5000000000
  31
0.0
   0
LWPOLYLINE
   5
1B2
 100
AcDbEntity
   8
LEVEL001
 370
30
   6
CONTINUOUS
  62
7
 100
AcDbPolyline
  90
8
  70
1
  10
 2092.3856377636
  20
 264.50000000000
  10
 2092.3856377636
  20
 289.00000000000
  10
 1772.3856377636
  20
 289.00000000000
  10
 1772.3856377636
  20
 264.50000000000
  10
 1776.8856377636
  20
 264.50000000000
  10
 1776.8856377636
  20
 284.50000000000
  10
 2087.8856377636
  20
 284.50000000000
  10
 2087.8856377636
  20
 264.50000000000
   0
LWPOLYLINE
   5
1B3
 100
AcDbEntity
   8
LEVEL001
 370
30
   6
CONTINUOUS
  62
7
 100
AcDbPolyline
  90
4
  70
1
  10
 2055.8856377636
  20
 219.50000000000
  10
 2034.8856377636
  20
 219.50000000000
  10
 2034.8856377636
  20
 269.50000000000
  10
 2055.8856377636
  20
 269.50000000000
   0
ARC
   5
1B4
 100
AcDbEntity
   8
LEVEL001
 370
30
   6
CONTINUOUS
  62
7
 100
AcDbCircle
  10
 2045.3856377636
  20
 269.50000000000
  30
0.0
  40
 12.000000000000
 100
AcDbArc
  50
0.0
  51
 180.00000000000
   0
LWPOLYLINE
   5
1B5
 100
AcDbEntity
   8
LEVEL001
 370
30
   6
CONTINUOUS
  62
7
 100
AcDbPolyline
  90
4
  70
1
  10
 1829.8856377636
  20
 219.50000000000
  10
 1808.8856377636
  20
 219.50000000000
  10
 1808.8856377636
  20
 269.50000000000
  10
 1829.8856377636
  20
 269.50000000000
   0
ARC
   5
1B6
 100
AcDbEntity
   8
LEVEL001
 370
30
   6
CONTINUOUS
  62
7
 100
AcDbCircle
  10
 1819.3856377636
  20
 269.50000000000
  30
0.0
  40
 12.000000000000
 100
AcDbArc
  50
0.0
  51
 180.00000000000
   0
LWPOLYLINE
   5
1B7
 100
AcDbEntity
   8
LEVEL001
 370
30
   6
CONTINUOUS
  62
7
 100
AcDbPolyline
  90
6
  70
0
  10
 2057.3856377636
  20
 269.50000000000
  10
 2057.3856377636
  20
 237.00000000000
  10
 2059.3856377636
  20
 237.00000000000
  10
 2059.3856377636
  20
 282.50000000000
  10
 2074.8856377636
  20
 282.50000000000
  10
 2074.8856377636
  20
 284.50000000000
   0
LWPOLYLINE
   5
1B8
 100
AcDbEntity
   8
LEVEL001
 370
30
   6
CONTINUOUS
  62
7
 100
AcDbPolyline
  90
6
  70
0
  10
 2015.8856377636
  20
 284.50000000000
  10
 2015.8856377636
  20
 282.50000000000
  10
 2031.3856377636
  20
 282.50000000000
  10
 2031.3856377636
  20
 237.00000000000
  10
 2033.3856377636
  20
 237.00000000000
  10
 2033.3856377636
  20
 269.50000000000
   0
LWPOLYLINE
   5
1B9
 100
AcDbEntity
   8
LEVEL001
 370
30
   6
CONTINUOUS
  62
7
 100
AcDbPolyline
  90
6
  70
0
  10
 1831.3856377636
  20
 269.50000000000
  10
 1831.3856377636
  20
 237.00000000000
  10
 1833.3856377636
  20
 237.00000000000
  10
 1833.3856377636
  20
 282.50000000000
  10
 1848.8856377636
  20
 282.50000000000
  10
 1848.8856377636
  20
 284.50000000000
   0
LWPOLYLINE
   5
1BA
 100
AcDbEntity
   8
LEVEL001
 370
30
   6
CONTINUOUS
  62
7
 100
AcDbPolyline
  90
6
  70
0
  10
 1789.8856377636
  20
 284.50000000000
  10
 1789.8856377636
  20
 282.50000000000
  10
 1805.3856377636
  20
 282.50000000000
  10
 1805.3856377636
  20
 237.00000000000
  10
 1807.3856377636
  20
 237.00000000000
  10
 1807.3856377636
  20
 269.50000000000
   0
LWPOLYLINE
   5
1BB
 100
AcDbEntity
   8
LEVEL001
 370
9
   6
HIDDEN
  62
1
 100
AcDbPolyline
  90
3
  70
0
  10
 1772.3856377636
  20
 349.00000000002
  10
 2084.1860630546
  20
 484.57468343461
  10
 2091.3635462952
  20
 468.06760209570
   0
ARC
   5
1BC
 100
AcDbEntity
   8
LEVEL001
 370
9
   6
HIDDEN
  62
1
 100
AcDbCircle
  10
 1932.3856377636
  20
 570.00000000000
  30
0.0
  40
 122.00000000000
 100
AcDbArc
  50
 180.00000000000
  51
0.0
   0
ARC
   5
1BD
 100
AcDbEntity
   8
LEVEL001
 370
9
   6
HIDDEN
  62
1
 100
AcDbCircle
  10
 1932.3856377636
  20
 570.00000000000
  30
0.0
  40
 121.00000000000
 100
AcDbArc
  50
 180.00000000000
  51
0.0
   0
LWPOLYLINE
   5
1BE
 100
AcDbEntity
   8
LEVEL001
 370
9
   6
HIDDEN
  62
1
 100
AcDbPolyline
  90
8
  70
0
  10
 2054.3856377636
  20
 570.00000000000
  10
 2054.3856377636
  20
 732.00000000000
  10
 2063.3856377636
  20
 732.00000000000
  10
 2063.3856377636
  20
 770.00000000000
  10
 1801.3856377636
  20
 770.00000000000
  10
 1801.3856377636
  20
 732.00000000000
  10
 1810.3856377636
  20
 732.00000000000
  10
 1810.3856377636
  20
 570.00000000000
   0
LINE
   5
1BF
 100
AcDbEntity
   8
LEVEL001
 370
9
 100
AcDbLine
   6
HIDDEN
  62
1
  10
 2053.3856377636
  20
 570.00000000000
  30
0.0
  11
 2053.3856377636
  21
 770.00000000000
  31
0.0
   0
LINE
   5
1C0
 100
AcDbEntity
   8
LEVEL001
 370
9
 100
AcDbLine
   6
HIDDEN
  62
1
  10
 1811.3856377636
  20
 570.00000000000
  30
0.0
  11
 1811.3856377636
  21
 770.00000000000
  31
0.0
   0
LWPOLYLINE
   5
1C1
 100
AcDbEntity
   8
LEVEL001
 370
9
   6
HIDDEN
  62
1
 100
AcDbPolyline
  90
7
  70
0
  10
 1801.3856377636
  20
 747.00000000000
  10
 1783.3856377636
  20
 747.00000000000
  10
 1783.3856377636
  20
 765.00000000000
  10
 1799.3856377636
  20
 765.00000000000
  10
 1799.3856377636
  20
 785.00000000000
  10
 2060.3856377636
  20
 785.00000000000
  10
 2060.3856377636
  20
 770.00000000000
   0
LWPOLYLINE
   5
1C2
 100
AcDbEntity
   8
LEVEL001
 370
9
   6
HIDDEN
  62
1
 100
AcDbPolyline
  90
7
  70
0
  10
 1801.3856377636
  20
 732.00000000000
  10
 1801.3856377636
  20
 730.00000000000
  10
 1798.3856377636
  20
 730.00000000000
  10
 1798.3856377636
  20
 742.00000000000
  10
 1780.3856377636
  20
 742.00000000000
  10
 1780.3856377636
  20
 768.00000000000
  10
 1801.3856377636
  20
 768.00000000000
   0
CIRCLE
   5
1C3
 100
AcDbEntity
   8
LEVEL001
 370
9
 100
AcDbCircle
   6
HIDDEN
  62
1
  10
 1791.3856377636
  20
 757.00000000000
  30
0.0
  40
 5.0000000000000
   0
LWPOLYLINE
   5
1C4
 100
AcDbEntity
   8
LEVEL001
 370
9
   6
HIDDEN
  62
1
 100
AcDbPolyline
  90
4
  70
0
  10
 1825.8856377636
  20
 785.00000000000
  10
 1825.8856377636
  20
 829.00000000000
  10
 1885.8856377636
  20
 829.00000000000
  10
 1885.8856377636
  20
 785.00000000000
   0
LINE
   5
1C5
 100
AcDbEntity
   8
LEVEL001
 370
9
 100
AcDbLine
   6
HIDDEN
  62
1
  10
 1825.8856377636
  20
 794.00000000000
  30
0.0
  11
 1885.8856377636
  21
 794.00000000000
  31
0.0
   0
LINE
   5
1C6
 100
AcDbEntity
   8
LEVEL001
 370
9
 100
AcDbLine
   6
HIDDEN
  62
1
  10
 1835.8856377636
  20
 829.00000000000
  30
0.0
  11
 1835.8856377636
  21
 794.00000000000
  31
0.0
   0
LINE
   5
1C7
 100
AcDbEntity
   8
LEVEL001
 370
9
 100
AcDbLine
   6
HIDDEN
  62
1
  10
 1875.8856377636
  20
 829.00000000000
  30
0.0
  11
 1875.8856377636
  21
 794.00000000000
  31
0.0
   0
LINE
   5
1C8
 100
AcDbEntity
   8
LEVEL001
 370
9
 100
AcDbLine
   6
DASHDOT
  62
1
  10
 1932.3856377636
  20
 876.00000000000
  30
0.0
  11
 1932.3856377636
  21
 402.00000000000
  31
0.0
   0
LINE
   5
1C9
 100
AcDbEntity
   8
LEVEL001
 370
9
 100
AcDbLine
   6
DASHDOT
  62
1
  10
 1577.0856377636
  20
 570.00000000000
  30
0.0
  11
 864.08563776364
  21
 570.00000000000
  31
0.0
   0
LINE
   5
1CA
 100
AcDbEntity
   8
LEVEL001
 370
9
 100
AcDbLine
   6
DASHDOT
  62
1
  10
 1204.0856377636
  20
 876.00000000000
  30
0.0
  11
 1204.0856377636
  21
 189.00000000000
  31
0.0
   0
LWPOLYLINE
   5
1CB
 100
AcDbEntity
   8
LEVEL001
 370
30
   6
CONTINUOUS
  62
7
 100
AcDbPolyline
  90
4
  70
0
  10
 1429.8856377636
  20
 1059.0000000000
  10
 1429.8856377636
  20
 1057.5000000000
  10
 1524.8856377636
  20
 1057.5000000000
  10
 1524.8856377636
  20
 1059.0000000000
   0
LWPOLYLINE
   5
1CC
 100
AcDbEntity
   8
LEVEL001
 370
30
   6
CONTINUOUS
  62
7
 100
AcDbPolyline
  90
4
  70
1
  10
 890.78563776364
  20
 1059.0000000000
  10
 987.78563776364
  20
 1059.0000000000
  10
 987.78563776364
  20
 1382.0000000000
  10
 890.78563776364
  20
 1382.0000000000
   0
LWPOLYLINE
   5
1CD
 100
AcDbEntity
   8
LEVEL001
 370
30
   6
CONTINUOUS
  62
7
 100
AcDbPolyline
  90
4
  70
0
  10
 909.28563776364
  20
 1059.0000000000
  10
 909.28563776364
  20
 1056.5000000000
  10
 944.28563776364
  20
 1056.5000000000
  10
 944.28563776364
  20
 1059.0000000000
   0
LWPOLYLINE
   5
1CE
 100
AcDbEntity
   8
LEVEL001
 370
30
   6
CONTINUOUS
  62
7
 100
AcDbPolyline
  90
4
  70
0
  10
 910.53563776364
  20
 1056.5000000000
  10
 910.53563776364
  20
 1045.0000000000
  10
 943.03563776364
  20
 1045.0000000000
  10
 943.03563776364
  20
 1056.5000000000
   0
LWPOLYLINE
   5
1CF
 100
AcDbEntity
   8
LEVEL001
 370
30
   6
CONTINUOUS
  62
7
 100
AcDbPolyline
  90
4
  70
0
  10
 914.28563776364
  20
 1045.0000000000
  10
 914.28563776364
  20
 1039.0000000000
  10
 939.28563776364
  20
 1039.0000000000
  10
 939.28563776364
  20
 1045.0000000000
   0
LWPOLYLINE
   5
1D0
 100
AcDbEntity
   8
LEVEL001
 370
30
   6
CONTINUOUS
  62
7
 100
AcDbPolyline
  90
12
  70
1
  10
 860.78563776364
  20
 1150.5000000000
  10
 860.78563776364
  20
 1290.5000000000
  10
 890.78563776364
  20
 1290.5000000000
  10
 890.78563776364
  20
 1265.5000000000
  10
 887.78563776364
  20
 1265.5000000000
  10
 887.78563776364
  20
 1287.5000000000
  10
 863.78563776364
  20
 1287.5000000000
  10
 863.78563776364
  20
 1153.5000000000
  10
 887.78563776364
  20
 1153.5000000000
  10
 887.78563776364
  20
 1175.5000000000
  10
 890.78563776364
  20
 1175.5000000000
  10
 890.78563776364
  20
 1150.5000000000
   0
LINE
   5
1D1
 100
AcDbEntity
   8
LEVEL001
 370
30
 100
AcDbLine
   6
CONTINUOUS
  62
7
  10
 987.78563776364
  20
 1060.5000000000
  30
0.0
  11
 1144.0856377636
  21
 1060.5000000000
  31
0.0
   0
LINE
   5
1D2
 100
AcDbEntity
   8
LEVEL001
 370
30
 100
AcDbLine
   6
CONTINUOUS
  62
7
  10
 989.78563776364
  20
 1060.5000000000
  30
0.0
  11
 989.78563776364
  21
 1380.5000000000
  31
0.0
   0
LWPOLYLINE
   5
1D3
 100
AcDbEntity
   8
LEVEL001
 370
30
   6
CONTINUOUS
  62
7
 100
AcDbPolyline
  90
4
  70
1
  10
 1420.3856377636
  20
 1059.0000000000
  10
 1534.3856377636
  20
 1059.0000000000
  10
 1534.3856377636
  20
 1382.0000000000
  10
 1420.3856377636
  20
 1382.0000000000
   0
LINE
   5
1D4
 100
AcDbEntity
   8
LEVEL001
 370
30
 100
AcDbLine
   6
CONTINUOUS
  62
7
  10
 1264.0856377636
  20
 1060.5000000000
  30
0.0
  11
 1420.3856377636
  21
 1060.5000000000
  31
0.0
   0
LINE
   5
1D5
 100
AcDbEntity
   8
LEVEL001
 370
30
 100
AcDbLine
   6
CONTINUOUS
  62
7
  10
 989.78563776364
  20
 1372.3004252910
  30
0.0
  11
 1418.3856377636
  21
 1372.3004252910
  31
0.0
   0
LINE
   5
1D6
 100
AcDbEntity
   8
LEVEL001
 370
30
 100
AcDbLine
   6
CONTINUOUS
  62
7
  10
 989.78563776364
  20
 1379.4779085316
  30
0.0
  11
 1418.3856377636
  21
 1379.4779085316
  31
0.0
   0
LINE
   5
1D7
 100
AcDbEntity
   8
LEVEL001
 370
30
 100
AcDbLine
   6
CONTINUOUS
  62
7
  10
 1420.3856377636
  20
 1380.5000000000
  30
0.0
  11
 987.78563776364
  21
 1380.5000000000
  31
0.0
   0
LWPOLYLINE
   5
1D8
 100
AcDbEntity
   8
LEVEL001
 370
30
   6
CONTINUOUS
  62
7
 100
AcDbPolyline
  90
8
  70
1
  10
 315.78563776364
  20
 264.50000000000
  10
 315.78563776364
  20
 289.00000000000
  10
 635.78563776364
  20
 289.00000000000
  10
 635.78563776364
  20
 264.50000000000
  10
 631.28563776364
  20
 264.50000000000
  10
 631.28563776364
  20
 284.50000000000
  10
 320.28563776364
  20
 284.50000000000
  10
 320.28563776364
  20
 264.50000000000
   0
LWPOLYLINE
   5
1D9
 100
AcDbEntity
   8
LEVEL001
 370
30
   6
CONTINUOUS
  62
7
 100
AcDbPolyline
  90
4
  70
1
  10
 352.28563776364
  20
 219.50000000000
  10
 373.28563776364
  20
 219.50000000000
  10
 373.28563776364
  20
 269.50000000000
  10
 352.28563776364
  20
 269.50000000000
   0
ARC
   5
1DA
 100
AcDbEntity
   8
LEVEL001
 370
30
   6
CONTINUOUS
  62
7
 100
AcDbCircle
  10
 362.78563776364
  20
 269.50000000000
  30
0.0
  40
 12.000000000000
 100
AcDbArc
  50
0.0
  51
 180.00000000000
   0
LWPOLYLINE
   5
1DB
 100
AcDbEntity
   8
LEVEL001
 370
30
   6
CONTINUOUS
  62
7
 100
AcDbPolyline
  90
4
  70
1
  10
 578.28563776364
  20
 219.50000000000
  10
 599.28563776364
  20
 219.50000000000
  10
 599.28563776364
  20
 269.50000000000
  10
 578.28563776364
  20
 269.50000000000
   0
ARC
   5
1DC
 100
AcDbEntity
   8
LEVEL001
 370
30
   6
CONTINUOUS
  62
7
 100
AcDbCircle
  10
 588.78563776364
  20
 269.50000000000
  30
0.0
  40
 12.000000000000
 100
AcDbArc
  50
0.0
  51
 180.00000000000
   0
LWPOLYLINE
   5
1DD
 100
AcDbEntity
   8
LEVEL001
 370
30
   6
CONTINUOUS
  62
7
 100
AcDbPolyline
  90
4
  70
1
  10
 405.78563776364
  20
 631.50000000000
  10
 545.78563776364
  20
 631.50000000000
  10
 545.78563776364
  20
 656.50000000000
  10
 405.78563776364
  20
 656.50000000000
   0
ARC
   5
1DE
 100
AcDbEntity
   8
LEVEL001
 370
30
   6
CONTINUOUS
  62
7
 100
AcDbCircle
  10
 565.78563776364
  20
 715.00000000000
  30
0.0
  40
 5.0000000000000
 100
AcDbArc
  50
 119.99999999995
  51
 299.99999999995
   0
LWPOLYLINE
   5
1DF
 100
AcDbEntity
   8
LEVEL001
 370
30
   6
CONTINUOUS
  62
7
 100
AcDbPolyline
  90
6
  70
0
  10
 350.78563776364
  20
 269.50000000000
  10
 350.78563776364
  20
 237.00000000000
  10
 348.78563776364
  20
 237.00000000000
  10
 348.78563776364
  20
 282.50000000000
  10
 333.28563776364
  20
 282.50000000000
  10
 333.28563776364
  20
 284.50000000000
   0
LWPOLYLINE
   5
1E0
 100
AcDbEntity
   8
LEVEL001
 370
30
   6
CONTINUOUS
  62
7
 100
AcDbPolyline
  90
6
  70
0
  10
 392.28563776364
  20
 284.50000000000
  10
 392.28563776364
  20
 282.50000000000
  10
 376.78563776364
  20
 282.50000000000
  10
 376.78563776364
  20
 237.00000000000
  10
 374.78563776364
  20
 237.00000000000
  10
 374.78563776364
  20
 269.50000000000
   0
LWPOLYLINE
   5
1E1
 100
AcDbEntity
   8
LEVEL001
 370
30
   6
CONTINUOUS
  62
7
 100
AcDbPolyline
  90
6
  70
0
  10
 576.78563776364
  20
 269.50000000000
  10
 576.78563776364
  20
 237.00000000000
  10
 574.78563776364
  20
 237.00000000000
  10
 574.78563776364
  20
 282.50000000000
  10
 559.28563776364
  20
 282.50000000000
  10
 559.28563776364
  20
 284.50000000000
   0
LWPOLYLINE
   5
1E2
 100
AcDbEntity
   8
LEVEL001
 370
30
   6
CONTINUOUS
  62
7
 100
AcDbPolyline
  90
6
  70
0
  10
 618.28563776364
  20
 284.50000000000
  10
 618.28563776364
  20
 282.50000000000
  10
 602.78563776364
  20
 282.50000000000
  10
 602.78563776364
  20
 237.00000000000
  10
 600.78563776364
  20
 237.00000000000
  10
 600.78563776364
  20
 269.50000000000
   0
ARC
   5
1E3
 100
AcDbEntity
   8
LEVEL001
 370
30
   6
CONTINUOUS
  62
7
 100
AcDbCircle
  10
 565.78563776364
  20
 715.00000000000
  30
0.0
  40
 10.000000000000
 100
AcDbArc
  50
 59.999999999944
  51
0.0
   0
LWPOLYLINE
   5
1E4
 100
AcDbEntity
   8
LEVEL001
 370
9
   6
HIDDEN
  62
1
 100
AcDbPolyline
  90
3
  70
0
  10
 635.78563776364
  20
 349.00000000002
  10
 323.98521247269
  20
 484.57468343461
  10
 316.80772923204
  20
 468.06760209570
   0
ARC
   5
1E5
 100
AcDbEntity
   8
LEVEL001
 370
9
   6
HIDDEN
  62
1
 100
AcDbCircle
  10
 475.78563776364
  20
 570.00000000000
  30
0.0
  40
 122.00000000000
 100
AcDbArc
  50
 180.00000000000
  51
0.0
   0
ARC
   5
1E6
 100
AcDbEntity
   8
LEVEL001
 370
9
   6
HIDDEN
  62
1
 100
AcDbCircle
  10
 475.78563776364
  20
 570.00000000000
  30
0.0
  40
 121.00000000000
 100
AcDbArc
  50
 180.00000000000
  51
0.0
   0
LWPOLYLINE
   5
1E7
 100
AcDbEntity
   8
LEVEL001
 370
9
   6
HIDDEN
  62
1
 100
AcDbPolyline
  90
8
  70
0
  10
 353.78563776364
  20
 570.00000000000
  10
 353.78563776364
  20
 732.00000000000
  10
 344.78563776364
  20
 732.00000000000
  10
 344.78563776364
  20
 770.00000000000
  10
 606.78563776364
  20
 770.00000000000
  10
 606.78563776364
  20
 732.00000000000
  10
 597.78563776364
  20
 732.00000000000
  10
 597.78563776364
  20
 570.00000000000
   0
LINE
   5
1E8
 100
AcDbEntity
   8
LEVEL001
 370
9
 100
AcDbLine
   6
HIDDEN
  62
1
  10
 354.78563776364
  20
 570.00000000000
  30
0.0
  11
 354.78563776364
  21
 770.00000000000
  31
0.0
   0
LINE
   5
1E9
 100
AcDbEntity
   8
LEVEL001
 370
9
 100
AcDbLine
   6
HIDDEN
  62
1
  10
 596.78563776364
  20
 570.00000000000
  30
0.0
  11
 596.78563776364
  21
 770.00000000000
  31
0.0
   0
LWPOLYLINE
   5
1EA
 100
AcDbEntity
   8
LEVEL001
 370
9
   6
HIDDEN
  62
1
 100
AcDbPolyline
  90
7
  70
0
  10
 606.78563776364
  20
 747.00000000000
  10
 624.78563776364
  20
 747.00000000000
  10
 624.78563776364
  20
 765.00000000000
  10
 608.78563776364
  20
 765.00000000000
  10
 608.78563776364
  20
 785.00000000000
  10
 347.78563776364
  20
 785.00000000000
  10
 347.78563776364
  20
 770.00000000000
   0
LWPOLYLINE
   5
1EB
 100
AcDbEntity
   8
LEVEL001
 370
9
   6
HIDDEN
  62
1
 100
AcDbPolyline
  90
7
  70
0
  10
 606.78563776364
  20
 732.00000000000
  10
 606.78563776364
  20
 730.00000000000
  10
 609.78563776364
  20
 730.00000000000
  10
 609.78563776364
  20
 742.00000000000
  10
 627.78563776364
  20
 742.00000000000
  10
 627.78563776364
  20
 768.00000000000
  10
 606.78563776364
  20
 768.00000000000
   0
CIRCLE
   5
1EC
 100
AcDbEntity
   8
LEVEL001
 370
9
 100
AcDbCircle
   6
HIDDEN
  62
1
  10
 616.78563776364
  20
 757.00000000000
  30
0.0
  40
 5.0000000000000
   0
LINE
   5
1ED
 100
AcDbEntity
   8
LEVEL001
 370
9
 100
AcDbLine
   6
HIDDEN
  62
1
  10
 582.28563776364
  20
 794.00000000000
  30
0.0
  11
 522.28563776364
  21
 794.00000000000
  31
0.0
   0
LINE
   5
1EE
 100
AcDbEntity
   8
LEVEL001
 370
9
 100
AcDbLine
   6
HIDDEN
  62
1
  10
 582.28563776364
  20
 785.00000000000
  30
0.0
  11
 582.28563776364
  21
 800.00000000000
  31
0.0
   0
LINE
   5
1EF
 100
AcDbEntity
   8
LEVEL001
 370
9
 100
AcDbLine
   6
HIDDEN
  62
1
  10
 522.28563776364
  20
 800.00000000000
  30
0.0
  11
 522.28563776364
  21
 785.00000000000
  31
0.0
   0
LINE
   5
1F0
 100
AcDbEntity
   8
LEVEL001
 370
9
 100
AcDbLine
   6
HIDDEN
  62
1
  10
 572.28563776364
  20
 800.00000000000
  30
0.0
  11
 572.28563776364
  21
 794.00000000000
  31
0.0
   0
LINE
   5
1F1
 100
AcDbEntity
   8
LEVEL001
 370
9
 100
AcDbLine
   6
HIDDEN
  62
1
  10
 532.28563776364
  20
 800.00000000000
  30
0.0
  11
 532.28563776364
  21
 794.00000000000
  31
0.0
   0
LWPOLYLINE
   5
1F2
 100
AcDbEntity
   8
LEVEL001
 370
30
   6
CONTINUOUS
  62
7
 100
AcDbPolyline
  90
4
  70
0
  10
 582.28563776364
  20
 800.00000000000
  10
 582.28563776364
  20
 829.00000000000
  10
 522.28563776364
  20
 829.00000000000
  10
 522.28563776364
  20
 800.00000000000
   0
LINE
   5
1F3
 100
AcDbEntity
   8
LEVEL001
 370
30
 100
AcDbLine
   6
CONTINUOUS
  62
7
  10
 572.28563776364
  20
 829.00000000000
  30
0.0
  11
 572.28563776364
  21
 800.00000000000
  31
0.0
   0
LINE
   5
1F4
 100
AcDbEntity
   8
LEVEL001
 370
30
 100
AcDbLine
   6
CONTINUOUS
  62
7
  10
 532.28563776364
  20
 829.00000000000
  30
0.0
  11
 532.28563776364
  21
 800.00000000000
  31
0.0
   0
LINE
   5
1F5
 100
AcDbEntity
   8
LEVEL001
 370
9
 100
AcDbLine
   6
DASHDOT
  62
1
  10
 475.78563776364
  20
 876.00000000000
  30
0.0
  11
 475.78563776364
  21
 402.00000000000
  31
0.0
   0
LINE
   5
1F6
 100
AcDbEntity
   8
LEVEL001
 370
9
 100
AcDbLine
   6
DASHDOT
  62
1
  10
 614.08563776364
  20
 570.00000000000
  30
0.0
  11
 335.08563776364
  21
 570.00000000000
  31
0.0
   0
LINE
   5
1F7
 100
AcDbEntity
   8
LEVEL001
 370
30
 100
AcDbLine
   6
CONTINUOUS
  62
7
  10
 295.08563776364
  20
 219.50000000000
  30
0.0
  11
 653.08563776364
  21
 219.50000000000
  31
0.0
   0
LINE
   5
1F8
 100
AcDbEntity
   8
LEVEL001
 370
9
 100
AcDbLine
   6
DASHDOT
  62
1
  10
 2073.0856377636
  20
 570.00000000000
  30
0.0
  11
 1792.0856377636
  21
 570.00000000000
  31
0.0
   0
LINE
   5
1F9
 100
AcDbEntity
   8
LEVEL001
 370
30
 100
AcDbLine
   6
CONTINUOUS
  62
7
  10
 1752.0856377636
  20
 219.50000000000
  30
0.0
  11
 2112.0856377636
  21
 219.50000000000
  31
0.0
   0
LWPOLYLINE
   5
1FA
 100
AcDbEntity
   8
LEVEL001
 370
30
   6
CONTINUOUS
  62
7
 100
AcDbPolyline
  90
4
  70
1
  10
 637.28563776364
  20
 289.00000000000
  10
 314.28563776364
  20
 289.00000000000
  10
 314.28563776364
  20
 829.00000000000
  10
 637.28563776364
  20
 829.00000000000
   0
LINE
   5
1FB
 100
AcDbEntity
   8
LEVEL001
 370
30
 100
AcDbLine
   6
CONTINUOUS
  62
7
  10
 314.28563776364
  20
 800.00000000000
  30
0.0
  11
 637.28563776364
  21
 800.00000000000
  31
0.0
   0
LWPOLYLINE
   5
1FC
 100
AcDbEntity
   8
LEVEL001
 370
30
   6
CONTINUOUS
  62
7
 100
AcDbPolyline
  90
4
  70
0
  10
 638.78563776364
  20
 684.75000000000
  10
 650.28563776364
  20
 684.75000000000
  10
 650.28563776364
  20
 652.25000000000
  10
 638.78563776364
  20
 652.25000000000
   0
LWPOLYLINE
   5
1FD
 100
AcDbEntity
   8
LEVEL001
 370
30
   6
CONTINUOUS
  62
7
 100
AcDbPolyline
  90
4
  70
0
  10
 650.28563776364
  20
 681.00000000000
  10
 656.28563776364
  20
 681.00000000000
  10
 656.28563776364
  20
 656.00000000000
  10
 650.28563776364
  20
 656.00000000000
   0
LWPOLYLINE
   5
1FE
 100
AcDbEntity
   8
LEVEL001
 370
30
   6
CONTINUOUS
  62
7
 100
AcDbPolyline
  90
4
  70
0
  10
 637.28563776364
  20
 790.50000000000
  10
 639.78563776364
  20
 790.50000000000
  10
 639.78563776364
  20
 745.50000000000
  10
 637.28563776364
  20
 745.50000000000
   0
LWPOLYLINE
   5
1FF
 100
AcDbEntity
   8
LEVEL001
 370
30
   6
CONTINUOUS
  62
7
 100
AcDbPolyline
  90
4
  70
0
  10
 639.78563776364
  20
 779.25000000000
  10
 651.28563776364
  20
 779.25000000000
  10
 651.28563776364
  20
 746.75000000000
  10
 639.78563776364
  20
 746.75000000000
   0
LWPOLYLINE
   5
200
 100
AcDbEntity
   8
LEVEL001
 370
30
   6
CONTINUOUS
  62
7
 100
AcDbPolyline
  90
4
  70
0
  10
 651.28563776364
  20
 775.50000000000
  10
 657.28563776364
  20
 775.50000000000
  10
 657.28563776364
  20
 750.50000000000
  10
 651.28563776364
  20
 750.50000000000
   0
LWPOLYLINE
   5
201
 100
AcDbEntity
   8
LEVEL001
 370
30
   6
CONTINUOUS
  62
7
 100
AcDbPolyline
  90
3
  70
0
  10
 637.28563776364
  20
 824.50000000000
  10
 638.78563776364
  20
 824.50000000000
  10
 638.78563776364
  20
 790.50000000000
   0
LWPOLYLINE
   5
202
 100
AcDbEntity
   8
LEVEL001
 370
30
   6
CONTINUOUS
  62
7
 100
AcDbPolyline
  90
3
  70
0
  10
 638.78563776364
  20
 745.50000000000
  10
 638.78563776364
  20
 618.50000000000
  10
 637.28563776364
  20
 618.50000000000
   0
LWPOLYLINE
   5
203
 100
AcDbEntity
   8
LEVEL001
 370
30
   6
CONTINUOUS
  62
7
 100
AcDbPolyline
  90
4
  70
1
  10
 1770.8856377636
  20
 289.00000000000
  10
 2093.8856377636
  20
 289.00000000000
  10
 2093.8856377636
  20
 829.00000000000
  10
 1770.8856377636
  20
 829.00000000000
   0
LWPOLYLINE
   5
204
 100
AcDbEntity
   8
LEVEL001
 370
30
   6
CONTINUOUS
  62
7
 100
AcDbPolyline
  90
4
  70
0
  10
 1769.3856377636
  20
 684.75000000000
  10
 1757.8856377636
  20
 684.75000000000
  10
 1757.8856377636
  20
 652.25000000000
  10
 1769.3856377636
  20
 652.25000000000
   0
LWPOLYLINE
   5
205
 100
AcDbEntity
   8
LEVEL001
 370
30
   6
CONTINUOUS
  62
7
 100
AcDbPolyline
  90
4
  70
0
  10
 1757.8856377636
  20
 681.00000000000
  10
 1751.8856377636
  20
 681.00000000000
  10
 1751.8856377636
  20
 656.00000000000
  10
 1757.8856377636
  20
 656.00000000000
   0
LWPOLYLINE
   5
206
 100
AcDbEntity
   8
LEVEL001
 370
30
   6
CONTINUOUS
  62
7
 100
AcDbPolyline
  90
4
  70
0
  10
 1770.8856377636
  20
 824.50000000000
  10
 1769.3856377636
  20
 824.50000000000
  10
 1769.3856377636
  20
 618.50000000000
  10
 1770.8856377636
  20
 618.50000000000
   0
LINE
   5
207
 100
AcDbEntity
   8
LEVEL001
 370
30
 100
AcDbLine
   6
CONTINUOUS
  62
7
  10
 1634.1856377636
  20
 1094.0000000000
  30
0.0
  11
 1634.1856377636
  21
 1190.0000000000
  31
0.0
   0
LINE
   5
208
 100
AcDbEntity
   8
LEVEL001
 370
30
 100
AcDbLine
   6
CONTINUOUS
  62
7
  10
 1602.1856377636
  20
 998.00000000000
  30
0.0
  11
 1602.1856377636
  21
 1382.0000000000
  31
0.0
   0
LINE
   5
209
 100
AcDbEntity
   8
LEVEL001
 370
30
 100
AcDbLine
   6
CONTINUOUS
  62
7
  10
 1809.1856377636
  20
 1382.0000000000
  30
0.0
  11
 1809.1856377636
  21
 998.00000000000
  31
0.0
   0
LINE
   5
20A
 100
AcDbEntity
   8
LEVEL001
 370
30
 100
AcDbLine
   6
CONTINUOUS
  62
7
  10
 2249.1856377636
  20
 1030.0000000000
  30
0.0
  11
 1602.1856377636
  21
 1030.0000000000
  31
0.0
   0
LINE
   5
20B
 100
AcDbEntity
   8
LEVEL001
 370
30
 100
AcDbLine
   6
CONTINUOUS
  62
7
  10
 2249.1856377636
  20
 1382.0000000000
  30
0.0
  11
 1602.1856377636
  21
 1382.0000000000
  31
0.0
   0
LINE
   5
20C
 100
AcDbEntity
   8
LEVEL001
 370
30
 100
AcDbLine
   6
CONTINUOUS
  62
7
  10
 1602.1856377636
  20
 1350.0000000000
  30
0.0
  11
 2249.1856377636
  21
 1350.0000000000
  31
0.0
   0
LINE
   5
20D
 100
AcDbEntity
   8
LEVEL001
 370
30
 100
AcDbLine
   6
CONTINUOUS
  62
7
  10
 1602.1856377636
  20
 1318.0000000000
  30
0.0
  11
 2249.1856377636
  21
 1318.0000000000
  31
0.0
   0
LINE
   5
20E
 100
AcDbEntity
   8
LEVEL001
 370
30
 100
AcDbLine
   6
CONTINUOUS
  62
7
  10
 1602.1856377636
  20
 1286.0000000000
  30
0.0
  11
 2249.1856377636
  21
 1286.0000000000
  31
0.0
   0
LINE
   5
20F
 100
AcDbEntity
   8
LEVEL001
 370
30
 100
AcDbLine
   6
CONTINUOUS
  62
7
  10
 1602.1856377636
  20
 1254.0000000000
  30
0.0
  11
 2249.1856377636
  21
 1254.0000000000
  31
0.0
   0
LINE
   5
210
 100
AcDbEntity
   8
LEVEL001
 370
30
 100
AcDbLine
   6
CONTINUOUS
  62
7
  10
 1602.1856377636
  20
 1222.0000000000
  30
0.0
  11
 2249.1856377636
  21
 1222.0000000000
  31
0.0
   0
LINE
   5
211
 100
AcDbEntity
   8
LEVEL001
 370
30
 100
AcDbLine
   6
CONTINUOUS
  62
7
  10
 1602.1856377636
  20
 1190.0000000000
  30
0.0
  11
 2249.1856377636
  21
 1190.0000000000
  31
0.0
   0
LINE
   5
212
 100
AcDbEntity
   8
LEVEL001
 370
30
 100
AcDbLine
   6
CONTINUOUS
  62
7
  10
 1634.1856377636
  20
 1158.0000000000
  30
0.0
  11
 2249.1856377636
  21
 1158.0000000000
  31
0.0
   0
LINE
   5
213
 100
AcDbEntity
   8
LEVEL001
 370
30
 100
AcDbLine
   6
CONTINUOUS
  62
7
  10
 1634.1856377636
  20
 1126.0000000000
  30
0.0
  11
 2249.1856377636
  21
 1126.0000000000
  31
0.0
   0
LINE
   5
214
 100
AcDbEntity
   8
LEVEL001
 370
30
 100
AcDbLine
   6
CONTINUOUS
  62
7
  10
 1602.1856377636
  20
 1094.0000000000
  30
0.0
  11
 2249.1856377636
  21
 1094.0000000000
  31
0.0
   0
LINE
   5
215
 100
AcDbEntity
   8
LEVEL001
 370
30
 100
AcDbLine
   6
CONTINUOUS
  62
7
  10
 1602.1856377636
  20
 1062.0000000000
  30
0.0
  11
 2249.1856377636
  21
 1062.0000000000
  31
0.0
   0
LINE
   5
216
 100
AcDbEntity
   8
LEVEL001
 370
30
 100
AcDbLine
   6
CONTINUOUS
  62
7
  10
 2249.1856377636
  20
 1382.0000000000
  30
0.0
  11
 2249.1856377636
  21
 998.00000000000
  31
0.0
   0
LINE
   5
217
 100
AcDbEntity
   8
LEVEL001
 370
30
 100
AcDbLine
   6
CONTINUOUS
  62
7
  10
 1602.1856377636
  20
 998.00000000000
  30
0.0
  11
 2249.1856377636
  21
 998.00000000000
  31
0.0
   0
MTEXT
   5
219
 100
AcDbEntity
   8
LEVEL001
 370
30
  62
7
 100
AcDbMText
  10
 2259.0856377636
  20
 40.000000000000
  30
0.0
  40
 16.000000000000
  41
0.0
  71
7
  72
1
   1
\T1.000000;井上
   7
GMM001
  44
 0.79999984000003
   0
LWPOLYLINE
   5
21A
 100
AcDbEntity
   8
LEVEL001
 370
9
   6
HIDDEN
  62
1
 100
AcDbPolyline
  90
24
  70
1
  10
 1361.5856377636
  20
 682.00000000000
  10
 1361.5856377636
  20
 473.00000000000
  10
 1358.5856377636
  20
 470.00000000000
  10
 1254.5856377636
  20
 470.00000000000
  10
 1251.5856377636
  20
 473.00000000000
  10
 1251.5856377636
  20
 496.71490154077
  10
 1254.5856377636
  20
 500.00000000000
  10
 1343.5856377644
  20
 500.00000000000
  10
 1346.5856377644
  20
 503.28509845924
  10
 1346.5856377636
  20
 635.00000000000
  10
 1341.0856377636
  20
 647.00000000000
  10
 1319.0856377636
  20
 661.00000000000
  10
 1285.0856377636
  20
 665.00000000000
  10
 1263.0856377636
  20
 663.00000000000
  10
 1246.0856377636
  20
 659.00000000000
  10
 1231.0856377636
  20
 653.00000000000
  10
 1218.0856377636
  20
 651.00000000000
  10
 1217.0856377636
  20
 655.00000000000
  10
 1219.0856377636
  20
 661.00000000000
  10
 1228.0856377636
  20
 669.00000000000
  10
 1248.0856377636
  20
 678.00000000000
  10
 1267.0856377636
  20
 683.00000000000
  10
 1284.0856377636
  20
 685.00000000000
  10
 1358.5856377636
  20
 685.00000000000
   0
LWPOLYLINE
   5
21B
 100
AcDbEntity
   8
LEVEL001
 370
9
   6
HIDDEN
  62
1
 100
AcDbPolyline
  90
24
  70
1
  10
 1046.5856377636
  20
 458.00000000000
  10
 1046.5856377636
  20
 667.00000000000
  10
 1049.5856377636
  20
 670.00000000000
  10
 1153.5856377636
  20
 670.00000000000
  10
 1156.5856377636
  20
 667.00000000000
  10
 1156.5856377636
  20
 643.28509845923
  10
 1153.5856377636
  20
 640.00000000000
  10
 1064.5856377629
  20
 640.00000000000
  10
 1061.5856377629
  20
 636.71490154076
  10
 1061.5856377636
  20
 505.00000000000
  10
 1067.0856377636
  20
 493.00000000000
  10
 1089.0856377636
  20
 479.00000000000
  10
 1123.0856377636
  20
 475.00000000000
  10
 1145.0856377636
  20
 477.00000000000
  10
 1162.0856377636
  20
 481.00000000000
  10
 1177.0856377636
  20
 487.00000000000
  10
 1190.0856377636
  20
 489.00000000000
  10
 1191.0856377636
  20
 485.00000000000
  10
 1189.0856377636
  20
 479.00000000000
  10
 1180.0856377636
  20
 471.00000000000
  10
 1160.0856377636
  20
 462.00000000000
  10
 1141.0856377636
  20
 457.00000000000
  10
 1124.0856377636
  20
 455.00000000000
  10
 1049.5856377636
  20
 455.00000000000
   0
MTEXT
   5
21D
 100
AcDbEntity
   8
LEVEL001
 370
9
  62
1
 100
AcDbMText
  10
 1638.1856377636
  20
 1098.0000000000
  30
0.0
  40
 16.000000000000
  41
0.0
  71
7
  72
1
   1
\T1.000000;安全カバ－
   7
GMM001
  44
 0.79999984000003
   0
MTEXT
   5
21F
 100
AcDbEntity
   8
LEVEL001
 370
9
  62
1
 100
AcDbMText
  10
 1638.1856377636
  20
 1290.0000000000
  30
0.0
  40
 16.000000000000
  41
0.0
  71
7
  72
1
   1
\T1.000000;寸法（Ｗ×Ｄ×Ｈ）
   7
GMM001
  44
 0.79999984000003
   0
MTEXT
   5
221
 100
AcDbEntity
   8
LEVEL001
 370
9
  62
1
 100
AcDbMText
  10
 1609.1856377636
  20
 1169.0000000000
  30
0.0
  40
 16.000000000000
  41
0.0
  71
1
  72
1
   1
{\T1.000000;材}\P\P{\T1.000000;質}
   7
GMM001
  44
 0.79999984000003
   0
MTEXT
   5
223
 100
AcDbEntity
   8
LEVEL001
 370
9
  62
1
 100
AcDbMText
  10
 1638.1856377636
  20
 1194.0000000000
  30
0.0
  40
 16.000000000000
  41
0.0
  71
7
  72
1
   1
\W1.000000;\T1.000000;消\W0.500000;\T1.000000;  \W1.000000;\T1.000000;費\W0.500000;\T1.000000;  \W1.000000;\T1.000000;電\W0.500000;\T1.000000;  \W1.000000;\T1.000000;力
   7
GMM001
  44
 0.79999984000003
   0
MTEXT
   5
225
 100
AcDbEntity
   8
LEVEL001
 370
9
  62
1
 100
AcDbMText
  10
 1638.1856377636
  20
 1226.0000000000
  30
0.0
  40
 16.000000000000
  41
0.0
  71
7
  72
1
   1
\W1.000000;\T1.000000;電\W0.500000;\T1.000000;          \W1.000000;\T1.000000;源
   7
GMM001
  44
 0.79999984000003
   0
MTEXT
   5
227
 100
AcDbEntity
   8
LEVEL001
 370
9
  62
1
 100
AcDbMText
  10
 1638.1856377636
  20
 1258.0000000000
  30
0.0
  40
 16.000000000000
  41
0.0
  71
7
  72
1
   1
\W1.000000;\T1.000000;能\W0.500000;\T1.000000;          \W1.000000;\T1.000000;力
   7
GMM001
  44
 0.79999984000003
   0
MTEXT
   5
229
 100
AcDbEntity
   8
LEVEL001
 370
9
  62
1
 100
AcDbMText
  10
 1638.1856377636
  20
 1322.0000000000
  30
0.0
  40
 16.000000000000
  41
0.0
  71
7
  72
1
   1
\W1.000000;\T1.000000;型\W0.500000;\T1.000000;          \W1.000000;\T1.000000;式
   7
GMM001
  44
 0.79999984000003
   0
MTEXT
   5
22B
 100
AcDbEntity
   8
LEVEL001
 370
9
  62
1
 100
AcDbMText
  10
 1638.1856377636
  20
 1354.0000000000
  30
0.0
  40
 16.000000000000
  41
0.0
  71
7
  72
1
   1
\W1.000000;\T1.000000;製　\W0.500000;\T1.000000;  \W1.000000;\T1.000000;品\W0.500000;\T1.000000;  \W1.000000;\T1.000000;　名
   7
GMM001
  44
 0.79999984000003
   0
MTEXT
   5
22D
 100
AcDbEntity
   8
LEVEL001
 370
9
  62
1
 100
AcDbMText
  10
 1638.1856377636
  20
 1034.0000000000
  30
0.0
  40
 16.000000000000
  41
0.0
  71
7
  72
1
   1
\T1.000000;電源プラグ
   7
GMM001
  44
 0.79999984000003
   0
MTEXT
   5
22F
 100
AcDbEntity
   8
LEVEL001
 370
9
  62
1
 100
AcDbMText
  10
 1638.1856377636
  20
 1002.0000000000
  30
0.0
  40
 16.000000000000
  41
0.0
  71
7
  72
1
   1
\T1.000000;製品重量
   7
GMM001
  44
 0.79999984000003
   0
MTEXT
   5
231
 100
AcDbEntity
   8
LEVEL001
 370
9
  62
1
 100
AcDbMText
  10
 1638.1856377636
  20
 1066.0000000000
  30
0.0
  40
 16.000000000000
  41
0.0
  71
7
  72
1
   1
\T1.000000;コ－ド長さ
   7
GMM001
  44
 0.79999984000003
   0
MTEXT
   5
233
 100
AcDbEntity
   8
LEVEL001
 370
9
  62
1
 100
AcDbMText
  10
 1814.1856377636
  20
 1066.0000000000
  30
0.0
  40
 16.000000000000
  41
0.0
  71
7
  72
1
   1
\T1.000000;３．０ｍ
   7
GMM001
  44
 0.79999984000003
   0
MTEXT
   5
235
 100
AcDbEntity
   8
LEVEL001
 370
9
  62
1
 100
AcDbMText
  10
 1814.1856377636
  20
 1354.0000000000
  30
0.0
  40
 16.000000000000
  41
0.0
  71
7
  72
1
   1
\T1.000000;手打麺専用ネリ機
   7
GMM001
  44
 0.79999984000003
   0
MTEXT
   5
237
 100
AcDbEntity
   8
LEVEL001
 370
9
  62
1
 100
AcDbMText
  10
 1814.1856377636
  20
 1258.0000000000
  30
0.0
  40
 16.000000000000
  41
0.0
  71
7
  72
1
   1
\T1.000000;３ｋｇ～６ｋｇ／回
   7
GMM001
  44
 0.79999984000003
   0
MTEXT
   5
239
 100
AcDbEntity
   8
LEVEL001
 370
9
  62
1
 100
AcDbMText
  10
 1638.1856377636
  20
 1162.0000000000
  30
0.0
  40
 16.000000000000
  41
0.0
  71
7
  72
1
   1
\T1.000000;ドラム
   7
GMM001
  44
 0.79999984000003
   0
MTEXT
   5
23B
 100
AcDbEntity
   8
LEVEL001
 370
9
  62
1
 100
AcDbMText
  10
 1638.1856377636
  20
 1130.0000000000
  30
0.0
  40
 16.000000000000
  41
0.0
  71
7
  72
1
   1
\T1.000000;羽根
   7
GMM001
  44
 0.79999984000003
   0
MTEXT
   5
23D
 100
AcDbEntity
   8
LEVEL001
 370
9
  62
1
 100
AcDbMText
  10
 1814.1856377636
  20
 1162.0000000000
  30
0.0
  40
 16.000000000000
  41
0.0
  71
7
  72
1
   1
\T1.000000;ＳＵＳ３０４
   7
GMM001
  44
 0.79999984000003
   0
MTEXT
   5
23F
 100
AcDbEntity
   8
LEVEL001
 370
9
  62
1
 100
AcDbMText
  10
 1814.1856377636
  20
 1098.0000000000
  30
0.0
  40
 16.000000000000
  41
0.0
  71
7
  72
1
   1
\T1.000000;ＳＵＳ３０４
   7
GMM001
  44
 0.79999984000003
   0
MTEXT
   5
241
 100
AcDbEntity
   8
LEVEL001
 370
9
  62
1
 100
AcDbMText
  10
 1814.1856377636
  20
 1002.0000000000
  30
0.0
  40
 16.000000000000
  41
0.0
  71
7
  72
1
   1
\T1.000000;９５ｋｇ
   7
GMM001
  44
 0.79999984000003
   0
MTEXT
   5
243
 100
AcDbEntity
   8
LEVEL001
 370
9
  62
1
 100
AcDbMText
  10
 1814.1856377636
  20
 1322.0000000000
  30
0.0
  40
 16.000000000000
  41
0.0
  71
7
  72
1
   1
\T1.000000;ス－パ－ニ－ダ－　ＳＮ－６Ｐ型
   7
GMM001
  44
 0.79999984000003
   0
ARC
   5
244
 100
AcDbEntity
   8
LEVEL001
 370
30
   6
CONTINUOUS
  62
7
 100
AcDbCircle
  10
 600.42665391512
  20
 735.00000000002
  30
0.0
  40
 5.0000000000000
 100
AcDbArc
  50
 299.99999999995
  51
 119.99999999994
   0
LINE
   5
245
 100
AcDbEntity
   8
LEVEL001
 370
30
 100
AcDbLine
   6
CONTINUOUS
  62
7
  10
 563.28563776365
  20
 719.33012701892
  30
0.0
  11
 597.92665391513
  21
 739.33012701894
  31
0.0
   0
LINE
   5
246
 100
AcDbEntity
   8
LEVEL001
 370
30
 100
AcDbLine
   6
CONTINUOUS
  62
7
  10
 568.28563776364
  20
 710.66987298108
  30
0.0
  11
 602.92665391512
  21
 730.66987298109
  31
0.0
   0
ARC
   5
247
 100
AcDbEntity
   8
LEVEL001
 370
30
   6
CONTINUOUS
  62
7
 100
AcDbCircle
  10
 857.38563776364
  20
 715.00000000000
  30
0.0
  40
 5.0000000000000
 100
AcDbArc
  50
 180.00000000000
  51
 270.00000000000
   0
LINE
   5
248
 100
AcDbEntity
   8
LEVEL001
 370
30
 100
AcDbLine
   6
CONTINUOUS
  62
7
  10
 890.78563776364
  20
 710.00000000000
  30
0.0
  11
 857.38563776364
  21
 710.00000000000
  31
0.0
   0
LINE
   5
249
 100
AcDbEntity
   8
LEVEL001
 370
30
 100
AcDbLine
   6
CONTINUOUS
  62
7
  10
 862.38563776364
  20
 720.00000000000
  30
0.0
  11
 890.78563776364
  21
 720.00000000000
  31
0.0
   0
ARC
   5
24A
 100
AcDbEntity
   8
LEVEL001
 370
30
   6
CONTINUOUS
  62
7
 100
AcDbCircle
  10
 857.38563776364
  20
 735.00000000002
  30
0.0
  40
 5.0000000000000
 100
AcDbArc
  50
0.0
  51
 180.00000000000
   0
LINE
   5
24B
 100
AcDbEntity
   8
LEVEL001
 370
30
 100
AcDbLine
   6
CONTINUOUS
  62
7
  10
 852.38563776364
  20
 715.00000000000
  30
0.0
  11
 852.38563776364
  21
 735.00000000002
  31
0.0
   0
LINE
   5
24C
 100
AcDbEntity
   8
LEVEL001
 370
30
 100
AcDbLine
   6
CONTINUOUS
  62
7
  10
 862.38563776364
  20
 735.00000000002
  30
0.0
  11
 862.38563776364
  21
 720.00000000000
  31
0.0
   0
ARC
   5
24D
 100
AcDbEntity
   8
LEVEL001
 370
30
   6
CONTINUOUS
  62
7
 100
AcDbCircle
  10
 862.38563776364
  20
 1125.5000000000
  30
0.0
  40
 10.000000000000
 100
AcDbArc
  50
 90.000000000000
  51
 180.00000000000
   0
LINE
   5
24E
 100
AcDbEntity
   8
LEVEL001
 370
30
 100
AcDbLine
   6
CONTINUOUS
  62
7
  10
 890.78563776364
  20
 1125.5000000000
  30
0.0
  11
 862.38563776364
  21
 1125.5000000000
  31
0.0
   0
LINE
   5
24F
 100
AcDbEntity
   8
LEVEL001
 370
30
 100
AcDbLine
   6
CONTINUOUS
  62
7
  10
 862.38563776364
  20
 1135.5000000000
  30
0.0
  11
 890.78563776364
  21
 1135.5000000000
  31
0.0
   0
ARC
   5
250
 100
AcDbEntity
   8
LEVEL001
 370
30
   6
CONTINUOUS
  62
7
 100
AcDbCircle
  10
 857.38563776364
  20
 1095.8589840000
  30
0.0
  40
 5.0000000000000
 100
AcDbArc
  50
 180.00000000000
  51
0.0
   0
LINE
   5
251
 100
AcDbEntity
   8
LEVEL001
 370
30
 100
AcDbLine
   6
CONTINUOUS
  62
7
  10
 852.38563776364
  20
 1125.5000000000
  30
0.0
  11
 852.38563776364
  21
 1095.8589840000
  31
0.0
   0
LINE
   5
252
 100
AcDbEntity
   8
LEVEL001
 370
30
 100
AcDbLine
   6
CONTINUOUS
  62
7
  10
 862.38563776364
  20
 1095.8589840000
  30
0.0
  11
 862.38563776364
  21
 1125.5000000000
  31
0.0
   0
MTEXT
   5
254
 100
AcDbEntity
   8
LEVEL001
 370
9
  62
1
 100
AcDbMText
  10
 1814.1856377636
  20
 1290.0000000000
  30
0.0
  40
 16.000000000000
  41
0.0
  71
7
  72
1
   1
\T1.000000;６８２×３５０×６１０
   7
GMM001
  44
 0.79999984000003
   0
INSERT
   5
255
 100
AcDbEntity
   8
LEVEL001
 100
AcDbBlockReference
   2
BLOCK001
  10
0.0
  20
0.0
  30
0.0
   0
INSERT
   5
256
 100
AcDbEntity
   8
LEVEL001
 100
AcDbBlockReference
   2
BLOCK002
  10
0.0
  20
0.0
  30
0.0
   0
INSERT
   5
257
 100
AcDbEntity
   8
0
 100
AcDbBlockReference
   2
BLOCK003
  10
0.0
  20
0.0
  30
0.0
   0
LWPOLYLINE
   5
258
 100
AcDbEntity
   8
LEVEL001
 370
30
   6
CONTINUOUS
  62
7
 100
AcDbPolyline
  90
4
  70
0
  10
 1769.3856377636
  20
 779.25000000000
  10
 1757.8856377636
  20
 779.25000000000
  10
 1757.8856377636
  20
 746.75000000000
  10
 1769.3856377636
  20
 746.75000000000
   0
LWPOLYLINE
   5
259
 100
AcDbEntity
   8
LEVEL001
 370
30
   6
CONTINUOUS
  62
7
 100
AcDbPolyline
  90
4
  70
0
  10
 1757.8856377636
  20
 775.50000000000
  10
 1751.8856377636
  20
 775.50000000000
  10
 1751.8856377636
  20
 750.50000000000
  10
 1757.8856377636
  20
 750.50000000000
   0
LWPOLYLINE
   5
25A
 100
AcDbEntity
   8
LEVEL001
 370
30
   6
CONTINUOUS
  62
7
 100
AcDbPolyline
  90
4
  70
0
  10
 1441.1356377636
  20
 1057.5000000000
  10
 1441.1356377636
  20
 1046.0000000000
  10
 1473.6356377636
  20
 1046.0000000000
  10
 1473.6356377636
  20
 1057.5000000000
   0
LWPOLYLINE
   5
25B
 100
AcDbEntity
   8
LEVEL001
 370
30
   6
CONTINUOUS
  62
7
 100
AcDbPolyline
  90
4
  70
0
  10
 1444.8856377636
  20
 1046.0000000000
  10
 1444.8856377636
  20
 1040.0000000000
  10
 1469.8856377636
  20
 1040.0000000000
  10
 1469.8856377636
  20
 1046.0000000000
   0
LWPOLYLINE
   5
25C
 100
AcDbEntity
   8
LEVEL001
 370
30
   6
CONTINUOUS
  62
7
 100
AcDbPolyline
  90
4
  70
0
  10
 1481.1356377636
  20
 1057.5000000000
  10
 1481.1356377636
  20
 1046.0000000000
  10
 1513.6356377636
  20
 1046.0000000000
  10
 1513.6356377636
  20
 1057.5000000000
   0
LWPOLYLINE
   5
25D
 100
AcDbEntity
   8
LEVEL001
 370
30
   6
CONTINUOUS
  62
7
 100
AcDbPolyline
  90
4
  70
0
  10
 1484.8856377636
  20
 1046.0000000000
  10
 1484.8856377636
  20
 1040.0000000000
  10
 1509.8856377636
  20
 1040.0000000000
  10
 1509.8856377636
  20
 1046.0000000000
   0
MTEXT
   5
25F
 100
AcDbEntity
   8
LEVEL001
 370
30
  62
7
 100
AcDbMText
  10
 2162.0856377636
  20
 40.000000000000
  30
0.0
  40
 16.000000000000
  41
0.0
  71
7
  72
1
   1
\T1.000000;27
   7
GMM004
  44
 0.79999984000003
   0
MTEXT
   5
261
 100
AcDbEntity
   8
LEVEL001
 370
30
  62
7
 100
AcDbMText
  10
 2186.0609925060
  20
 40.000000000000
  30
0.0
  40
 16.000000000000
  41
0.0
  71
7
  72
1
   1
\T1.000000; 3
   7
GMM004
  44
 0.79999984000003
   0
MTEXT
   5
263
 100
AcDbEntity
   8
LEVEL001
 370
30
  62
7
 100
AcDbMText
  10
 2211.6898199892
  20
 40.000000000000
  30
0.0
  40
 16.000000000000
  41
0.0
  71
7
  72
1
   1
\T1.000000;19
   7
GMM004
  44
 0.79999984000003
   0
DIMENSION
   5
264
 100
AcDbEntity
   8
LEVEL001
 370
30
   6
CONTINUOUS
  62
7
 100
AcDbDimension
   2
*D1
  10
 1642.0856377636
  20
 829.50000000000
  30
0.0
  11
 1635.2284949065
  21
 524.50000000000
  31
0.0
  70
128
   3
GMM001
 100
AcDbAlignedDimension
  13
 1204.0856377636
  23
 219.50000000000
  33
0.0
  14
 1554.3856377636
  24
 829.50000000000
  34
0.0
  50
 90.000000000000
 100
AcDbRotatedDimension
   0
DIMENSION
   5
265
 100
AcDbEntity
   8
LEVEL001
 370
30
   6
CONTINUOUS
  62
7
 100
AcDbDimension
   2
*D2
  10
 2094.3856377636
  20
 922.00000000000
  30
0.0
  11
 1919.3856377636
  21
 928.85714285714
  31
0.0
  70
128
   3
GMM001
 100
AcDbAlignedDimension
  13
 1744.3856377636
  23
 765.69999999988
  33
0.0
  14
 2094.3856377636
  24
 849.00000000000
  34
0.0
 100
AcDbRotatedDimension
   0
DIMENSION
   5
266
 100
AcDbEntity
   8
LEVEL001
 370
30
   6
CONTINUOUS
  62
7
 100
AcDbDimension
   2
*D3
  10
 1932.3856377636
  20
 570.00000000000
  30
0.0
  11
 1872.1446900977
  21
 526.74015548106
  31
0.0
  70
132
   3
GMM002
 100
AcDbRadialDimension
  15
 1834.9144046654
  25
 500.00458073333
  35
0.0
   0
DIMENSION
   5
267
 100
AcDbEntity
   8
LEVEL001
 370
30
   6
CONTINUOUS
  62
7
 100
AcDbDimension
   2
*D4
  10
 1366.5856377636
  20
 382.00000000000
  30
0.0
  11
 1204.0856377636
  21
 388.85714285714
  31
0.0
  70
128
   3
GMM001
 100
AcDbAlignedDimension
  13
 1041.5856377636
  23
 449.00000000000
  33
0.0
  14
 1366.5856377636
  24
 449.00000000000
  34
0.0
 100
AcDbRotatedDimension
   0
DIMENSION
   5
268
 100
AcDbEntity
   8
LEVEL001
 370
30
   6
CONTINUOUS
  62
7
 100
AcDbDimension
   2
*D5
  10
 1534.3856377636
  20
 922.00000000000
  30
0.0
  11
 1193.3856377636
  21
 928.85714285714
  31
0.0
  70
128
   3
GMM001
 100
AcDbAlignedDimension
  13
 852.38563776364
  23
 757.49999999996
  33
0.0
  14
 1534.3856377636
  24
 849.00000000000
  34
0.0
 100
AcDbRotatedDimension
   0
DIMENSION
   5
269
 100
AcDbEntity
   8
LEVEL001
 370
30
   6
CONTINUOUS
  62
7
 100
AcDbDimension
   2
*D6
  10
 989.38563776364
  20
 136.00000000000
  30
0.0
  11
 920.88563776364
  21
 142.85714285714
  31
0.0
  70
128
   3
GMM001
 100
AcDbAlignedDimension
  13
 852.38563776364
  23
 700.90719168540
  33
0.0
  14
 989.38563776364
  24
 279.00000000000
  34
0.0
 100
AcDbRotatedDimension
   0
DIMENSION
   5
26A
 100
AcDbEntity
   8
LEVEL001
 370
30
   6
CONTINUOUS
  62
7
 100
AcDbDimension
   2
*D7
  10
 1419.3856377636
  20
 136.00000000000
  30
0.0
  11
 1204.3856377636
  21
 142.85714285714
  31
0.0
  70
128
   3
GMM001
 100
AcDbAlignedDimension
  13
 989.38563776364
  23
 279.00000000000
  33
0.0
  14
 1419.3856377636
  24
 279.00000000000
  34
0.0
 100
AcDbRotatedDimension
   0
DIMENSION
   5
26B
 100
AcDbEntity
   8
LEVEL001
 370
30
   6
CONTINUOUS
  62
7
 100
AcDbDimension
   2
*D8
  10
 1534.3856377636
  20
 136.00000000000
  30
0.0
  11
 1476.8856377636
  21
 142.85714285714
  31
0.0
  70
128
   3
GMM001
 100
AcDbAlignedDimension
  13
 1419.3856377636
  23
 279.00000000000
  33
0.0
  14
 1534.3856377636
  24
 279.00000000000
  34
0.0
 100
AcDbRotatedDimension
   0
LINE
   5
26C
 100
AcDbEntity
   8
LEVEL001
 370
30
 100
AcDbLine
   6
CONTINUOUS
  62
7
  10
 1445.8856377636
  20
 698.50000000000
  30
0.0
  11
 1508.8856377636
  21
 698.50000000000
  31
0.0
   0
LINE
   5
26D
 100
AcDbEntity
   8
LEVEL001
 370
30
 100
AcDbLine
   6
CONTINUOUS
  62
7
  10
 1445.8856377636
  20
 819.50000000000
  30
0.0
  11
 1445.8856377636
  21
 698.50000000000
  31
0.0
   0
LINE
   5
26E
 100
AcDbEntity
   8
LEVEL001
 370
30
 100
AcDbLine
   6
CONTINUOUS
  62
7
  10
 1508.8856377636
  20
 698.50000000000
  30
0.0
  11
 1508.8856377636
  21
 819.50000000000
  31
0.0
   0
LINE
   5
26F
 100
AcDbEntity
   8
LEVEL001
 370
30
 100
AcDbLine
   6
CONTINUOUS
  62
7
  10
 1508.8856377636
  20
 819.50000000000
  30
0.0
  11
 1445.8856377636
  21
 819.50000000000
  31
0.0
   0
INSERT
   5
270
 100
AcDbEntity
   8
0
 100
AcDbBlockReference
   2
GMM001
  10
 2315.0856377636
  20
0.0
  30
0.0
  41
 4.0000000000000
  42
 4.0000000000000
   0
MTEXT
   5
272
 100
AcDbEntity
   8
LEVEL001
 370
9
  62
1
 100
AcDbMText
  10
 1814.1856377636
  20
 1226.0000000000
  30
0.0
  40
 16.000000000000
  41
0.0
  71
7
  72
1
   1
\T1.000000;単相１００Ｖ　５０／６０Ｈｚ
   7
GMM001
  44
 0.79999984000003
   0
MTEXT
   5
274
 100
AcDbEntity
   8
LEVEL001
 370
9
  62
1
 100
AcDbMText
  10
 1814.1856377636
  20
 1034.0000000000
  30
0.0
  40
 16.000000000000
  41
0.0
  71
7
  72
1
   1
\T1.000000;２Ｐ１５Ａ
   7
GMM001
  44
 0.79999984000003
   0
MTEXT
   5
276
 100
AcDbEntity
   8
LEVEL001
 370
9
  62
1
 100
AcDbMText
  10
 1814.1856377636
  20
 1194.0000000000
  30
0.0
  40
 16.000000000000
  41
0.0
  71
7
  72
1
   1
\T1.000000;１２０Ｗ
   7
GMM001
  44
 0.79999984000003
   0
MTEXT
   5
278
 100
AcDbEntity
   8
LEVEL001
 370
30
  62
7
 100
AcDbMText
  10
 1899.0856377636
  20
 112.00000000000
  30
0.0
  40
 16.000000000000
  41
0.0
  71
7
  72
1
   1
\T1.000000;SN-6P 
   7
GMM004
  44
 0.79999984000003
   0
MTEXT
   5
27A
 100
AcDbEntity
   8
LEVEL001
 370
30
  62
7
 100
AcDbMText
  10
 2171.0856377636
  20
 112.00000000000
  30
0.0
  40
 16.000000000000
  41
0.0
  71
7
  72
1
   1
\T1.000000;SN6P-C
   7
GMM004
  44
 0.79999984000003
   0
MTEXT
   5
27C
 100
AcDbEntity
   8
LEVEL001
 370
30
  62
7
 100
AcDbMText
  10
 1598.4373384661
  20
 12.242718033762
  30
0.0
  40
 16.000000000000
  41
0.0
  71
7
  72
1
   1
\W0.500000;\T1.000000;'22.03.17\W1.000000;\T1.000000;　変更　\W0.500000;\T1.000000;H.M
   7
GMM001
  44
 0.79999984000003
   0
MTEXT
   5
27E
 100
AcDbEntity
   8
LEVEL001
 370
9
  62
1
 100
AcDbMText
  10
 1814.1856377636
  20
 1130.0000000000
  30
0.0
  40
 16.000000000000
  41
0.0
  71
7
  72
1
   1
\T1.000000;ステンレス
   7
GMM001
  44
 0.79999984000003
   0
ENDSEC
  0
SECTION
  2
OBJECTS
  0
DICTIONARY
  5
C
100
AcDbDictionary
  3
ACAD_GROUP
350
D
  3
ACAD_MLINESTYLE
350
1B
  3
DWGPROPS
350
1C
  0
DICTIONARY
  5
D
102
{ACAD_REACTORS
330
C
102
}
100
AcDbDictionary
  0
DICTIONARY
  5
1B
102
{ACAD_REACTORS
330
C
102
}
100
AcDbDictionary
  3
STANDARD
350
1D
  0
MLINESTYLE
  5
1D
102
{ACAD_REACTORS
330
1B
102
}
100
AcDbMlineStyle
  2
STANDARD
 70
     0
  3

 62
   256
 51
90.0
 52
90.0
 71
     2
 49
0.5
 62
   256
  6
BYLAYER
 49
-0.5
 62
   256
  6
BYLAYER
   0
XRECORD
   5
1C
 102
{ACAD_REACTORS
 330
C
 102
}
 330
C
 100
AcDbXrecord
 280
1
   1
DWGPROPS COOKIE
   2
SN-6P承認図
   3
 
   4
 
   6
 
   7
SN6P-C
   8
 
   9

 300
 = 
 301
 = 
 302
 = 
 303
 = 
 304
 = 
 305
 = 
 306
 = 
 307
 = 
 308
 = 
 309
 = 
  40
0.0
  41
 2452319.5000000
  42
 2459656.5000000
   1

  90
10
   0
ENDSEC
   0
EOF
