  0
SECTION
  2
HEADER
  9
$ACADVER
  1
AC1015
  9
$ACADMAINTVER
 70
    20
  9
$DWGCODEPAGE
  3
ANSI_932
  9
$INSBASE
 10
0.0
 20
0.0
 30
0.0
  9
$EXTMIN
 10
0.0000000000000853
 20
0.0
 30
0.0
  9
$EXTMAX
 10
3264.0
 20
2268.0
 30
0.0
  9
$LIMMIN
 10
0.0
 20
0.0
  9
$LIMMAX
 10
3564.0
 20
2520.0
  9
$ORTHOMODE
 70
     0
  9
$REGENMODE
 70
     1
  9
$FILLMODE
 70
     1
  9
$QTEXTMODE
 70
     0
  9
$MIRRTEXT
 70
     1
  9
$LTSCALE
 40
71.28
  9
$ATTMODE
 70
     1
  9
$TEXTSIZE
 40
0.2
  9
$TRACEWID
 40
0.05
  9
$TEXTSTYLE
  7
STANDARD
  9
$CLAYER
  8
0
  9
$CELTYPE
  6
CONTINUOUS
  9
$CECOLOR
 62
   256
  9
$CELTSCALE
 40
1.0
  9
$DISPSILH
 70
     0
  9
$DIMSCALE
 40
1.0
  9
$DIMASZ
 40
0.18
  9
$DIMEXO
 40
0.0625
  9
$DIMDLI
 40
0.38
  9
$DIMRND
 40
0.0
  9
$DIMDLE
 40
0.0
  9
$DIMEXE
 40
0.18
  9
$DIMTP
 40
0.0
  9
$DIMTM
 40
0.0
  9
$DIMTXT
 40
0.18
  9
$DIMCEN
 40
0.09
  9
$DIMTSZ
 40
0.0
  9
$DIMTOL
 70
     0
  9
$DIMLIM
 70
     0
  9
$DIMTIH
 70
     1
  9
$DIMTOH
 70
     1
  9
$DIMSE1
 70
     0
  9
$DIMSE2
 70
     0
  9
$DIMTAD
 70
     0
  9
$DIMZIN
 70
     0
  9
$DIMBLK
  1

  9
$DIMASO
 70
     1
  9
$DIMSHO
 70
     1
  9
$DIMPOST
  1

  9
$DIMAPOST
  1

  9
$DIMALT
 70
     0
  9
$DIMALTD
 70
     2
  9
$DIMALTF
 40
25.4
  9
$DIMLFAC
 40
1.0
  9
$DIMTOFL
 70
     0
  9
$DIMTVP
 40
0.0
  9
$DIMTIX
 70
     0
  9
$DIMSOXD
 70
     0
  9
$DIMSAH
 70
     0
  9
$DIMBLK1
  1

  9
$DIMBLK2
  1

  9
$DIMSTYLE
  2
STANDARD
  9
$DIMCLRD
 70
     0
  9
$DIMCLRE
 70
     0
  9
$DIMCLRT
 70
     0
  9
$DIMTFAC
 40
1.0
  9
$DIMGAP
 40
0.09
  9
$DIMJUST
 70
     0
  9
$DIMSD1
 70
     0
  9
$DIMSD2
 70
     0
  9
$DIMTOLJ
 70
     1
  9
$DIMTZIN
 70
     0
  9
$DIMALTZ
 70
     0
  9
$DIMALTTZ
 70
     0
  9
$DIMUPT
 70
     0
  9
$DIMDEC
 70
     4
  9
$DIMTDEC
 70
     4
  9
$DIMALTU
 70
     2
  9
$DIMALTTD
 70
     2
  9
$DIMTXSTY
  7
STANDARD
  9
$DIMAUNIT
 70
     0
  9
$DIMADEC
 70
     0
  9
$DIMALTRND
 40
0.0
  9
$DIMAZIN
 70
     0
  9
$DIMDSEP
 70
    46
  9
$DIMATFIT
 70
     3
  9
$DIMFRAC
 70
     0
  9
$DIMLDRBLK
  1

  9
$DIMLUNIT
 70
     2
  9
$DIMLWD
 70
    -2
  9
$DIMLWE
 70
    -2
  9
$DIMTMOVE
 70
     0
  9
$LUNITS
 70
     2
  9
$LUPREC
 70
     4
  9
$SKETCHINC
 40
0.1
  9
$FILLETRAD
 40
0.0
  9
$AUNITS
 70
     0
  9
$AUPREC
 70
     0
  9
$MENU
  1
.
  9
$ELEVATION
 40
0.0
  9
$PELEVATION
 40
0.0
  9
$THICKNESS
 40
0.0
  9
$LIMCHECK
 70
     0
  9
$CHAMFERA
 40
0.0
  9
$CHAMFERB
 40
0.0
  9
$CHAMFERC
 40
0.0
  9
$CHAMFERD
 40
0.0
  9
$SKPOLY
 70
     0
  9
$TDCREATE
 40
2451212.682759178
  9
$TDUCREATE
 40
2451212.307759178
  9
$TDUPDATE
 40
2455485.680478507
  9
$TDUUPDATE
 40
2455485.305478507
  9
$TDINDWG
 40
0.0057408102
  9
$TDUSRTIMER
 40
0.0057408102
  9
$USRTIMER
 70
     1
  9
$ANGBASE
 50
0.0
  9
$ANGDIR
 70
     0
  9
$PDMODE
 70
     0
  9
$PDSIZE
 40
0.0
  9
$PLINEWID
 40
0.0
  9
$SPLFRAME
 70
     0
  9
$SPLINETYPE
 70
     6
  9
$SPLINESEGS
 70
     8
  9
$HANDSEED
  5
30B
  9
$SURFTAB1
 70
     6
  9
$SURFTAB2
 70
     6
  9
$SURFTYPE
 70
     6
  9
$SURFU
 70
     6
  9
$SURFV
 70
     6
  9
$UCSBASE
  2

  9
$UCSNAME
  2

  9
$UCSORG
 10
0.0
 20
0.0
 30
0.0
  9
$UCSXDIR
 10
1.0
 20
0.0
 30
0.0
  9
$UCSYDIR
 10
0.0
 20
1.0
 30
0.0
  9
$UCSORTHOREF
  2

  9
$UCSORTHOVIEW
 70
     0
  9
$UCSORGTOP
 10
0.0
 20
0.0
 30
0.0
  9
$UCSORGBOTTOM
 10
0.0
 20
0.0
 30
0.0
  9
$UCSORGLEFT
 10
0.0
 20
0.0
 30
0.0
  9
$UCSORGRIGHT
 10
0.0
 20
0.0
 30
0.0
  9
$UCSORGFRONT
 10
0.0
 20
0.0
 30
0.0
  9
$UCSORGBACK
 10
0.0
 20
0.0
 30
0.0
  9
$PUCSBASE
  2

  9
$PUCSNAME
  2

  9
$PUCSORG
 10
0.0
 20
0.0
 30
0.0
  9
$PUCSXDIR
 10
1.0
 20
0.0
 30
0.0
  9
$PUCSYDIR
 10
0.0
 20
1.0
 30
0.0
  9
$PUCSORTHOREF
  2

  9
$PUCSORTHOVIEW
 70
     0
  9
$PUCSORGTOP
 10
0.0
 20
0.0
 30
0.0
  9
$PUCSORGBOTTOM
 10
0.0
 20
0.0
 30
0.0
  9
$PUCSORGLEFT
 10
0.0
 20
0.0
 30
0.0
  9
$PUCSORGRIGHT
 10
0.0
 20
0.0
 30
0.0
  9
$PUCSORGFRONT
 10
0.0
 20
0.0
 30
0.0
  9
$PUCSORGBACK
 10
0.0
 20
0.0
 30
0.0
  9
$USERI1
 70
     0
  9
$USERI2
 70
     0
  9
$USERI3
 70
     0
  9
$USERI4
 70
     0
  9
$USERI5
 70
     0
  9
$USERR1
 40
0.0
  9
$USERR2
 40
0.0
  9
$USERR3
 40
0.0
  9
$USERR4
 40
0.0
  9
$USERR5
 40
0.0
  9
$WORLDVIEW
 70
     1
  9
$SHADEDGE
 70
     3
  9
$SHADEDIF
 70
    70
  9
$TILEMODE
 70
     1
  9
$MAXACTVP
 70
    16
  9
$PINSBASE
 10
0.0
 20
0.0
 30
0.0
  9
$PLIMCHECK
 70
     0
  9
$PEXTMIN
 10
1.000000000000000E+20
 20
1.000000000000000E+20
 30
1.000000000000000E+20
  9
$PEXTMAX
 10
-1.000000000000000E+20
 20
-1.000000000000000E+20
 30
-1.000000000000000E+20
  9
$PLIMMIN
 10
0.0
 20
0.0
  9
$PLIMMAX
 10
12.0
 20
9.0
  9
$UNITMODE
 70
     0
  9
$VISRETAIN
 70
     1
  9
$PLINEGEN
 70
     0
  9
$PSLTSCALE
 70
     1
  9
$TREEDEPTH
 70
  3020
  9
$CMLSTYLE
  2
STANDARD
  9
$CMLJUST
 70
     0
  9
$CMLSCALE
 40
1.0
  9
$PROXYGRAPHICS
 70
     1
  9
$MEASUREMENT
 70
     0
  9
$CELWEIGHT
370
    -1
  9
$ENDCAPS
280
     0
  9
$JOINSTYLE
280
     0
  9
$LWDISPLAY
290
     0
  9
$INSUNITS
 70
     0
  9
$HYPERLINKBASE
  1

  9
$STYLESHEET
  1

  9
$XEDIT
290
     1
  9
$CEPSNTYPE
380
     0
  9
$PSTYLEMODE
290
     1
  9
$FINGERPRINTGUID
  2
{399E9C06-5C8E-42EB-891E-BB5DB26B4798}
  9
$VERSIONGUID
  2
{92363C72-0A4D-4742-B15D-167FE2D16A4C}
  9
$EXTNAMES
290
     1
  9
$PSVPSCALE
 40
0.0
  9
$OLESTARTUP
290
     0
  0
ENDSEC
  0
SECTION
  2
CLASSES
  0
CLASS
  1
ACDBDICTIONARYWDFLT
  2
AcDbDictionaryWithDefault
  3
ObjectDBX Classes
 90
        0
280
     0
281
     0
  0
CLASS
  1
TABLESTYLE
  2
AcDbTableStyle
  3
ObjectDBX Classes
 90
     2047
280
     0
281
     0
  0
CLASS
  1
DICTIONARYVAR
  2
AcDbDictionaryVar
  3
ObjectDBX Classes
 90
        0
280
     0
281
     0
  0
CLASS
  1
ACDBPLACEHOLDER
  2
AcDbPlaceHolder
  3
ObjectDBX Classes
 90
        0
280
     0
281
     0
  0
CLASS
  1
LAYOUT
  2
AcDbLayout
  3
ObjectDBX Classes
 90
        0
280
     0
281
     0
  0
ENDSEC
  0
SECTION
  2
TABLES
  0
TABLE
  2
VPORT
  5
1
330
0
100
AcDbSymbolTable
 70
     2
  0
VPORT
  5
305
330
1
100
AcDbSymbolTableRecord
100
AcDbViewportTableRecord
  2
*Active
 70
     0
 10
0.0
 20
0.0
 11
1.0
 21
1.0
 12
2987.428158844728
 22
1260.0
 13
0.0
 23
0.0
 14
1.0
 24
1.0
 15
0.0
 25
0.0
 16
0.0
 26
0.0
 36
1.0
 17
0.0
 27
0.0
 37
0.0
 40
3564.0
 41
2.155234657039711
 42
50.0
 43
0.0
 44
0.0
 50
0.0
 51
0.0
 71
     0
 72
   100
 73
     1
 74
     1
 75
     0
 76
     0
 77
     0
 78
     0
281
     0
 65
     1
110
0.0
120
0.0
130
0.0
111
1.0
121
0.0
131
0.0
112
0.0
122
1.0
132
0.0
 79
     0
146
0.0
  0
ENDTAB
  0
TABLE
  2
LTYPE
  5
9E
330
0
100
AcDbSymbolTable
 70
    25
  0
LTYPE
  5
2E
330
9E
100
AcDbSymbolTableRecord
100
AcDbLinetypeTableRecord
  2
BYBLOCK
 70
     0
  3

 72
    65
 73
     0
 40
0.0
  0
LTYPE
  5
2F
330
9E
100
AcDbSymbolTableRecord
100
AcDbLinetypeTableRecord
  2
BYLAYER
 70
     0
  3

 72
    65
 73
     0
 40
0.0
  0
LTYPE
  5
30
330
9E
100
AcDbSymbolTableRecord
100
AcDbLinetypeTableRecord
  2
CONTINUOUS
 70
     0
  3
Solid line
 72
    65
 73
     0
 40
0.0
  0
LTYPE
  5
31
330
9E
100
AcDbSymbolTableRecord
100
AcDbLinetypeTableRecord
  2
BORDER
 70
     0
  3
__ __ . __ __ . __ __ . __ __ . __ __ . __ __ .
 72
    65
 73
     6
 40
1.75
 49
0.5
 74
     0
 49
-0.25
 74
     0
 49
0.5
 74
     0
 49
-0.25
 74
     0
 49
0.0
 74
     0
 49
-0.25
 74
     0
  0
LTYPE
  5
32
330
9E
100
AcDbSymbolTableRecord
100
AcDbLinetypeTableRecord
  2
BORDER2
 70
     0
  3
__.__.__.__.__.__.__.__.__.__.__.__.__.__.__.__
 72
    65
 73
     6
 40
0.875
 49
0.25
 74
     0
 49
-0.125
 74
     0
 49
0.25
 74
     0
 49
-0.125
 74
     0
 49
0.0
 74
     0
 49
-0.125
 74
     0
  0
LTYPE
  5
33
330
9E
100
AcDbSymbolTableRecord
100
AcDbLinetypeTableRecord
  2
BORDERX2
 70
     0
  3
____  ____  .  ____  ____  .  ____  ____  .  __
 72
    65
 73
     6
 40
3.5
 49
1.0
 74
     0
 49
-0.5
 74
     0
 49
1.0
 74
     0
 49
-0.5
 74
     0
 49
0.0
 74
     0
 49
-0.5
 74
     0
  0
LTYPE
  5
34
330
9E
100
AcDbSymbolTableRecord
100
AcDbLinetypeTableRecord
  2
CENTER
 70
     0
  3
____ _ ____ _ ____ _ ____ _ ____ _ ____ _ ____ 
 72
    65
 73
     4
 40
2.0
 49
1.25
 74
     0
 49
-0.25
 74
     0
 49
0.25
 74
     0
 49
-0.25
 74
     0
  0
LTYPE
  5
35
330
9E
100
AcDbSymbolTableRecord
100
AcDbLinetypeTableRecord
  2
CENTER2
 70
     0
  3
___ _ ___ _ ___ _ ___ _ ___ _ ___ _ ___ _ ___ _
 72
    65
 73
     4
 40
1.125
 49
0.75
 74
     0
 49
-0.125
 74
     0
 49
0.125
 74
     0
 49
-0.125
 74
     0
  0
LTYPE
  5
36
330
9E
100
AcDbSymbolTableRecord
100
AcDbLinetypeTableRecord
  2
CENTERX2
 70
     0
  3
________  __  ________  __  ________  __  _____
 72
    65
 73
     4
 40
4.0
 49
2.5
 74
     0
 49
-0.5
 74
     0
 49
0.5
 74
     0
 49
-0.5
 74
     0
  0
LTYPE
  5
37
330
9E
100
AcDbSymbolTableRecord
100
AcDbLinetypeTableRecord
  2
DASHDOT
 70
     0
  3
__ . __ . __ . __ . __ . __ . __ . __ . __ . __
 72
    65
 73
     4
 40
1.0
 49
0.5
 74
     0
 49
-0.25
 74
     0
 49
0.0
 74
     0
 49
-0.25
 74
     0
  0
LTYPE
  5
38
330
9E
100
AcDbSymbolTableRecord
100
AcDbLinetypeTableRecord
  2
DASHDOT2
 70
     0
  3
_._._._._._._._._._._._._._._._._._._._._._._._
 72
    65
 73
     4
 40
0.5
 49
0.25
 74
     0
 49
-0.125
 74
     0
 49
0.0
 74
     0
 49
-0.125
 74
     0
  0
LTYPE
  5
39
330
9E
100
AcDbSymbolTableRecord
100
AcDbLinetypeTableRecord
  2
DASHDOTX2
 70
     0
  3
____  .  ____  .  ____  .  ____  .  ____  .  __
 72
    65
 73
     4
 40
2.0
 49
1.0
 74
     0
 49
-0.5
 74
     0
 49
0.0
 74
     0
 49
-0.5
 74
     0
  0
LTYPE
  5
3A
330
9E
100
AcDbSymbolTableRecord
100
AcDbLinetypeTableRecord
  2
DASHED
 70
     0
  3
__ __ __ __ __ __ __ __ __ __ __ __ __ __ __ __
 72
    65
 73
     2
 40
0.75
 49
0.5
 74
     0
 49
-0.25
 74
     0
  0
LTYPE
  5
3B
330
9E
100
AcDbSymbolTableRecord
100
AcDbLinetypeTableRecord
  2
DASHED2
 70
     0
  3
_ _ _ _ _ _ _ _ _ _ _ _ _ _ _ _ _ _ _ _ _ _ _ _
 72
    65
 73
     2
 40
0.375
 49
0.25
 74
     0
 49
-0.125
 74
     0
  0
LTYPE
  5
3C
330
9E
100
AcDbSymbolTableRecord
100
AcDbLinetypeTableRecord
  2
DASHEDX2
 70
     0
  3
____  ____  ____  ____  ____  ____  ____  ____ 
 72
    65
 73
     2
 40
1.5
 49
1.0
 74
     0
 49
-0.5
 74
     0
  0
LTYPE
  5
3D
330
9E
100
AcDbSymbolTableRecord
100
AcDbLinetypeTableRecord
  2
DIVIDE
 70
     0
  3
____ . . ____ . . ____ . . ____ . . ____ . . __
 72
    65
 73
     6
 40
1.25
 49
0.5
 74
     0
 49
-0.25
 74
     0
 49
0.0
 74
     0
 49
-0.25
 74
     0
 49
0.0
 74
     0
 49
-0.25
 74
     0
  0
LTYPE
  5
3E
330
9E
100
AcDbSymbolTableRecord
100
AcDbLinetypeTableRecord
  2
DIVIDE2
 70
     0
  3
__..__..__..__..__..__..__..__..__..__..__..__.
 72
    65
 73
     6
 40
0.625
 49
0.25
 74
     0
 49
-0.125
 74
     0
 49
0.0
 74
     0
 49
-0.125
 74
     0
 49
0.0
 74
     0
 49
-0.125
 74
     0
  0
LTYPE
  5
3F
330
9E
100
AcDbSymbolTableRecord
100
AcDbLinetypeTableRecord
  2
DIVIDEX2
 70
     0
  3
________  .  .  ________  .  .  ________  .  . 
 72
    65
 73
     6
 40
2.5
 49
1.0
 74
     0
 49
-0.5
 74
     0
 49
0.0
 74
     0
 49
-0.5
 74
     0
 49
0.0
 74
     0
 49
-0.5
 74
     0
  0
LTYPE
  5
40
330
9E
100
AcDbSymbolTableRecord
100
AcDbLinetypeTableRecord
  2
DOT
 70
     0
  3
. . . . . . . . . . . . . . . . . . . . . . . .
 72
    65
 73
     2
 40
0.25
 49
0.0
 74
     0
 49
-0.25
 74
     0
  0
LTYPE
  5
41
330
9E
100
AcDbSymbolTableRecord
100
AcDbLinetypeTableRecord
  2
DOT2
 70
     0
  3
...............................................
 72
    65
 73
     2
 40
0.125
 49
0.0
 74
     0
 49
-0.125
 74
     0
  0
LTYPE
  5
42
330
9E
100
AcDbSymbolTableRecord
100
AcDbLinetypeTableRecord
  2
DOTX2
 70
     0
  3
.  .  .  .  .  .  .  .  .  .  .  .  .  .  .  . 
 72
    65
 73
     2
 40
0.5
 49
0.0
 74
     0
 49
-0.5
 74
     0
  0
LTYPE
  5
43
330
9E
100
AcDbSymbolTableRecord
100
AcDbLinetypeTableRecord
  2
HIDDEN
 70
     0
  3
__ __ __ __ __ __ __ __ __ __ __ __ __ __ __ __
 72
    65
 73
     2
 40
0.375
 49
0.25
 74
     0
 49
-0.125
 74
     0
  0
LTYPE
  5
44
330
9E
100
AcDbSymbolTableRecord
100
AcDbLinetypeTableRecord
  2
HIDDEN2
 70
     0
  3
_ _ _ _ _ _ _ _ _ _ _ _ _ _ _ _ _ _ _ _ _ _ _ _
 72
    65
 73
     2
 40
0.1875
 49
0.125
 74
     0
 49
-0.0625
 74
     0
  0
LTYPE
  5
45
330
9E
100
AcDbSymbolTableRecord
100
AcDbLinetypeTableRecord
  2
HIDDENX2
 70
     0
  3
____ ____ ____ ____ ____ ____ ____ ____ ____ __
 72
    65
 73
     2
 40
0.75
 49
0.5
 74
     0
 49
-0.25
 74
     0
  0
LTYPE
  5
46
330
9E
100
AcDbSymbolTableRecord
100
AcDbLinetypeTableRecord
  2
PHANTOM
 70
     0
  3
______  __  __  ______  __  __  ______  __  __ 
 72
    65
 73
     6
 40
2.5
 49
1.25
 74
     0
 49
-0.25
 74
     0
 49
0.25
 74
     0
 49
-0.25
 74
     0
 49
0.25
 74
     0
 49
-0.25
 74
     0
  0
LTYPE
  5
47
330
9E
100
AcDbSymbolTableRecord
100
AcDbLinetypeTableRecord
  2
PHANTOM2
 70
     0
  3
___ _ _ ___ _ _ ___ _ _ ___ _ _ ___ _ _ ___ _ _
 72
    65
 73
     6
 40
1.25
 49
0.625
 74
     0
 49
-0.125
 74
     0
 49
0.125
 74
     0
 49
-0.125
 74
     0
 49
0.125
 74
     0
 49
-0.125
 74
     0
  0
LTYPE
  5
48
330
9E
100
AcDbSymbolTableRecord
100
AcDbLinetypeTableRecord
  2
PHANTOMX2
 70
     0
  3
____________    ____    ____    ____________   
 72
    65
 73
     6
 40
5.0
 49
2.5
 74
     0
 49
-0.5
 74
     0
 49
0.5
 74
     0
 49
-0.5
 74
     0
 49
0.5
 74
     0
 49
-0.5
 74
     0
  0
ENDTAB
  0
TABLE
  2
LAYER
  5
9D
330
0
100
AcDbSymbolTable
 70
     5
  0
LAYER
  5
49
330
9D
100
AcDbSymbolTableRecord
100
AcDbLayerTableRecord
  2
0
 70
     0
 62
     7
  6
CONTINUOUS
370
    -3
390
2F5
  0
LAYER
  5
4A
330
9D
100
AcDbSymbolTableRecord
100
AcDbLayerTableRecord
  2
LEVEL001
 70
     0
 62
     7
  6
CONTINUOUS
370
    -3
390
2F5
  0
LAYER
  5
4B
330
9D
100
AcDbSymbolTableRecord
100
AcDbLayerTableRecord
  2
内図枠(作図領域)
 70
     0
 62
     7
  6
CONTINUOUS
370
    -3
390
2F5
  0
LAYER
  5
4C
330
9D
100
AcDbSymbolTableRecord
100
AcDbLayerTableRecord
  2
外図枠(出力紙領域)
 70
     0
 62
     7
  6
CONTINUOUS
370
    -3
390
2F5
  0
LAYER
  5
4D
330
9D
100
AcDbSymbolTableRecord
100
AcDbLayerTableRecord
  2
部品表金額表示用
 70
     0
 62
     7
  6
CONTINUOUS
370
    -3
390
2F5
  0
ENDTAB
  0
TABLE
  2
STYLE
  5
6
330
0
100
AcDbSymbolTable
 70
     3
  0
STYLE
  5
7
330
6
100
AcDbSymbolTableRecord
100
AcDbTextStyleTableRecord
  2
STANDARD
 70
     0
 40
0.0
 41
1.0
 50
0.0
 71
     0
 42
0.2
  3
TXT
  4
BIGFONT
  0
STYLE
  5
8
330
6
100
AcDbSymbolTableRecord
100
AcDbTextStyleTableRecord
  2
STANDARD1
 70
     4
 40
0.0
 41
1.0
 50
0.0
 71
     0
 42
0.2
  3
TXT
  4
BIGFONT
  0
STYLE
  5
9
330
6
100
AcDbSymbolTableRecord
100
AcDbTextStyleTableRecord
  2
GMM001
 70
     0
 40
0.0
 41
1.0
 50
0.0
 71
     0
 42
1.0
  3
txt.shx
  4
bigfont.shx
  0
ENDTAB
  0
TABLE
  2
VIEW
  5
2
330
0
100
AcDbSymbolTable
 70
     0
  0
ENDTAB
  0
TABLE
  2
UCS
  5
3
330
0
100
AcDbSymbolTable
 70
     0
  0
ENDTAB
  0
TABLE
  2
APPID
  5
4
330
0
100
AcDbSymbolTable
 70
     1
  0
APPID
  5
5
330
4
100
AcDbSymbolTableRecord
100
AcDbRegAppTableRecord
  2
ACAD
 70
     0
  0
ENDTAB
  0
TABLE
  2
DIMSTYLE
  5
9C
330
0
100
AcDbSymbolTable
 70
     4
100
AcDbDimStyleTable
 71
     0
  0
DIMSTYLE
105
4E
330
9C
100
AcDbSymbolTableRecord
100
AcDbDimStyleTableRecord
  2
STANDARD
 70
     0
340
7
  0
DIMSTYLE
105
4F
102
{ACAD_REACTORS
330
2D1
330
2D2
330
2D3
330
2D7
102
}
330
9C
100
AcDbSymbolTableRecord
100
AcDbDimStyleTableRecord
  2
GMM001
 70
     0
 41
18.0
 42
0.0
 43
48.0
 44
12.0
 46
22.5
 73
     0
 74
     0
 77
     1
 78
     8
140
36.0
141
6.0
143
0.0394
146
0.625
147
15.428571428571
172
     1
173
     1
176
     1
177
     1
178
     7
271
     6
272
     0
340
9
341
1A
343
1A
344
1A
  0
DIMSTYLE
105
50
102
{ACAD_REACTORS
330
2D4
102
}
330
9C
100
AcDbSymbolTableRecord
100
AcDbDimStyleTableRecord
  2
GMM002
 70
     0
  3
R<>
 41
18.0
 42
0.0
 43
48.0
 44
12.0
 46
22.5
 73
     0
 74
     0
 75
     1
 76
     1
 77
     1
 78
     8
140
36.0
141
6.0
143
0.0394
146
0.625
147
15.428571428571
172
     1
173
     1
176
     1
177
     1
178
     7
271
     6
272
     0
340
9
341
22
343
22
344
1A
  0
DIMSTYLE
105
51
102
{ACAD_REACTORS
330
2D5
330
2D6
102
}
330
9C
100
AcDbSymbolTableRecord
100
AcDbDimStyleTableRecord
  2
GMM003
 70
     0
 41
18.0
 42
0.0
 43
48.0
 44
12.0
 46
22.5
 73
     0
 74
     0
 76
     1
 77
     1
 78
     8
140
36.0
141
6.0
143
0.0394
146
0.625
147
15.428571428571
172
     1
173
     1
176
     1
177
     1
178
     7
271
     6
272
     0
340
9
341
1A
343
1A
344
1A
  0
ENDTAB
  0
TABLE
  2
BLOCK_RECORD
  5
A
330
0
100
AcDbSymbolTable
 70
    33
  0
BLOCK_RECORD
  5
B
330
A
100
AcDbSymbolTableRecord
100
AcDbBlockTableRecord
  2
*MODEL_SPACE
340
2FC
  0
BLOCK_RECORD
  5
C
330
A
100
AcDbSymbolTableRecord
100
AcDbBlockTableRecord
  2
*PAPER_SPACE
340
2FD
  0
BLOCK_RECORD
  5
D
330
A
100
AcDbSymbolTableRecord
100
AcDbBlockTableRecord
  2
*D0
340
0
  0
BLOCK_RECORD
  5
E
330
A
100
AcDbSymbolTableRecord
100
AcDbBlockTableRecord
  2
*D1
340
0
  0
BLOCK_RECORD
  5
F
330
A
100
AcDbSymbolTableRecord
100
AcDbBlockTableRecord
  2
*D2
340
0
  0
BLOCK_RECORD
  5
10
330
A
100
AcDbSymbolTableRecord
100
AcDbBlockTableRecord
  2
*D3
340
0
  0
BLOCK_RECORD
  5
11
330
A
100
AcDbSymbolTableRecord
100
AcDbBlockTableRecord
  2
*D4
340
0
  0
BLOCK_RECORD
  5
12
330
A
100
AcDbSymbolTableRecord
100
AcDbBlockTableRecord
  2
*D5
340
0
  0
BLOCK_RECORD
  5
13
330
A
100
AcDbSymbolTableRecord
100
AcDbBlockTableRecord
  2
*D6
340
0
  0
BLOCK_RECORD
  5
14
330
A
100
AcDbSymbolTableRecord
100
AcDbBlockTableRecord
  2
_ARCHTICK
340
0
  0
BLOCK_RECORD
  5
15
330
A
100
AcDbSymbolTableRecord
100
AcDbBlockTableRecord
  2
_OBLIQUE
340
0
  0
BLOCK_RECORD
  5
16
330
A
100
AcDbSymbolTableRecord
100
AcDbBlockTableRecord
  2
_BOXBLANK
340
0
  0
BLOCK_RECORD
  5
17
330
A
100
AcDbSymbolTableRecord
100
AcDbBlockTableRecord
  2
_BOXFILLED
340
0
  0
BLOCK_RECORD
  5
18
330
A
100
AcDbSymbolTableRecord
100
AcDbBlockTableRecord
  2
_CLOSED
340
0
  0
BLOCK_RECORD
  5
19
330
A
100
AcDbSymbolTableRecord
100
AcDbBlockTableRecord
  2
_OPEN
340
0
  0
BLOCK_RECORD
  5
1A
330
A
100
AcDbSymbolTableRecord
100
AcDbBlockTableRecord
  2
_OPEN30
340
0
102
{BLKREFS
331
AE
331
AF
331
B4
331
B5
331
BA
331
BB
331
BE
331
C3
331
C4
331
C9
331
CA
331
CF
331
D0
102
}
  0
BLOCK_RECORD
  5
1B
330
A
100
AcDbSymbolTableRecord
100
AcDbBlockTableRecord
  2
_OPEN90
340
0
  0
BLOCK_RECORD
  5
1C
330
A
100
AcDbSymbolTableRecord
100
AcDbBlockTableRecord
  2
_CLOSEDBLANK
340
0
  0
BLOCK_RECORD
  5
1D
330
A
100
AcDbSymbolTableRecord
100
AcDbBlockTableRecord
  2
_DOT
340
0
  0
BLOCK_RECORD
  5
1E
330
A
100
AcDbSymbolTableRecord
100
AcDbBlockTableRecord
  2
_DOTSMALL
340
0
  0
BLOCK_RECORD
  5
1F
330
A
100
AcDbSymbolTableRecord
100
AcDbBlockTableRecord
  2
_DATUMBLANK
340
0
  0
BLOCK_RECORD
  5
20
330
A
100
AcDbSymbolTableRecord
100
AcDbBlockTableRecord
  2
_DATUMFILLED
340
0
  0
BLOCK_RECORD
  5
21
330
A
100
AcDbSymbolTableRecord
100
AcDbBlockTableRecord
  2
_ORIGIN
340
0
  0
BLOCK_RECORD
  5
22
330
A
100
AcDbSymbolTableRecord
100
AcDbBlockTableRecord
  2
_NONE
340
0
  0
BLOCK_RECORD
  5
23
330
A
100
AcDbSymbolTableRecord
100
AcDbBlockTableRecord
  2
_DOTBLANK
340
0
  0
BLOCK_RECORD
  5
24
330
A
100
AcDbSymbolTableRecord
100
AcDbBlockTableRecord
  2
_INTEGRAL
340
0
  0
BLOCK_RECORD
  5
25
330
A
100
AcDbSymbolTableRecord
100
AcDbBlockTableRecord
  2
A2
340
0
102
{BLKREFS
331
135
102
}
  0
BLOCK_RECORD
  5
26
330
A
100
AcDbSymbolTableRecord
100
AcDbBlockTableRecord
  2
BLOCK001
340
0
102
{BLKREFS
331
136
102
}
  0
BLOCK_RECORD
  5
27
330
A
100
AcDbSymbolTableRecord
100
AcDbBlockTableRecord
  2
BLOCK002
340
0
102
{BLKREFS
331
137
102
}
  0
BLOCK_RECORD
  5
28
330
A
100
AcDbSymbolTableRecord
100
AcDbBlockTableRecord
  2
BLOCK003
340
0
102
{BLKREFS
331
138
102
}
  0
BLOCK_RECORD
  5
29
330
A
100
AcDbSymbolTableRecord
100
AcDbBlockTableRecord
  2
EGF9M10
340
0
102
{BLKREFS
331
1B9
102
}
  0
BLOCK_RECORD
  5
2A
330
A
100
AcDbSymbolTableRecord
100
AcDbBlockTableRecord
  2
EGF21M10
340
0
102
{BLKREFS
331
1BC
331
210
331
212
331
213
331
217
331
242
331
243
331
244
102
}
  0
BLOCK_RECORD
  5
2B
330
A
100
AcDbSymbolTableRecord
100
AcDbBlockTableRecord
  2
EGF11M10
340
0
102
{BLKREFS
331
1BD
331
211
331
218
331
245
102
}
  0
BLOCK_RECORD
  5
2C
330
A
100
AcDbSymbolTableRecord
100
AcDbBlockTableRecord
  2
EGF11M12
340
0
102
{BLKREFS
331
1C8
331
1FE
102
}
  0
BLOCK_RECORD
  5
2D
330
A
100
AcDbSymbolTableRecord
100
AcDbBlockTableRecord
  2
EGF7M10
340
0
102
{BLKREFS
331
240
102
}
  0
ENDTAB
  0
ENDSEC
  0
SECTION
  2
BLOCKS
  0
BLOCK
  5
56
330
B
100
AcDbEntity
  8
0
100
AcDbBlockBegin
  2
*MODEL_SPACE
 70
     0
 10
0.0
 20
0.0
 30
0.0
  3
*MODEL_SPACE
  1

  0
ENDBLK
  5
79
330
B
100
AcDbEntity
  8
0
100
AcDbBlockEnd
  0
BLOCK
  5
57
330
C
100
AcDbEntity
 67
     1
  8
0
100
AcDbBlockBegin
  2
*PAPER_SPACE
 70
     0
 10
0.0
 20
0.0
 30
0.0
  3
*PAPER_SPACE
  1

  0
ENDBLK
  5
7A
330
C
100
AcDbEntity
 67
     1
  8
0
100
AcDbBlockEnd
  0
BLOCK
  5
58
330
D
100
AcDbEntity
  8
0
100
AcDbBlockBegin
  2
*D0
 70
     1
 10
0.0
 20
0.0
 30
0.0
  3
*D0
  1

  0
LINE
  5
AB
330
D
100
AcDbEntity
  8
LEVEL001
  6
Continuous
 62
     1
100
AcDbLine
 10
296.5
 20
1212.0
 30
0.0
 11
296.5
 21
1454.0
 31
0.0
  0
LINE
  5
AC
330
D
100
AcDbEntity
  8
LEVEL001
  6
Continuous
 62
     1
100
AcDbLine
 10
1422.5
 20
982.0
 30
0.0
 11
1422.5
 21
1454.0
 31
0.0
  0
LINE
  5
AD
330
D
100
AcDbEntity
  8
LEVEL001
  6
Continuous
 62
     1
100
AcDbLine
 10
296.5
 20
1442.0
 30
0.0
 11
1422.5
 21
1442.0
 31
0.0
  0
INSERT
  5
AE
330
D
100
AcDbEntity
  8
LEVEL001
  6
Continuous
 62
     1
100
AcDbBlockReference
  2
_OPEN30
 10
296.5
 20
1442.0
 30
0.0
 41
18.0
 42
18.0
 43
18.0
 50
180.0
  0
INSERT
  5
AF
330
D
100
AcDbEntity
  8
LEVEL001
  6
Continuous
 62
     1
100
AcDbBlockReference
  2
_OPEN30
 10
1422.5
 20
1442.0
 30
0.0
 41
18.0
 42
18.0
 43
18.0
  0
MTEXT
  5
B0
330
D
100
AcDbEntity
  8
LEVEL001
  6
ByBlock
 62
     7
100
AcDbMText
 10
859.5
 20
1457.4285714286
 30
0.0
 40
36.0
 41
0.0
 71
     8
 72
     1
  1
\A1;1126
  7
GMM001
 73
     1
 44
1.0
1001
ACAD
1000
MTEXTBEGIN
1070
    73
1070
     1
1070
    44
1040
1.0
1070
    74
1070
     0
1000
MTEXTEND
  0
ENDBLK
  5
84
330
D
100
AcDbEntity
  8
0
100
AcDbBlockEnd
  0
BLOCK
  5
59
330
E
100
AcDbEntity
  8
0
100
AcDbBlockBegin
  2
*D1
 70
     1
 10
0.0
 20
0.0
 30
0.0
  3
*D1
  1

  0
LINE
  5
B1
330
E
100
AcDbEntity
  8
LEVEL001
  6
Continuous
 62
     1
100
AcDbLine
 10
1422.5
 20
192.0
 30
0.0
 11
1565.0
 21
192.0
 31
0.0
  0
LINE
  5
B2
330
E
100
AcDbEntity
  8
LEVEL001
  6
Continuous
 62
     1
100
AcDbLine
 10
1229.0
 20
1372.0
 30
0.0
 11
1565.0
 21
1372.0
 31
0.0
  0
LINE
  5
B3
330
E
100
AcDbEntity
  8
LEVEL001
  6
Continuous
 62
     1
100
AcDbLine
 10
1553.0
 20
192.0
 30
0.0
 11
1553.0
 21
1372.0
 31
0.0
  0
INSERT
  5
B4
330
E
100
AcDbEntity
  8
LEVEL001
  6
Continuous
 62
     1
100
AcDbBlockReference
  2
_OPEN30
 10
1553.0
 20
192.0
 30
0.0
 41
18.0
 42
18.0
 43
18.0
 50
270.0
  0
INSERT
  5
B5
330
E
100
AcDbEntity
  8
LEVEL001
  6
Continuous
 62
     1
100
AcDbBlockReference
  2
_OPEN30
 10
1553.0
 20
1372.0
 30
0.0
 41
18.0
 42
18.0
 43
18.0
 50
90.0
  0
MTEXT
  5
B6
330
E
100
AcDbEntity
  8
LEVEL001
  6
ByBlock
 62
     7
100
AcDbMText
 10
1537.5714285714
 20
782.0
 30
0.0
 40
36.0
 41
0.0
 71
     8
 72
     1
  1
\A1;1180
  7
GMM001
 11
0.0
 21
1.0
 31
0.0
 73
     1
 44
1.0
1001
ACAD
1000
MTEXTBEGIN
1070
    73
1070
     1
1070
    44
1040
1.0
1070
    74
1070
     0
1000
MTEXTEND
  0
ENDBLK
  5
85
330
E
100
AcDbEntity
  8
0
100
AcDbBlockEnd
  0
BLOCK
  5
5A
330
F
100
AcDbEntity
  8
0
100
AcDbBlockBegin
  2
*D2
 70
     1
 10
0.0
 20
0.0
 30
0.0
  3
*D2
  1

  0
LINE
  5
B7
330
F
100
AcDbEntity
  8
LEVEL001
  6
Continuous
 62
     1
100
AcDbLine
 10
2347.5
 20
796.0
 30
0.0
 11
2347.5
 21
1454.0
 31
0.0
  0
LINE
  5
B8
330
F
100
AcDbEntity
  8
LEVEL001
  6
Continuous
 62
     1
100
AcDbLine
 10
1767.5
 20
1238.0149825175
 30
0.0
 11
1767.5
 21
1454.0
 31
0.0
  0
LINE
  5
B9
330
F
100
AcDbEntity
  8
LEVEL001
  6
Continuous
 62
     1
100
AcDbLine
 10
2347.5
 20
1442.0
 30
0.0
 11
1767.5
 21
1442.0
 31
0.0
  0
INSERT
  5
BA
330
F
100
AcDbEntity
  8
LEVEL001
  6
Continuous
 62
     1
100
AcDbBlockReference
  2
_OPEN30
 10
2347.5
 20
1442.0
 30
0.0
 41
18.0
 42
18.0
 43
18.0
  0
INSERT
  5
BB
330
F
100
AcDbEntity
  8
LEVEL001
  6
Continuous
 62
     1
100
AcDbBlockReference
  2
_OPEN30
 10
1767.5
 20
1442.0
 30
0.0
 41
18.0
 42
18.0
 43
18.0
 50
180.0
  0
MTEXT
  5
BC
330
F
100
AcDbEntity
  8
LEVEL001
  6
ByBlock
 62
     7
100
AcDbMText
 10
2057.5
 20
1457.4285714286
 30
0.0
 40
36.0
 41
0.0
 71
     8
 72
     1
  1
\A1;580
  7
GMM001
 73
     1
 44
1.0
1001
ACAD
1000
MTEXTBEGIN
1070
    73
1070
     1
1070
    44
1040
1.0
1070
    74
1070
     0
1000
MTEXTEND
  0
ENDBLK
  5
86
330
F
100
AcDbEntity
  8
0
100
AcDbBlockEnd
  0
BLOCK
  5
5B
330
10
100
AcDbEntity
  8
0
100
AcDbBlockBegin
  2
*D3
 70
     1
 10
0.0
 20
0.0
 30
0.0
  3
*D3
  1

  0
LINE
  5
BD
330
10
100
AcDbEntity
  8
LEVEL001
  6
Continuous
 62
     1
100
AcDbLine
 10
2039.3
 20
861.0
 30
0.0
 11
1881.912285863
 21
698.81150645401
 31
0.0
  0
INSERT
  5
BE
330
10
100
AcDbEntity
  8
LEVEL001
  6
Continuous
 62
     1
100
AcDbBlockReference
  2
_OPEN30
 10
1881.912285863
 20
698.81150645401
 30
0.0
 41
18.0
 42
18.0
 43
18.0
 50
225.86065139831
  0
MTEXT
  5
BF
330
10
100
AcDbEntity
  8
LEVEL001
  6
ByBlock
 62
     7
100
AcDbMText
 10
1949.5338563936
 20
790.6503000833899
 30
0.0
 40
36.0
 41
0.0
 71
     8
 72
     1
  1
\A1;R226
  7
GMM001
 11
0.69640581476566
 21
0.7176482015309301
 31
0.0
 73
     1
 44
1.0
1001
ACAD
1000
MTEXTBEGIN
1070
    73
1070
     1
1070
    44
1040
1.0
1070
    74
1070
     0
1000
MTEXTEND
  0
ENDBLK
  5
87
330
10
100
AcDbEntity
  8
0
100
AcDbBlockEnd
  0
BLOCK
  5
5C
330
11
100
AcDbEntity
  8
0
100
AcDbBlockBegin
  2
*D4
 70
     1
 10
0.0
 20
0.0
 30
0.0
  3
*D4
  1

  0
LINE
  5
C0
330
11
100
AcDbEntity
  8
LEVEL001
  6
Continuous
 62
     1
100
AcDbLine
 10
296.5
 20
312.0
 30
0.0
 11
296.5
 21
76.0
 31
0.0
  0
LINE
  5
C1
330
11
100
AcDbEntity
  8
LEVEL001
  6
Continuous
 62
     1
100
AcDbLine
 10
411.5
 20
293.0
 30
0.0
 11
411.5
 21
76.0
 31
0.0
  0
LINE
  5
C2
330
11
100
AcDbEntity
  8
LEVEL001
  6
Continuous
 62
     1
100
AcDbLine
 10
296.5
 20
88.0
 30
0.0
 11
411.5
 21
88.0
 31
0.0
  0
INSERT
  5
C3
330
11
100
AcDbEntity
  8
LEVEL001
  6
Continuous
 62
     1
100
AcDbBlockReference
  2
_OPEN30
 10
296.5
 20
88.0
 30
0.0
 41
18.0
 42
18.0
 43
18.0
 50
180.0
  0
INSERT
  5
C4
330
11
100
AcDbEntity
  8
LEVEL001
  6
Continuous
 62
     1
100
AcDbBlockReference
  2
_OPEN30
 10
411.5
 20
88.0
 30
0.0
 41
18.0
 42
18.0
 43
18.0
  0
MTEXT
  5
C5
330
11
100
AcDbEntity
  8
LEVEL001
  6
ByBlock
 62
     7
100
AcDbMText
 10
354.0
 20
103.42857142857
 30
0.0
 40
36.0
 41
0.0
 71
     8
 72
     1
  1
\A1;115
  7
GMM001
 73
     1
 44
1.0
1001
ACAD
1000
MTEXTBEGIN
1070
    73
1070
     1
1070
    44
1040
1.0
1070
    74
1070
     0
1000
MTEXTEND
  0
ENDBLK
  5
88
330
11
100
AcDbEntity
  8
0
100
AcDbBlockEnd
  0
BLOCK
  5
5D
330
12
100
AcDbEntity
  8
0
100
AcDbBlockBegin
  2
*D5
 70
     1
 10
0.0
 20
0.0
 30
0.0
  3
*D5
  1

  0
LINE
  5
C6
330
12
100
AcDbEntity
  8
LEVEL001
  6
Continuous
 62
     1
100
AcDbLine
 10
411.5
 20
293.0
 30
0.0
 11
411.5
 21
76.0
 31
0.0
  0
LINE
  5
C7
330
12
100
AcDbEntity
  8
LEVEL001
  6
Continuous
 62
     1
100
AcDbLine
 10
1316.5
 20
293.0
 30
0.0
 11
1316.5
 21
76.0
 31
0.0
  0
LINE
  5
C8
330
12
100
AcDbEntity
  8
LEVEL001
  6
Continuous
 62
     1
100
AcDbLine
 10
411.5
 20
88.0
 30
0.0
 11
1316.5
 21
88.0
 31
0.0
  0
INSERT
  5
C9
330
12
100
AcDbEntity
  8
LEVEL001
  6
Continuous
 62
     1
100
AcDbBlockReference
  2
_OPEN30
 10
411.5
 20
88.0
 30
0.0
 41
18.0
 42
18.0
 43
18.0
 50
180.0
  0
INSERT
  5
CA
330
12
100
AcDbEntity
  8
LEVEL001
  6
Continuous
 62
     1
100
AcDbBlockReference
  2
_OPEN30
 10
1316.5
 20
88.0
 30
0.0
 41
18.0
 42
18.0
 43
18.0
  0
MTEXT
  5
CB
330
12
100
AcDbEntity
  8
LEVEL001
  6
ByBlock
 62
     7
100
AcDbMText
 10
864.0
 20
103.42857142857
 30
0.0
 40
36.0
 41
0.0
 71
     8
 72
     1
  1
\A1;905
  7
GMM001
 73
     1
 44
1.0
1001
ACAD
1000
MTEXTBEGIN
1070
    73
1070
     1
1070
    44
1040
1.0
1070
    74
1070
     0
1000
MTEXTEND
  0
ENDBLK
  5
89
330
12
100
AcDbEntity
  8
0
100
AcDbBlockEnd
  0
BLOCK
  5
5E
330
13
100
AcDbEntity
  8
0
100
AcDbBlockBegin
  2
*D6
 70
     1
 10
0.0
 20
0.0
 30
0.0
  3
*D6
  1

  0
LINE
  5
CC
330
13
100
AcDbEntity
  8
LEVEL001
  6
Continuous
 62
     1
100
AcDbLine
 10
1316.5
 20
293.0
 30
0.0
 11
1316.5
 21
76.0
 31
0.0
  0
LINE
  5
CD
330
13
100
AcDbEntity
  8
LEVEL001
  6
Continuous
 62
     1
100
AcDbLine
 10
1422.5
 20
312.0
 30
0.0
 11
1422.5
 21
76.0
 31
0.0
  0
LINE
  5
CE
330
13
100
AcDbEntity
  8
LEVEL001
  6
Continuous
 62
     1
100
AcDbLine
 10
1316.5
 20
88.0
 30
0.0
 11
1422.5
 21
88.0
 31
0.0
  0
INSERT
  5
CF
330
13
100
AcDbEntity
  8
LEVEL001
  6
Continuous
 62
     1
100
AcDbBlockReference
  2
_OPEN30
 10
1316.5
 20
88.0
 30
0.0
 41
18.0
 42
18.0
 43
18.0
 50
180.0
  0
INSERT
  5
D0
330
13
100
AcDbEntity
  8
LEVEL001
  6
Continuous
 62
     1
100
AcDbBlockReference
  2
_OPEN30
 10
1422.5
 20
88.0
 30
0.0
 41
18.0
 42
18.0
 43
18.0
  0
MTEXT
  5
D1
330
13
100
AcDbEntity
  8
LEVEL001
  6
ByBlock
 62
     7
100
AcDbMText
 10
1369.5
 20
103.42857142857
 30
0.0
 40
36.0
 41
0.0
 71
     8
 72
     1
  1
\A1;106
  7
GMM001
 73
     1
 44
1.0
1001
ACAD
1000
MTEXTBEGIN
1070
    73
1070
     1
1070
    44
1040
1.0
1070
    74
1070
     0
1000
MTEXTEND
  0
ENDBLK
  5
8A
330
13
100
AcDbEntity
  8
0
100
AcDbBlockEnd
  0
BLOCK
  5
5F
330
14
100
AcDbEntity
  8
0
100
AcDbBlockBegin
  2
_ARCHTICK
 70
     0
 10
0.0
 20
0.0
 30
0.0
  3
_ARCHTICK
  1

  0
LWPOLYLINE
  5
D2
330
14
100
AcDbEntity
  8
0
  6
ByBlock
 62
     0
100
AcDbPolyline
 90
        2
 70
     1
 43
0.15
 10
-0.5
 20
-0.5
 10
0.5
 20
0.5
  0
ENDBLK
  5
8B
330
14
100
AcDbEntity
  8
0
100
AcDbBlockEnd
  0
BLOCK
  5
60
330
15
100
AcDbEntity
  8
0
100
AcDbBlockBegin
  2
_OBLIQUE
 70
     0
 10
0.0
 20
0.0
 30
0.0
  3
_OBLIQUE
  1

  0
LINE
  5
D6
330
15
100
AcDbEntity
  8
0
  6
ByBlock
 62
     0
100
AcDbLine
 10
-0.5
 20
-0.5
 30
0.0
 11
0.5
 21
0.5
 31
0.0
  0
ENDBLK
  5
97
330
15
100
AcDbEntity
  8
0
100
AcDbBlockEnd
  0
BLOCK
  5
61
330
16
100
AcDbEntity
  8
0
100
AcDbBlockBegin
  2
_BOXBLANK
 70
     0
 10
0.0
 20
0.0
 30
0.0
  3
_BOXBLANK
  1

  0
LINE
  5
D7
330
16
100
AcDbEntity
  8
0
  6
ByBlock
 62
     0
100
AcDbLine
 10
-0.5
 20
-0.5
 30
0.0
 11
0.5
 21
-0.5
 31
0.0
  0
LINE
  5
D8
330
16
100
AcDbEntity
  8
0
  6
ByBlock
 62
     0
100
AcDbLine
 10
0.5
 20
-0.5
 30
0.0
 11
0.5
 21
0.5
 31
0.0
  0
LINE
  5
D9
330
16
100
AcDbEntity
  8
0
  6
ByBlock
 62
     0
100
AcDbLine
 10
0.5
 20
0.5
 30
0.0
 11
-0.5
 21
0.5
 31
0.0
  0
LINE
  5
DA
330
16
100
AcDbEntity
  8
0
  6
ByBlock
 62
     0
100
AcDbLine
 10
-0.5
 20
0.5
 30
0.0
 11
-0.5
 21
-0.5
 31
0.0
  0
LINE
  5
DB
330
16
100
AcDbEntity
  8
0
  6
ByBlock
 62
     0
100
AcDbLine
 10
-0.5
 20
0.0
 30
0.0
 11
-1.0
 21
0.0
 31
0.0
  0
ENDBLK
  5
8C
330
16
100
AcDbEntity
  8
0
100
AcDbBlockEnd
  0
BLOCK
  5
62
330
17
100
AcDbEntity
  8
0
100
AcDbBlockBegin
  2
_BOXFILLED
 70
     0
 10
0.0
 20
0.0
 30
0.0
  3
_BOXFILLED
  1

  0
SOLID
  5
DC
330
17
100
AcDbEntity
  8
0
  6
ByBlock
 62
     0
100
AcDbTrace
 10
-0.5
 20
0.5
 30
0.0
 11
0.5
 21
0.5
 31
0.0
 12
-0.5
 22
-0.5
 32
0.0
 13
0.5
 23
-0.5
 33
0.0
  0
LINE
  5
DD
330
17
100
AcDbEntity
  8
0
  6
ByBlock
 62
     0
100
AcDbLine
 10
-0.5
 20
0.0
 30
0.0
 11
-1.0
 21
0.0
 31
0.0
  0
ENDBLK
  5
8D
330
17
100
AcDbEntity
  8
0
100
AcDbBlockEnd
  0
BLOCK
  5
63
330
18
100
AcDbEntity
  8
0
100
AcDbBlockBegin
  2
_CLOSED
 70
     0
 10
0.0
 20
0.0
 30
0.0
  3
_CLOSED
  1

  0
LINE
  5
DE
330
18
100
AcDbEntity
  8
0
  6
ByBlock
 62
     0
100
AcDbLine
 10
-1.0
 20
0.16666666666667
 30
0.0
 11
0.0
 21
0.0
 31
0.0
  0
LINE
  5
DF
330
18
100
AcDbEntity
  8
0
  6
ByBlock
 62
     0
100
AcDbLine
 10
0.0
 20
0.0
 30
0.0
 11
-1.0
 21
-0.16666666666667
 31
0.0
  0
LINE
  5
E0
330
18
100
AcDbEntity
  8
0
  6
ByBlock
 62
     0
100
AcDbLine
 10
-1.0
 20
0.16666666666667
 30
0.0
 11
-1.0
 21
-0.16666666666667
 31
0.0
  0
LINE
  5
E1
330
18
100
AcDbEntity
  8
0
  6
ByBlock
 62
     0
100
AcDbLine
 10
0.0
 20
0.0
 30
0.0
 11
-1.0
 21
0.0
 31
0.0
  0
ENDBLK
  5
8E
330
18
100
AcDbEntity
  8
0
100
AcDbBlockEnd
  0
BLOCK
  5
64
330
19
100
AcDbEntity
  8
0
100
AcDbBlockBegin
  2
_OPEN
 70
     0
 10
0.0
 20
0.0
 30
0.0
  3
_OPEN
  1

  0
LINE
  5
E2
330
19
100
AcDbEntity
  8
0
  6
ByBlock
 62
     0
100
AcDbLine
 10
-1.0
 20
0.16666666666667
 30
0.0
 11
0.0
 21
0.0
 31
0.0
  0
LINE
  5
E3
330
19
100
AcDbEntity
  8
0
  6
ByBlock
 62
     0
100
AcDbLine
 10
0.0
 20
0.0
 30
0.0
 11
-1.0
 21
-0.16666666666667
 31
0.0
  0
LINE
  5
E4
330
19
100
AcDbEntity
  8
0
  6
ByBlock
 62
     0
100
AcDbLine
 10
0.0
 20
0.0
 30
0.0
 11
-1.0
 21
0.0
 31
0.0
  0
ENDBLK
  5
98
330
19
100
AcDbEntity
  8
0
100
AcDbBlockEnd
  0
BLOCK
  5
65
330
1A
100
AcDbEntity
  8
0
100
AcDbBlockBegin
  2
_OPEN30
 70
     0
 10
0.0
 20
0.0
 30
0.0
  3
_OPEN30
  1

  0
LINE
  5
E5
330
1A
100
AcDbEntity
  8
0
  6
ByBlock
 62
     0
100
AcDbLine
 10
-1.0
 20
0.2679491924311
 30
0.0
 11
0.0
 21
0.0
 31
0.0
  0
LINE
  5
E6
330
1A
100
AcDbEntity
  8
0
  6
ByBlock
 62
     0
100
AcDbLine
 10
0.0
 20
0.0
 30
0.0
 11
-1.0
 21
-0.2679491924311
 31
0.0
  0
LINE
  5
E7
330
1A
100
AcDbEntity
  8
0
  6
ByBlock
 62
     0
100
AcDbLine
 10
0.0
 20
0.0
 30
0.0
 11
-1.0
 21
0.0
 31
0.0
  0
ENDBLK
  5
99
330
1A
100
AcDbEntity
  8
0
100
AcDbBlockEnd
  0
BLOCK
  5
66
330
1B
100
AcDbEntity
  8
0
100
AcDbBlockBegin
  2
_OPEN90
 70
     0
 10
0.0
 20
0.0
 30
0.0
  3
_OPEN90
  1

  0
LINE
  5
E8
330
1B
100
AcDbEntity
  8
0
  6
ByBlock
 62
     0
100
AcDbLine
 10
-0.5
 20
0.5
 30
0.0
 11
0.0
 21
0.0
 31
0.0
  0
LINE
  5
E9
330
1B
100
AcDbEntity
  8
0
  6
ByBlock
 62
     0
100
AcDbLine
 10
0.0
 20
0.0
 30
0.0
 11
-0.5
 21
-0.5
 31
0.0
  0
LINE
  5
EA
330
1B
100
AcDbEntity
  8
0
  6
ByBlock
 62
     0
100
AcDbLine
 10
0.0
 20
0.0
 30
0.0
 11
-1.0
 21
0.0
 31
0.0
  0
ENDBLK
  5
9A
330
1B
100
AcDbEntity
  8
0
100
AcDbBlockEnd
  0
BLOCK
  5
67
330
1C
100
AcDbEntity
  8
0
100
AcDbBlockBegin
  2
_CLOSEDBLANK
 70
     0
 10
0.0
 20
0.0
 30
0.0
  3
_CLOSEDBLANK
  1

  0
LINE
  5
EB
330
1C
100
AcDbEntity
  8
0
  6
ByBlock
 62
     0
100
AcDbLine
 10
-1.0
 20
0.16666666666667
 30
0.0
 11
0.0
 21
0.0
 31
0.0
  0
LINE
  5
EC
330
1C
100
AcDbEntity
  8
0
  6
ByBlock
 62
     0
100
AcDbLine
 10
0.0
 20
0.0
 30
0.0
 11
-1.0
 21
-0.16666666666667
 31
0.0
  0
LINE
  5
ED
330
1C
100
AcDbEntity
  8
0
  6
ByBlock
 62
     0
100
AcDbLine
 10
-1.0
 20
0.16666666666667
 30
0.0
 11
-1.0
 21
-0.16666666666667
 31
0.0
  0
ENDBLK
  5
8F
330
1C
100
AcDbEntity
  8
0
100
AcDbBlockEnd
  0
BLOCK
  5
68
330
1D
100
AcDbEntity
  8
0
100
AcDbBlockBegin
  2
_DOT
 70
     0
 10
0.0
 20
0.0
 30
0.0
  3
_DOT
  1

  0
LWPOLYLINE
  5
EE
330
1D
100
AcDbEntity
  8
0
  6
ByBlock
 62
     0
100
AcDbPolyline
 90
        2
 70
     1
 43
0.5
 10
-0.25
 20
0.0
 42
1.0
 10
0.25
 20
0.0
 42
1.0
  0
LINE
  5
F2
330
1D
100
AcDbEntity
  8
0
  6
ByBlock
 62
     0
100
AcDbLine
 10
-0.5
 20
0.0
 30
0.0
 11
-1.0
 21
0.0
 31
0.0
  0
ENDBLK
  5
92
330
1D
100
AcDbEntity
  8
0
100
AcDbBlockEnd
  0
BLOCK
  5
69
330
1E
100
AcDbEntity
  8
0
100
AcDbBlockBegin
  2
_DOTSMALL
 70
     0
 10
0.0
 20
0.0
 30
0.0
  3
_DOTSMALL
  1

  0
LWPOLYLINE
  5
F3
330
1E
100
AcDbEntity
  8
0
  6
ByBlock
 62
     0
100
AcDbPolyline
 90
        2
 70
     1
 43
0.5
 10
-0.0625
 20
0.0
 42
1.0
 10
0.0625
 20
0.0
 42
1.0
  0
ENDBLK
  5
94
330
1E
100
AcDbEntity
  8
0
100
AcDbBlockEnd
  0
BLOCK
  5
6A
330
1F
100
AcDbEntity
  8
0
100
AcDbBlockBegin
  2
_DATUMBLANK
 70
     0
 10
0.0
 20
0.0
 30
0.0
  3
_DATUMBLANK
  1

  0
LINE
  5
F7
330
1F
100
AcDbEntity
  8
0
  6
ByBlock
 62
     0
100
AcDbLine
 10
0.0
 20
0.5773502700000001
 30
0.0
 11
-1.0
 21
0.0
 31
0.0
  0
LINE
  5
F8
330
1F
100
AcDbEntity
  8
0
  6
ByBlock
 62
     0
100
AcDbLine
 10
-1.0
 20
0.0
 30
0.0
 11
0.0
 21
-0.5773502700000001
 31
0.0
  0
LINE
  5
F9
330
1F
100
AcDbEntity
  8
0
  6
ByBlock
 62
     0
100
AcDbLine
 10
0.0
 20
-0.5773502700000001
 30
0.0
 11
0.0
 21
0.5773502700000001
 31
0.0
  0
ENDBLK
  5
90
330
1F
100
AcDbEntity
  8
0
100
AcDbBlockEnd
  0
BLOCK
  5
6B
330
20
100
AcDbEntity
  8
0
100
AcDbBlockBegin
  2
_DATUMFILLED
 70
     0
 10
0.0
 20
0.0
 30
0.0
  3
_DATUMFILLED
  1

  0
SOLID
  5
FA
330
20
100
AcDbEntity
  8
0
  6
ByBlock
 62
     0
100
AcDbTrace
 10
0.0
 20
0.5773502700000001
 30
0.0
 11
-1.0
 21
0.0
 31
0.0
 12
0.0
 22
-0.5773502700000001
 32
0.0
 13
0.0
 23
-0.5773502700000001
 33
0.0
  0
ENDBLK
  5
91
330
20
100
AcDbEntity
  8
0
100
AcDbBlockEnd
  0
BLOCK
  5
6C
330
21
100
AcDbEntity
  8
0
100
AcDbBlockBegin
  2
_ORIGIN
 70
     0
 10
0.0
 20
0.0
 30
0.0
  3
_ORIGIN
  1

  0
CIRCLE
  5
FB
330
21
100
AcDbEntity
  8
0
  6
ByBlock
 62
     0
100
AcDbCircle
 10
0.0
 20
0.0
 30
0.0
 40
0.5
  0
LINE
  5
FC
330
21
100
AcDbEntity
  8
0
  6
ByBlock
 62
     0
100
AcDbLine
 10
0.0
 20
0.0
 30
0.0
 11
-1.0
 21
0.0
 31
0.0
  0
ENDBLK
  5
9B
330
21
100
AcDbEntity
  8
0
100
AcDbBlockEnd
  0
BLOCK
  5
6D
330
22
100
AcDbEntity
  8
0
100
AcDbBlockBegin
  2
_NONE
 70
     0
 10
0.0
 20
0.0
 30
0.0
  3
_NONE
  1

  0
CIRCLE
  5
FD
330
22
100
AcDbEntity
  8
0
  6
ByBlock
 62
     0
100
AcDbCircle
 10
0.0
 20
0.0
 30
0.0
 40
0.25
  0
ENDBLK
  5
96
330
22
100
AcDbEntity
  8
0
100
AcDbBlockEnd
  0
BLOCK
  5
6E
330
23
100
AcDbEntity
  8
0
100
AcDbBlockBegin
  2
_DOTBLANK
 70
     0
 10
0.0
 20
0.0
 30
0.0
  3
_DOTBLANK
  1

  0
CIRCLE
  5
FE
330
23
100
AcDbEntity
  8
0
  6
ByBlock
 62
     0
100
AcDbCircle
 10
0.0
 20
0.0
 30
0.0
 40
0.5
  0
LINE
  5
FF
330
23
100
AcDbEntity
  8
0
  6
ByBlock
 62
     0
100
AcDbLine
 10
-0.5
 20
0.0
 30
0.0
 11
-1.0
 21
0.0
 31
0.0
  0
ENDBLK
  5
93
330
23
100
AcDbEntity
  8
0
100
AcDbBlockEnd
  0
BLOCK
  5
6F
330
24
100
AcDbEntity
  8
0
100
AcDbBlockBegin
  2
_INTEGRAL
 70
     0
 10
0.0
 20
0.0
 30
0.0
  3
_INTEGRAL
  1

  0
ARC
  5
100
330
24
100
AcDbEntity
  8
0
  6
ByBlock
 62
     0
100
AcDbCircle
 10
0.444888
 20
-0.091335
 30
0.0
 40
0.454167
100
AcDbArc
 50
102.0
 51
168.0
  0
ARC
  5
101
330
24
100
AcDbEntity
  8
0
  6
ByBlock
 62
     0
100
AcDbCircle
 10
-0.444888
 20
0.091335
 30
0.0
 40
0.454167
100
AcDbArc
 50
282.0
 51
348.0
  0
ENDBLK
  5
95
330
24
100
AcDbEntity
  8
0
100
AcDbBlockEnd
  0
BLOCK
  5
70
330
25
100
AcDbEntity
  8
0
100
AcDbBlockBegin
  2
A2
 70
     0
 10
0.0
 20
0.0
 30
0.0
  3
A2
  1

  0
LWPOLYLINE
  5
102
330
25
100
AcDbEntity
  8
内図枠(作図領域)
  6
Continuous
 62
     7
100
AcDbPolyline
 90
        4
 70
     1
 43
0.0
 10
0.0000000000000142
 20
0.0
 10
544.0
 20
0.0
 10
544.0
 20
378.0
 10
0.0000000000000142
 20
378.0
  0
ENDBLK
  5
7B
330
25
100
AcDbEntity
  8
0
100
AcDbBlockEnd
  0
BLOCK
  5
71
330
26
100
AcDbEntity
  8
0
100
AcDbBlockBegin
  2
BLOCK001
 70
     0
 10
0.0
 20
0.0
 30
0.0
  3
BLOCK001
  1

  0
LINE
  5
103
330
26
100
AcDbEntity
  8
LEVEL001
  6
Continuous
 62
     7
100
AcDbLine
 10
2448.0
 20
216.0
 30
0.0
 11
3264.0
 21
216.0
 31
0.0
  0
LINE
  5
104
330
26
100
AcDbEntity
  8
LEVEL001
  6
Continuous
 62
     7
100
AcDbLine
 10
2448.0
 20
144.0
 30
0.0
 11
3264.0
 21
144.0
 31
0.0
  0
LINE
  5
105
330
26
100
AcDbEntity
  8
LEVEL001
  6
Continuous
 62
     7
100
AcDbLine
 10
2448.0
 20
216.0
 30
0.0
 11
2448.0
 21
144.0
 31
0.0
  0
LINE
  5
106
330
26
100
AcDbEntity
  8
LEVEL001
  6
Continuous
 62
     7
100
AcDbLine
 10
2496.0
 20
216.0
 30
0.0
 11
2496.0
 21
144.0
 31
0.0
  0
LINE
  5
107
330
26
100
AcDbEntity
  8
LEVEL001
  6
Continuous
 62
     7
100
AcDbLine
 10
2856.0
 20
216.0
 30
0.0
 11
2856.0
 21
144.0
 31
0.0
  0
LINE
  5
108
330
26
100
AcDbEntity
  8
LEVEL001
  6
Continuous
 62
     7
100
AcDbLine
 10
2904.0
 20
216.0
 30
0.0
 11
2904.0
 21
144.0
 31
0.0
  0
LINE
  5
109
330
26
100
AcDbEntity
  8
LEVEL001
  6
Continuous
 62
     7
100
AcDbLine
 10
3264.0
 20
216.0
 30
0.0
 11
3264.0
 21
144.0
 31
0.0
  0
ENDBLK
  5
7C
330
26
100
AcDbEntity
  8
0
100
AcDbBlockEnd
  0
BLOCK
  5
72
330
27
100
AcDbEntity
  8
0
100
AcDbBlockBegin
  2
BLOCK002
 70
     0
 10
0.0
 20
0.0
 30
0.0
  3
BLOCK002
  1

  0
LINE
  5
10A
330
27
100
AcDbEntity
  8
LEVEL001
  6
Continuous
 62
     7
100
AcDbLine
 10
2448.0
 20
144.0
 30
0.0
 11
3264.0
 21
144.0
 31
0.0
  0
LINE
  5
10B
330
27
100
AcDbEntity
  8
LEVEL001
  6
Continuous
 62
     7
100
AcDbLine
 10
2676.0
 20
96.0
 30
0.0
 11
3264.0
 21
96.0
 31
0.0
  0
LINE
  5
10C
330
27
100
AcDbEntity
  8
LEVEL001
  6
Continuous
 62
     7
100
AcDbLine
 10
2448.0
 20
48.0
 30
0.0
 11
3264.0
 21
48.0
 31
0.0
  0
LINE
  5
10D
330
27
100
AcDbEntity
  8
LEVEL001
  6
Continuous
 62
     7
100
AcDbLine
 10
2448.0
 20
0.0
 30
0.0
 11
3264.0
 21
0.0
 31
0.0
  0
LINE
  5
10E
330
27
100
AcDbEntity
  8
LEVEL001
  6
Continuous
 62
     7
100
AcDbLine
 10
2448.0
 20
144.0
 30
0.0
 11
2448.0
 21
0.0
 31
0.0
  0
LINE
  5
10F
330
27
100
AcDbEntity
  8
LEVEL001
  6
Continuous
 62
     7
100
AcDbLine
 10
2496.0
 20
144.0
 30
0.0
 11
2496.0
 21
48.0
 31
0.0
  0
LINE
  5
110
330
27
100
AcDbEntity
  8
LEVEL001
  6
Continuous
 62
     7
100
AcDbLine
 10
2676.0
 20
144.0
 30
0.0
 11
2676.0
 21
48.0
 31
0.0
  0
LINE
  5
111
330
27
100
AcDbEntity
  8
LEVEL001
  6
Continuous
 62
     7
100
AcDbLine
 10
2856.0
 20
144.0
 30
0.0
 11
2856.0
 21
48.0
 31
0.0
  0
LINE
  5
112
330
27
100
AcDbEntity
  8
LEVEL001
  6
Continuous
 62
     7
100
AcDbLine
 10
2904.0
 20
144.0
 30
0.0
 11
2904.0
 21
48.0
 31
0.0
  0
LINE
  5
113
330
27
100
AcDbEntity
  8
LEVEL001
  6
Continuous
 62
     7
100
AcDbLine
 10
3024.0
 20
144.0
 30
0.0
 11
3024.0
 21
48.0
 31
0.0
  0
LINE
  5
114
330
27
100
AcDbEntity
  8
LEVEL001
  6
Continuous
 62
     7
100
AcDbLine
 10
3066.0
 20
144.0
 30
0.0
 11
3066.0
 21
96.0
 31
0.0
  0
LINE
  5
115
330
27
100
AcDbEntity
  8
LEVEL001
  6
Continuous
 62
     7
100
AcDbLine
 10
3102.0
 20
144.0
 30
0.0
 11
3102.0
 21
96.0
 31
0.0
  0
LINE
  5
116
330
27
100
AcDbEntity
  8
LEVEL001
  6
Continuous
 62
     7
100
AcDbLine
 10
3144.0
 20
144.0
 30
0.0
 11
3144.0
 21
48.0
 31
0.0
  0
LINE
  5
117
330
27
100
AcDbEntity
  8
LEVEL001
  6
Continuous
 62
     7
100
AcDbLine
 10
3264.0
 20
144.0
 30
0.0
 11
3264.0
 21
0.0
 31
0.0
  0
ENDBLK
  5
7D
330
27
100
AcDbEntity
  8
0
100
AcDbBlockEnd
  0
BLOCK
  5
73
330
28
100
AcDbEntity
  8
0
100
AcDbBlockBegin
  2
BLOCK003
 70
     0
 10
0.0
 20
0.0
 30
0.0
  3
BLOCK003
  1

  0
TEXT
  5
118
330
28
100
AcDbEntity
  8
LEVEL001
  6
ByBlock
 62
     7
100
AcDbText
 10
2671.2000274658
 20
12.0
 30
0.0
 40
24.0
  1
さぬき麺機株式会社
100
AcDbText
  0
TEXT
  5
119
330
28
100
AcDbEntity
  8
LEVEL001
  6
ByBlock
 62
     7
100
AcDbText
 10
2472.0
 20
210.66664123535
 30
0.0
 40
24.0
  1
名称
  7
STANDARD1
100
AcDbText
  0
TEXT
  5
11A
330
28
100
AcDbEntity
  8
LEVEL001
  6
ByBlock
 62
     7
100
AcDbText
 10
2880.0
 20
210.66659545898
 30
0.0
 40
24.0
  1
図番
  7
STANDARD1
100
AcDbText
  0
TEXT
  5
11B
330
28
100
AcDbEntity
  8
LEVEL001
  6
ByBlock
 62
     7
100
AcDbText
 10
2472.0
 20
130.66666698456
 30
0.0
 40
24.0
  1
画法
  7
STANDARD1
100
AcDbText
  0
TEXT
  5
11C
330
28
100
AcDbEntity
  8
LEVEL001
  6
ByBlock
 62
     7
100
AcDbText
 10
2512.8000004292
 20
84.0
 30
0.0
 40
24.0
  1
第三角法
100
AcDbText
  0
TEXT
  5
11D
330
28
100
AcDbEntity
  8
LEVEL001
  6
ByBlock
 62
     7
100
AcDbText
 10
2692.8000004292
 20
108.0
 30
0.0
 40
24.0
  1
共通機種
100
AcDbText
  0
TEXT
  5
11E
330
28
100
AcDbEntity
  8
LEVEL001
  6
ByBlock
 62
     7
100
AcDbText
 10
2860.7999997168
 20
108.0
 30
0.0
 40
24.0
  1
個数
 41
0.80000001192093
100
AcDbText
  0
TEXT
  5
11F
330
28
100
AcDbEntity
  8
LEVEL001
  6
ByBlock
 62
     7
100
AcDbText
 10
2928.0
 20
108.0
 30
0.0
 40
24.0
  1
尺度
100
AcDbText
  0
TEXT
  5
120
330
28
100
AcDbEntity
  8
LEVEL001
  6
ByBlock
 62
     7
100
AcDbText
 10
3036.0
 20
108.0
 30
0.0
 40
24.0
  1
年月日
100
AcDbText
  0
TEXT
  5
121
330
28
100
AcDbEntity
  8
LEVEL001
  6
ByBlock
 62
     7
100
AcDbText
 10
3168.0
 20
108.0
 30
0.0
 40
24.0
  1
製図
100
AcDbText
  0
POINT
  5
122
330
28
100
AcDbEntity
  8
LEVEL001
  6
ByBlock
 62
     7
100
AcDbPoint
 10
3024.0
 20
60.0
 30
0.0
  0
ENDBLK
  5
7E
330
28
100
AcDbEntity
  8
0
100
AcDbBlockEnd
  0
BLOCK
  5
74
330
29
100
AcDbEntity
  8
0
100
AcDbBlockBegin
  2
EGF9M10
 70
     0
 10
0.0
 20
0.0
 30
0.0
  3
EGF9M10
  1

  0
CIRCLE
  5
123
330
29
100
AcDbEntity
  8
LEVEL001
  6
Continuous
 62
     7
100
AcDbCircle
 10
0.0
 20
0.0
 30
0.0
 40
5.0
  0
CIRCLE
  5
124
330
29
100
AcDbEntity
  8
LEVEL001
  6
Continuous
 62
     7
100
AcDbCircle
 10
0.0
 20
0.0
 30
0.0
 40
8.25
  0
LWPOLYLINE
  5
125
330
29
100
AcDbEntity
  8
LEVEL001
  6
Continuous
 62
     7
100
AcDbPolyline
 90
        6
 70
     1
 43
0.0
 10
0.0
 20
9.8149545761978
 10
-8.5
 20
4.907477288060199
 10
-8.5
 20
-4.907477288060199
 10
0.0
 20
-9.8149545761978
 10
8.5
 20
-4.907477288060199
 10
8.5
 20
4.907477288060199
  0
ENDBLK
  5
7F
330
29
100
AcDbEntity
  8
0
100
AcDbBlockEnd
  0
BLOCK
  5
75
330
2A
100
AcDbEntity
  8
0
100
AcDbBlockBegin
  2
EGF21M10
 70
     0
 10
0.0
 20
0.0
 30
0.0
  3
EGF21M10
  1

  0
LWPOLYLINE
  5
126
330
2A
100
AcDbEntity
  8
LEVEL001
  6
Continuous
 62
     7
100
AcDbPolyline
 90
        4
 70
     1
 43
0.0
 10
0.0
 20
-10.5
 10
2.0
 20
-10.5
 10
2.0
 20
10.5
 10
0.0
 20
10.5
  0
ENDBLK
  5
80
330
2A
100
AcDbEntity
  8
0
100
AcDbBlockEnd
  0
BLOCK
  5
76
330
2B
100
AcDbEntity
  8
0
100
AcDbBlockBegin
  2
EGF11M10
 70
     0
 10
0.0
 20
0.0
 30
0.0
  3
EGF11M10
  1

  0
ARC
  5
127
330
2B
100
AcDbEntity
  8
LEVEL001
  6
Continuous
 62
     7
100
AcDbCircle
 10
-5.779165296304699
 20
0.0
 30
0.0
 40
13.779165296305
100
AcDbArc
 50
339.13593563448
 51
20.864064365521
  0
ARC
  5
128
330
2B
100
AcDbEntity
  8
LEVEL001
  6
Continuous
 62
     7
100
AcDbCircle
 10
4.216386071101299
 20
7.361215932129099
 30
0.0
 40
3.7836139288987
100
AcDbArc
 50
319.57010315284
 51
0.0
  0
LWPOLYLINE
  5
129
330
2B
100
AcDbEntity
  8
LEVEL001
  6
Continuous
 62
     7
100
AcDbPolyline
 90
        6
 70
     1
 43
0.0
 10
0.0
 20
-9.8149545761978
 10
0.0
 20
9.8149545761978
 10
7.0964730540863
 20
9.8149545761978
 10
8.0
 20
8.25
 10
8.0
 20
-8.25
 10
7.0964730540863
 20
-9.8149545761978
  0
LINE
  5
12A
330
2B
100
AcDbEntity
  8
LEVEL001
  6
Continuous
 62
     7
100
AcDbLine
 10
0.0
 20
4.907477288060199
 30
0.0
 11
7.0964730540863
 21
4.907477288060199
 31
0.0
  0
ARC
  5
12B
330
2B
100
AcDbEntity
  8
LEVEL001
  6
Continuous
 62
     7
100
AcDbCircle
 10
4.216386071101299
 20
-7.361215932129
 30
0.0
 40
3.7836139288987
100
AcDbArc
 50
0.0
 51
40.429896847157
  0
LINE
  5
12C
330
2B
100
AcDbEntity
  8
LEVEL001
  6
Continuous
 62
     7
100
AcDbLine
 10
0.0
 20
-4.907477288060199
 30
0.0
 11
7.0964730540863
 21
-4.907477288060199
 31
0.0
  0
ENDBLK
  5
81
330
2B
100
AcDbEntity
  8
0
100
AcDbBlockEnd
  0
BLOCK
  5
77
330
2C
100
AcDbEntity
  8
0
100
AcDbBlockBegin
  2
EGF11M12
 70
     0
 10
0.0
 20
0.0
 30
0.0
  3
EGF11M12
  1

  0
ARC
  5
12D
330
2C
100
AcDbEntity
  8
LEVEL001
  6
Continuous
 62
     7
100
AcDbCircle
 10
-3.7957441339726
 20
0.0
 30
0.0
 40
13.795744133973
100
AcDbArc
 50
336.57340248944
 51
23.426597510562
  0
ARC
  5
12E
330
2C
100
AcDbEntity
  8
LEVEL001
  6
Continuous
 62
     7
100
AcDbCircle
 10
6.1246211248964
 20
8.2272413359135
 30
0.0
 40
3.875378875103599
100
AcDbArc
 50
314.95592675987
 51
0.0
  0
LWPOLYLINE
  5
12F
330
2C
100
AcDbEntity
  8
LEVEL001
  6
Continuous
 62
     7
100
AcDbPolyline
 90
        6
 70
     1
 43
0.0
 10
0.0
 20
-10.969655114577
 10
0.0
 20
10.969655114577
 10
8.8628190892874
 20
10.969655114577
 10
10.0
 20
9.0
 10
10.0
 20
-9.0
 10
8.8628190892874
 20
-10.969655114577
  0
LINE
  5
130
330
2C
100
AcDbEntity
  8
LEVEL001
  6
Continuous
 62
     7
100
AcDbLine
 10
0.0
 20
5.484827557249899
 30
0.0
 11
8.8628190892874
 21
5.484827557249899
 31
0.0
  0
ARC
  5
131
330
2C
100
AcDbEntity
  8
LEVEL001
  6
Continuous
 62
     7
100
AcDbCircle
 10
6.1246211248964
 20
-8.2272413359135
 30
0.0
 40
3.875378875103599
100
AcDbArc
 50
0.0
 51
45.04407324012599
  0
LINE
  5
132
330
2C
100
AcDbEntity
  8
LEVEL001
  6
Continuous
 62
     7
100
AcDbLine
 10
0.0
 20
-5.484827557249899
 30
0.0
 11
8.8628190892874
 21
-5.484827557249899
 31
0.0
  0
ENDBLK
  5
82
330
2C
100
AcDbEntity
  8
0
100
AcDbBlockEnd
  0
BLOCK
  5
78
330
2D
100
AcDbEntity
  8
0
100
AcDbBlockBegin
  2
EGF7M10
 70
     0
 10
0.0
 20
0.0
 30
0.0
  3
EGF7M10
  1

  0
CIRCLE
  5
133
330
2D
100
AcDbEntity
  8
LEVEL001
  6
Continuous
 62
     7
100
AcDbCircle
 10
0.0
 20
0.0
 30
0.0
 40
8.25
  0
LWPOLYLINE
  5
134
330
2D
100
AcDbEntity
  8
LEVEL001
  6
Continuous
 62
     7
100
AcDbPolyline
 90
        6
 70
     1
 43
0.0
 10
0.0
 20
9.8149545761978
 10
-8.5
 20
4.907477288060199
 10
-8.5
 20
-4.907477288060199
 10
0.0
 20
-9.8149545761978
 10
8.5
 20
-4.907477288060199
 10
8.5
 20
4.907477288060199
  0
ENDBLK
  5
83
330
2D
100
AcDbEntity
  8
0
100
AcDbBlockEnd
  0
ENDSEC
  0
SECTION
  2
ENTITIES
  0
INSERT
  5
135
330
B
100
AcDbEntity
  8
0
100
AcDbBlockReference
  2
A2
 10
0.0
 20
0.0
 30
0.0
 41
6.0
 42
6.0
  0
INSERT
  5
136
330
B
100
AcDbEntity
  8
LEVEL001
100
AcDbBlockReference
  2
BLOCK001
 10
0.0
 20
0.0
 30
0.0
  0
INSERT
  5
137
330
B
100
AcDbEntity
  8
LEVEL001
100
AcDbBlockReference
  2
BLOCK002
 10
0.0
 20
0.0
 30
0.0
  0
INSERT
  5
138
330
B
100
AcDbEntity
  8
0
100
AcDbBlockReference
  2
BLOCK003
 10
0.0
 20
0.0
 30
0.0
  0
TEXT
  5
139
330
B
100
AcDbEntity
  8
LEVEL001
 62
     7
100
AcDbText
 10
3180.0
 20
60.0
 30
0.0
 40
24.0
  1
井上
100
AcDbText
  0
TEXT
  5
13A
330
B
100
AcDbEntity
  8
LEVEL001
 62
     7
100
AcDbText
 10
2604.0
 20
168.0
 30
0.0
 40
24.0
  1
SN-50P 承認図
100
AcDbText
  0
TEXT
  5
13B
330
B
100
AcDbEntity
  8
LEVEL001
 62
     7
100
AcDbText
 10
3012.0
 20
168.0
 30
0.0
 40
24.0
  1
SN-50P
 41
0.5
100
AcDbText
  0
TEXT
  5
13C
330
B
100
AcDbEntity
  8
LEVEL001
 62
     7
100
AcDbText
 10
3035.0
 20
60.0
 30
0.0
 40
24.0
  1
14. 2.21
 41
0.5
100
AcDbText
  0
LINE
  5
13D
330
B
100
AcDbEntity
  8
LEVEL001
  6
Continuous
 62
     7
100
AcDbLine
 10
411.5
 20
796.0
 30
0.0
 11
411.5
 21
302.0
 31
0.0
  0
LINE
  5
13E
330
B
100
AcDbEntity
  8
LEVEL001
  6
Continuous
 62
     7
100
AcDbLine
 10
411.5
 20
302.0
 30
0.0
 11
1316.5
 21
302.0
 31
0.0
  0
LINE
  5
13F
330
B
100
AcDbEntity
  8
LEVEL001
  6
Continuous
 62
     7
100
AcDbLine
 10
1316.5
 20
302.0
 30
0.0
 11
1316.5
 21
796.0
 31
0.0
  0
LINE
  5
140
330
B
100
AcDbEntity
  8
LEVEL001
  6
Continuous
 62
     7
100
AcDbLine
 10
1266.5
 20
796.0
 30
0.0
 11
1266.5
 21
302.0
 31
0.0
  0
LINE
  5
141
330
B
100
AcDbEntity
  8
LEVEL001
  6
Continuous
 62
     7
100
AcDbLine
 10
1316.5
 20
982.0
 30
0.0
 11
1422.5
 21
982.0
 31
0.0
  0
LINE
  5
142
330
B
100
AcDbEntity
  8
LEVEL001
  6
Continuous
 62
     7
100
AcDbLine
 10
296.5
 20
1212.0
 30
0.0
 11
411.5
 21
1212.0
 31
0.0
  0
LINE
  5
143
330
B
100
AcDbEntity
  8
LEVEL001
  6
Continuous
 62
     7
100
AcDbLine
 10
296.5
 20
1212.0
 30
0.0
 11
296.5
 21
312.0
 31
0.0
  0
LINE
  5
144
330
B
100
AcDbEntity
  8
LEVEL001
  6
Continuous
 62
     7
100
AcDbLine
 10
296.5
 20
312.0
 30
0.0
 11
411.5
 21
312.0
 31
0.0
  0
LINE
  5
145
330
B
100
AcDbEntity
  8
LEVEL001
  6
Continuous
 62
     7
100
AcDbLine
 10
1316.5
 20
982.0
 30
0.0
 11
1316.5
 21
796.0
 31
0.0
  0
LINE
  5
146
330
B
100
AcDbEntity
  8
LEVEL001
  6
Continuous
 62
     7
100
AcDbLine
 10
1422.5
 20
982.0
 30
0.0
 11
1422.5
 21
312.0
 31
0.0
  0
LINE
  5
147
330
B
100
AcDbEntity
  8
LEVEL001
  6
Continuous
 62
     7
100
AcDbLine
 10
1422.5
 20
312.0
 30
0.0
 11
1316.5
 21
312.0
 31
0.0
  0
POINT
  5
148
330
B
100
AcDbEntity
  8
LEVEL001
 62
     7
100
AcDbPoint
 10
311.5
 20
1202.0
 30
0.0
  0
POINT
  5
149
330
B
100
AcDbEntity
  8
LEVEL001
 62
     7
100
AcDbPoint
 10
395.5
 20
1202.0
 30
0.0
  0
POINT
  5
14A
330
B
100
AcDbEntity
  8
LEVEL001
 62
     7
100
AcDbPoint
 10
311.5
 20
1007.0
 30
0.0
  0
POINT
  5
14B
330
B
100
AcDbEntity
  8
LEVEL001
 62
     7
100
AcDbPoint
 10
395.5
 20
1007.0
 30
0.0
  0
LWPOLYLINE
  5
14C
330
B
100
AcDbEntity
  8
LEVEL001
  6
Continuous
 62
     7
100
AcDbPolyline
 90
        4
 70
     1
 43
0.0
 10
306.0
 20
1001.5
 10
401.0
 20
1001.5
 10
401.0
 20
1207.5
 10
306.0
 20
1207.5
  0
CIRCLE
  5
14D
330
B
100
AcDbEntity
  8
LEVEL001
  6
Continuous
 62
     7
100
AcDbCircle
 10
333.5
 20
1051.5
 30
0.0
 40
12.5
  0
CIRCLE
  5
14E
330
B
100
AcDbEntity
  8
LEVEL001
  6
Continuous
 62
     7
100
AcDbCircle
 10
333.5
 20
1051.5
 30
0.0
 40
16.25
  0
CIRCLE
  5
14F
330
B
100
AcDbEntity
  8
LEVEL001
  6
Continuous
 62
     7
100
AcDbCircle
 10
373.5
 20
1051.5
 30
0.0
 40
16.25
  0
CIRCLE
  5
150
330
B
100
AcDbEntity
  8
LEVEL001
  6
Continuous
 62
     7
100
AcDbCircle
 10
373.5
 20
1051.5
 30
0.0
 40
12.5
  0
LWPOLYLINE
  5
151
330
B
100
AcDbEntity
  8
LEVEL001
  6
Continuous
 62
     7
100
AcDbPolyline
 90
        4
 70
     1
 43
0.0
 10
322.0
 20
1081.5
 10
385.0
 20
1081.5
 10
385.0
 20
1165.5
 10
322.0
 20
1165.5
  0
LWPOLYLINE
  5
152
330
B
100
AcDbEntity
  8
LEVEL001
  6
Continuous
 62
     7
100
AcDbPolyline
 90
        4
 70
     1
 43
0.0
 10
327.5
 20
1092.0
 10
379.5
 20
1092.0
 10
379.5
 20
1155.0
 10
327.5
 20
1155.0
  0
POINT
  5
153
330
B
100
AcDbEntity
  8
LEVEL001
 62
     7
100
AcDbPoint
 10
353.5
 20
1128.7
 30
0.0
  0
LWPOLYLINE
  5
154
330
B
100
AcDbEntity
  8
LEVEL001
  6
Continuous
 62
     7
100
AcDbPolyline
 90
        4
 70
     0
 43
0.0
 10
351.0
 20
1139.9249721603
 10
351.5
 20
1144.95
 10
355.5
 20
1144.95
 10
356.0
 20
1139.9249721603
  0
LWPOLYLINE
  5
155
330
B
100
AcDbEntity
  8
LEVEL001
  6
Continuous
 62
     7
100
AcDbPolyline
 90
        4
 70
     0
 43
0.0
 10
351.0
 20
1117.4750278397
 10
351.5
 20
1112.45
 10
355.5
 20
1112.45
 10
356.0
 20
1117.4750278397
  0
LINE
  5
156
330
B
100
AcDbEntity
  8
LEVEL001
  6
Continuous
 62
     7
100
AcDbLine
 10
353.0
 20
1144.95
 30
0.0
 11
353.0
 21
1140.1891252931
 31
0.0
  0
LINE
  5
157
330
B
100
AcDbEntity
  8
LEVEL001
  6
Continuous
 62
     7
100
AcDbLine
 10
354.0
 20
1144.95
 30
0.0
 11
354.0
 21
1140.1891252931
 31
0.0
  0
CIRCLE
  5
158
330
B
100
AcDbEntity
  8
LEVEL001
  6
Continuous
 62
     7
100
AcDbCircle
 10
353.5
 20
1128.7
 30
0.0
 40
8.0
  0
ARC
  5
159
330
B
100
AcDbEntity
  8
LEVEL001
  6
Continuous
 62
     7
100
AcDbCircle
 10
353.50000000055
 20
1113.2434194268
 30
0.0
 40
4.9565805731756
100
AcDbArc
 50
58.91685076569801
 51
121.08314923836
  0
ARC
  5
15A
330
B
100
AcDbEntity
  8
LEVEL001
  6
Continuous
 62
     7
100
AcDbCircle
 10
365.58444130397
 20
1119.062979641
 30
0.0
 40
4.9565805731756
100
AcDbArc
 50
110.34542219427
 51
172.51172066693
  0
ARC
  5
15B
330
B
100
AcDbEntity
  8
LEVEL001
  6
Continuous
 62
     7
100
AcDbCircle
 10
368.56905182825
 20
1132.1394127449
 30
0.0
 40
4.9565805731756
100
AcDbArc
 50
161.77399362289
 51
223.9402920956
  0
ARC
  5
15C
330
B
100
AcDbEntity
  8
LEVEL001
  6
Continuous
 62
     7
100
AcDbCircle
 10
360.20635897365
 20
1142.6258979007
 30
0.0
 40
4.9565805731756
100
AcDbArc
 50
213.20256505145
 51
275.36886352415
  0
ARC
  5
15D
330
B
100
AcDbEntity
  8
LEVEL001
  6
Continuous
 62
     7
100
AcDbCircle
 10
346.79364102753
 20
1142.6258979007
 30
0.0
 40
4.9565805731756
100
AcDbArc
 50
264.63113648004
 51
326.79743495277
  0
ARC
  5
15E
330
B
100
AcDbEntity
  8
LEVEL001
  6
Continuous
 62
     7
100
AcDbCircle
 10
338.4309481729
 20
1132.139412745
 30
0.0
 40
4.9565805731756
100
AcDbArc
 50
316.05970790852
 51
18.226006381141
  0
ARC
  5
15F
330
B
100
AcDbEntity
  8
LEVEL001
  6
Continuous
 62
     7
100
AcDbCircle
 10
341.41555869713
 20
1119.062979641
 30
0.0
 40
4.9565805731756
100
AcDbArc
 50
7.488279337065899
 51
69.654577809655
  0
ARC
  5
160
330
B
100
AcDbEntity
  8
LEVEL001
  6
Continuous
 62
     7
100
AcDbCircle
 10
353.50000000001
 20
1128.7
 30
0.0
 40
11.5
100
AcDbArc
 50
231.42857143245
 51
257.14285714491
  0
ARC
  5
161
330
B
100
AcDbEntity
  8
LEVEL001
  6
Continuous
 62
     7
100
AcDbCircle
 10
353.49999999999
 20
1128.7
 30
0.0
 40
11.5
100
AcDbArc
 50
282.85714285916
 51
308.57142857555
  0
ARC
  5
162
330
B
100
AcDbEntity
  8
LEVEL001
  6
Continuous
 62
     7
100
AcDbCircle
 10
353.5
 20
1128.7
 30
0.0
 40
11.5
100
AcDbArc
 50
334.2857142841
 51
0.0
  0
ARC
  5
163
330
B
100
AcDbEntity
  8
LEVEL001
  6
Continuous
 62
     7
100
AcDbCircle
 10
353.50000000001
 20
1128.7
 30
0.0
 40
11.5
100
AcDbArc
 50
180.00000000266
 51
205.71428571271
  0
ARC
  5
164
330
B
100
AcDbEntity
  8
LEVEL001
  6
Continuous
 62
     7
100
AcDbCircle
 10
353.5
 20
1128.7
 30
0.0
 40
11.5
100
AcDbArc
 50
128.57142857082
 51
154.2857142818
  0
ARC
  5
165
330
B
100
AcDbEntity
  8
LEVEL001
  6
Continuous
 62
     7
100
AcDbCircle
 10
353.5
 20
1128.7
 30
0.0
 40
11.5
100
AcDbArc
 50
25.714285710212
 51
51.428571428271
  0
ARC
  5
166
330
B
100
AcDbEntity
  8
LEVEL001
  6
Continuous
 62
     7
100
AcDbCircle
 10
353.49999999999
 20
1128.7
 30
0.0
 40
11.5
100
AcDbArc
 50
77.142857139129
 51
102.85714285367
  0
ARC
  5
167
330
B
100
AcDbEntity
  8
LEVEL001
  6
Continuous
 62
     7
100
AcDbCircle
 10
353.5
 20
1128.7
 30
0.0
 40
13.0
100
AcDbArc
 50
100.39033808314
 51
259.60966191685
  0
ARC
  5
168
330
B
100
AcDbEntity
  8
LEVEL001
  6
Continuous
 62
     7
100
AcDbCircle
 10
353.5
 20
1128.7
 30
0.0
 40
13.0
100
AcDbArc
 50
280.39033808313
 51
79.609661916866
  0
ARC
  5
169
330
B
100
AcDbEntity
  8
LEVEL001
  6
Continuous
 62
     7
100
AcDbCircle
 10
353.5
 20
1128.7
 30
0.0
 40
20.0
100
AcDbArc
 50
299.99999999981
 51
240.0000000002
  0
LWPOLYLINE
  5
16A
330
B
100
AcDbEntity
  8
LEVEL001
  6
Continuous
 62
     7
100
AcDbPolyline
 90
        4
 70
     1
 43
0.0
 10
325.0
 20
1089.5
 10
382.0
 20
1089.5
 10
382.0
 20
1157.5
 10
325.0
 20
1157.5
  0
CIRCLE
  5
16B
330
B
100
AcDbEntity
  8
LEVEL001
  6
Continuous
 62
     7
100
AcDbCircle
 10
1375.5
 20
932.0
 30
0.0
 40
12.5
  0
CIRCLE
  5
16C
330
B
100
AcDbEntity
  8
LEVEL001
  6
Continuous
 62
     7
100
AcDbCircle
 10
1375.5
 20
932.0
 30
0.0
 40
16.25
  0
ARC
  5
16D
330
B
100
AcDbEntity
  8
LEVEL001
  6
Continuous
 62
     7
100
AcDbCircle
 10
1375.5
 20
932.0
 30
0.0
 40
17.5
100
AcDbArc
 50
180.0
 51
0.0
  0
LWPOLYLINE
  5
16E
330
B
100
AcDbEntity
  8
LEVEL001
  6
Continuous
 62
     7
100
AcDbPolyline
 90
        4
 70
     0
 43
0.0
 10
1358.0
 20
932.0
 10
1358.0
 20
959.5
 10
1393.0
 20
959.5
 10
1393.0
 20
932.0
  0
LINE
  5
16F
330
B
100
AcDbEntity
  8
LEVEL001
  6
Continuous
 62
     7
100
AcDbLine
 10
1226.5
 20
302.0
 30
0.0
 11
1226.5
 21
293.0
 31
0.0
  0
LINE
  5
170
330
B
100
AcDbEntity
  8
LEVEL001
  6
Continuous
 62
     7
100
AcDbLine
 10
1226.5
 20
293.0
 30
0.0
 11
1316.5
 21
293.0
 31
0.0
  0
LINE
  5
171
330
B
100
AcDbEntity
  8
LEVEL001
  6
Continuous
 62
     7
100
AcDbLine
 10
1316.5
 20
293.0
 30
0.0
 11
1316.5
 21
302.0
 31
0.0
  0
LINE
  5
172
330
B
100
AcDbEntity
  8
LEVEL001
  6
Continuous
 62
     7
100
AcDbLine
 10
501.4999999999999
 20
302.0
 30
0.0
 11
501.4999999999999
 21
293.0
 31
0.0
  0
LINE
  5
173
330
B
100
AcDbEntity
  8
LEVEL001
  6
Continuous
 62
     7
100
AcDbLine
 10
411.5
 20
302.0
 30
0.0
 11
411.5
 21
293.0
 31
0.0
  0
LINE
  5
174
330
B
100
AcDbEntity
  8
LEVEL001
  6
Continuous
 62
     7
100
AcDbLine
 10
411.5
 20
293.0
 30
0.0
 11
501.4999999999999
 21
293.0
 31
0.0
  0
CIRCLE
  5
175
330
B
100
AcDbEntity
  8
LEVEL001
  6
Continuous
 62
     7
100
AcDbCircle
 10
433.0
 20
229.5
 30
0.0
 40
5.0
  0
LINE
  5
176
330
B
100
AcDbEntity
  8
LEVEL001
  6
Continuous
 62
     7
100
AcDbLine
 10
497.5
 20
291.0
 30
0.0
 11
447.2949948361899
 21
219.40529234533
 31
0.0
  0
LINE
  5
177
330
B
100
AcDbEntity
  8
LEVEL001
  6
Continuous
 62
     7
100
AcDbLine
 10
415.5
 20
293.0
 30
0.0
 11
415.5
 21
229.5
 31
0.0
  0
ARC
  5
178
330
B
100
AcDbEntity
  8
LEVEL001
  6
Continuous
 62
     7
100
AcDbCircle
 10
433.0
 20
229.5
 30
0.0
 40
17.5
100
AcDbArc
 50
180.0
 51
324.77137870369
  0
ARC
  5
179
330
B
100
AcDbEntity
  8
LEVEL001
  6
Continuous
 62
     7
100
AcDbCircle
 10
433.0
 20
229.5
 30
0.0
 40
37.5
100
AcDbArc
 50
117.81813928465
 51
27.142386627725
  0
LWPOLYLINE
  5
17A
330
B
100
AcDbEntity
  8
LEVEL001
  6
Continuous
 62
     7
100
AcDbPolyline
 90
        3
 70
     0
 43
0.0
 10
415.5
 20
291.0
 10
497.5
 20
291.0
 10
497.5
 20
293.0
  0
CIRCLE
  5
17B
330
B
100
AcDbEntity
  8
LEVEL001
  6
Continuous
 62
     7
100
AcDbCircle
 10
1248.0
 20
229.5
 30
0.0
 40
5.0
  0
LINE
  5
17C
330
B
100
AcDbEntity
  8
LEVEL001
  6
Continuous
 62
     7
100
AcDbLine
 10
1312.5
 20
291.0
 30
0.0
 11
1262.2949948362
 21
219.40529234533
 31
0.0
  0
LINE
  5
17D
330
B
100
AcDbEntity
  8
LEVEL001
  6
Continuous
 62
     7
100
AcDbLine
 10
1230.5
 20
293.0
 30
0.0
 11
1230.5
 21
229.5
 31
0.0
  0
ARC
  5
17E
330
B
100
AcDbEntity
  8
LEVEL001
  6
Continuous
 62
     7
100
AcDbCircle
 10
1248.0
 20
229.5
 30
0.0
 40
17.5
100
AcDbArc
 50
180.00000000001
 51
324.77137870368
  0
ARC
  5
17F
330
B
100
AcDbEntity
  8
LEVEL001
  6
Continuous
 62
     7
100
AcDbCircle
 10
1248.0
 20
229.5
 30
0.0
 40
37.5
100
AcDbArc
 50
117.81813928465
 51
27.142386627724
  0
LWPOLYLINE
  5
180
330
B
100
AcDbEntity
  8
LEVEL001
  6
Continuous
 62
     7
100
AcDbPolyline
 90
        3
 70
     0
 43
0.0
 10
1230.5
 20
291.0
 10
1312.5
 20
291.0
 10
1312.5
 20
293.0
  0
LWPOLYLINE
  5
181
330
B
100
AcDbEntity
  8
LEVEL001
  6
Continuous
 62
     7
100
AcDbPolyline
 90
        6
 70
     1
 43
0.0
 10
506.5
 20
1227.0
 10
508.4999999999999
 20
1227.0
 10
508.4999999999999
 20
1261.0
 10
551.4999999999999
 20
1261.0
 10
551.4999999999999
 20
1263.0
 10
506.5
 20
1263.0
  0
LWPOLYLINE
  5
182
330
B
100
AcDbEntity
  8
LEVEL001
  6
Continuous
 62
     7
100
AcDbPolyline
 90
        4
 70
     1
 43
0.0
 10
506.5
 20
1228.0
 10
506.5
 20
1263.0
 10
481.5
 20
1263.0
 10
481.5
 20
1228.0
  0
LINE
  5
183
330
B
100
AcDbEntity
  8
LEVEL001
  6
Continuous
 62
     7
100
AcDbLine
 10
487.5
 20
1263.0
 30
0.0
 11
487.5
 21
1228.0
 31
0.0
  0
POINT
  5
184
330
B
100
AcDbEntity
  8
LEVEL001
 62
     7
100
AcDbPoint
 10
519.0
 20
1228.9
 30
0.0
  0
LWPOLYLINE
  5
185
330
B
100
AcDbEntity
  8
LEVEL001
  6
Continuous
 62
     7
100
AcDbPolyline
 90
        4
 70
     1
 43
0.0
 10
579.0
 20
1206.0
 10
539.0
 20
1206.0
 10
539.0
 20
1244.0
 10
579.0
 20
1244.0
  0
LWPOLYLINE
  5
186
330
B
100
AcDbEntity
  8
LEVEL001
  6
Continuous
 62
     7
100
AcDbPolyline
 90
        3
 70
     0
 43
0.0
 10
579.0
 20
1218.0
 10
559.0
 20
1218.0
 10
559.0
 20
1244.0
  0
POINT
  5
187
330
B
100
AcDbEntity
  8
LEVEL001
 62
     7
100
AcDbPoint
 10
549.0
 20
1234.0
 30
0.0
  0
POINT
  5
188
330
B
100
AcDbEntity
  8
LEVEL001
 62
     7
100
AcDbPoint
 10
549.0
 20
1230.0
 30
0.0
  0
POINT
  5
189
330
B
100
AcDbEntity
  8
LEVEL001
 62
     7
100
AcDbPoint
 10
549.0
 20
1218.0
 30
0.0
  0
POINT
  5
18A
330
B
100
AcDbEntity
  8
LEVEL001
 62
     7
100
AcDbPoint
 10
549.0
 20
1214.0
 30
0.0
  0
LWPOLYLINE
  5
18B
330
B
100
AcDbEntity
  8
LEVEL001
  6
Continuous
 62
     7
100
AcDbPolyline
 90
        3
 70
     0
 43
0.0
 10
581.0
 20
1241.0
 10
633.0
 20
1241.0
 10
633.0
 20
1225.0
  0
LINE
  5
18C
330
B
100
AcDbEntity
  8
LEVEL001
  6
Continuous
 62
     7
100
AcDbLine
 10
581.0
 20
1238.0
 30
0.0
 11
579.0
 21
1238.0
 31
0.0
  0
LINE
  5
18D
330
B
100
AcDbEntity
  8
LEVEL001
  6
Continuous
 62
     7
100
AcDbLine
 10
579.0
 20
1228.0
 30
0.0
 11
581.0
 21
1228.0
 31
0.0
  0
CIRCLE
  5
18E
330
B
100
AcDbEntity
  8
LEVEL001
  6
Continuous
 62
     7
100
AcDbCircle
 10
530.0
 20
1253.0
 30
0.0
 40
5.0
  0
LINE
  5
18F
330
B
100
AcDbEntity
  8
LEVEL001
  6
Continuous
 62
     7
100
AcDbLine
 10
510.0
 20
1208.0
 30
0.0
 11
539.0
 21
1208.0
 31
0.0
  0
LINE
  5
190
330
B
100
AcDbEntity
  8
LEVEL001
  6
HIDDEN
 62
     1
100
AcDbLine
 10
537.0
 20
1246.0
 30
0.0
 11
537.0
 21
635.0
 31
0.0
  0
CIRCLE
  5
191
330
B
100
AcDbEntity
  8
LEVEL001
  6
Continuous
 62
     7
100
AcDbCircle
 10
645.0
 20
1233.0
 30
0.0
 40
5.0
  0
LINE
  5
192
330
B
100
AcDbEntity
  8
LEVEL001
  6
Continuous
 62
     7
100
AcDbLine
 10
645.0
 20
1238.0
 30
0.0
 11
633.0
 21
1238.0
 31
0.0
  0
LINE
  5
193
330
B
100
AcDbEntity
  8
LEVEL001
  6
Continuous
 62
     7
100
AcDbLine
 10
645.0
 20
1228.0
 30
0.0
 11
633.0
 21
1228.0
 31
0.0
  0
LWPOLYLINE
  5
194
330
B
100
AcDbEntity
  8
LEVEL001
  6
Continuous
 62
     7
100
AcDbPolyline
 90
        8
 70
     0
 43
0.0
 10
864.0
 20
1223.0
 10
581.0
 20
1223.0
 10
581.0
 20
1246.0
 10
510.0
 20
1246.0
 10
510.0
 20
1248.0
 10
535.0
 20
1248.0
 10
535.0
 20
1261.0
 10
864.0
 20
1261.0
  0
POINT
  5
195
330
B
100
AcDbEntity
  8
LEVEL001
 62
     7
100
AcDbPoint
 10
1209.0
 20
1228.9
 30
0.0
  0
LWPOLYLINE
  5
196
330
B
100
AcDbEntity
  8
LEVEL001
  6
Continuous
 62
     7
100
AcDbPolyline
 90
        4
 70
     1
 43
0.0
 10
1149.0
 20
1206.0
 10
1189.0
 20
1206.0
 10
1189.0
 20
1244.0
 10
1149.0
 20
1244.0
  0
LWPOLYLINE
  5
197
330
B
100
AcDbEntity
  8
LEVEL001
  6
Continuous
 62
     7
100
AcDbPolyline
 90
        3
 70
     0
 43
0.0
 10
1149.0
 20
1218.0
 10
1169.0
 20
1218.0
 10
1169.0
 20
1244.0
  0
POINT
  5
198
330
B
100
AcDbEntity
  8
LEVEL001
 62
     7
100
AcDbPoint
 10
1179.0
 20
1234.0
 30
0.0
  0
POINT
  5
199
330
B
100
AcDbEntity
  8
LEVEL001
 62
     7
100
AcDbPoint
 10
1179.0
 20
1230.0
 30
0.0
  0
POINT
  5
19A
330
B
100
AcDbEntity
  8
LEVEL001
 62
     7
100
AcDbPoint
 10
1179.0
 20
1218.0
 30
0.0
  0
POINT
  5
19B
330
B
100
AcDbEntity
  8
LEVEL001
 62
     7
100
AcDbPoint
 10
1179.0
 20
1214.0
 30
0.0
  0
LWPOLYLINE
  5
19C
330
B
100
AcDbEntity
  8
LEVEL001
  6
Continuous
 62
     7
100
AcDbPolyline
 90
        3
 70
     0
 43
0.0
 10
1147.0
 20
1241.0
 10
1095.0
 20
1241.0
 10
1095.0
 20
1225.0
  0
LINE
  5
19D
330
B
100
AcDbEntity
  8
LEVEL001
  6
Continuous
 62
     7
100
AcDbLine
 10
1147.0
 20
1238.0
 30
0.0
 11
1149.0
 21
1238.0
 31
0.0
  0
LINE
  5
19E
330
B
100
AcDbEntity
  8
LEVEL001
  6
Continuous
 62
     7
100
AcDbLine
 10
1149.0
 20
1228.0
 30
0.0
 11
1147.0
 21
1228.0
 31
0.0
  0
CIRCLE
  5
19F
330
B
100
AcDbEntity
  8
LEVEL001
  6
Continuous
 62
     7
100
AcDbCircle
 10
1198.0
 20
1253.0
 30
0.0
 40
5.0
  0
LINE
  5
1A0
330
B
100
AcDbEntity
  8
LEVEL001
  6
Continuous
 62
     7
100
AcDbLine
 10
1218.0
 20
1208.0
 30
0.0
 11
1189.0
 21
1208.0
 31
0.0
  0
LINE
  5
1A1
330
B
100
AcDbEntity
  8
LEVEL001
  6
HIDDEN
 62
     1
100
AcDbLine
 10
1191.0
 20
1246.0
 30
0.0
 11
1191.0
 21
635.0
 31
0.0
  0
CIRCLE
  5
1A2
330
B
100
AcDbEntity
  8
LEVEL001
  6
Continuous
 62
     7
100
AcDbCircle
 10
1083.0
 20
1233.0
 30
0.0
 40
5.0
  0
LINE
  5
1A3
330
B
100
AcDbEntity
  8
LEVEL001
  6
Continuous
 62
     7
100
AcDbLine
 10
1083.0
 20
1238.0
 30
0.0
 11
1095.0
 21
1238.0
 31
0.0
  0
LINE
  5
1A4
330
B
100
AcDbEntity
  8
LEVEL001
  6
Continuous
 62
     7
100
AcDbLine
 10
1083.0
 20
1228.0
 30
0.0
 11
1095.0
 21
1228.0
 31
0.0
  0
LWPOLYLINE
  5
1A5
330
B
100
AcDbEntity
  8
LEVEL001
  6
Continuous
 62
     7
100
AcDbPolyline
 90
        8
 70
     0
 43
0.0
 10
864.0
 20
1223.0
 10
1147.0
 20
1223.0
 10
1147.0
 20
1246.0
 10
1218.0
 20
1246.0
 10
1218.0
 20
1248.0
 10
1193.0
 20
1248.0
 10
1193.0
 20
1261.0
 10
864.0
 20
1261.0
  0
LINE
  5
1A6
330
B
100
AcDbEntity
  8
LEVEL001
  6
Continuous
 62
     7
100
AcDbLine
 10
1147.0
 20
1225.0
 30
0.0
 11
864.0
 21
1225.0
 31
0.0
  0
LINE
  5
1A7
330
B
100
AcDbEntity
  8
LEVEL001
  6
Continuous
 62
     7
100
AcDbLine
 10
581.0
 20
1225.0
 30
0.0
 11
864.0
 21
1225.0
 31
0.0
  0
LINE
  5
1A8
330
B
100
AcDbEntity
  8
LEVEL001
  6
Continuous
 62
     7
100
AcDbLine
 10
1149.0
 20
1208.0
 30
0.0
 11
864.0
 21
1208.0
 31
0.0
  0
LINE
  5
1A9
330
B
100
AcDbEntity
  8
LEVEL001
  6
Continuous
 62
     7
100
AcDbLine
 10
579.0
 20
1208.0
 30
0.0
 11
864.0
 21
1208.0
 31
0.0
  0
LWPOLYLINE
  5
1AA
330
B
100
AcDbEntity
  8
LEVEL001
  6
Continuous
 62
     7
100
AcDbPolyline
 90
        4
 70
     0
 43
0.0
 10
510.0
 20
1246.0
 10
510.0
 20
1264.9
 10
543.0
 20
1264.9
 10
543.0
 20
1263.0
  0
LWPOLYLINE
  5
1AB
330
B
100
AcDbEntity
  8
LEVEL001
  6
Continuous
 62
     7
100
AcDbPolyline
 90
        4
 70
     0
 43
0.0
 10
1218.0
 20
1246.0
 10
1218.0
 20
1264.9
 10
1185.0
 20
1264.9
 10
1185.0
 20
1261.0
  0
LINE
  5
1AC
330
B
100
AcDbEntity
  8
LEVEL001
  6
Continuous
 62
     7
100
AcDbLine
 10
1218.0
 20
1246.0
 30
0.0
 11
1218.0
 21
633.4999999999999
 31
0.0
  0
LINE
  5
1AD
330
B
100
AcDbEntity
  8
LEVEL001
  6
Continuous
 62
     7
100
AcDbLine
 10
1218.0
 20
633.4999999999999
 30
0.0
 11
510.0
 21
633.4999999999999
 31
0.0
  0
LINE
  5
1AE
330
B
100
AcDbEntity
  8
LEVEL001
  6
Continuous
 62
     7
100
AcDbLine
 10
510.0
 20
1246.0
 30
0.0
 11
510.0
 21
633.4999999999999
 31
0.0
  0
LINE
  5
1AF
330
B
100
AcDbEntity
  8
LEVEL001
  6
HIDDEN
 62
     1
100
AcDbLine
 10
510.0
 20
635.0
 30
0.0
 11
1218.0
 21
635.0
 31
0.0
  0
LINE
  5
1B0
330
B
100
AcDbEntity
  8
LEVEL001
  6
Continuous
 62
     7
100
AcDbLine
 10
461.5
 20
686.0
 30
0.0
 11
510.0
 21
686.0
 31
0.0
  0
LINE
  5
1B1
330
B
100
AcDbEntity
  8
LEVEL001
  6
Continuous
 62
     7
100
AcDbLine
 10
1218.0
 20
686.0
 30
0.0
 11
1266.5
 21
686.0
 31
0.0
  0
LWPOLYLINE
  5
1B2
330
B
100
AcDbEntity
  8
LEVEL001
  6
Continuous
 62
     7
100
AcDbPolyline
 90
        6
 70
     0
 43
0.0
 10
411.5
 20
1211.0
 10
426.0
 20
1211.0
 10
426.0
 20
1151.0
 10
424.0
 20
1151.0
 10
424.0
 20
1209.0
 10
411.5
 20
1209.0
  0
LWPOLYLINE
  5
1B3
330
B
100
AcDbEntity
  8
LEVEL001
  6
Continuous
 62
     7
100
AcDbPolyline
 90
        4
 70
     1
 43
0.0
 10
428.0
 20
1211.0
 10
448.0
 20
1211.0
 10
448.0
 20
1246.0
 10
428.0
 20
1246.0
  0
LWPOLYLINE
  5
1B4
330
B
100
AcDbEntity
  8
LEVEL001
  6
Continuous
 62
     7
100
AcDbPolyline
 90
        4
 70
     1
 43
0.0
 10
426.0
 20
1151.5
 10
428.0
 20
1151.5
 10
428.0
 20
1246.0
 10
426.0
 20
1246.0
  0
LINE
  5
1B5
330
B
100
AcDbEntity
  8
LEVEL001
  6
Continuous
 62
     7
100
AcDbLine
 10
1218.0
 20
796.0
 30
0.0
 11
1316.5
 21
796.0
 31
0.0
  0
LINE
  5
1B6
330
B
100
AcDbEntity
  8
LEVEL001
  6
Continuous
 62
     7
100
AcDbLine
 10
411.5
 20
962.0
 30
0.0
 11
510.0
 21
962.0
 31
0.0
  0
LINE
  5
1B7
330
B
100
AcDbEntity
  8
LEVEL001
  6
Continuous
 62
     7
100
AcDbLine
 10
1218.0
 20
962.0
 30
0.0
 11
1316.5
 21
962.0
 31
0.0
  0
ARC
  5
1B8
330
B
100
AcDbEntity
  8
LEVEL001
  6
Continuous
 62
     7
100
AcDbCircle
 10
429.4999999999999
 20
792.9999999999799
 30
0.0
 40
10.0
100
AcDbArc
 50
14.999999999875
 51
179.99999999988
  0
INSERT
  5
1B9
330
B
100
AcDbEntity
  8
0
100
AcDbBlockReference
  2
EGF9M10
 10
429.4999999999999
 20
783.0
 30
0.0
  0
CIRCLE
  5
1BA
330
B
100
AcDbEntity
  8
LEVEL001
  6
Continuous
 62
     7
100
AcDbCircle
 10
429.4999999999999
 20
783.0
 30
0.0
 40
10.5
  0
LWPOLYLINE
  5
1BB
330
B
100
AcDbEntity
  8
LEVEL001
  6
Continuous
 62
     7
100
AcDbPolyline
 90
        5
 70
     0
 43
0.0
 10
439.1592582628899
 20
795.5881904509801
 10
441.47696790163
 20
786.9383803220099
 10
469.5
 20
783.0
 10
469.5
 20
773.0
 10
432.7015621187199
 20
773.0
  0
INSERT
  5
1BC
330
B
100
AcDbEntity
  8
0
100
AcDbBlockReference
  2
EGF21M10
 10
449.0
 20
812.0
 30
0.0
 50
90.0
  0
INSERT
  5
1BD
330
B
100
AcDbEntity
  8
0
100
AcDbBlockReference
  2
EGF11M10
 10
449.0
 20
814.0
 30
0.0
 50
90.0
  0
LINE
  5
1BE
330
B
100
AcDbEntity
  8
LEVEL001
  6
Continuous
 62
     7
100
AcDbLine
 10
469.0
 20
812.0
 30
0.0
 11
469.0
 21
796.0
 31
0.0
  0
LINE
  5
1BF
330
B
100
AcDbEntity
  8
LEVEL001
  6
Continuous
 62
     7
100
AcDbLine
 10
439.03939201417
 20
796.0
 30
0.0
 11
510.0
 21
796.0
 31
0.0
  0
LWPOLYLINE
  5
1C0
330
B
100
AcDbEntity
  8
LEVEL001
  6
Continuous
 62
     7
100
AcDbPolyline
 90
        4
 70
     0
 43
0.0
 10
510.0
 20
812.0
 10
306.0
 20
812.0
 10
306.0
 20
796.0
 10
419.9606079858299
 20
796.0
  0
LINE
  5
1C1
330
B
100
AcDbEntity
  8
LEVEL001
  6
Continuous
 62
     7
100
AcDbLine
 10
419.5
 20
793.0
 30
0.0
 11
419.5
 21
785.9206092187799
 31
0.0
  0
LINE
  5
1C2
330
B
100
AcDbEntity
  8
LEVEL001
  6
Continuous
 62
     7
100
AcDbLine
 10
461.5
 20
796.0
 30
0.0
 11
461.5
 21
784.12432667762
 31
0.0
  0
LINE
  5
1C3
330
B
100
AcDbEntity
  8
LEVEL001
  6
Continuous
 62
     7
100
AcDbLine
 10
461.5
 20
773.0
 30
0.0
 11
461.5
 21
302.0
 31
0.0
  0
LINE
  5
1C4
330
B
100
AcDbEntity
  8
LEVEL001
  6
Continuous
 62
     7
100
AcDbLine
 10
411.5
 20
812.0
 30
0.0
 11
411.5
 21
1212.0
 31
0.0
  0
LINE
  5
1C5
330
B
100
AcDbEntity
  8
LEVEL001
  6
Continuous
 62
     7
100
AcDbLine
 10
1238.0
 20
1213.18
 30
0.0
 11
1238.0
 21
1163.18
 31
0.0
  0
LWPOLYLINE
  5
1C6
330
B
100
AcDbEntity
  8
LEVEL001
  6
Continuous
 62
     7
100
AcDbPolyline
 90
        3
 70
     0
 43
0.0
 10
1218.0
 20
1213.18
 10
1218.0
 20
1188.18
 10
1238.0
 20
1188.18
  0
LWPOLYLINE
  5
1C7
330
B
100
AcDbEntity
  8
LEVEL001
  6
Continuous
 62
     7
100
AcDbPolyline
 90
        4
 70
     0
 43
0.0
 10
1218.0
 20
1163.18
 10
1244.0
 20
1163.18
 10
1244.0
 20
1213.18
 10
1218.0
 20
1213.18
  0
INSERT
  5
1C8
330
B
100
AcDbEntity
  8
0
100
AcDbBlockReference
  2
EGF11M12
 10
1228.0
 20
1213.18
 30
0.0
 50
90.0
  0
LINE
  5
1C9
330
B
100
AcDbEntity
  8
LEVEL001
  6
Continuous
 62
     7
100
AcDbLine
 10
1222.0
 20
1367.0
 30
0.0
 11
1222.0
 21
1223.18
 31
0.0
  0
LINE
  5
1CA
330
B
100
AcDbEntity
  8
LEVEL001
  6
Continuous
 62
     7
100
AcDbLine
 10
1234.0
 20
1367.0
 30
0.0
 11
1234.0
 21
1223.18
 31
0.0
  0
ARC
  5
1CB
330
B
100
AcDbEntity
  8
LEVEL001
  6
Continuous
 62
     7
100
AcDbCircle
 10
1227.0
 20
1367.0
 30
0.0
 40
5.0
100
AcDbArc
 50
90.0
 51
180.0
  0
ARC
  5
1CC
330
B
100
AcDbEntity
  8
LEVEL001
  6
Continuous
 62
     7
100
AcDbCircle
 10
1229.0
 20
1367.0
 30
0.0
 40
5.0
100
AcDbArc
 50
0.0
 51
90.0
  0
LINE
  5
1CD
330
B
100
AcDbEntity
  8
LEVEL001
  6
Continuous
 62
     7
100
AcDbLine
 10
1227.0
 20
1372.0
 30
0.0
 11
1229.0
 21
1372.0
 31
0.0
  0
LINE
  5
1CE
330
B
100
AcDbEntity
  8
LEVEL001
  6
DASHDOT
 62
     1
100
AcDbLine
 10
278.43683916084
 20
861.0
 30
0.0
 11
1452.4008671329
 21
861.0
 31
0.0
  0
LINE
  5
1CF
330
B
100
AcDbEntity
  8
LEVEL001
  6
DASHDOT
 62
     1
100
AcDbLine
 10
864.0
 20
1291.9719545455
 30
0.0
 11
864.0
 21
192.0
 31
0.0
  0
LINE
  5
1D0
330
B
100
AcDbEntity
  8
LEVEL001
  6
Continuous
 62
     7
100
AcDbLine
 10
1797.5
 20
312.0
 30
0.0
 11
2347.5
 21
312.0
 31
0.0
  0
LINE
  5
1D1
330
B
100
AcDbEntity
  8
LEVEL001
  6
Continuous
 62
     7
100
AcDbLine
 10
2257.5
 20
302.0
 30
0.0
 11
2257.5
 21
293.0
 31
0.0
  0
LINE
  5
1D2
330
B
100
AcDbEntity
  8
LEVEL001
  6
Continuous
 62
     7
100
AcDbLine
 10
2257.5
 20
293.0
 30
0.0
 11
2347.5
 21
293.0
 31
0.0
  0
LINE
  5
1D3
330
B
100
AcDbEntity
  8
LEVEL001
  6
Continuous
 62
     7
100
AcDbLine
 10
2347.5
 20
293.0
 30
0.0
 11
2347.5
 21
302.0
 31
0.0
  0
CIRCLE
  5
1D4
330
B
100
AcDbEntity
  8
LEVEL001
  6
Continuous
 62
     7
100
AcDbCircle
 10
2279.0
 20
229.5
 30
0.0
 40
5.0
  0
LINE
  5
1D5
330
B
100
AcDbEntity
  8
LEVEL001
  6
Continuous
 62
     7
100
AcDbLine
 10
2343.5
 20
291.0
 30
0.0
 11
2293.2949948362
 21
219.40529234533
 31
0.0
  0
LINE
  5
1D6
330
B
100
AcDbEntity
  8
LEVEL001
  6
Continuous
 62
     7
100
AcDbLine
 10
2261.5
 20
293.0
 30
0.0
 11
2261.5
 21
229.5
 31
0.0
  0
ARC
  5
1D7
330
B
100
AcDbEntity
  8
LEVEL001
  6
Continuous
 62
     7
100
AcDbCircle
 10
2279.0
 20
229.49999999999
 30
0.0
 40
17.5
100
AcDbArc
 50
179.99999999997
 51
324.77137870373
  0
ARC
  5
1D8
330
B
100
AcDbEntity
  8
LEVEL001
  6
Continuous
 62
     7
100
AcDbCircle
 10
2279.0
 20
229.5
 30
0.0
 40
37.5
100
AcDbArc
 50
117.81813928465
 51
27.142386627728
  0
LWPOLYLINE
  5
1D9
330
B
100
AcDbEntity
  8
LEVEL001
  6
Continuous
 62
     7
100
AcDbPolyline
 90
        3
 70
     0
 43
0.0
 10
2261.5
 20
291.0
 10
2343.5
 20
291.0
 10
2343.5
 20
293.0
  0
LINE
  5
1DA
330
B
100
AcDbEntity
  8
LEVEL001
  6
Continuous
 62
     7
100
AcDbLine
 10
1797.5
 20
302.0
 30
0.0
 11
1797.5
 21
293.0
 31
0.0
  0
LINE
  5
1DB
330
B
100
AcDbEntity
  8
LEVEL001
  6
Continuous
 62
     7
100
AcDbLine
 10
1797.5
 20
293.0
 30
0.0
 11
1887.5
 21
293.0
 31
0.0
  0
LINE
  5
1DC
330
B
100
AcDbEntity
  8
LEVEL001
  6
Continuous
 62
     7
100
AcDbLine
 10
1887.5
 20
293.0
 30
0.0
 11
1887.5
 21
302.0
 31
0.0
  0
CIRCLE
  5
1DD
330
B
100
AcDbEntity
  8
LEVEL001
  6
Continuous
 62
     7
100
AcDbCircle
 10
1819.0
 20
229.5
 30
0.0
 40
5.0
  0
LINE
  5
1DE
330
B
100
AcDbEntity
  8
LEVEL001
  6
Continuous
 62
     7
100
AcDbLine
 10
1883.5
 20
291.0
 30
0.0
 11
1833.2949948362
 21
219.40529234533
 31
0.0
  0
LINE
  5
1DF
330
B
100
AcDbEntity
  8
LEVEL001
  6
Continuous
 62
     7
100
AcDbLine
 10
1801.5
 20
293.0
 30
0.0
 11
1801.5
 21
229.5
 31
0.0
  0
ARC
  5
1E0
330
B
100
AcDbEntity
  8
LEVEL001
  6
Continuous
 62
     7
100
AcDbCircle
 10
1819.0
 20
229.50000000001
 30
0.0
 40
17.5
100
AcDbArc
 50
180.00000000002
 51
324.77137870366
  0
ARC
  5
1E1
330
B
100
AcDbEntity
  8
LEVEL001
  6
Continuous
 62
     7
100
AcDbCircle
 10
1819.0
 20
229.5
 30
0.0
 40
37.5
100
AcDbArc
 50
117.81813928465
 51
27.142386627729
  0
LWPOLYLINE
  5
1E2
330
B
100
AcDbEntity
  8
LEVEL001
  6
Continuous
 62
     7
100
AcDbPolyline
 90
        3
 70
     0
 43
0.0
 10
1801.5
 20
291.0
 10
1883.5
 20
291.0
 10
1883.5
 20
293.0
  0
LINE
  5
1E3
330
B
100
AcDbEntity
  8
LEVEL001
  6
Continuous
 62
     7
100
AcDbLine
 10
1847.5
 20
982.0
 30
0.0
 11
1847.5
 21
312.0
 31
0.0
  0
LINE
  5
1E4
330
B
100
AcDbEntity
  8
LEVEL001
  6
Continuous
 62
     7
100
AcDbLine
 10
2297.5
 20
312.0
 30
0.0
 11
2297.5
 21
982.0
 31
0.0
  0
LINE
  5
1E5
330
B
100
AcDbEntity
  8
LEVEL001
  6
Continuous
 62
     7
100
AcDbLine
 10
2347.5
 20
796.0
 30
0.0
 11
2347.5
 21
302.0
 31
0.0
  0
LINE
  5
1E6
330
B
100
AcDbEntity
  8
LEVEL001
  6
Continuous
 62
     7
100
AcDbLine
 10
1797.5
 20
302.0
 30
0.0
 11
1797.5
 21
796.0
 31
0.0
  0
LINE
  5
1E7
330
B
100
AcDbEntity
  8
LEVEL001
  6
Continuous
 62
     7
100
AcDbLine
 10
1847.5
 20
982.0
 30
0.0
 11
2297.5
 21
982.0
 31
0.0
  0
LINE
  5
1E8
330
B
100
AcDbEntity
  8
LEVEL001
  6
Continuous
 62
     7
100
AcDbLine
 10
1797.5
 20
796.0
 30
0.0
 11
1847.5
 21
796.0
 31
0.0
  0
LINE
  5
1E9
330
B
100
AcDbEntity
  8
LEVEL001
  6
Continuous
 62
     7
100
AcDbLine
 10
2297.5
 20
796.0
 30
0.0
 11
2347.5
 21
796.0
 31
0.0
  0
LINE
  5
1EA
330
B
100
AcDbEntity
  8
LEVEL001
  6
Continuous
 62
     7
100
AcDbLine
 10
2266.8
 20
982.0
 30
0.0
 11
2266.8
 21
1246.0
 31
0.0
  0
LINE
  5
1EB
330
B
100
AcDbEntity
  8
LEVEL001
  6
HIDDEN
 62
     1
100
AcDbLine
 10
2266.8
 20
861.0
 30
0.0
 11
2266.8
 21
982.0
 31
0.0
  0
LINE
  5
1EC
330
B
100
AcDbEntity
  8
LEVEL001
  6
Continuous
 62
     7
100
AcDbLine
 10
1811.8
 20
861.0
 30
0.0
 11
1811.8
 21
1246.0
 31
0.0
  0
LWPOLYLINE
  5
1ED
330
B
100
AcDbEntity
  8
LEVEL001
  6
Continuous
 62
     7
100
AcDbPolyline
 90
        4
 70
     0
 43
0.0
 10
1811.8
 20
1246.0
 10
1802.8
 20
1246.0
 10
1802.8
 20
1208.0
 10
1811.8
 20
1208.0
  0
LWPOLYLINE
  5
1EE
330
B
100
AcDbEntity
  8
LEVEL001
  6
Continuous
 62
     7
100
AcDbPolyline
 90
        4
 70
     1
 43
0.0
 10
1799.8
 20
1244.0
 10
1799.8
 20
1206.0
 10
1802.8
 20
1206.0
 10
1802.8
 20
1244.0
  0
LWPOLYLINE
  5
1EF
330
B
100
AcDbEntity
  8
LEVEL001
  6
Continuous
 62
     7
100
AcDbPolyline
 90
        4
 70
     0
 43
0.0
 10
1799.8
 20
1244.0
 10
1781.8
 20
1244.0
 10
1781.8
 20
1218.0
 10
1799.8
 20
1218.0
  0
LWPOLYLINE
  5
1F0
330
B
100
AcDbEntity
  8
LEVEL001
  6
Continuous
 62
     7
100
AcDbPolyline
 90
        4
 70
     0
 43
0.0
 10
1781.8
 20
1238.0
 10
1767.8
 20
1238.0
 10
1767.8
 20
1228.0
 10
1781.8
 20
1228.0
  0
LWPOLYLINE
  5
1F1
330
B
100
AcDbEntity
  8
LEVEL001
  6
Continuous
 62
     7
100
AcDbPolyline
 90
        4
 70
     0
 43
0.0
 10
2266.8
 20
1246.0
 10
2275.8
 20
1246.0
 10
2275.8
 20
1208.0
 10
2266.8
 20
1208.0
  0
LWPOLYLINE
  5
1F2
330
B
100
AcDbEntity
  8
LEVEL001
  6
Continuous
 62
     7
100
AcDbPolyline
 90
        4
 70
     0
 43
0.0
 10
2275.8
 20
1258.0
 10
2257.8
 20
1258.0
 10
2257.8
 20
1248.0
 10
2275.8
 20
1248.0
  0
LWPOLYLINE
  5
1F3
330
B
100
AcDbEntity
  8
LEVEL001
  6
Continuous
 62
     7
100
AcDbPolyline
 90
        4
 70
     0
 43
0.0
 10
2287.8
 20
1258.0
 10
2294.8
 20
1255.4522083602
 10
2294.8
 20
1250.5477916398
 10
2287.8
 20
1248.0
  0
LWPOLYLINE
  5
1F4
330
B
100
AcDbEntity
  8
LEVEL001
  6
Continuous
 62
     7
100
AcDbPolyline
 90
        4
 70
     1
 43
0.0
 10
2275.8
 20
1217.18
 10
2287.8
 20
1217.18
 10
2287.8
 20
1264.18
 10
2275.8
 20
1264.18
  0
LWPOLYLINE
  5
1F5
330
B
100
AcDbEntity
  8
LEVEL001
  6
Continuous
 62
     7
100
AcDbPolyline
 90
        4
 70
     0
 43
0.0
 10
1845.0
 20
948.2499999999999
 10
1833.5
 20
948.2499999999999
 10
1833.5
 20
915.75
 10
1845.0
 20
915.75
  0
LWPOLYLINE
  5
1F6
330
B
100
AcDbEntity
  8
LEVEL001
  6
Continuous
 62
     7
100
AcDbPolyline
 90
        4
 70
     0
 43
0.0
 10
1833.5
 20
944.5
 10
1827.5
 20
944.5
 10
1827.5
 20
919.5
 10
1833.5
 20
919.5
  0
LWPOLYLINE
  5
1F7
330
B
100
AcDbEntity
  8
LEVEL001
  6
Continuous
 62
     7
100
AcDbPolyline
 90
        4
 70
     0
 43
0.0
 10
1847.5
 20
959.5
 10
1845.0
 20
959.5
 10
1845.0
 20
914.4999999999999
 10
1847.5
 20
914.4999999999999
  0
LINE
  5
1F8
330
B
100
AcDbEntity
  8
LEVEL001
  6
Continuous
 62
     7
100
AcDbLine
 10
1813.3
 20
861.0
 30
0.0
 11
1813.3
 21
1246.0
 31
0.0
  0
LINE
  5
1F9
330
B
100
AcDbEntity
  8
LEVEL001
  6
Continuous
 62
     7
100
AcDbLine
 10
2243.3
 20
1373.18
 30
0.0
 11
2245.3
 21
1373.18
 31
0.0
  0
LINE
  5
1FA
330
B
100
AcDbEntity
  8
LEVEL001
  6
Continuous
 62
     7
100
AcDbLine
 10
2238.3
 20
1368.18
 30
0.0
 11
2238.3
 21
1223.18
 31
0.0
  0
LINE
  5
1FB
330
B
100
AcDbEntity
  8
LEVEL001
  6
Continuous
 62
     7
100
AcDbLine
 10
2250.300000000001
 20
1368.18
 30
0.0
 11
2250.300000000001
 21
1223.18
 31
0.0
  0
ARC
  5
1FC
330
B
100
AcDbEntity
  8
LEVEL001
  6
Continuous
 62
     7
100
AcDbCircle
 10
2243.3
 20
1368.18
 30
0.0
 40
5.0
100
AcDbArc
 50
90.0
 51
179.99999999979
  0
ARC
  5
1FD
330
B
100
AcDbEntity
  8
LEVEL001
  6
Continuous
 62
     7
100
AcDbCircle
 10
2245.3
 20
1368.18
 30
0.0
 40
5.0
100
AcDbArc
 50
0.0
 51
90.00000000020801
  0
INSERT
  5
1FE
330
B
100
AcDbEntity
  8
0
100
AcDbBlockReference
  2
EGF11M12
 10
2244.3
 20
1213.18
 30
0.0
 50
90.0
  0
LWPOLYLINE
  5
1FF
330
B
100
AcDbEntity
  8
LEVEL001
  6
Continuous
 62
     7
100
AcDbPolyline
 90
        3
 70
     0
 43
0.0
 10
2234.300000000001
 20
1213.18
 10
2234.300000000001
 20
1188.18
 10
2254.3
 20
1188.18
  0
LWPOLYLINE
  5
200
330
B
100
AcDbEntity
  8
LEVEL001
  6
Continuous
 62
     7
100
AcDbPolyline
 90
        5
 70
     0
 43
0.0
 10
2235.3
 20
1188.18
 10
2235.3
 20
1163.18
 10
2260.3
 20
1163.18
 10
2260.3
 20
1213.18
 10
2234.300000000001
 20
1213.18
  0
LINE
  5
201
330
B
100
AcDbEntity
  8
LEVEL001
  6
Continuous
 62
     7
100
AcDbLine
 10
2254.3
 20
1213.18
 30
0.0
 11
2254.3
 21
1163.18
 31
0.0
  0
LINE
  5
202
330
B
100
AcDbEntity
  8
LEVEL001
  6
HIDDEN
 62
     1
100
AcDbLine
 10
2265.3
 20
861.0
 30
0.0
 11
2265.3
 21
982.0
 31
0.0
  0
LINE
  5
203
330
B
100
AcDbEntity
  8
LEVEL001
  6
Continuous
 62
     7
100
AcDbLine
 10
2265.3
 20
982.0
 30
0.0
 11
2265.3
 21
1246.0
 31
0.0
  0
LWPOLYLINE
  5
204
330
B
100
AcDbEntity
  8
LEVEL001
  6
Continuous
 62
     7
100
AcDbPolyline
 90
        3
 70
     0
 43
0.0
 10
2250.300000000001
 20
1261.0
 10
2272.8
 20
1261.0
 10
2272.8
 20
1258.0
  0
LINE
  5
205
330
B
100
AcDbEntity
  8
LEVEL001
  6
Continuous
 62
     7
100
AcDbLine
 10
2272.8
 20
1248.0
 30
0.0
 11
2250.300000000001
 21
1248.0
 31
0.0
  0
LWPOLYLINE
  5
206
330
B
100
AcDbEntity
  8
LEVEL001
  6
Continuous
 62
     7
100
AcDbPolyline
 90
        3
 70
     0
 43
0.0
 10
2272.8
 20
1248.0
 10
2272.8
 20
1246.0
 10
2250.300000000001
 20
1246.0
  0
LWPOLYLINE
  5
207
330
B
100
AcDbEntity
  8
LEVEL001
  6
Continuous
 62
     7
100
AcDbPolyline
 90
        3
 70
     0
 43
0.0
 10
1800.8
 20
1244.0
 10
1800.8
 20
1261.0
 10
2238.3
 20
1261.0
  0
LINE
  5
208
330
B
100
AcDbEntity
  8
LEVEL001
  6
Continuous
 62
     7
100
AcDbLine
 10
2238.3
 20
1248.0
 30
0.0
 11
1800.8
 21
1248.0
 31
0.0
  0
LWPOLYLINE
  5
209
330
B
100
AcDbEntity
  8
LEVEL001
  6
Continuous
 62
     7
100
AcDbPolyline
 90
        3
 70
     0
 43
0.0
 10
2238.3
 20
1246.0
 10
1802.8
 20
1246.0
 10
1802.8
 20
1244.0
  0
LINE
  5
20A
330
B
100
AcDbEntity
  8
LEVEL001
  6
HIDDEN
 62
     1
100
AcDbLine
 10
1797.5
 20
532.0
 30
0.0
 11
2347.5
 21
686.0
 31
0.0
  0
LINE
  5
20B
330
B
100
AcDbEntity
  8
LEVEL001
  6
Continuous
 62
     7
100
AcDbLine
 10
1797.5
 20
533.0
 30
0.0
 11
1796.5
 21
533.0
 31
0.0
  0
LINE
  5
20C
330
B
100
AcDbEntity
  8
LEVEL001
  6
Continuous
 62
     7
100
AcDbLine
 10
1796.5
 20
533.0
 30
0.0
 11
1796.5
 21
302.0
 31
0.0
  0
LINE
  5
20D
330
B
100
AcDbEntity
  8
LEVEL001
  6
Continuous
 62
     7
100
AcDbLine
 10
1796.5
 20
302.0
 30
0.0
 11
2347.5
 21
302.0
 31
0.0
  0
LINE
  5
20E
330
B
100
AcDbEntity
  8
LEVEL001
  6
DASHDOT
 62
     1
100
AcDbLine
 10
1764.7965025293
 20
861.0
 30
0.0
 11
2347.5
 21
861.0
 31
0.0
  0
LINE
  5
20F
330
B
100
AcDbEntity
  8
LEVEL001
  6
DASHDOT
 62
     1
100
AcDbLine
 10
2039.3
 20
1289.941273976
 30
0.0
 11
2039.3
 21
192.0
 31
0.0
  0
INSERT
  5
210
330
B
100
AcDbEntity
  8
0
100
AcDbBlockReference
  2
EGF21M10
 10
1817.5
 20
812.0
 30
0.0
 42
-1.0
 50
90.0
  0
INSERT
  5
211
330
B
100
AcDbEntity
  8
0
100
AcDbBlockReference
  2
EGF11M10
 10
1817.5
 20
814.0
 30
0.0
 42
-1.0
 50
90.0
  0
INSERT
  5
212
330
B
100
AcDbEntity
  8
0
100
AcDbBlockReference
  2
EGF21M10
 10
1797.5
 20
783.0
 30
0.0
 42
-1.0
 50
180.0
  0
INSERT
  5
213
330
B
100
AcDbEntity
  8
0
100
AcDbBlockReference
  2
EGF21M10
 10
1795.5
 20
783.0
 30
0.0
 42
-1.0
 50
180.0
  0
LWPOLYLINE
  5
214
330
B
100
AcDbEntity
  8
LEVEL001
  6
Continuous
 62
     7
100
AcDbPolyline
 90
        4
 70
     1
 43
0.0
 10
1793.5
 20
773.0
 10
1784.5
 20
773.0
 10
1784.5
 20
803.0
 10
1793.5
 20
803.0
  0
LINE
  5
215
330
B
100
AcDbEntity
  8
LEVEL001
  6
Continuous
 62
     7
100
AcDbLine
 10
1784.5
 20
786.9383803220099
 30
0.0
 11
1793.5
 21
786.9383803220099
 31
0.0
  0
LINE
  5
216
330
B
100
AcDbEntity
  8
LEVEL001
  6
Continuous
 62
     7
100
AcDbLine
 10
1784.5
 20
783.00000000001
 30
0.0
 11
1793.5
 21
783.00000000001
 31
0.0
  0
INSERT
  5
217
330
B
100
AcDbEntity
  8
0
100
AcDbBlockReference
  2
EGF21M10
 10
1784.5
 20
783.0
 30
0.0
 42
-1.0
 50
180.0
  0
INSERT
  5
218
330
B
100
AcDbEntity
  8
0
100
AcDbBlockReference
  2
EGF11M10
 10
1782.5
 20
783.0
 30
0.0
 42
-1.0
 50
180.0
  0
LWPOLYLINE
  5
219
330
B
100
AcDbEntity
  8
LEVEL001
  6
Continuous
 62
     7
100
AcDbPolyline
 90
        4
 70
     0
 43
0.0
 10
1774.5
 20
788.0
 10
1773.5
 20
788.0
 10
1773.5
 20
778.0
 10
1774.5
 20
778.0
  0
LWPOLYLINE
  5
21A
330
B
100
AcDbEntity
  8
LEVEL001
  6
Continuous
 62
     7
100
AcDbPolyline
 90
        3
 70
     0
 43
0.0
 10
1847.5
 20
812.0
 10
1797.5
 20
812.0
 10
1797.5
 20
796.0
  0
ARC
  5
21B
330
B
100
AcDbEntity
  8
LEVEL001
  6
Continuous
 62
     7
100
AcDbCircle
 10
2039.3
 20
861.0
 30
0.0
 40
226.0
100
AcDbArc
 50
180.0
 51
189.97260840177
  0
ARC
  5
21C
330
B
100
AcDbEntity
  8
LEVEL001
  6
Continuous
 62
     7
100
AcDbCircle
 10
2039.3
 20
861.0
 30
0.0
 40
227.5
100
AcDbArc
 50
180.0
 51
189.86492933583
  0
ARC
  5
21D
330
B
100
AcDbEntity
  8
LEVEL001
  6
HIDDEN
 62
     1
100
AcDbCircle
 10
2039.3
 20
861.0
 30
0.0
 40
226.0
100
AcDbArc
 50
189.97260840177
 51
0.0
  0
ARC
  5
21E
330
B
100
AcDbEntity
  8
LEVEL001
  6
HIDDEN
 62
     1
100
AcDbCircle
 10
2039.3
 20
861.00000000001
 30
0.0
 40
227.5
100
AcDbArc
 50
189.86492933583
 51
0.0
  0
LINE
  5
21F
330
B
100
AcDbEntity
  8
LEVEL001
  6
Continuous
 62
     7
100
AcDbLine
 10
296.5
 20
192.0
 30
0.0
 11
1422.5
 21
192.0
 31
0.0
  0
LINE
  5
220
330
B
100
AcDbEntity
  8
LEVEL001
  6
Continuous
 62
     7
100
AcDbLine
 10
2347.5
 20
192.0
 30
0.0
 11
1797.5
 21
192.0
 31
0.0
  0
LINE
  5
221
330
B
100
AcDbEntity
  8
LEVEL001
  6
Continuous
 62
     7
100
AcDbLine
 10
1316.5
 20
2130.0
 30
0.0
 11
1422.5
 21
2130.0
 31
0.0
  0
LINE
  5
222
330
B
100
AcDbEntity
  8
LEVEL001
  6
Continuous
 62
     7
100
AcDbLine
 10
1422.5
 20
2130.0
 30
0.0
 11
1422.5
 21
1680.0
 31
0.0
  0
LINE
  5
223
330
B
100
AcDbEntity
  8
LEVEL001
  6
Continuous
 62
     7
100
AcDbLine
 10
1422.5
 20
1680.0
 30
0.0
 11
1316.5
 21
1680.0
 31
0.0
  0
LINE
  5
224
330
B
100
AcDbEntity
  8
LEVEL001
  6
Continuous
 62
     7
100
AcDbLine
 10
411.5
 20
2130.0
 30
0.0
 11
296.5
 21
2130.0
 31
0.0
  0
LINE
  5
225
330
B
100
AcDbEntity
  8
LEVEL001
  6
Continuous
 62
     7
100
AcDbLine
 10
296.5
 20
2130.0
 30
0.0
 11
296.5
 21
1680.0
 31
0.0
  0
LINE
  5
226
330
B
100
AcDbEntity
  8
LEVEL001
  6
Continuous
 62
     7
100
AcDbLine
 10
296.5
 20
1680.0
 30
0.0
 11
411.5
 21
1680.0
 31
0.0
  0
LINE
  5
227
330
B
100
AcDbEntity
  8
LEVEL001
  6
Continuous
 62
     7
100
AcDbLine
 10
411.5
 20
2180.0
 30
0.0
 11
461.5
 21
2180.0
 31
0.0
  0
LINE
  5
228
330
B
100
AcDbEntity
  8
LEVEL001
  6
Continuous
 62
     7
100
AcDbLine
 10
1266.5
 20
2180.0
 30
0.0
 11
1316.5
 21
2180.0
 31
0.0
  0
LINE
  5
229
330
B
100
AcDbEntity
  8
LEVEL001
  6
Continuous
 62
     7
100
AcDbLine
 10
1316.5
 20
2180.0
 30
0.0
 11
1316.5
 21
1600.0
 31
0.0
  0
LINE
  5
22A
330
B
100
AcDbEntity
  8
LEVEL001
  6
Continuous
 62
     7
100
AcDbLine
 10
1316.5
 20
1600.0
 30
0.0
 11
1266.5
 21
1600.0
 31
0.0
  0
LINE
  5
22B
330
B
100
AcDbEntity
  8
LEVEL001
  6
Continuous
 62
     7
100
AcDbLine
 10
461.5
 20
2180.0
 30
0.0
 11
1266.5
 21
2180.0
 31
0.0
  0
LINE
  5
22C
330
B
100
AcDbEntity
  8
LEVEL001
  6
DASHDOT
 62
     1
100
AcDbLine
 10
864.0
 20
2111.8
 30
0.0
 11
864.0
 21
1610.8
 31
0.0
  0
LWPOLYLINE
  5
22D
330
B
100
AcDbEntity
  8
LEVEL001
  6
Continuous
 62
     7
100
AcDbPolyline
 90
        4
 70
     0
 43
0.0
 10
307.0
 20
1680.0
 10
307.0
 20
1678.5
 10
402.0
 20
1678.5
 10
402.0
 20
1680.0
  0
LWPOLYLINE
  5
22E
330
B
100
AcDbEntity
  8
LEVEL001
  6
Continuous
 62
     7
100
AcDbPolyline
 90
        8
 70
     1
 43
0.0
 10
323.0
 20
1678.5
 10
323.0
 20
1674.5
 10
326.0
 20
1674.5
 10
326.0
 20
1671.5
 10
383.0
 20
1671.5
 10
383.0
 20
1674.5
 10
386.0
 20
1674.5
 10
386.0
 20
1678.5
  0
LWPOLYLINE
  5
22F
330
B
100
AcDbEntity
  8
LEVEL001
  6
Continuous
 62
     7
100
AcDbPolyline
 90
        4
 70
     0
 43
0.0
 10
352.0
 20
1671.5
 10
352.0
 20
1660.5
 10
357.0
 20
1660.5
 10
357.0
 20
1671.5
  0
LWPOLYLINE
  5
230
330
B
100
AcDbEntity
  8
LEVEL001
  6
Continuous
 62
     7
100
AcDbPolyline
 90
        4
 70
     0
 43
0.0
 10
352.5
 20
1671.5
 10
352.5
 20
1661.5
 10
356.5
 20
1661.5
 10
356.5
 20
1671.5
  0
LINE
  5
231
330
B
100
AcDbEntity
  8
LEVEL001
  6
Continuous
 62
     7
100
AcDbLine
 10
354.0
 20
1671.5
 30
0.0
 11
354.0
 21
1660.5
 31
0.0
  0
LINE
  5
232
330
B
100
AcDbEntity
  8
LEVEL001
  6
Continuous
 62
     7
100
AcDbLine
 10
355.0
 20
1660.5
 30
0.0
 11
355.0
 21
1671.5
 31
0.0
  0
LINE
  5
233
330
B
100
AcDbEntity
  8
LEVEL001
  6
Continuous
 62
     7
100
AcDbLine
 10
352.5
 20
1661.5
 30
0.0
 11
352.0
 21
1660.5
 31
0.0
  0
LINE
  5
234
330
B
100
AcDbEntity
  8
LEVEL001
  6
Continuous
 62
     7
100
AcDbLine
 10
356.5
 20
1661.5
 30
0.0
 11
357.0
 21
1660.5
 31
0.0
  0
LWPOLYLINE
  5
235
330
B
100
AcDbEntity
  8
LEVEL001
  6
Continuous
 62
     7
100
AcDbPolyline
 90
        3
 70
     0
 43
0.0
 10
341.5
 20
1671.5
 10
341.5
 20
1670.5
 10
352.0
 20
1670.5
  0
LWPOLYLINE
  5
236
330
B
100
AcDbEntity
  8
LEVEL001
  6
Continuous
 62
     7
100
AcDbPolyline
 90
        3
 70
     0
 43
0.0
 10
357.0
 20
1670.5
 10
367.5
 20
1670.5
 10
367.5
 20
1671.5
  0
LWPOLYLINE
  5
237
330
B
100
AcDbEntity
  8
LEVEL001
  6
Continuous
 62
     7
100
AcDbPolyline
 90
        6
 70
     0
 43
0.0
 10
352.0
 20
1669.0
 10
343.0
 20
1669.0
 10
343.0
 20
1659.0
 10
366.0
 20
1659.0
 10
366.0
 20
1669.0
 10
357.0
 20
1669.0
  0
LINE
  5
238
330
B
100
AcDbEntity
  8
LEVEL001
  6
Continuous
 62
     7
100
AcDbLine
 10
326.0
 20
1674.5
 30
0.0
 11
383.0
 21
1674.5
 31
0.0
  0
LWPOLYLINE
  5
239
330
B
100
AcDbEntity
  8
LEVEL001
  6
Continuous
 62
     7
100
AcDbPolyline
 90
        4
 70
     0
 43
0.0
 10
343.0
 20
1659.0
 10
346.5
 20
1658.5
 10
362.5
 20
1658.5
 10
366.0
 20
1659.0
  0
LINE
  5
23A
330
B
100
AcDbEntity
  8
LEVEL001
  6
Continuous
 62
     7
100
AcDbLine
 10
341.5
 20
1670.5
 30
0.0
 11
343.0
 21
1669.0
 31
0.0
  0
LWPOLYLINE
  5
23B
330
B
100
AcDbEntity
  8
LEVEL001
  6
Continuous
 62
     7
100
AcDbPolyline
 90
        3
 70
     0
 43
0.0
 10
318.25
 20
1678.5
 10
318.25
 20
1668.5
 10
343.0
 20
1668.5
  0
LWPOLYLINE
  5
23C
330
B
100
AcDbEntity
  8
LEVEL001
  6
Continuous
 62
     7
100
AcDbPolyline
 90
        3
 70
     0
 43
0.0
 10
322.0
 20
1668.5
 10
322.0
 20
1662.5
 10
343.0
 20
1662.5
  0
LINE
  5
23D
330
B
100
AcDbEntity
  8
LEVEL001
  6
Continuous
 62
     7
100
AcDbLine
 10
366.0
 20
1669.0
 30
0.0
 11
367.5
 21
1670.5
 31
0.0
  0
LWPOLYLINE
  5
23E
330
B
100
AcDbEntity
  8
LEVEL001
  6
Continuous
 62
     7
100
AcDbPolyline
 90
        3
 70
     0
 43
0.0
 10
390.75
 20
1678.5
 10
390.75
 20
1668.5
 10
366.0
 20
1668.5
  0
LWPOLYLINE
  5
23F
330
B
100
AcDbEntity
  8
LEVEL001
  6
Continuous
 62
     7
100
AcDbPolyline
 90
        3
 70
     0
 43
0.0
 10
387.0
 20
1668.5
 10
387.0
 20
1662.5
 10
366.0
 20
1662.5
  0
INSERT
  5
240
330
B
100
AcDbEntity
  8
0
100
AcDbBlockReference
  2
EGF7M10
 10
446.0
 20
1620.0
 30
0.0
  0
CIRCLE
  5
241
330
B
100
AcDbEntity
  8
LEVEL001
  6
Continuous
 62
     7
100
AcDbCircle
 10
446.0
 20
1620.0
 30
0.0
 40
10.5
  0
INSERT
  5
242
330
B
100
AcDbEntity
  8
0
100
AcDbBlockReference
  2
EGF21M10
 10
426.4999999999999
 20
1596.0
 30
0.0
 50
90.0
  0
INSERT
  5
243
330
B
100
AcDbEntity
  8
0
100
AcDbBlockReference
  2
EGF21M10
 10
426.4999999999999
 20
1598.0
 30
0.0
 50
90.0
  0
INSERT
  5
244
330
B
100
AcDbEntity
  8
0
100
AcDbBlockReference
  2
EGF21M10
 10
426.4999999999999
 20
1585.0
 30
0.0
 50
90.0
  0
INSERT
  5
245
330
B
100
AcDbEntity
  8
0
100
AcDbBlockReference
  2
EGF11M10
 10
426.4999999999999
 20
1585.0
 30
0.0
 42
-1.0
 50
270.0
  0
LWPOLYLINE
  5
246
330
B
100
AcDbEntity
  8
LEVEL001
  6
Continuous
 62
     7
100
AcDbPolyline
 90
        4
 70
     1
 43
0.0
 10
466.5
 20
1596.0
 10
416.5
 20
1596.0
 10
416.5
 20
1587.0
 10
466.5
 20
1587.0
  0
LWPOLYLINE
  5
247
330
B
100
AcDbEntity
  8
LEVEL001
  6
Continuous
 62
     7
100
AcDbPolyline
 90
        4
 70
     0
 43
0.0
 10
421.4999999999999
 20
1577.0
 10
421.4999999999999
 20
1576.0
 10
431.5
 20
1576.0
 10
431.5
 20
1577.0
  0
LINE
  5
248
330
B
100
AcDbEntity
  8
LEVEL001
  6
Continuous
 62
     7
100
AcDbLine
 10
438.47696790163
 20
1596.0
 30
0.0
 11
438.47696790163
 21
1587.0
 31
0.0
  0
LINE
  5
249
330
B
100
AcDbEntity
  8
LEVEL001
  6
Continuous
 62
     7
100
AcDbLine
 10
449.5
 20
1600.0
 30
0.0
 11
461.5
 21
1600.0
 31
0.0
  0
POINT
  5
24A
330
B
100
AcDbEntity
  8
LEVEL001
 62
     7
100
AcDbPoint
 10
446.0
 20
1620.0
 30
0.0
  0
ARC
  5
24B
330
B
100
AcDbEntity
  8
LEVEL001
  6
Continuous
 62
     7
100
AcDbCircle
 10
446.00000000001
 20
1620.0
 30
0.0
 40
20.0
100
AcDbArc
 50
269.99999999998
 51
44.427004000831
  0
ARC
  5
24C
330
B
100
AcDbEntity
  8
LEVEL001
  6
Continuous
 62
     7
100
AcDbCircle
 10
474.5657137141799
 20
1648.0
 30
0.0
 40
20.0
100
AcDbArc
 50
90.00000000002
 51
224.42700400078
  0
LINE
  5
24D
330
B
100
AcDbEntity
  8
LEVEL001
  6
Continuous
 62
     7
100
AcDbLine
 10
399.0
 20
1622.0
 30
0.0
 11
309.37549105844
 21
1613.9720863866
 31
0.0
  0
ARC
  5
24E
330
B
100
AcDbEntity
  8
LEVEL001
  6
Continuous
 62
     7
100
AcDbCircle
 10
310.0
 20
1607.0
 30
0.0
 40
7.0
100
AcDbArc
 50
90.0
 51
270.0
  0
LINE
  5
24F
330
B
100
AcDbEntity
  8
LEVEL001
  6
Continuous
 62
     7
100
AcDbLine
 10
487.0
 20
1668.0
 30
0.0
 11
474.56571371417
 21
1668.0
 31
0.0
  0
LWPOLYLINE
  5
250
330
B
100
AcDbEntity
  8
LEVEL001
  6
Continuous
 62
     7
100
AcDbPolyline
 90
        4
 70
     0
 43
0.0
 10
535.5
 20
1644.3
 10
535.5
 20
1643.3
 10
575.4999999999999
 20
1643.3
 10
575.4999999999999
 20
1644.3
  0
LWPOLYLINE
  5
251
330
B
100
AcDbEntity
  8
LEVEL001
  6
Continuous
 62
     7
100
AcDbPolyline
 90
        4
 70
     0
 43
0.0
 10
555.4999999999999
 20
1643.3
 10
555.4999999999999
 20
1625.3
 10
575.4999999999999
 20
1625.3
 10
575.4999999999999
 20
1643.3
  0
ARC
  5
252
330
B
100
AcDbEntity
  8
LEVEL001
  6
Continuous
 62
     7
100
AcDbCircle
 10
636.5
 20
1631.3
 30
0.0
 40
10.0
100
AcDbArc
 50
0.0
 51
90.0
  0
LINE
  5
253
330
B
100
AcDbEntity
  8
LEVEL001
  6
Continuous
 62
     7
100
AcDbLine
 10
636.5
 20
1641.3
 30
0.0
 11
629.4999999999999
 21
1641.3
 31
0.0
  0
LWPOLYLINE
  5
254
330
B
100
AcDbEntity
  8
LEVEL001
  6
Continuous
 62
     7
100
AcDbPolyline
 90
        4
 70
     0
 43
0.0
 10
577.5
 20
1644.3
 10
577.5
 20
1628.3
 10
629.4999999999999
 20
1628.3
 10
629.4999999999999
 20
1644.3
  0
LINE
  5
255
330
B
100
AcDbEntity
  8
LEVEL001
  6
Continuous
 62
     7
100
AcDbLine
 10
636.5
 20
1631.3
 30
0.0
 11
629.4999999999999
 21
1631.3
 31
0.0
  0
LWPOLYLINE
  5
256
330
B
100
AcDbEntity
  8
LEVEL001
  6
Continuous
 62
     7
100
AcDbPolyline
 90
        4
 70
     0
 43
0.0
 10
636.5
 20
1631.3
 10
636.5
 20
1611.3
 10
646.4999999999999
 20
1611.3
 10
646.4999999999999
 20
1631.3
  0
LINE
  5
257
330
B
100
AcDbEntity
  8
LEVEL001
  6
Continuous
 62
     7
100
AcDbLine
 10
629.4999999999999
 20
1628.3
 30
0.0
 11
636.5
 21
1628.3
 31
0.0
  0
LWPOLYLINE
  5
258
330
B
100
AcDbEntity
  8
LEVEL001
  6
Continuous
 62
     7
100
AcDbPolyline
 90
        4
 70
     1
 43
0.0
 10
506.5
 20
1665.8
 10
551.4999999999999
 20
1665.8
 10
551.4999999999999
 20
1727.8
 10
506.5
 20
1727.8
  0
LWPOLYLINE
  5
259
330
B
100
AcDbEntity
  8
LEVEL001
  6
Continuous
 62
     7
100
AcDbPolyline
 90
        8
 70
     1
 43
0.0
 10
506.5
 20
1666.8
 10
487.5
 20
1666.8
 10
487.5
 20
1676.8
 10
481.5
 20
1676.8
 10
481.5
 20
1716.8
 10
487.5
 20
1716.8
 10
487.5
 20
1726.8
 10
506.5
 20
1726.8
  0
LINE
  5
25A
330
B
100
AcDbEntity
  8
LEVEL001
  6
Continuous
 62
     7
100
AcDbLine
 10
577.5
 20
1641.3
 30
0.0
 11
575.4999999999999
 21
1641.3
 31
0.0
  0
LINE
  5
25B
330
B
100
AcDbEntity
  8
LEVEL001
  6
Continuous
 62
     7
100
AcDbLine
 10
575.4999999999999
 20
1631.3
 30
0.0
 11
577.5
 21
1631.3
 31
0.0
  0
LINE
  5
25C
330
B
100
AcDbEntity
  8
LEVEL001
  6
Continuous
 62
     7
100
AcDbLine
 10
531.5
 20
1665.8
 30
0.0
 11
531.5
 21
1644.3
 31
0.0
  0
LWPOLYLINE
  5
25D
330
B
100
AcDbEntity
  8
LEVEL001
  6
Continuous
 62
     7
100
AcDbPolyline
 90
        3
 70
     0
 43
0.0
 10
510.0
 20
1665.8
 10
510.0
 20
1646.3
 10
510.5
 20
1646.3
  0
LWPOLYLINE
  5
25E
330
B
100
AcDbEntity
  8
LEVEL001
  6
Continuous
 62
     7
100
AcDbPolyline
 90
        4
 70
     1
 43
0.0
 10
542.0
 20
2108.3
 10
510.0
 20
2108.3
 10
510.0
 20
2120.3
 10
542.0
 20
2120.3
  0
LWPOLYLINE
  5
25F
330
B
100
AcDbEntity
  8
LEVEL001
  6
Continuous
 62
     7
100
AcDbPolyline
 90
        4
 70
     0
 43
0.0
 10
531.5
 20
2108.3
 10
531.5
 20
2090.3
 10
521.4999999999999
 20
2090.3
 10
521.4999999999999
 20
2108.3
  0
LWPOLYLINE
  5
260
330
B
100
AcDbEntity
  8
LEVEL001
  6
Continuous
 62
     7
100
AcDbPolyline
 90
        4
 70
     0
 43
0.0
 10
531.5
 20
2120.3
 10
528.9522083601799
 20
2127.3
 10
524.04779163982
 20
2127.3
 10
521.4999999999999
 20
2120.3
  0
LINE
  5
261
330
B
100
AcDbEntity
  8
LEVEL001
  6
Continuous
 62
     7
100
AcDbLine
 10
531.5
 20
2105.3
 30
0.0
 11
531.5
 21
1727.8
 31
0.0
  0
LWPOLYLINE
  5
262
330
B
100
AcDbEntity
  8
LEVEL001
  6
Continuous
 62
     7
100
AcDbPolyline
 90
        3
 70
     0
 43
0.0
 10
521.4999999999999
 20
2105.3
 10
510.5
 20
2105.3
 10
510.5
 20
1727.8
  0
LWPOLYLINE
  5
263
330
B
100
AcDbEntity
  8
LEVEL001
  6
Continuous
 62
     7
100
AcDbPolyline
 90
        4
 70
     0
 43
0.0
 10
1172.5
 20
1643.3
 10
1172.5
 20
1625.3
 10
1152.5
 20
1625.3
 10
1152.5
 20
1643.3
  0
ARC
  5
264
330
B
100
AcDbEntity
  8
LEVEL001
  6
Continuous
 62
     7
100
AcDbCircle
 10
1091.5
 20
1631.3
 30
0.0
 40
10.0
100
AcDbArc
 50
90.0
 51
180.0
  0
LINE
  5
265
330
B
100
AcDbEntity
  8
LEVEL001
  6
Continuous
 62
     7
100
AcDbLine
 10
1091.5
 20
1641.3
 30
0.0
 11
1098.5
 21
1641.3
 31
0.0
  0
LWPOLYLINE
  5
266
330
B
100
AcDbEntity
  8
LEVEL001
  6
Continuous
 62
     7
100
AcDbPolyline
 90
        4
 70
     0
 43
0.0
 10
1150.5
 20
1644.3
 10
1150.5
 20
1628.3
 10
1098.5
 20
1628.3
 10
1098.5
 20
1644.3
  0
LINE
  5
267
330
B
100
AcDbEntity
  8
LEVEL001
  6
Continuous
 62
     7
100
AcDbLine
 10
1091.5
 20
1631.3
 30
0.0
 11
1098.5
 21
1631.3
 31
0.0
  0
LWPOLYLINE
  5
268
330
B
100
AcDbEntity
  8
LEVEL001
  6
Continuous
 62
     7
100
AcDbPolyline
 90
        4
 70
     0
 43
0.0
 10
1091.5
 20
1631.3
 10
1091.5
 20
1611.3
 10
1081.5
 20
1611.3
 10
1081.5
 20
1631.3
  0
LINE
  5
269
330
B
100
AcDbEntity
  8
LEVEL001
  6
Continuous
 62
     7
100
AcDbLine
 10
1098.5
 20
1628.3
 30
0.0
 11
1091.5
 21
1628.3
 31
0.0
  0
LINE
  5
26A
330
B
100
AcDbEntity
  8
LEVEL001
  6
Continuous
 62
     7
100
AcDbLine
 10
1150.5
 20
1641.3
 30
0.0
 11
1152.5
 21
1641.3
 31
0.0
  0
LINE
  5
26B
330
B
100
AcDbEntity
  8
LEVEL001
  6
Continuous
 62
     7
100
AcDbLine
 10
1152.5
 20
1631.3
 30
0.0
 11
1150.5
 21
1631.3
 31
0.0
  0
LWPOLYLINE
  5
26C
330
B
100
AcDbEntity
  8
LEVEL001
  6
Continuous
 62
     7
100
AcDbPolyline
 90
        4
 70
     0
 43
0.0
 10
1192.5
 20
1644.3
 10
1192.5
 20
1643.3
 10
1152.5
 20
1643.3
 10
1152.5
 20
1644.3
  0
LWPOLYLINE
  5
26D
330
B
100
AcDbEntity
  8
LEVEL001
  6
Continuous
 62
     7
100
AcDbPolyline
 90
        4
 70
     1
 43
0.0
 10
1186.0
 20
2108.3
 10
1218.0
 20
2108.3
 10
1218.0
 20
2120.3
 10
1186.0
 20
2120.3
  0
LWPOLYLINE
  5
26E
330
B
100
AcDbEntity
  8
LEVEL001
  6
Continuous
 62
     7
100
AcDbPolyline
 90
        4
 70
     0
 43
0.0
 10
1196.5
 20
2108.3
 10
1196.5
 20
2090.3
 10
1206.5
 20
2090.3
 10
1206.5
 20
2108.3
  0
LWPOLYLINE
  5
26F
330
B
100
AcDbEntity
  8
LEVEL001
  6
Continuous
 62
     7
100
AcDbPolyline
 90
        4
 70
     0
 43
0.0
 10
1196.5
 20
2120.3
 10
1199.0477916398
 20
2127.3
 10
1203.9522083602
 20
2127.3
 10
1206.5
 20
2120.3
  0
LINE
  5
270
330
B
100
AcDbEntity
  8
LEVEL001
  6
Continuous
 62
     7
100
AcDbLine
 10
1196.5
 20
2105.3
 30
0.0
 11
1196.5
 21
1644.3
 31
0.0
  0
LINE
  5
271
330
B
100
AcDbEntity
  8
LEVEL001
  6
Continuous
 62
     7
100
AcDbLine
 10
646.4999999999999
 20
1628.3
 30
0.0
 11
1081.5
 21
1628.3
 31
0.0
  0
LINE
  5
272
330
B
100
AcDbEntity
  8
LEVEL001
  6
Continuous
 62
     7
100
AcDbLine
 10
1163.5
 20
1793.3
 30
0.0
 11
564.5
 21
1793.3
 31
0.0
  0
LINE
  5
273
330
B
100
AcDbEntity
  8
LEVEL001
  6
Continuous
 62
     7
100
AcDbLine
 10
1163.5
 20
1796.5
 30
0.0
 11
564.5
 21
1796.5
 31
0.0
  0
LINE
  5
274
330
B
100
AcDbEntity
  8
LEVEL001
  6
Continuous
 62
     7
100
AcDbLine
 10
1163.5
 20
1760.1
 30
0.0
 11
564.5
 21
1760.1
 31
0.0
  0
LINE
  5
275
330
B
100
AcDbEntity
  8
LEVEL001
  6
Continuous
 62
     7
100
AcDbLine
 10
1163.5
 20
1763.3
 30
0.0
 11
564.5
 21
1763.3
 31
0.0
  0
LINE
  5
276
330
B
100
AcDbEntity
  8
LEVEL001
  6
Continuous
 62
     7
100
AcDbLine
 10
1163.5
 20
1726.9
 30
0.0
 11
564.5
 21
1726.9
 31
0.0
  0
LINE
  5
277
330
B
100
AcDbEntity
  8
LEVEL001
  6
Continuous
 62
     7
100
AcDbLine
 10
1163.5
 20
1730.1
 30
0.0
 11
564.5
 21
1730.1
 31
0.0
  0
LINE
  5
278
330
B
100
AcDbEntity
  8
LEVEL001
  6
Continuous
 62
     7
100
AcDbLine
 10
1163.5
 20
1696.9
 30
0.0
 11
564.5
 21
1696.9
 31
0.0
  0
LINE
  5
279
330
B
100
AcDbEntity
  8
LEVEL001
  6
Continuous
 62
     7
100
AcDbLine
 10
1196.5
 20
2105.3
 30
0.0
 11
531.5
 21
2105.3
 31
0.0
  0
LWPOLYLINE
  5
27A
330
B
100
AcDbEntity
  8
LEVEL001
  6
Continuous
 62
     7
100
AcDbPolyline
 90
        5
 70
     0
 43
0.0
 10
1217.5
 20
1646.3
 10
1218.0
 20
1646.3
 10
1218.0
 20
2108.3
 10
510.0
 20
2108.3
 10
510.0
 20
1727.8
  0
LWPOLYLINE
  5
27B
330
B
100
AcDbEntity
  8
LEVEL001
  6
Continuous
 62
     7
100
AcDbPolyline
 90
        5
 70
     0
 43
0.0
 10
510.5
 20
1665.8
 10
510.5
 20
1644.3
 10
1217.5
 20
1644.3
 10
1217.5
 20
2105.3
 10
1206.5
 20
2105.3
  0
LINE
  5
27C
330
B
100
AcDbEntity
  8
LEVEL001
  6
Continuous
 62
     7
100
AcDbLine
 10
1163.5
 20
1859.7
 30
0.0
 11
564.5
 21
1859.7
 31
0.0
  0
LINE
  5
27D
330
B
100
AcDbEntity
  8
LEVEL001
  6
Continuous
 62
     7
100
AcDbLine
 10
1163.5
 20
1862.9
 30
0.0
 11
564.5
 21
1862.9
 31
0.0
  0
LINE
  5
27E
330
B
100
AcDbEntity
  8
LEVEL001
  6
Continuous
 62
     7
100
AcDbLine
 10
1163.5
 20
1826.5
 30
0.0
 11
564.5
 21
1826.5
 31
0.0
  0
LINE
  5
27F
330
B
100
AcDbEntity
  8
LEVEL001
  6
Continuous
 62
     7
100
AcDbLine
 10
1163.5
 20
1829.7
 30
0.0
 11
564.5
 21
1829.7
 31
0.0
  0
LINE
  5
280
330
B
100
AcDbEntity
  8
LEVEL001
  6
Continuous
 62
     7
100
AcDbLine
 10
862.4
 20
1928.7
 30
0.0
 11
862.4
 21
1694.3
 31
0.0
  0
LINE
  5
281
330
B
100
AcDbEntity
  8
LEVEL001
  6
Continuous
 62
     7
100
AcDbLine
 10
865.6
 20
1928.7
 30
0.0
 11
865.6
 21
1694.3
 31
0.0
  0
LINE
  5
282
330
B
100
AcDbEntity
  8
LEVEL001
  6
Continuous
 62
     7
100
AcDbLine
 10
567.1
 20
1928.7
 30
0.0
 11
567.1
 21
1694.3
 31
0.0
  0
LINE
  5
283
330
B
100
AcDbEntity
  8
LEVEL001
  6
Continuous
 62
     7
100
AcDbLine
 10
597.1
 20
1928.7
 30
0.0
 11
597.1
 21
1694.3
 31
0.0
  0
LINE
  5
284
330
B
100
AcDbEntity
  8
LEVEL001
  6
Continuous
 62
     7
100
AcDbLine
 10
600.3
 20
1928.7
 30
0.0
 11
600.3
 21
1694.3
 31
0.0
  0
LINE
  5
285
330
B
100
AcDbEntity
  8
LEVEL001
  6
Continuous
 62
     7
100
AcDbLine
 10
630.2999999999999
 20
1928.7
 30
0.0
 11
630.2999999999999
 21
1694.3
 31
0.0
  0
LINE
  5
286
330
B
100
AcDbEntity
  8
LEVEL001
  6
Continuous
 62
     7
100
AcDbLine
 10
633.4999999999999
 20
1928.7
 30
0.0
 11
633.4999999999999
 21
1694.3
 31
0.0
  0
LINE
  5
287
330
B
100
AcDbEntity
  8
LEVEL001
  6
Continuous
 62
     7
100
AcDbLine
 10
663.4999999999999
 20
1928.7
 30
0.0
 11
663.4999999999999
 21
1694.3
 31
0.0
  0
LINE
  5
288
330
B
100
AcDbEntity
  8
LEVEL001
  6
Continuous
 62
     7
100
AcDbLine
 10
666.7
 20
1928.7
 30
0.0
 11
666.7
 21
1694.3
 31
0.0
  0
LINE
  5
289
330
B
100
AcDbEntity
  8
LEVEL001
  6
Continuous
 62
     7
100
AcDbLine
 10
696.7
 20
1928.7
 30
0.0
 11
696.7
 21
1694.3
 31
0.0
  0
LINE
  5
28A
330
B
100
AcDbEntity
  8
LEVEL001
  6
Continuous
 62
     7
100
AcDbLine
 10
699.8999999999999
 20
1928.7
 30
0.0
 11
699.8999999999999
 21
1694.3
 31
0.0
  0
LINE
  5
28B
330
B
100
AcDbEntity
  8
LEVEL001
  6
Continuous
 62
     7
100
AcDbLine
 10
1028.1
 20
1928.7
 30
0.0
 11
1028.1
 21
1694.3
 31
0.0
  0
LINE
  5
28C
330
B
100
AcDbEntity
  8
LEVEL001
  6
Continuous
 62
     7
100
AcDbLine
 10
1031.3
 20
1928.7
 30
0.0
 11
1031.3
 21
1694.3
 31
0.0
  0
LINE
  5
28D
330
B
100
AcDbEntity
  8
LEVEL001
  6
Continuous
 62
     7
100
AcDbLine
 10
1061.3
 20
1928.7
 30
0.0
 11
1061.3
 21
1694.3
 31
0.0
  0
LINE
  5
28E
330
B
100
AcDbEntity
  8
LEVEL001
  6
Continuous
 62
     7
100
AcDbLine
 10
1064.5
 20
1928.7
 30
0.0
 11
1064.5
 21
1694.3
 31
0.0
  0
LINE
  5
28F
330
B
100
AcDbEntity
  8
LEVEL001
  6
Continuous
 62
     7
100
AcDbLine
 10
1094.5
 20
1928.7
 30
0.0
 11
1094.5
 21
1694.3
 31
0.0
  0
LINE
  5
290
330
B
100
AcDbEntity
  8
LEVEL001
  6
Continuous
 62
     7
100
AcDbLine
 10
1097.7
 20
1928.7
 30
0.0
 11
1097.7
 21
1694.3
 31
0.0
  0
LINE
  5
291
330
B
100
AcDbEntity
  8
LEVEL001
  6
Continuous
 62
     7
100
AcDbLine
 10
1127.7
 20
1928.7
 30
0.0
 11
1127.7
 21
1694.3
 31
0.0
  0
LINE
  5
292
330
B
100
AcDbEntity
  8
LEVEL001
  6
Continuous
 62
     7
100
AcDbLine
 10
1130.9
 20
1928.7
 30
0.0
 11
1130.9
 21
1694.3
 31
0.0
  0
LINE
  5
293
330
B
100
AcDbEntity
  8
LEVEL001
  6
Continuous
 62
     7
100
AcDbLine
 10
1160.9
 20
1928.7
 30
0.0
 11
1160.9
 21
1694.3
 31
0.0
  0
LINE
  5
294
330
B
100
AcDbEntity
  8
LEVEL001
  6
Continuous
 62
     7
100
AcDbLine
 10
1163.5
 20
1926.1
 30
0.0
 11
564.5
 21
1926.1
 31
0.0
  0
LINE
  5
295
330
B
100
AcDbEntity
  8
LEVEL001
  6
Continuous
 62
     7
100
AcDbLine
 10
1163.5
 20
1892.9
 30
0.0
 11
564.5
 21
1892.9
 31
0.0
  0
LINE
  5
296
330
B
100
AcDbEntity
  8
LEVEL001
  6
Continuous
 62
     7
100
AcDbLine
 10
1163.5
 20
1896.1
 30
0.0
 11
564.5
 21
1896.1
 31
0.0
  0
LWPOLYLINE
  5
297
330
B
100
AcDbEntity
  8
LEVEL001
  6
Continuous
 62
     7
100
AcDbPolyline
 90
        4
 70
     1
 43
0.0
 10
564.5
 20
1694.3
 10
1163.5
 20
1694.3
 10
1163.5
 20
1928.7
 10
564.5
 20
1928.7
  0
LINE
  5
298
330
B
100
AcDbEntity
  8
LEVEL001
  6
Continuous
 62
     7
100
AcDbLine
 10
729.2999999999999
 20
1928.7
 30
0.0
 11
729.2999999999999
 21
1694.3
 31
0.0
  0
LINE
  5
299
330
B
100
AcDbEntity
  8
LEVEL001
  6
Continuous
 62
     7
100
AcDbLine
 10
732.5
 20
1928.7
 30
0.0
 11
732.5
 21
1694.3
 31
0.0
  0
LINE
  5
29A
330
B
100
AcDbEntity
  8
LEVEL001
  6
Continuous
 62
     7
100
AcDbLine
 10
762.5
 20
1928.7
 30
0.0
 11
762.5
 21
1694.3
 31
0.0
  0
LINE
  5
29B
330
B
100
AcDbEntity
  8
LEVEL001
  6
Continuous
 62
     7
100
AcDbLine
 10
765.7
 20
1928.7
 30
0.0
 11
765.7
 21
1694.3
 31
0.0
  0
LINE
  5
29C
330
B
100
AcDbEntity
  8
LEVEL001
  6
Continuous
 62
     7
100
AcDbLine
 10
795.7
 20
1928.7
 30
0.0
 11
795.7
 21
1694.3
 31
0.0
  0
LINE
  5
29D
330
B
100
AcDbEntity
  8
LEVEL001
  6
Continuous
 62
     7
100
AcDbLine
 10
798.8999999999999
 20
1928.7
 30
0.0
 11
798.8999999999999
 21
1694.3
 31
0.0
  0
LINE
  5
29E
330
B
100
AcDbEntity
  8
LEVEL001
  6
Continuous
 62
     7
100
AcDbLine
 10
828.8999999999999
 20
1928.7
 30
0.0
 11
828.8999999999999
 21
1694.3
 31
0.0
  0
LINE
  5
29F
330
B
100
AcDbEntity
  8
LEVEL001
  6
Continuous
 62
     7
100
AcDbLine
 10
832.0999999999999
 20
1928.7
 30
0.0
 11
832.0999999999999
 21
1694.3
 31
0.0
  0
LINE
  5
2A0
330
B
100
AcDbEntity
  8
LEVEL001
  6
Continuous
 62
     7
100
AcDbLine
 10
895.8999999999999
 20
1928.7
 30
0.0
 11
895.8999999999999
 21
1694.3
 31
0.0
  0
LINE
  5
2A1
330
B
100
AcDbEntity
  8
LEVEL001
  6
Continuous
 62
     7
100
AcDbLine
 10
899.0999999999999
 20
1928.7
 30
0.0
 11
899.0999999999999
 21
1694.3
 31
0.0
  0
LINE
  5
2A2
330
B
100
AcDbEntity
  8
LEVEL001
  6
Continuous
 62
     7
100
AcDbLine
 10
929.1
 20
1928.7
 30
0.0
 11
929.1
 21
1694.3
 31
0.0
  0
LINE
  5
2A3
330
B
100
AcDbEntity
  8
LEVEL001
  6
Continuous
 62
     7
100
AcDbLine
 10
932.3
 20
1928.7
 30
0.0
 11
932.3
 21
1694.3
 31
0.0
  0
LINE
  5
2A4
330
B
100
AcDbEntity
  8
LEVEL001
  6
Continuous
 62
     7
100
AcDbLine
 10
962.2999999999999
 20
1928.7
 30
0.0
 11
962.2999999999999
 21
1694.3
 31
0.0
  0
LINE
  5
2A5
330
B
100
AcDbEntity
  8
LEVEL001
  6
Continuous
 62
     7
100
AcDbLine
 10
965.4999999999999
 20
1928.7
 30
0.0
 11
965.4999999999999
 21
1694.3
 31
0.0
  0
LINE
  5
2A6
330
B
100
AcDbEntity
  8
LEVEL001
  6
Continuous
 62
     7
100
AcDbLine
 10
995.5
 20
1928.7
 30
0.0
 11
995.5
 21
1694.3
 31
0.0
  0
LINE
  5
2A7
330
B
100
AcDbEntity
  8
LEVEL001
  6
Continuous
 62
     7
100
AcDbLine
 10
998.7
 20
1928.7
 30
0.0
 11
998.7
 21
1694.3
 31
0.0
  0
LINE
  5
2A8
330
B
100
AcDbEntity
  8
LEVEL001
  6
DASHDOT
 62
     1
100
AcDbLine
 10
269.96606554878
 20
1871.8
 30
0.0
 11
1450.6831776892
 21
1871.8
 31
0.0
  0
LINE
  5
2A9
330
B
100
AcDbEntity
  8
LEVEL001
  6
Continuous
 62
     7
100
AcDbLine
 10
461.5
 20
1972.8
 30
0.0
 11
510.0
 21
1972.8
 31
0.0
  0
LINE
  5
2AA
330
B
100
AcDbEntity
  8
LEVEL001
  6
Continuous
 62
     7
100
AcDbLine
 10
461.5
 20
1770.8
 30
0.0
 11
510.0
 21
1770.8
 31
0.0
  0
LINE
  5
2AB
330
B
100
AcDbEntity
  8
LEVEL001
  6
Continuous
 62
     7
100
AcDbLine
 10
1217.5
 20
1972.8
 30
0.0
 11
1266.5
 21
1972.8
 31
0.0
  0
LINE
  5
2AC
330
B
100
AcDbEntity
  8
LEVEL001
  6
Continuous
 62
     7
100
AcDbLine
 10
1217.5
 20
1770.8
 30
0.0
 11
1266.5
 21
1770.8
 31
0.0
  0
LINE
  5
2AD
330
B
100
AcDbEntity
  8
LEVEL001
  6
Continuous
 62
     7
100
AcDbLine
 10
461.5
 20
2180.0
 30
0.0
 11
461.5
 21
1694.4029316599
 31
0.0
  0
LINE
  5
2AE
330
B
100
AcDbEntity
  8
LEVEL001
  6
Continuous
 62
     7
100
AcDbLine
 10
461.5
 20
1663.1422298602
 30
0.0
 11
461.5
 21
1632.6392246598
 31
0.0
  0
LWPOLYLINE
  5
2AF
330
B
100
AcDbEntity
  8
LEVEL001
  6
Continuous
 62
     7
100
AcDbPolyline
 90
        4
 70
     0
 43
0.0
 10
1358.0
 20
1680.0
 10
1358.0
 20
1677.5
 10
1393.0
 20
1677.5
 10
1393.0
 20
1680.0
  0
LWPOLYLINE
  5
2B0
330
B
100
AcDbEntity
  8
LEVEL001
  6
Continuous
 62
     7
100
AcDbPolyline
 90
        4
 70
     0
 43
0.0
 10
1359.25
 20
1677.5
 10
1359.25
 20
1666.0
 10
1391.75
 20
1666.0
 10
1391.75
 20
1677.5
  0
LWPOLYLINE
  5
2B1
330
B
100
AcDbEntity
  8
LEVEL001
  6
Continuous
 62
     7
100
AcDbPolyline
 90
        4
 70
     0
 43
0.0
 10
1363.0
 20
1666.0
 10
1363.0
 20
1660.0
 10
1388.0
 20
1660.0
 10
1388.0
 20
1666.0
  0
LINE
  5
2B2
330
B
100
AcDbEntity
  8
LEVEL001
  6
Continuous
 62
     7
100
AcDbLine
 10
1266.5
 20
2180.0
 30
0.0
 11
1266.5
 21
1599.0
 31
0.0
  0
LINE
  5
2B3
330
B
100
AcDbEntity
  8
LEVEL001
  6
Continuous
 62
     7
100
AcDbLine
 10
461.5
 20
1607.3607753402
 30
0.0
 11
461.5
 21
1599.0
 31
0.0
  0
LINE
  5
2B4
330
B
100
AcDbEntity
  8
LEVEL001
  6
Continuous
 62
     7
100
AcDbLine
 10
461.5
 20
1599.0
 30
0.0
 11
1266.5
 21
1599.0
 31
0.0
  0
LINE
  5
2B5
330
B
100
AcDbEntity
  8
LEVEL001
  6
Continuous
 62
     7
100
AcDbLine
 10
411.5
 20
2180.0
 30
0.0
 11
411.5
 21
1636.480586332
 31
0.0
  0
LINE
  5
2B6
330
B
100
AcDbEntity
  8
LEVEL001
  6
Continuous
 62
     7
100
AcDbLine
 10
310.0
 20
1600.0
 30
0.0
 11
461.5
 21
1600.0
 31
0.0
  0
LINE
  5
2B7
330
B
100
AcDbEntity
  8
LEVEL001
  6
Continuous
 62
     7
100
AcDbLine
 10
426.0
 20
1774.3
 30
0.0
 11
426.0
 21
1654.3
 31
0.0
  0
LWPOLYLINE
  5
2B8
330
B
100
AcDbEntity
  8
LEVEL001
  6
Continuous
 62
     7
100
AcDbPolyline
 90
        4
 70
     1
 43
0.0
 10
428.0
 20
1666.8
 10
448.0
 20
1666.8
 10
448.0
 20
1761.8
 10
428.0
 20
1761.8
  0
LWPOLYLINE
  5
2B9
330
B
100
AcDbEntity
  8
LEVEL001
  6
Continuous
 62
     7
100
AcDbPolyline
 90
        4
 70
     0
 43
0.0
 10
411.5
 20
1774.3
 10
428.0
 20
1774.3
 10
428.0
 20
1654.3
 10
411.5
 20
1654.3
  0
LINE
  5
2BA
330
B
100
AcDbEntity
  8
LEVEL001
  6
Continuous
 62
     7
100
AcDbLine
 10
448.0
 20
1678.7638984214
 30
0.0
 11
487.5
 21
1724.5225512305
 31
0.0
  0
LINE
  5
2BB
330
B
100
AcDbEntity
  8
LEVEL001
  6
Continuous
 62
     7
100
AcDbLine
 10
399.0
 20
1622.0
 30
0.0
 11
426.88215827339
 21
1654.3
 31
0.0
  0
LINE
  5
2BC
330
B
100
AcDbEntity
  8
LEVEL001
  6
Continuous
 62
     7
100
AcDbLine
 10
428.0
 20
1655.5949602902
 30
0.0
 11
437.6724672027299
 21
1666.8
 31
0.0
  0
LINE
  5
2BD
330
B
100
AcDbEntity
  8
LEVEL001
  6
Continuous
 62
     7
100
AcDbLine
 10
2261.1
 20
1757.0
 30
0.0
 11
2261.1
 21
1901.0
 31
0.0
  0
LINE
  5
2BE
330
B
100
AcDbEntity
  8
LEVEL001
  6
Continuous
 62
     7
100
AcDbLine
 10
2213.1
 20
1613.0
 30
0.0
 11
2213.1
 21
2189.0
 31
0.0
  0
LINE
  5
2BF
330
B
100
AcDbEntity
  8
LEVEL001
  6
Continuous
 62
     7
100
AcDbLine
 10
2523.6
 20
2189.0
 30
0.0
 11
2523.6
 21
1613.0
 31
0.0
  0
LINE
  5
2C0
330
B
100
AcDbEntity
  8
LEVEL001
  6
Continuous
 62
     7
100
AcDbLine
 10
3183.6
 20
1661.0
 30
0.0
 11
2213.1
 21
1661.0
 31
0.0
  0
LINE
  5
2C1
330
B
100
AcDbEntity
  8
LEVEL001
  6
Continuous
 62
     7
100
AcDbLine
 10
3183.6
 20
2189.0
 30
0.0
 11
2213.1
 21
2189.0
 31
0.0
  0
LINE
  5
2C2
330
B
100
AcDbEntity
  8
LEVEL001
  6
Continuous
 62
     7
100
AcDbLine
 10
2213.1
 20
2141.0
 30
0.0
 11
3183.6
 21
2141.0
 31
0.0
  0
LINE
  5
2C3
330
B
100
AcDbEntity
  8
LEVEL001
  6
Continuous
 62
     7
100
AcDbLine
 10
2213.1
 20
2093.0
 30
0.0
 11
3183.6
 21
2093.0
 31
0.0
  0
LINE
  5
2C4
330
B
100
AcDbEntity
  8
LEVEL001
  6
Continuous
 62
     7
100
AcDbLine
 10
2213.1
 20
2045.0
 30
0.0
 11
3183.6
 21
2045.0
 31
0.0
  0
LINE
  5
2C5
330
B
100
AcDbEntity
  8
LEVEL001
  6
Continuous
 62
     7
100
AcDbLine
 10
2213.1
 20
1997.0
 30
0.0
 11
3183.6
 21
1997.0
 31
0.0
  0
LINE
  5
2C6
330
B
100
AcDbEntity
  8
LEVEL001
  6
Continuous
 62
     7
100
AcDbLine
 10
2213.1
 20
1949.0
 30
0.0
 11
3183.6
 21
1949.0
 31
0.0
  0
LINE
  5
2C7
330
B
100
AcDbEntity
  8
LEVEL001
  6
Continuous
 62
     7
100
AcDbLine
 10
2213.1
 20
1901.0
 30
0.0
 11
3183.6
 21
1901.0
 31
0.0
  0
LINE
  5
2C8
330
B
100
AcDbEntity
  8
LEVEL001
  6
Continuous
 62
     7
100
AcDbLine
 10
2261.1
 20
1853.0
 30
0.0
 11
3183.6
 21
1853.0
 31
0.0
  0
LINE
  5
2C9
330
B
100
AcDbEntity
  8
LEVEL001
  6
Continuous
 62
     7
100
AcDbLine
 10
2261.1
 20
1805.0
 30
0.0
 11
3183.6
 21
1805.0
 31
0.0
  0
LINE
  5
2CA
330
B
100
AcDbEntity
  8
LEVEL001
  6
Continuous
 62
     7
100
AcDbLine
 10
2213.1
 20
1757.0
 30
0.0
 11
3183.6
 21
1757.0
 31
0.0
  0
LINE
  5
2CB
330
B
100
AcDbEntity
  8
LEVEL001
  6
Continuous
 62
     7
100
AcDbLine
 10
2213.1
 20
1709.0
 30
0.0
 11
3183.6
 21
1709.0
 31
0.0
  0
LINE
  5
2CC
330
B
100
AcDbEntity
  8
LEVEL001
  6
Continuous
 62
     7
100
AcDbLine
 10
3183.6
 20
2189.0
 30
0.0
 11
3183.6
 21
1613.0
 31
0.0
  0
LINE
  5
2CD
330
B
100
AcDbEntity
  8
LEVEL001
  6
Continuous
 62
     7
100
AcDbLine
 10
2213.1
 20
1613.0
 30
0.0
 11
3183.6
 21
1613.0
 31
0.0
  0
TEXT
  5
2CE
330
B
100
AcDbEntity
  8
LEVEL001
 62
     7
100
AcDbText
 10
2917.0
 20
60.0
 30
0.0
 40
24.0
  1
(A2) 1/6
 41
0.5
100
AcDbText
  0
LWPOLYLINE
  5
2CF
330
B
100
AcDbEntity
  8
LEVEL001
  6
HIDDEN
 62
     1
100
AcDbPolyline
 90
       22
 70
     1
 43
0.0
 10
906.0
 20
672.0
 10
906.0
 20
693.0
 10
913.0
 20
700.0
 10
1154.0
 20
700.0
 10
1161.0
 20
707.0
 10
1161.0
 20
987.0
 10
1154.0
 20
994.0
 10
1085.2
 20
1009.4
 10
1004.0
 20
1015.0
 10
936.8
 20
1005.2
 10
885.0
 20
987.0
 10
878.0
 20
994.0
 10
878.0
 20
1008.0
 10
885.0
 20
1015.0
 10
922.7999999999999
 20
1045.8
 10
978.8
 20
1069.6
 10
1043.2
 20
1078.0
 10
1179.0
 20
1078.0
 10
1186.0
 20
1071.0
 10
1186.0
 20
672.0
 10
1179.0
 20
665.0
 10
913.0
 20
665.0
  0
LWPOLYLINE
  5
2D0
330
B
100
AcDbEntity
  8
LEVEL001
  6
HIDDEN
 62
     1
100
AcDbPolyline
 90
       22
 70
     1
 43
0.0
 10
822.0
 20
1050.0
 10
822.0
 20
1029.0
 10
815.0
 20
1022.0
 10
574.0
 20
1022.0
 10
567.0
 20
1015.0
 10
567.0
 20
735.0
 10
574.0
 20
728.0
 10
642.7999999999999
 20
712.6
 10
724.0
 20
707.0
 10
791.2
 20
716.7999999999999
 10
843.0
 20
735.0
 10
850.0
 20
728.0
 10
850.0
 20
714.0
 10
843.0
 20
707.0
 10
805.2000000000001
 20
676.2
 10
749.2
 20
652.4
 10
684.7999999999999
 20
644.0
 10
549.0
 20
644.0
 10
542.0
 20
651.0
 10
542.0
 20
1050.0
 10
549.0
 20
1057.0
 10
815.0
 20
1057.0
  0
DIMENSION
  5
2D1
330
B
100
AcDbEntity
  8
LEVEL001
  6
Continuous
 62
     1
100
AcDbDimension
  2
*D0
 10
1422.5
 20
1442.0
 30
0.0
 11
859.5
 21
1442.0
 31
0.0
 71
     5
 42
-1.0
  3
GMM001
100
AcDbAlignedDimension
 13
296.5
 23
1212.0
 33
0.0
 14
1422.5
 24
982.0
 34
0.0
100
AcDbRotatedDimension
  0
DIMENSION
  5
2D2
330
B
100
AcDbEntity
  8
LEVEL001
  6
Continuous
 62
     1
100
AcDbDimension
  2
*D1
 10
1553.0
 20
1372.0
 30
0.0
 11
1553.0
 21
782.0
 31
0.0
 71
     5
 42
-1.0
  3
GMM001
100
AcDbAlignedDimension
 13
1422.5
 23
192.0
 33
0.0
 14
1229.0
 24
1372.0
 34
0.0
 50
90.0
100
AcDbRotatedDimension
  0
DIMENSION
  5
2D3
330
B
100
AcDbEntity
  8
LEVEL001
  6
Continuous
 62
     1
100
AcDbDimension
  2
*D2
 10
1767.5
 20
1442.0
 30
0.0
 11
2057.5
 21
1442.0
 31
0.0
 71
     5
 42
-1.0
  3
GMM001
100
AcDbAlignedDimension
 13
2347.5
 23
796.0
 33
0.0
 14
1767.5
 24
1238.0149825175
 34
0.0
 50
180.0
100
AcDbRotatedDimension
  0
DIMENSION
  5
2D4
330
B
100
AcDbEntity
  8
LEVEL001
  6
Continuous
 62
     1
100
AcDbDimension
  2
*D3
 10
2039.3
 20
861.0
 30
0.0
 11
1949.5338563936
 21
790.6503000833899
 31
0.0
 70
     4
 71
     5
 42
-1.0
  3
GMM002
100
AcDbRadialDimension
 15
1881.912285863
 25
698.81150645401
 35
0.0
 40
0.0
  0
DIMENSION
  5
2D5
330
B
100
AcDbEntity
  8
LEVEL001
  6
Continuous
 62
     1
100
AcDbDimension
  2
*D4
 10
411.5
 20
88.0
 30
0.0
 11
354.0
 21
88.0
 31
0.0
 71
     5
 42
-1.0
  3
GMM003
100
AcDbAlignedDimension
 13
296.5
 23
312.0
 33
0.0
 14
411.5
 24
293.0
 34
0.0
100
AcDbRotatedDimension
  0
DIMENSION
  5
2D6
330
B
100
AcDbEntity
  8
LEVEL001
  6
Continuous
 62
     1
100
AcDbDimension
  2
*D5
 10
1316.5
 20
88.0
 30
0.0
 11
864.0
 21
88.0
 31
0.0
 71
     5
 42
-1.0
  3
GMM003
100
AcDbAlignedDimension
 13
411.5
 23
293.0
 33
0.0
 14
1316.5
 24
293.0
 34
0.0
100
AcDbRotatedDimension
  0
DIMENSION
  5
2D7
330
B
100
AcDbEntity
  8
LEVEL001
  6
Continuous
 62
     1
100
AcDbDimension
  2
*D6
 10
1422.5
 20
88.0
 30
0.0
 11
1369.5
 21
88.0
 31
0.0
 71
     5
 42
-1.0
  3
GMM001
100
AcDbAlignedDimension
 13
1316.5
 23
293.0
 33
0.0
 14
1422.5
 24
312.0
 34
0.0
100
AcDbRotatedDimension
  0
TEXT
  5
2D8
330
B
100
AcDbEntity
  8
LEVEL001
 62
     1
100
AcDbText
 10
2267.1
 20
1763.0
 30
0.0
 40
24.0
  1
安全カバ－
100
AcDbText
  0
TEXT
  5
2D9
330
B
100
AcDbEntity
  8
LEVEL001
 62
     1
100
AcDbText
 10
2267.1
 20
2051.0
 30
0.0
 40
24.0
  1
寸法（Ｗ×Ｄ×Ｈ）
100
AcDbText
  0
TEXT
  5
2DA
330
B
100
AcDbEntity
  8
LEVEL001
 62
     1
100
AcDbText
 10
2223.6
 20
1845.5
 30
0.0
 40
24.0
  1
材
100
AcDbText
  0
TEXT
  5
2DB
330
B
100
AcDbEntity
  8
LEVEL001
 62
     1
100
AcDbText
 10
2223.6
 20
1781.5
 30
0.0
 40
24.0
  1
質
100
AcDbText
  0
TEXT
  5
2DC
330
B
100
AcDbEntity
  8
LEVEL001
 62
     1
100
AcDbText
 10
2267.1
 20
1907.0
 30
0.0
 40
24.0
  1
消  費  電  力
100
AcDbText
  0
TEXT
  5
2DD
330
B
100
AcDbEntity
  8
LEVEL001
 62
     1
100
AcDbText
 10
2267.1
 20
1955.0
 30
0.0
 40
24.0
  1
電          源
100
AcDbText
  0
TEXT
  5
2DE
330
B
100
AcDbEntity
  8
LEVEL001
 62
     1
100
AcDbText
 10
2267.1
 20
2003.0
 30
0.0
 40
24.0
  1
能          力
100
AcDbText
  0
TEXT
  5
2DF
330
B
100
AcDbEntity
  8
LEVEL001
 62
     1
100
AcDbText
 10
2267.1
 20
2099.0
 30
0.0
 40
24.0
  1
型          式
100
AcDbText
  0
TEXT
  5
2E0
330
B
100
AcDbEntity
  8
LEVEL001
 62
     1
100
AcDbText
 10
2267.1
 20
2147.0
 30
0.0
 40
24.0
  1
製　  品  　名
100
AcDbText
  0
TEXT
  5
2E1
330
B
100
AcDbEntity
  8
LEVEL001
 62
     1
100
AcDbText
 10
2267.1
 20
1667.0
 30
0.0
 40
24.0
  1
電源プラグ
100
AcDbText
  0
TEXT
  5
2E2
330
B
100
AcDbEntity
  8
LEVEL001
 62
     1
100
AcDbText
 10
2267.1
 20
1619.0
 30
0.0
 40
24.0
  1
製品重量
100
AcDbText
  0
TEXT
  5
2E3
330
B
100
AcDbEntity
  8
LEVEL001
 62
     1
100
AcDbText
 10
2267.1
 20
1715.0
 30
0.0
 40
24.0
  1
コ－ド長さ
100
AcDbText
  0
TEXT
  5
2E4
330
B
100
AcDbEntity
  8
LEVEL001
 62
     1
100
AcDbText
 10
2531.1
 20
1715.0
 30
0.0
 40
24.0
  1
３．０ｍ
100
AcDbText
  0
TEXT
  5
2E5
330
B
100
AcDbEntity
  8
LEVEL001
 62
     1
100
AcDbText
 10
2531.1
 20
2147.0
 30
0.0
 40
24.0
  1
手打麺専用ネリ機
100
AcDbText
  0
TEXT
  5
2E6
330
B
100
AcDbEntity
  8
LEVEL001
 62
     1
100
AcDbText
 10
2267.1
 20
1859.0
 30
0.0
 40
24.0
  1
ドラム
100
AcDbText
  0
TEXT
  5
2E7
330
B
100
AcDbEntity
  8
LEVEL001
 62
     1
100
AcDbText
 10
2267.1
 20
1811.0
 30
0.0
 40
24.0
  1
羽根
100
AcDbText
  0
TEXT
  5
2E8
330
B
100
AcDbEntity
  8
LEVEL001
 62
     1
100
AcDbText
 10
2531.1
 20
1859.0
 30
0.0
 40
24.0
  1
ＳＵＳ３０４
100
AcDbText
  0
TEXT
  5
2E9
330
B
100
AcDbEntity
  8
LEVEL001
 62
     1
100
AcDbText
 10
2531.1
 20
1763.0
 30
0.0
 40
24.0
  1
ＳＵＳ３０４
100
AcDbText
  0
TEXT
  5
2EA
330
B
100
AcDbEntity
  8
LEVEL001
 62
     1
100
AcDbText
 10
2531.1
 20
1811.0
 30
0.0
 40
24.0
  1
アルミニウム
100
AcDbText
  0
TEXT
  5
2EB
330
B
100
AcDbEntity
  8
LEVEL001
 62
     1
100
AcDbText
 10
2531.1
 20
2099.0
 30
0.0
 40
24.0
  1
ス－パ－ニ－ダ－　ＳＮ－５０Ｐ型
100
AcDbText
  0
TEXT
  5
2EC
330
B
100
AcDbEntity
  8
LEVEL001
 62
     1
100
AcDbText
 10
2531.1
 20
2051.0
 30
0.0
 40
24.0
  1
１，１２６×５８０×１，１８０
100
AcDbText
  0
TEXT
  5
2ED
330
B
100
AcDbEntity
  8
LEVEL001
 62
     1
100
AcDbText
 10
2531.1
 20
2003.0
 30
0.0
 40
24.0
  1
２５ｋｇ～５０ｋｇ／回
100
AcDbText
  0
TEXT
  5
2EE
330
B
100
AcDbEntity
  8
LEVEL001
 62
     1
100
AcDbText
 10
2531.1
 20
1955.0
 30
0.0
 40
24.0
  1
３相２００Ｖ　５０／６０Ｈｚ
100
AcDbText
  0
TEXT
  5
2EF
330
B
100
AcDbEntity
  8
LEVEL001
 62
     1
100
AcDbText
 10
2531.1
 20
1907.0
 30
0.0
 40
24.0
  1
７５０Ｗ
100
AcDbText
  0
TEXT
  5
2F0
330
B
100
AcDbEntity
  8
LEVEL001
 62
     1
100
AcDbText
 10
2531.1
 20
1667.0
 30
0.0
 40
24.0
  1
４Ｐ２０Ａ
100
AcDbText
  0
TEXT
  5
2F1
330
B
100
AcDbEntity
  8
LEVEL001
 62
     1
100
AcDbText
 10
2531.1
 20
1619.0
 30
0.0
 40
24.0
  1
２４０ｋｇ
100
AcDbText
  0
ENDSEC
  0
SECTION
  2
OBJECTS
  0
DICTIONARY
  5
52
330
0
100
AcDbDictionary
281
     1
  3
ACAD_COLOR
350
2F7
  3
ACAD_GROUP
350
53
  3
ACAD_LAYOUT
350
2FA
  3
ACAD_MATERIAL
350
2F6
  3
ACAD_MLINESTYLE
350
54
  3
ACAD_PLOTSETTINGS
350
2FB
  3
ACAD_PLOTSTYLENAME
350
2F4
  3
ACAD_TABLESTYLE
350
2F8
  3
ACDBHEADERROUNDTRIPXREC
350
306
  3
AcDbVariableDictionary
350
301
  0
DICTIONARY
  5
2F7
102
{ACAD_REACTORS
330
52
102
}
330
52
100
AcDbDictionary
281
     1
  0
DICTIONARY
  5
53
102
{ACAD_REACTORS
330
52
102
}
330
0
100
AcDbDictionary
281
     1
  0
DICTIONARY
  5
2FA
102
{ACAD_REACTORS
330
52
102
}
330
52
100
AcDbDictionary
281
     1
  3
Model
350
2FC
  3
レイアウト1
350
2FD
  0
DICTIONARY
  5
2F6
102
{ACAD_REACTORS
330
52
102
}
330
52
100
AcDbDictionary
281
     1
  0
DICTIONARY
  5
54
102
{ACAD_REACTORS
330
52
102
}
330
0
100
AcDbDictionary
281
     1
  3
STANDARD
350
55
  0
DICTIONARY
  5
2FB
102
{ACAD_REACTORS
330
52
102
}
330
52
100
AcDbDictionary
281
     1
  0
ACDBDICTIONARYWDFLT
  5
2F4
102
{ACAD_REACTORS
330
52
102
}
330
52
100
AcDbDictionary
281
     1
  3
Normal
350
2F5
100
AcDbDictionaryWithDefault
340
2F5
  0
DICTIONARY
  5
2F8
102
{ACAD_REACTORS
330
52
102
}
330
52
100
AcDbDictionary
281
     1
  3
Standard
350
2F9
  0
DICTIONARY
  5
306
102
{ACAD_REACTORS
330
52
102
}
330
52
100
AcDbDictionary
281
     1
  0
DICTIONARY
  5
301
102
{ACAD_REACTORS
330
52
102
}
330
52
100
AcDbDictionary
281
     1
  3
CTABLESTYLE
350
302
  3
DIMASSOC
350
303
  3
PROJECTNAME
350
304
  0
LAYOUT
  5
2FC
102
{ACAD_XDICTIONARY
360
307
102
}
102
{ACAD_REACTORS
330
2FA
102
}
330
2FA
100
AcDbPlotSettings
  1

  2
Microsoft XPS Document Writer
  4

  6

 40
0.0
 41
0.0
 42
0.0
 43
0.0
 44
0.0
 45
0.0
 46
0.0
 47
0.0
 48
0.0
 49
0.0
140
0.0
141
0.0
142
1.0
143
1.0
 70
  1712
 72
     0
 73
     0
 74
     0
  7

 75
     0
147
1.0
148
0.0
149
0.0
100
AcDbLayout
  1
Model
 70
     1
 71
     0
 10
0.0
 20
0.0
 11
12.0
 21
9.0
 12
0.0
 22
0.0
 32
0.0
 14
0.0
 24
0.0
 34
0.0
 15
0.0
 25
0.0
 35
0.0
146
0.0
 13
0.0
 23
0.0
 33
0.0
 16
1.0
 26
0.0
 36
0.0
 17
0.0
 27
1.0
 37
0.0
 76
     0
330
B
  0
LAYOUT
  5
2FD
102
{ACAD_XDICTIONARY
360
309
102
}
102
{ACAD_REACTORS
330
2FA
102
}
330
2FA
100
AcDbPlotSettings
  1

  2
Microsoft XPS Document Writer
  4

  6

 40
0.0
 41
0.0
 42
0.0
 43
0.0
 44
0.0
 45
0.0
 46
0.0
 47
0.0
 48
0.0
 49
0.0
140
0.0
141
0.0
142
1.0
143
1.0
 70
   688
 72
     0
 73
     0
 74
     5
  7

 75
    16
147
1.0
148
0.0
149
0.0
100
AcDbLayout
  1
レイアウト1
 70
     1
 71
     1
 10
0.0
 20
0.0
 11
12.0
 21
9.0
 12
0.0
 22
0.0
 32
0.0
 14
1.000000000000000E+20
 24
1.000000000000000E+20
 34
1.000000000000000E+20
 15
-1.000000000000000E+20
 25
-1.000000000000000E+20
 35
-1.000000000000000E+20
146
0.0
 13
0.0
 23
0.0
 33
0.0
 16
1.0
 26
0.0
 36
0.0
 17
0.0
 27
1.0
 37
0.0
 76
     0
330
C
  0
MLINESTYLE
  5
55
102
{ACAD_REACTORS
330
54
102
}
330
0
100
AcDbMlineStyle
  2
STANDARD
 70
     0
  3

 62
   256
 51
90.0
 52
90.0
 71
     2
 49
0.5
 62
   256
  6
BYLAYER
 49
-0.5
 62
   256
  6
BYLAYER
  0
ACDBPLACEHOLDER
  5
2F5
102
{ACAD_REACTORS
330
2F4
102
}
330
2F4
  0
TABLESTYLE
  5
2F9
102
{ACAD_REACTORS
330
2F8
102
}
330
2F8
100
AcDbTableStyle
  3
Standard
 70
     0
 71
     0
 40
0.06
 41
0.06
280
     0
281
     0
  7
STANDARD
140
0.18
170
     2
 62
     0
 63
     7
283
     0
274
    -2
284
     1
 64
     0
275
    -2
285
     1
 65
     0
276
    -2
286
     1
 66
     0
277
    -2
287
     1
 67
     0
278
    -2
288
     1
 68
     0
279
    -2
289
     1
 69
     0
  7
STANDARD
140
0.25
170
     5
 62
     0
 63
     7
283
     0
274
    -2
284
     1
 64
     0
275
    -2
285
     1
 65
     0
276
    -2
286
     1
 66
     0
277
    -2
287
     1
 67
     0
278
    -2
288
     1
 68
     0
279
    -2
289
     1
 69
     0
  7
STANDARD
140
0.18
170
     5
 62
     0
 63
     7
283
     0
274
    -2
284
     1
 64
     0
275
    -2
285
     1
 65
     0
276
    -2
286
     1
 66
     0
277
    -2
287
     1
 67
     0
278
    -2
288
     1
 68
     0
279
    -2
289
     1
 69
     0
  0
DICTIONARYVAR
  5
302
102
{ACAD_REACTORS
330
301
102
}
330
301
100
DictionaryVariables
280
     0
  1
STANDARD
  0
DICTIONARYVAR
  5
303
102
{ACAD_REACTORS
330
301
102
}
330
301
100
DictionaryVariables
280
     0
  1
1
  0
DICTIONARYVAR
  5
304
102
{ACAD_REACTORS
330
301
102
}
330
301
100
DictionaryVariables
280
     0
  1

  0
DICTIONARY
  5
307
330
2FC
100
AcDbDictionary
280
     1
281
     1
  3
ACAD_XREC_ROUNDTRIP
360
308
  0
DICTIONARY
  5
309
330
2FD
100
AcDbDictionary
280
     1
281
     1
  3
ACAD_XREC_ROUNDTRIP
360
30A
  0
XRECORD
  5
308
102
{ACAD_REACTORS
330
307
102
}
330
307
100
AcDbXrecord
280
     1
102
SHADEPLOT
 70
     0
102
SHADEPLOTRESLEVEL
 70
     2
102
SHADEPLOTCUSTOMDPI
 70
   300
  0
XRECORD
  5
30A
102
{ACAD_REACTORS
330
309
102
}
330
309
100
AcDbXrecord
280
     1
102
SHADEPLOT
 70
     0
102
SHADEPLOTRESLEVEL
 70
     2
102
SHADEPLOTCUSTOMDPI
 70
   300
  0
ENDSEC
  0
EOF
