  0
SECTION
  2
HEADER
  9
$ACADVER
  1
AC1015
  9
$ACADMAINTVER
 70
    20
  9
$DWGCODEPAGE
  3
ANSI_932
  9
$INSBASE
 10
0.0
 20
0.0
 30
0.0
  9
$EXTMIN
 10
0.0000000000000711
 20
0.0
 30
0.0
  9
$EXTMAX
 10
2720.0
 20
1890.0
 30
0.0
  9
$LIMMIN
 10
0.0
 20
0.0
  9
$LIMMAX
 10
2970.0
 20
2100.0
  9
$ORTHOMODE
 70
     0
  9
$REGENMODE
 70
     1
  9
$FILLMODE
 70
     1
  9
$QTEXTMODE
 70
     0
  9
$MIRRTEXT
 70
     1
  9
$LTSCALE
 40
59.4
  9
$ATTMODE
 70
     1
  9
$TEXTSIZE
 40
0.2
  9
$TRACEWID
 40
0.05
  9
$TEXTSTYLE
  7
STANDARD
  9
$CLAYER
  8
0
  9
$CELTYPE
  6
CONTINUOUS
  9
$CECOLOR
 62
   256
  9
$CELTSCALE
 40
1.0
  9
$DISPSILH
 70
     0
  9
$DIMSCALE
 40
1.0
  9
$DIMASZ
 40
0.18
  9
$DIMEXO
 40
0.0625
  9
$DIMDLI
 40
0.38
  9
$DIMRND
 40
0.0
  9
$DIMDLE
 40
0.0
  9
$DIMEXE
 40
0.18
  9
$DIMTP
 40
0.0
  9
$DIMTM
 40
0.0
  9
$DIMTXT
 40
0.18
  9
$DIMCEN
 40
0.09
  9
$DIMTSZ
 40
0.0
  9
$DIMTOL
 70
     0
  9
$DIMLIM
 70
     0
  9
$DIMTIH
 70
     1
  9
$DIMTOH
 70
     1
  9
$DIMSE1
 70
     0
  9
$DIMSE2
 70
     0
  9
$DIMTAD
 70
     0
  9
$DIMZIN
 70
     0
  9
$DIMBLK
  1

  9
$DIMASO
 70
     1
  9
$DIMSHO
 70
     1
  9
$DIMPOST
  1

  9
$DIMAPOST
  1

  9
$DIMALT
 70
     0
  9
$DIMALTD
 70
     2
  9
$DIMALTF
 40
25.4
  9
$DIMLFAC
 40
1.0
  9
$DIMTOFL
 70
     0
  9
$DIMTVP
 40
0.0
  9
$DIMTIX
 70
     0
  9
$DIMSOXD
 70
     0
  9
$DIMSAH
 70
     0
  9
$DIMBLK1
  1

  9
$DIMBLK2
  1

  9
$DIMSTYLE
  2
STANDARD
  9
$DIMCLRD
 70
     0
  9
$DIMCLRE
 70
     0
  9
$DIMCLRT
 70
     0
  9
$DIMTFAC
 40
1.0
  9
$DIMGAP
 40
0.09
  9
$DIMJUST
 70
     0
  9
$DIMSD1
 70
     0
  9
$DIMSD2
 70
     0
  9
$DIMTOLJ
 70
     1
  9
$DIMTZIN
 70
     0
  9
$DIMALTZ
 70
     0
  9
$DIMALTTZ
 70
     0
  9
$DIMUPT
 70
     0
  9
$DIMDEC
 70
     4
  9
$DIMTDEC
 70
     4
  9
$DIMALTU
 70
     2
  9
$DIMALTTD
 70
     2
  9
$DIMTXSTY
  7
STANDARD
  9
$DIMAUNIT
 70
     0
  9
$DIMADEC
 70
     0
  9
$DIMALTRND
 40
0.0
  9
$DIMAZIN
 70
     0
  9
$DIMDSEP
 70
    46
  9
$DIMATFIT
 70
     3
  9
$DIMFRAC
 70
     0
  9
$DIMLDRBLK
  1

  9
$DIMLUNIT
 70
     2
  9
$DIMLWD
 70
    -2
  9
$DIMLWE
 70
    -2
  9
$DIMTMOVE
 70
     0
  9
$LUNITS
 70
     2
  9
$LUPREC
 70
     4
  9
$SKETCHINC
 40
0.1
  9
$FILLETRAD
 40
0.0
  9
$AUNITS
 70
     0
  9
$AUPREC
 70
     0
  9
$MENU
  1
.
  9
$ELEVATION
 40
0.0
  9
$PELEVATION
 40
0.0
  9
$THICKNESS
 40
0.0
  9
$LIMCHECK
 70
     0
  9
$CHAMFERA
 40
0.0
  9
$CHAMFERB
 40
0.0
  9
$CHAMFERC
 40
0.0
  9
$CHAMFERD
 40
0.0
  9
$SKPOLY
 70
     0
  9
$TDCREATE
 40
2451212.682759178
  9
$TDUCREATE
 40
2451212.307759178
  9
$TDUPDATE
 40
2455324.354053090
  9
$TDUUPDATE
 40
2455323.979053090
  9
$TDINDWG
 40
0.0005888889
  9
$TDUSRTIMER
 40
0.0005888889
  9
$USRTIMER
 70
     1
  9
$ANGBASE
 50
0.0
  9
$ANGDIR
 70
     0
  9
$PDMODE
 70
     0
  9
$PDSIZE
 40
0.0
  9
$PLINEWID
 40
0.0
  9
$SPLFRAME
 70
     0
  9
$SPLINETYPE
 70
     6
  9
$SPLINESEGS
 70
     8
  9
$HANDSEED
  5
325
  9
$SURFTAB1
 70
     6
  9
$SURFTAB2
 70
     6
  9
$SURFTYPE
 70
     6
  9
$SURFU
 70
     6
  9
$SURFV
 70
     6
  9
$UCSBASE
  2

  9
$UCSNAME
  2

  9
$UCSORG
 10
0.0
 20
0.0
 30
0.0
  9
$UCSXDIR
 10
1.0
 20
0.0
 30
0.0
  9
$UCSYDIR
 10
0.0
 20
1.0
 30
0.0
  9
$UCSORTHOREF
  2

  9
$UCSORTHOVIEW
 70
     0
  9
$UCSORGTOP
 10
0.0
 20
0.0
 30
0.0
  9
$UCSORGBOTTOM
 10
0.0
 20
0.0
 30
0.0
  9
$UCSORGLEFT
 10
0.0
 20
0.0
 30
0.0
  9
$UCSORGRIGHT
 10
0.0
 20
0.0
 30
0.0
  9
$UCSORGFRONT
 10
0.0
 20
0.0
 30
0.0
  9
$UCSORGBACK
 10
0.0
 20
0.0
 30
0.0
  9
$PUCSBASE
  2

  9
$PUCSNAME
  2

  9
$PUCSORG
 10
0.0
 20
0.0
 30
0.0
  9
$PUCSXDIR
 10
1.0
 20
0.0
 30
0.0
  9
$PUCSYDIR
 10
0.0
 20
1.0
 30
0.0
  9
$PUCSORTHOREF
  2

  9
$PUCSORTHOVIEW
 70
     0
  9
$PUCSORGTOP
 10
0.0
 20
0.0
 30
0.0
  9
$PUCSORGBOTTOM
 10
0.0
 20
0.0
 30
0.0
  9
$PUCSORGLEFT
 10
0.0
 20
0.0
 30
0.0
  9
$PUCSORGRIGHT
 10
0.0
 20
0.0
 30
0.0
  9
$PUCSORGFRONT
 10
0.0
 20
0.0
 30
0.0
  9
$PUCSORGBACK
 10
0.0
 20
0.0
 30
0.0
  9
$USERI1
 70
     0
  9
$USERI2
 70
     0
  9
$USERI3
 70
     0
  9
$USERI4
 70
     0
  9
$USERI5
 70
     0
  9
$USERR1
 40
0.0
  9
$USERR2
 40
0.0
  9
$USERR3
 40
0.0
  9
$USERR4
 40
0.0
  9
$USERR5
 40
0.0
  9
$WORLDVIEW
 70
     1
  9
$SHADEDGE
 70
     3
  9
$SHADEDIF
 70
    70
  9
$TILEMODE
 70
     1
  9
$MAXACTVP
 70
    16
  9
$PINSBASE
 10
0.0
 20
0.0
 30
0.0
  9
$PLIMCHECK
 70
     0
  9
$PEXTMIN
 10
1.000000000000000E+20
 20
1.000000000000000E+20
 30
1.000000000000000E+20
  9
$PEXTMAX
 10
-1.000000000000000E+20
 20
-1.000000000000000E+20
 30
-1.000000000000000E+20
  9
$PLIMMIN
 10
0.0
 20
0.0
  9
$PLIMMAX
 10
12.0
 20
9.0
  9
$UNITMODE
 70
     0
  9
$VISRETAIN
 70
     1
  9
$PLINEGEN
 70
     0
  9
$PSLTSCALE
 70
     1
  9
$TREEDEPTH
 70
  3020
  9
$CMLSTYLE
  2
STANDARD
  9
$CMLJUST
 70
     0
  9
$CMLSCALE
 40
1.0
  9
$PROXYGRAPHICS
 70
     1
  9
$MEASUREMENT
 70
     0
  9
$CELWEIGHT
370
    -1
  9
$ENDCAPS
280
     0
  9
$JOINSTYLE
280
     0
  9
$LWDISPLAY
290
     0
  9
$INSUNITS
 70
     0
  9
$HYPERLINKBASE
  1

  9
$STYLESHEET
  1

  9
$XEDIT
290
     1
  9
$CEPSNTYPE
380
     0
  9
$PSTYLEMODE
290
     1
  9
$FINGERPRINTGUID
  2
{C48E3FEE-9A75-48A5-9032-8CF609617079}
  9
$VERSIONGUID
  2
{5F7D5E6B-D80D-4AE3-831B-826CCC0D7034}
  9
$EXTNAMES
290
     1
  9
$PSVPSCALE
 40
0.0
  9
$OLESTARTUP
290
     0
  0
ENDSEC
  0
SECTION
  2
CLASSES
  0
CLASS
  1
ACDBDICTIONARYWDFLT
  2
AcDbDictionaryWithDefault
  3
ObjectDBX Classes
 90
        0
280
     0
281
     0
  0
CLASS
  1
TABLESTYLE
  2
AcDbTableStyle
  3
ObjectDBX Classes
 90
     2047
280
     0
281
     0
  0
CLASS
  1
DICTIONARYVAR
  2
AcDbDictionaryVar
  3
ObjectDBX Classes
 90
        0
280
     0
281
     0
  0
CLASS
  1
ACDBPLACEHOLDER
  2
AcDbPlaceHolder
  3
ObjectDBX Classes
 90
        0
280
     0
281
     0
  0
CLASS
  1
LAYOUT
  2
AcDbLayout
  3
ObjectDBX Classes
 90
        0
280
     0
281
     0
  0
ENDSEC
  0
SECTION
  2
TABLES
  0
TABLE
  2
VPORT
  5
1
330
0
100
AcDbSymbolTable
 70
     2
  0
VPORT
  5
31F
330
1
100
AcDbSymbolTableRecord
100
AcDbViewportTableRecord
  2
*Active
 70
     0
 10
0.0
 20
0.0
 11
1.0
 21
1.0
 12
2489.52346570394
 22
1050.0
 13
0.0
 23
0.0
 14
1.0
 24
1.0
 15
0.0
 25
0.0
 16
0.0
 26
0.0
 36
1.0
 17
0.0
 27
0.0
 37
0.0
 40
2970.0
 41
2.155234657039711
 42
50.0
 43
0.0
 44
0.0
 50
0.0
 51
0.0
 71
     0
 72
   100
 73
     1
 74
     1
 75
     0
 76
     0
 77
     0
 78
     0
281
     0
 65
     1
110
0.0
120
0.0
130
0.0
111
1.0
121
0.0
131
0.0
112
0.0
122
1.0
132
0.0
 79
     0
146
0.0
  0
ENDTAB
  0
TABLE
  2
LTYPE
  5
A4
330
0
100
AcDbSymbolTable
 70
    25
  0
LTYPE
  5
30
330
A4
100
AcDbSymbolTableRecord
100
AcDbLinetypeTableRecord
  2
BYBLOCK
 70
     0
  3

 72
    65
 73
     0
 40
0.0
  0
LTYPE
  5
31
330
A4
100
AcDbSymbolTableRecord
100
AcDbLinetypeTableRecord
  2
BYLAYER
 70
     0
  3

 72
    65
 73
     0
 40
0.0
  0
LTYPE
  5
32
330
A4
100
AcDbSymbolTableRecord
100
AcDbLinetypeTableRecord
  2
CONTINUOUS
 70
     0
  3
Solid line
 72
    65
 73
     0
 40
0.0
  0
LTYPE
  5
33
330
A4
100
AcDbSymbolTableRecord
100
AcDbLinetypeTableRecord
  2
BORDER
 70
     0
  3
__ __ . __ __ . __ __ . __ __ . __ __ . __ __ .
 72
    65
 73
     6
 40
1.75
 49
0.5
 74
     0
 49
-0.25
 74
     0
 49
0.5
 74
     0
 49
-0.25
 74
     0
 49
0.0
 74
     0
 49
-0.25
 74
     0
  0
LTYPE
  5
34
330
A4
100
AcDbSymbolTableRecord
100
AcDbLinetypeTableRecord
  2
BORDER2
 70
     0
  3
__.__.__.__.__.__.__.__.__.__.__.__.__.__.__.__
 72
    65
 73
     6
 40
0.875
 49
0.25
 74
     0
 49
-0.125
 74
     0
 49
0.25
 74
     0
 49
-0.125
 74
     0
 49
0.0
 74
     0
 49
-0.125
 74
     0
  0
LTYPE
  5
35
330
A4
100
AcDbSymbolTableRecord
100
AcDbLinetypeTableRecord
  2
BORDERX2
 70
     0
  3
____  ____  .  ____  ____  .  ____  ____  .  __
 72
    65
 73
     6
 40
3.5
 49
1.0
 74
     0
 49
-0.5
 74
     0
 49
1.0
 74
     0
 49
-0.5
 74
     0
 49
0.0
 74
     0
 49
-0.5
 74
     0
  0
LTYPE
  5
36
330
A4
100
AcDbSymbolTableRecord
100
AcDbLinetypeTableRecord
  2
CENTER
 70
     0
  3
____ _ ____ _ ____ _ ____ _ ____ _ ____ _ ____ 
 72
    65
 73
     4
 40
2.0
 49
1.25
 74
     0
 49
-0.25
 74
     0
 49
0.25
 74
     0
 49
-0.25
 74
     0
  0
LTYPE
  5
37
330
A4
100
AcDbSymbolTableRecord
100
AcDbLinetypeTableRecord
  2
CENTER2
 70
     0
  3
___ _ ___ _ ___ _ ___ _ ___ _ ___ _ ___ _ ___ _
 72
    65
 73
     4
 40
1.125
 49
0.75
 74
     0
 49
-0.125
 74
     0
 49
0.125
 74
     0
 49
-0.125
 74
     0
  0
LTYPE
  5
38
330
A4
100
AcDbSymbolTableRecord
100
AcDbLinetypeTableRecord
  2
CENTERX2
 70
     0
  3
________  __  ________  __  ________  __  _____
 72
    65
 73
     4
 40
4.0
 49
2.5
 74
     0
 49
-0.5
 74
     0
 49
0.5
 74
     0
 49
-0.5
 74
     0
  0
LTYPE
  5
39
330
A4
100
AcDbSymbolTableRecord
100
AcDbLinetypeTableRecord
  2
DASHDOT
 70
     0
  3
__ . __ . __ . __ . __ . __ . __ . __ . __ . __
 72
    65
 73
     4
 40
1.0
 49
0.5
 74
     0
 49
-0.25
 74
     0
 49
0.0
 74
     0
 49
-0.25
 74
     0
  0
LTYPE
  5
3A
330
A4
100
AcDbSymbolTableRecord
100
AcDbLinetypeTableRecord
  2
DASHDOT2
 70
     0
  3
_._._._._._._._._._._._._._._._._._._._._._._._
 72
    65
 73
     4
 40
0.5
 49
0.25
 74
     0
 49
-0.125
 74
     0
 49
0.0
 74
     0
 49
-0.125
 74
     0
  0
LTYPE
  5
3B
330
A4
100
AcDbSymbolTableRecord
100
AcDbLinetypeTableRecord
  2
DASHDOTX2
 70
     0
  3
____  .  ____  .  ____  .  ____  .  ____  .  __
 72
    65
 73
     4
 40
2.0
 49
1.0
 74
     0
 49
-0.5
 74
     0
 49
0.0
 74
     0
 49
-0.5
 74
     0
  0
LTYPE
  5
3C
330
A4
100
AcDbSymbolTableRecord
100
AcDbLinetypeTableRecord
  2
DASHED
 70
     0
  3
__ __ __ __ __ __ __ __ __ __ __ __ __ __ __ __
 72
    65
 73
     2
 40
0.75
 49
0.5
 74
     0
 49
-0.25
 74
     0
  0
LTYPE
  5
3D
330
A4
100
AcDbSymbolTableRecord
100
AcDbLinetypeTableRecord
  2
DASHED2
 70
     0
  3
_ _ _ _ _ _ _ _ _ _ _ _ _ _ _ _ _ _ _ _ _ _ _ _
 72
    65
 73
     2
 40
0.375
 49
0.25
 74
     0
 49
-0.125
 74
     0
  0
LTYPE
  5
3E
330
A4
100
AcDbSymbolTableRecord
100
AcDbLinetypeTableRecord
  2
DASHEDX2
 70
     0
  3
____  ____  ____  ____  ____  ____  ____  ____ 
 72
    65
 73
     2
 40
1.5
 49
1.0
 74
     0
 49
-0.5
 74
     0
  0
LTYPE
  5
3F
330
A4
100
AcDbSymbolTableRecord
100
AcDbLinetypeTableRecord
  2
DIVIDE
 70
     0
  3
____ . . ____ . . ____ . . ____ . . ____ . . __
 72
    65
 73
     6
 40
1.25
 49
0.5
 74
     0
 49
-0.25
 74
     0
 49
0.0
 74
     0
 49
-0.25
 74
     0
 49
0.0
 74
     0
 49
-0.25
 74
     0
  0
LTYPE
  5
40
330
A4
100
AcDbSymbolTableRecord
100
AcDbLinetypeTableRecord
  2
DIVIDE2
 70
     0
  3
__..__..__..__..__..__..__..__..__..__..__..__.
 72
    65
 73
     6
 40
0.625
 49
0.25
 74
     0
 49
-0.125
 74
     0
 49
0.0
 74
     0
 49
-0.125
 74
     0
 49
0.0
 74
     0
 49
-0.125
 74
     0
  0
LTYPE
  5
41
330
A4
100
AcDbSymbolTableRecord
100
AcDbLinetypeTableRecord
  2
DIVIDEX2
 70
     0
  3
________  .  .  ________  .  .  ________  .  . 
 72
    65
 73
     6
 40
2.5
 49
1.0
 74
     0
 49
-0.5
 74
     0
 49
0.0
 74
     0
 49
-0.5
 74
     0
 49
0.0
 74
     0
 49
-0.5
 74
     0
  0
LTYPE
  5
42
330
A4
100
AcDbSymbolTableRecord
100
AcDbLinetypeTableRecord
  2
DOT
 70
     0
  3
. . . . . . . . . . . . . . . . . . . . . . . .
 72
    65
 73
     2
 40
0.25
 49
0.0
 74
     0
 49
-0.25
 74
     0
  0
LTYPE
  5
43
330
A4
100
AcDbSymbolTableRecord
100
AcDbLinetypeTableRecord
  2
DOT2
 70
     0
  3
...............................................
 72
    65
 73
     2
 40
0.125
 49
0.0
 74
     0
 49
-0.125
 74
     0
  0
LTYPE
  5
44
330
A4
100
AcDbSymbolTableRecord
100
AcDbLinetypeTableRecord
  2
DOTX2
 70
     0
  3
.  .  .  .  .  .  .  .  .  .  .  .  .  .  .  . 
 72
    65
 73
     2
 40
0.5
 49
0.0
 74
     0
 49
-0.5
 74
     0
  0
LTYPE
  5
45
330
A4
100
AcDbSymbolTableRecord
100
AcDbLinetypeTableRecord
  2
HIDDEN
 70
     0
  3
__ __ __ __ __ __ __ __ __ __ __ __ __ __ __ __
 72
    65
 73
     2
 40
0.375
 49
0.25
 74
     0
 49
-0.125
 74
     0
  0
LTYPE
  5
46
330
A4
100
AcDbSymbolTableRecord
100
AcDbLinetypeTableRecord
  2
HIDDEN2
 70
     0
  3
_ _ _ _ _ _ _ _ _ _ _ _ _ _ _ _ _ _ _ _ _ _ _ _
 72
    65
 73
     2
 40
0.1875
 49
0.125
 74
     0
 49
-0.0625
 74
     0
  0
LTYPE
  5
47
330
A4
100
AcDbSymbolTableRecord
100
AcDbLinetypeTableRecord
  2
HIDDENX2
 70
     0
  3
____ ____ ____ ____ ____ ____ ____ ____ ____ __
 72
    65
 73
     2
 40
0.75
 49
0.5
 74
     0
 49
-0.25
 74
     0
  0
LTYPE
  5
48
330
A4
100
AcDbSymbolTableRecord
100
AcDbLinetypeTableRecord
  2
PHANTOM
 70
     0
  3
______  __  __  ______  __  __  ______  __  __ 
 72
    65
 73
     6
 40
2.5
 49
1.25
 74
     0
 49
-0.25
 74
     0
 49
0.25
 74
     0
 49
-0.25
 74
     0
 49
0.25
 74
     0
 49
-0.25
 74
     0
  0
LTYPE
  5
49
330
A4
100
AcDbSymbolTableRecord
100
AcDbLinetypeTableRecord
  2
PHANTOM2
 70
     0
  3
___ _ _ ___ _ _ ___ _ _ ___ _ _ ___ _ _ ___ _ _
 72
    65
 73
     6
 40
1.25
 49
0.625
 74
     0
 49
-0.125
 74
     0
 49
0.125
 74
     0
 49
-0.125
 74
     0
 49
0.125
 74
     0
 49
-0.125
 74
     0
  0
LTYPE
  5
4A
330
A4
100
AcDbSymbolTableRecord
100
AcDbLinetypeTableRecord
  2
PHANTOMX2
 70
     0
  3
____________    ____    ____    ____________   
 72
    65
 73
     6
 40
5.0
 49
2.5
 74
     0
 49
-0.5
 74
     0
 49
0.5
 74
     0
 49
-0.5
 74
     0
 49
0.5
 74
     0
 49
-0.5
 74
     0
  0
ENDTAB
  0
TABLE
  2
LAYER
  5
A3
330
0
100
AcDbSymbolTable
 70
     5
  0
LAYER
  5
4B
330
A3
100
AcDbSymbolTableRecord
100
AcDbLayerTableRecord
  2
0
 70
     0
 62
     7
  6
CONTINUOUS
370
    -3
390
30F
  0
LAYER
  5
4C
330
A3
100
AcDbSymbolTableRecord
100
AcDbLayerTableRecord
  2
LEVEL001
 70
     0
 62
     7
  6
CONTINUOUS
370
    -3
390
30F
  0
LAYER
  5
4D
330
A3
100
AcDbSymbolTableRecord
100
AcDbLayerTableRecord
  2
内図枠(作図領域)
 70
     0
 62
     7
  6
CONTINUOUS
370
    -3
390
30F
  0
LAYER
  5
4E
330
A3
100
AcDbSymbolTableRecord
100
AcDbLayerTableRecord
  2
外図枠(出力紙領域)
 70
     0
 62
     7
  6
CONTINUOUS
370
    -3
390
30F
  0
LAYER
  5
4F
330
A3
100
AcDbSymbolTableRecord
100
AcDbLayerTableRecord
  2
部品表金額表示用
 70
     0
 62
     7
  6
CONTINUOUS
370
    -3
390
30F
  0
ENDTAB
  0
TABLE
  2
STYLE
  5
6
330
0
100
AcDbSymbolTable
 70
     3
  0
STYLE
  5
7
330
6
100
AcDbSymbolTableRecord
100
AcDbTextStyleTableRecord
  2
STANDARD
 70
     0
 40
0.0
 41
1.0
 50
0.0
 71
     0
 42
0.2
  3
TXT
  4
BIGFONT
  0
STYLE
  5
8
330
6
100
AcDbSymbolTableRecord
100
AcDbTextStyleTableRecord
  2
STANDARD1
 70
     4
 40
0.0
 41
1.0
 50
0.0
 71
     0
 42
0.2
  3
TXT
  4
BIGFONT
  0
STYLE
  5
9
330
6
100
AcDbSymbolTableRecord
100
AcDbTextStyleTableRecord
  2
GMM001
 70
     0
 40
0.0
 41
1.0
 50
0.0
 71
     0
 42
1.0
  3
txt.shx
  4
bigfont.shx
  0
ENDTAB
  0
TABLE
  2
VIEW
  5
2
330
0
100
AcDbSymbolTable
 70
     0
  0
ENDTAB
  0
TABLE
  2
UCS
  5
3
330
0
100
AcDbSymbolTable
 70
     0
  0
ENDTAB
  0
TABLE
  2
APPID
  5
4
330
0
100
AcDbSymbolTable
 70
     1
  0
APPID
  5
5
330
4
100
AcDbSymbolTableRecord
100
AcDbRegAppTableRecord
  2
ACAD
 70
     0
  0
ENDTAB
  0
TABLE
  2
DIMSTYLE
  5
A2
330
0
100
AcDbSymbolTable
 70
     4
100
AcDbDimStyleTable
 71
     0
  0
DIMSTYLE
105
50
330
A2
100
AcDbSymbolTableRecord
100
AcDbDimStyleTableRecord
  2
STANDARD
 70
     0
340
7
  0
DIMSTYLE
105
51
102
{ACAD_REACTORS
330
2D7
330
2D8
330
2DA
330
2DD
330
309
330
30A
102
}
330
A2
100
AcDbSymbolTableRecord
100
AcDbDimStyleTableRecord
  2
GMM001
 70
     0
 41
15.0
 42
0.0
 43
40.0
 44
10.0
 46
18.75
 73
     0
 74
     0
 77
     1
 78
     8
140
30.0
141
5.0
143
0.0394
146
0.625
147
12.857142857143
172
     1
173
     1
176
     1
177
     1
178
     7
271
     6
272
     0
340
9
341
1C
343
1C
344
1C
  0
DIMSTYLE
105
52
102
{ACAD_REACTORS
330
2D9
102
}
330
A2
100
AcDbSymbolTableRecord
100
AcDbDimStyleTableRecord
  2
GMM002
 70
     0
  3
R<>
 41
15.0
 42
0.0
 43
40.0
 44
10.0
 46
18.75
 73
     0
 74
     0
 75
     1
 76
     1
 77
     1
 78
     8
140
30.0
141
5.0
143
0.0394
146
0.625
147
12.857142857143
172
     1
173
     1
176
     1
177
     1
178
     7
271
     6
272
     0
340
9
341
24
343
24
344
1C
  0
DIMSTYLE
105
53
102
{ACAD_REACTORS
330
2DB
330
2DC
102
}
330
A2
100
AcDbSymbolTableRecord
100
AcDbDimStyleTableRecord
  2
GMM003
 70
     0
 41
15.0
 42
0.0
 43
40.0
 44
10.0
 46
18.75
 73
     0
 74
     0
 76
     1
 77
     1
 78
     8
140
30.0
141
5.0
143
0.0394
146
0.625
147
12.857142857143
172
     1
173
     1
176
     1
177
     1
178
     7
271
     6
272
     0
340
9
341
1C
343
1C
344
1C
  0
ENDTAB
  0
TABLE
  2
BLOCK_RECORD
  5
A
330
0
100
AcDbSymbolTable
 70
    35
  0
BLOCK_RECORD
  5
B
330
A
100
AcDbSymbolTableRecord
100
AcDbBlockTableRecord
  2
*MODEL_SPACE
340
316
  0
BLOCK_RECORD
  5
C
330
A
100
AcDbSymbolTableRecord
100
AcDbBlockTableRecord
  2
*PAPER_SPACE
340
317
  0
BLOCK_RECORD
  5
D
330
A
100
AcDbSymbolTableRecord
100
AcDbBlockTableRecord
  2
*D0
340
0
  0
BLOCK_RECORD
  5
E
330
A
100
AcDbSymbolTableRecord
100
AcDbBlockTableRecord
  2
*D1
340
0
  0
BLOCK_RECORD
  5
F
330
A
100
AcDbSymbolTableRecord
100
AcDbBlockTableRecord
  2
*D2
340
0
  0
BLOCK_RECORD
  5
10
330
A
100
AcDbSymbolTableRecord
100
AcDbBlockTableRecord
  2
*D3
340
0
  0
BLOCK_RECORD
  5
11
330
A
100
AcDbSymbolTableRecord
100
AcDbBlockTableRecord
  2
*D4
340
0
  0
BLOCK_RECORD
  5
12
330
A
100
AcDbSymbolTableRecord
100
AcDbBlockTableRecord
  2
*D5
340
0
  0
BLOCK_RECORD
  5
13
330
A
100
AcDbSymbolTableRecord
100
AcDbBlockTableRecord
  2
*D6
340
0
  0
BLOCK_RECORD
  5
14
330
A
100
AcDbSymbolTableRecord
100
AcDbBlockTableRecord
  2
*D7
340
0
  0
BLOCK_RECORD
  5
15
330
A
100
AcDbSymbolTableRecord
100
AcDbBlockTableRecord
  2
*D8
340
0
  0
BLOCK_RECORD
  5
16
330
A
100
AcDbSymbolTableRecord
100
AcDbBlockTableRecord
  2
_ARCHTICK
340
0
  0
BLOCK_RECORD
  5
17
330
A
100
AcDbSymbolTableRecord
100
AcDbBlockTableRecord
  2
_OBLIQUE
340
0
  0
BLOCK_RECORD
  5
18
330
A
100
AcDbSymbolTableRecord
100
AcDbBlockTableRecord
  2
_BOXBLANK
340
0
  0
BLOCK_RECORD
  5
19
330
A
100
AcDbSymbolTableRecord
100
AcDbBlockTableRecord
  2
_BOXFILLED
340
0
  0
BLOCK_RECORD
  5
1A
330
A
100
AcDbSymbolTableRecord
100
AcDbBlockTableRecord
  2
_CLOSED
340
0
  0
BLOCK_RECORD
  5
1B
330
A
100
AcDbSymbolTableRecord
100
AcDbBlockTableRecord
  2
_OPEN
340
0
  0
BLOCK_RECORD
  5
1C
330
A
100
AcDbSymbolTableRecord
100
AcDbBlockTableRecord
  2
_OPEN30
340
0
102
{BLKREFS
331
B4
331
B5
331
BA
331
BB
331
BE
331
C3
331
C4
331
C9
331
CA
331
CF
331
D0
331
D5
331
D6
331
DB
331
DC
331
E1
331
E2
102
}
  0
BLOCK_RECORD
  5
1D
330
A
100
AcDbSymbolTableRecord
100
AcDbBlockTableRecord
  2
_OPEN90
340
0
  0
BLOCK_RECORD
  5
1E
330
A
100
AcDbSymbolTableRecord
100
AcDbBlockTableRecord
  2
_CLOSEDBLANK
340
0
  0
BLOCK_RECORD
  5
1F
330
A
100
AcDbSymbolTableRecord
100
AcDbBlockTableRecord
  2
_DOT
340
0
  0
BLOCK_RECORD
  5
20
330
A
100
AcDbSymbolTableRecord
100
AcDbBlockTableRecord
  2
_DOTSMALL
340
0
  0
BLOCK_RECORD
  5
21
330
A
100
AcDbSymbolTableRecord
100
AcDbBlockTableRecord
  2
_DATUMBLANK
340
0
  0
BLOCK_RECORD
  5
22
330
A
100
AcDbSymbolTableRecord
100
AcDbBlockTableRecord
  2
_DATUMFILLED
340
0
  0
BLOCK_RECORD
  5
23
330
A
100
AcDbSymbolTableRecord
100
AcDbBlockTableRecord
  2
_ORIGIN
340
0
  0
BLOCK_RECORD
  5
24
330
A
100
AcDbSymbolTableRecord
100
AcDbBlockTableRecord
  2
_NONE
340
0
  0
BLOCK_RECORD
  5
25
330
A
100
AcDbSymbolTableRecord
100
AcDbBlockTableRecord
  2
_DOTBLANK
340
0
  0
BLOCK_RECORD
  5
26
330
A
100
AcDbSymbolTableRecord
100
AcDbBlockTableRecord
  2
_INTEGRAL
340
0
  0
BLOCK_RECORD
  5
27
330
A
100
AcDbSymbolTableRecord
100
AcDbBlockTableRecord
  2
A2
340
0
102
{BLKREFS
331
148
102
}
  0
BLOCK_RECORD
  5
28
330
A
100
AcDbSymbolTableRecord
100
AcDbBlockTableRecord
  2
BLOCK001
340
0
102
{BLKREFS
331
149
102
}
  0
BLOCK_RECORD
  5
29
330
A
100
AcDbSymbolTableRecord
100
AcDbBlockTableRecord
  2
BLOCK002
340
0
102
{BLKREFS
331
14A
102
}
  0
BLOCK_RECORD
  5
2A
330
A
100
AcDbSymbolTableRecord
100
AcDbBlockTableRecord
  2
BLOCK003
340
0
102
{BLKREFS
331
14B
102
}
  0
BLOCK_RECORD
  5
2B
330
A
100
AcDbSymbolTableRecord
100
AcDbBlockTableRecord
  2
EGF21M10
340
0
102
{BLKREFS
331
16B
331
16C
331
242
331
27E
331
27F
331
280
331
282
102
}
  0
BLOCK_RECORD
  5
2C
330
A
100
AcDbSymbolTableRecord
100
AcDbBlockTableRecord
  2
EGF11M10
340
0
102
{BLKREFS
331
16D
331
243
331
281
331
283
102
}
  0
BLOCK_RECORD
  5
2D
330
A
100
AcDbSymbolTableRecord
100
AcDbBlockTableRecord
  2
EGF9M12
340
0
102
{BLKREFS
331
1D4
102
}
  0
BLOCK_RECORD
  5
2E
330
A
100
AcDbSymbolTableRecord
100
AcDbBlockTableRecord
  2
EGF11M12
340
0
102
{BLKREFS
331
23C
331
28E
102
}
  0
BLOCK_RECORD
  5
2F
330
A
100
AcDbSymbolTableRecord
100
AcDbBlockTableRecord
  2
EGF9M10
340
0
102
{BLKREFS
331
2C5
331
2C8
102
}
  0
ENDTAB
  0
ENDSEC
  0
SECTION
  2
BLOCKS
  0
BLOCK
  5
58
330
B
100
AcDbEntity
  8
0
100
AcDbBlockBegin
  2
*MODEL_SPACE
 70
     0
 10
0.0
 20
0.0
 30
0.0
  3
*MODEL_SPACE
  1

  0
ENDBLK
  5
7D
330
B
100
AcDbEntity
  8
0
100
AcDbBlockEnd
  0
BLOCK
  5
59
330
C
100
AcDbEntity
 67
     1
  8
0
100
AcDbBlockBegin
  2
*PAPER_SPACE
 70
     0
 10
0.0
 20
0.0
 30
0.0
  3
*PAPER_SPACE
  1

  0
ENDBLK
  5
7E
330
C
100
AcDbEntity
 67
     1
  8
0
100
AcDbBlockEnd
  0
BLOCK
  5
5A
330
D
100
AcDbEntity
  8
0
100
AcDbBlockBegin
  2
*D0
 70
     1
 10
0.0
 20
0.0
 30
0.0
  3
*D0
  1

  0
LINE
  5
B1
330
D
100
AcDbEntity
  8
LEVEL001
  6
Continuous
 62
     1
100
AcDbLine
 10
628.0
 20
548.0
 30
0.0
 11
628.0
 21
333.0
 31
0.0
  0
LINE
  5
B2
330
D
100
AcDbEntity
  8
LEVEL001
  6
Continuous
 62
     1
100
AcDbLine
 10
1118.0
 20
548.0
 30
0.0
 11
1118.0
 21
333.0
 31
0.0
  0
LINE
  5
B3
330
D
100
AcDbEntity
  8
LEVEL001
  6
Continuous
 62
     1
100
AcDbLine
 10
628.0
 20
343.0
 30
0.0
 11
1118.0
 21
343.0
 31
0.0
  0
INSERT
  5
B4
330
D
100
AcDbEntity
  8
LEVEL001
  6
Continuous
 62
     1
100
AcDbBlockReference
  2
_OPEN30
 10
628.0
 20
343.0
 30
0.0
 41
15.0
 42
15.0
 43
15.0
 50
180.0
  0
INSERT
  5
B5
330
D
100
AcDbEntity
  8
LEVEL001
  6
Continuous
 62
     1
100
AcDbBlockReference
  2
_OPEN30
 10
1118.0
 20
343.0
 30
0.0
 41
15.0
 42
15.0
 43
15.0
  0
MTEXT
  5
B6
330
D
100
AcDbEntity
  8
LEVEL001
  6
ByBlock
 62
     7
100
AcDbMText
 10
873.0
 20
355.85714285714
 30
0.0
 40
30.0
 41
0.0
 71
     8
 72
     1
  1
\A1;490
  7
GMM001
 73
     1
 44
1.0
1001
ACAD
1000
MTEXTBEGIN
1070
    73
1070
     1
1070
    44
1040
1.0
1070
    74
1070
     0
1000
MTEXTEND
  0
ENDBLK
  5
88
330
D
100
AcDbEntity
  8
0
100
AcDbBlockEnd
  0
BLOCK
  5
5B
330
E
100
AcDbEntity
  8
0
100
AcDbBlockBegin
  2
*D1
 70
     1
 10
0.0
 20
0.0
 30
0.0
  3
*D1
  1

  0
LINE
  5
B7
330
E
100
AcDbEntity
  8
LEVEL001
  6
Continuous
 62
     1
100
AcDbLine
 10
408.0
 20
1031.0
 30
0.0
 11
408.0
 21
1274.0
 31
0.0
  0
LINE
  5
B8
330
E
100
AcDbEntity
  8
LEVEL001
  6
Continuous
 62
     1
100
AcDbLine
 10
1338.0
 20
916.0
 30
0.0
 11
1338.0
 21
1274.0
 31
0.0
  0
LINE
  5
B9
330
E
100
AcDbEntity
  8
LEVEL001
  6
Continuous
 62
     1
100
AcDbLine
 10
408.0
 20
1264.0
 30
0.0
 11
1338.0
 21
1264.0
 31
0.0
  0
INSERT
  5
BA
330
E
100
AcDbEntity
  8
LEVEL001
  6
Continuous
 62
     1
100
AcDbBlockReference
  2
_OPEN30
 10
408.0
 20
1264.0
 30
0.0
 41
15.0
 42
15.0
 43
15.0
 50
180.0
  0
INSERT
  5
BB
330
E
100
AcDbEntity
  8
LEVEL001
  6
Continuous
 62
     1
100
AcDbBlockReference
  2
_OPEN30
 10
1338.0
 20
1264.0
 30
0.0
 41
15.0
 42
15.0
 43
15.0
  0
MTEXT
  5
BC
330
E
100
AcDbEntity
  8
LEVEL001
  6
ByBlock
 62
     7
100
AcDbMText
 10
873.0
 20
1276.8571428571
 30
0.0
 40
30.0
 41
0.0
 71
     8
 72
     1
  1
\A1;930
  7
GMM001
 73
     1
 44
1.0
1001
ACAD
1000
MTEXTBEGIN
1070
    73
1070
     1
1070
    44
1040
1.0
1070
    74
1070
     0
1000
MTEXTEND
  0
ENDBLK
  5
89
330
E
100
AcDbEntity
  8
0
100
AcDbBlockEnd
  0
BLOCK
  5
5C
330
F
100
AcDbEntity
  8
0
100
AcDbBlockBegin
  2
*D2
 70
     1
 10
0.0
 20
0.0
 30
0.0
  3
*D2
  1

  0
LINE
  5
BD
330
F
100
AcDbEntity
  8
LEVEL001
  6
Continuous
 62
     1
100
AcDbLine
 10
2098.5
 20
718.0
 30
0.0
 11
1968.5788915084
 21
608.3619337623799
 31
0.0
  0
INSERT
  5
BE
330
F
100
AcDbEntity
  8
LEVEL001
  6
Continuous
 62
     1
100
AcDbBlockReference
  2
_OPEN30
 10
1968.5788915084
 20
608.3619337623799
 30
0.0
 41
15.0
 42
15.0
 43
15.0
 50
220.16041242371
  0
MTEXT
  5
BF
330
F
100
AcDbEntity
  8
LEVEL001
  6
ByBlock
 62
     7
100
AcDbMText
 10
2025.2474911648
 20
673.0069330696299
 30
0.0
 40
30.0
 41
0.0
 71
     8
 72
     1
  1
\A1;R170
  7
GMM001
 11
0.76424181465622
 21
0.64492980139777
 31
0.0
 73
     1
 44
1.0
1001
ACAD
1000
MTEXTBEGIN
1070
    73
1070
     1
1070
    44
1040
1.0
1070
    74
1070
     0
1000
MTEXTEND
  0
ENDBLK
  5
8A
330
F
100
AcDbEntity
  8
0
100
AcDbBlockEnd
  0
BLOCK
  5
5D
330
10
100
AcDbEntity
  8
0
100
AcDbBlockBegin
  2
*D3
 70
     1
 10
0.0
 20
0.0
 30
0.0
  3
*D3
  1

  0
LINE
  5
C0
330
10
100
AcDbEntity
  8
LEVEL001
  6
Continuous
 62
     1
100
AcDbLine
 10
1821.0
 20
226.0
 30
0.0
 11
1821.0
 21
1274.0
 31
0.0
  0
LINE
  5
C1
330
10
100
AcDbEntity
  8
LEVEL001
  6
Continuous
 62
     1
100
AcDbLine
 10
2376.0
 20
226.0
 30
0.0
 11
2376.0
 21
1274.0
 31
0.0
  0
LINE
  5
C2
330
10
100
AcDbEntity
  8
LEVEL001
  6
Continuous
 62
     1
100
AcDbLine
 10
1821.0
 20
1264.0
 30
0.0
 11
2376.0
 21
1264.0
 31
0.0
  0
INSERT
  5
C3
330
10
100
AcDbEntity
  8
LEVEL001
  6
Continuous
 62
     1
100
AcDbBlockReference
  2
_OPEN30
 10
1821.0
 20
1264.0
 30
0.0
 41
15.0
 42
15.0
 43
15.0
 50
180.0
  0
INSERT
  5
C4
330
10
100
AcDbEntity
  8
LEVEL001
  6
Continuous
 62
     1
100
AcDbBlockReference
  2
_OPEN30
 10
2376.0
 20
1264.0
 30
0.0
 41
15.0
 42
15.0
 43
15.0
  0
MTEXT
  5
C5
330
10
100
AcDbEntity
  8
LEVEL001
  6
ByBlock
 62
     7
100
AcDbMText
 10
2098.5
 20
1276.8571428571
 30
0.0
 40
30.0
 41
0.0
 71
     8
 72
     1
  1
\A1;555
  7
GMM001
 73
     1
 44
1.0
1001
ACAD
1000
MTEXTBEGIN
1070
    73
1070
     1
1070
    44
1040
1.0
1070
    74
1070
     0
1000
MTEXTEND
  0
ENDBLK
  5
8B
330
10
100
AcDbEntity
  8
0
100
AcDbBlockEnd
  0
BLOCK
  5
5E
330
11
100
AcDbEntity
  8
0
100
AcDbBlockBegin
  2
*D4
 70
     1
 10
0.0
 20
0.0
 30
0.0
  3
*D4
  1

  0
LINE
  5
C6
330
11
100
AcDbEntity
  8
LEVEL001
  6
Continuous
 62
     1
100
AcDbLine
 10
408.0
 20
206.0
 30
0.0
 11
408.0
 21
19.0
 31
0.0
  0
LINE
  5
C7
330
11
100
AcDbEntity
  8
LEVEL001
  6
Continuous
 62
     1
100
AcDbLine
 10
523.0
 20
206.0
 30
0.0
 11
523.0
 21
19.0
 31
0.0
  0
LINE
  5
C8
330
11
100
AcDbEntity
  8
LEVEL001
  6
Continuous
 62
     1
100
AcDbLine
 10
408.0
 20
29.0
 30
0.0
 11
523.0
 21
29.0
 31
0.0
  0
INSERT
  5
C9
330
11
100
AcDbEntity
  8
LEVEL001
  6
Continuous
 62
     1
100
AcDbBlockReference
  2
_OPEN30
 10
408.0
 20
29.0
 30
0.0
 41
15.0
 42
15.0
 43
15.0
 50
180.0
  0
INSERT
  5
CA
330
11
100
AcDbEntity
  8
LEVEL001
  6
Continuous
 62
     1
100
AcDbBlockReference
  2
_OPEN30
 10
523.0
 20
29.0
 30
0.0
 41
15.0
 42
15.0
 43
15.0
  0
MTEXT
  5
CB
330
11
100
AcDbEntity
  8
LEVEL001
  6
ByBlock
 62
     7
100
AcDbMText
 10
465.5
 20
41.857142857143
 30
0.0
 40
30.0
 41
0.0
 71
     8
 72
     1
  1
\A1;115
  7
GMM001
 73
     1
 44
1.0
1001
ACAD
1000
MTEXTBEGIN
1070
    73
1070
     1
1070
    44
1040
1.0
1070
    74
1070
     0
1000
MTEXTEND
  0
ENDBLK
  5
8C
330
11
100
AcDbEntity
  8
0
100
AcDbBlockEnd
  0
BLOCK
  5
5F
330
12
100
AcDbEntity
  8
0
100
AcDbBlockBegin
  2
*D5
 70
     1
 10
0.0
 20
0.0
 30
0.0
  3
*D5
  1

  0
LINE
  5
CC
330
12
100
AcDbEntity
  8
LEVEL001
  6
Continuous
 62
     1
100
AcDbLine
 10
523.0
 20
206.0
 30
0.0
 11
523.0
 21
19.0
 31
0.0
  0
LINE
  5
CD
330
12
100
AcDbEntity
  8
LEVEL001
  6
Continuous
 62
     1
100
AcDbLine
 10
1223.0
 20
206.0
 30
0.0
 11
1223.0
 21
19.0
 31
0.0
  0
LINE
  5
CE
330
12
100
AcDbEntity
  8
LEVEL001
  6
Continuous
 62
     1
100
AcDbLine
 10
523.0
 20
29.0
 30
0.0
 11
1223.0
 21
29.0
 31
0.0
  0
INSERT
  5
CF
330
12
100
AcDbEntity
  8
LEVEL001
  6
Continuous
 62
     1
100
AcDbBlockReference
  2
_OPEN30
 10
523.0
 20
29.0
 30
0.0
 41
15.0
 42
15.0
 43
15.0
 50
180.0
  0
INSERT
  5
D0
330
12
100
AcDbEntity
  8
LEVEL001
  6
Continuous
 62
     1
100
AcDbBlockReference
  2
_OPEN30
 10
1223.0
 20
29.0
 30
0.0
 41
15.0
 42
15.0
 43
15.0
  0
MTEXT
  5
D1
330
12
100
AcDbEntity
  8
LEVEL001
  6
ByBlock
 62
     7
100
AcDbMText
 10
873.0
 20
41.857142857143
 30
0.0
 40
30.0
 41
0.0
 71
     8
 72
     1
  1
\A1;700
  7
GMM001
 73
     1
 44
1.0
1001
ACAD
1000
MTEXTBEGIN
1070
    73
1070
     1
1070
    44
1040
1.0
1070
    74
1070
     0
1000
MTEXTEND
  0
ENDBLK
  5
8D
330
12
100
AcDbEntity
  8
0
100
AcDbBlockEnd
  0
BLOCK
  5
60
330
13
100
AcDbEntity
  8
0
100
AcDbBlockBegin
  2
*D6
 70
     1
 10
0.0
 20
0.0
 30
0.0
  3
*D6
  1

  0
LINE
  5
D2
330
13
100
AcDbEntity
  8
LEVEL001
  6
Continuous
 62
     1
100
AcDbLine
 10
1223.0
 20
206.0
 30
0.0
 11
1223.0
 21
19.0
 31
0.0
  0
LINE
  5
D3
330
13
100
AcDbEntity
  8
LEVEL001
  6
Continuous
 62
     1
100
AcDbLine
 10
1338.0
 20
206.0
 30
0.0
 11
1338.0
 21
19.0
 31
0.0
  0
LINE
  5
D4
330
13
100
AcDbEntity
  8
LEVEL001
  6
Continuous
 62
     1
100
AcDbLine
 10
1223.0
 20
29.0
 30
0.0
 11
1338.0
 21
29.0
 31
0.0
  0
INSERT
  5
D5
330
13
100
AcDbEntity
  8
LEVEL001
  6
Continuous
 62
     1
100
AcDbBlockReference
  2
_OPEN30
 10
1223.0
 20
29.0
 30
0.0
 41
15.0
 42
15.0
 43
15.0
 50
180.0
  0
INSERT
  5
D6
330
13
100
AcDbEntity
  8
LEVEL001
  6
Continuous
 62
     1
100
AcDbBlockReference
  2
_OPEN30
 10
1338.0
 20
29.0
 30
0.0
 41
15.0
 42
15.0
 43
15.0
  0
MTEXT
  5
D7
330
13
100
AcDbEntity
  8
LEVEL001
  6
ByBlock
 62
     7
100
AcDbMText
 10
1280.5
 20
41.857142857143
 30
0.0
 40
30.0
 41
0.0
 71
     8
 72
     1
  1
\A1;115
  7
GMM001
 73
     1
 44
1.0
1001
ACAD
1000
MTEXTBEGIN
1070
    73
1070
     1
1070
    44
1040
1.0
1070
    74
1070
     0
1000
MTEXTEND
  0
ENDBLK
  5
8E
330
13
100
AcDbEntity
  8
0
100
AcDbBlockEnd
  0
BLOCK
  5
61
330
14
100
AcDbEntity
  8
0
100
AcDbBlockBegin
  2
*D7
 70
     1
 10
0.0
 20
0.0
 30
0.0
  3
*D7
  1

  0
LINE
  5
D8
330
14
100
AcDbEntity
  8
LEVEL001
  6
Continuous
 62
     1
100
AcDbLine
 10
1367.0
 20
117.0
 30
0.0
 11
1567.0
 21
117.0
 31
0.0
  0
LINE
  5
D9
330
14
100
AcDbEntity
  8
LEVEL001
  6
Continuous
 62
     1
100
AcDbLine
 10
1153.0
 20
1197.0
 30
0.0
 11
1567.0
 21
1197.0
 31
0.0
  0
LINE
  5
DA
330
14
100
AcDbEntity
  8
LEVEL001
  6
Continuous
 62
     1
100
AcDbLine
 10
1557.0
 20
117.0
 30
0.0
 11
1557.0
 21
1197.0
 31
0.0
  0
INSERT
  5
DB
330
14
100
AcDbEntity
  8
LEVEL001
  6
Continuous
 62
     1
100
AcDbBlockReference
  2
_OPEN30
 10
1557.0
 20
117.0
 30
0.0
 41
15.0
 42
15.0
 43
15.0
 50
270.0
  0
INSERT
  5
DC
330
14
100
AcDbEntity
  8
LEVEL001
  6
Continuous
 62
     1
100
AcDbBlockReference
  2
_OPEN30
 10
1557.0
 20
1197.0
 30
0.0
 41
15.0
 42
15.0
 43
15.0
 50
90.0
  0
MTEXT
  5
DD
330
14
100
AcDbEntity
  8
LEVEL001
  6
ByBlock
 62
     7
100
AcDbMText
 10
1544.1428571429
 20
657.0
 30
0.0
 40
30.0
 41
0.0
 71
     8
 72
     1
  1
\A1;1080
  7
GMM001
 11
0.0
 21
1.0
 31
0.0
 73
     1
 44
1.0
1001
ACAD
1000
MTEXTBEGIN
1070
    73
1070
     1
1070
    44
1040
1.0
1070
    74
1070
     0
1000
MTEXTEND
  0
ENDBLK
  5
8F
330
14
100
AcDbEntity
  8
0
100
AcDbBlockEnd
  0
BLOCK
  5
62
330
15
100
AcDbEntity
  8
0
100
AcDbBlockBegin
  2
*D8
 70
     1
 10
0.0
 20
0.0
 30
0.0
  3
*D8
  1

  0
LINE
  5
DE
330
15
100
AcDbEntity
  8
LEVEL001
  6
Continuous
 62
     1
100
AcDbLine
 10
1367.0
 20
117.0
 30
0.0
 11
1506.0
 21
117.0
 31
0.0
  0
LINE
  5
DF
330
15
100
AcDbEntity
  8
LEVEL001
  6
Continuous
 62
     1
100
AcDbLine
 10
1141.5
 20
1087.0
 30
0.0
 11
1506.0
 21
1087.0
 31
0.0
  0
LINE
  5
E0
330
15
100
AcDbEntity
  8
LEVEL001
  6
Continuous
 62
     1
100
AcDbLine
 10
1496.0
 20
117.0
 30
0.0
 11
1496.0
 21
1087.0
 31
0.0
  0
INSERT
  5
E1
330
15
100
AcDbEntity
  8
LEVEL001
  6
Continuous
 62
     1
100
AcDbBlockReference
  2
_OPEN30
 10
1496.0
 20
117.0
 30
0.0
 41
15.0
 42
15.0
 43
15.0
 50
270.0
  0
INSERT
  5
E2
330
15
100
AcDbEntity
  8
LEVEL001
  6
Continuous
 62
     1
100
AcDbBlockReference
  2
_OPEN30
 10
1496.0
 20
1087.0
 30
0.0
 41
15.0
 42
15.0
 43
15.0
 50
90.0
  0
MTEXT
  5
E3
330
15
100
AcDbEntity
  8
LEVEL001
  6
ByBlock
 62
     7
100
AcDbMText
 10
1483.1428571429
 20
602.0
 30
0.0
 40
30.0
 41
0.0
 71
     8
 72
     1
  1
\A1;970
  7
GMM001
 11
0.0
 21
1.0
 31
0.0
 73
     1
 44
1.0
1001
ACAD
1000
MTEXTBEGIN
1070
    73
1070
     1
1070
    44
1040
1.0
1070
    74
1070
     0
1000
MTEXTEND
  0
ENDBLK
  5
90
330
15
100
AcDbEntity
  8
0
100
AcDbBlockEnd
  0
BLOCK
  5
63
330
16
100
AcDbEntity
  8
0
100
AcDbBlockBegin
  2
_ARCHTICK
 70
     0
 10
0.0
 20
0.0
 30
0.0
  3
_ARCHTICK
  1

  0
LWPOLYLINE
  5
E4
330
16
100
AcDbEntity
  8
0
  6
ByBlock
 62
     0
100
AcDbPolyline
 90
        2
 70
     1
 43
0.15
 10
-0.5
 20
-0.5
 10
0.5
 20
0.5
  0
ENDBLK
  5
91
330
16
100
AcDbEntity
  8
0
100
AcDbBlockEnd
  0
BLOCK
  5
64
330
17
100
AcDbEntity
  8
0
100
AcDbBlockBegin
  2
_OBLIQUE
 70
     0
 10
0.0
 20
0.0
 30
0.0
  3
_OBLIQUE
  1

  0
LINE
  5
E8
330
17
100
AcDbEntity
  8
0
  6
ByBlock
 62
     0
100
AcDbLine
 10
-0.5
 20
-0.5
 30
0.0
 11
0.5
 21
0.5
 31
0.0
  0
ENDBLK
  5
9D
330
17
100
AcDbEntity
  8
0
100
AcDbBlockEnd
  0
BLOCK
  5
65
330
18
100
AcDbEntity
  8
0
100
AcDbBlockBegin
  2
_BOXBLANK
 70
     0
 10
0.0
 20
0.0
 30
0.0
  3
_BOXBLANK
  1

  0
LINE
  5
E9
330
18
100
AcDbEntity
  8
0
  6
ByBlock
 62
     0
100
AcDbLine
 10
-0.5
 20
-0.5
 30
0.0
 11
0.5
 21
-0.5
 31
0.0
  0
LINE
  5
EA
330
18
100
AcDbEntity
  8
0
  6
ByBlock
 62
     0
100
AcDbLine
 10
0.5
 20
-0.5
 30
0.0
 11
0.5
 21
0.5
 31
0.0
  0
LINE
  5
EB
330
18
100
AcDbEntity
  8
0
  6
ByBlock
 62
     0
100
AcDbLine
 10
0.5
 20
0.5
 30
0.0
 11
-0.5
 21
0.5
 31
0.0
  0
LINE
  5
EC
330
18
100
AcDbEntity
  8
0
  6
ByBlock
 62
     0
100
AcDbLine
 10
-0.5
 20
0.5
 30
0.0
 11
-0.5
 21
-0.5
 31
0.0
  0
LINE
  5
ED
330
18
100
AcDbEntity
  8
0
  6
ByBlock
 62
     0
100
AcDbLine
 10
-0.5
 20
0.0
 30
0.0
 11
-1.0
 21
0.0
 31
0.0
  0
ENDBLK
  5
92
330
18
100
AcDbEntity
  8
0
100
AcDbBlockEnd
  0
BLOCK
  5
66
330
19
100
AcDbEntity
  8
0
100
AcDbBlockBegin
  2
_BOXFILLED
 70
     0
 10
0.0
 20
0.0
 30
0.0
  3
_BOXFILLED
  1

  0
SOLID
  5
EE
330
19
100
AcDbEntity
  8
0
  6
ByBlock
 62
     0
100
AcDbTrace
 10
-0.5
 20
0.5
 30
0.0
 11
0.5
 21
0.5
 31
0.0
 12
-0.5
 22
-0.5
 32
0.0
 13
0.5
 23
-0.5
 33
0.0
  0
LINE
  5
EF
330
19
100
AcDbEntity
  8
0
  6
ByBlock
 62
     0
100
AcDbLine
 10
-0.5
 20
0.0
 30
0.0
 11
-1.0
 21
0.0
 31
0.0
  0
ENDBLK
  5
93
330
19
100
AcDbEntity
  8
0
100
AcDbBlockEnd
  0
BLOCK
  5
67
330
1A
100
AcDbEntity
  8
0
100
AcDbBlockBegin
  2
_CLOSED
 70
     0
 10
0.0
 20
0.0
 30
0.0
  3
_CLOSED
  1

  0
LINE
  5
F0
330
1A
100
AcDbEntity
  8
0
  6
ByBlock
 62
     0
100
AcDbLine
 10
-1.0
 20
0.16666666666667
 30
0.0
 11
0.0
 21
0.0
 31
0.0
  0
LINE
  5
F1
330
1A
100
AcDbEntity
  8
0
  6
ByBlock
 62
     0
100
AcDbLine
 10
0.0
 20
0.0
 30
0.0
 11
-1.0
 21
-0.16666666666667
 31
0.0
  0
LINE
  5
F2
330
1A
100
AcDbEntity
  8
0
  6
ByBlock
 62
     0
100
AcDbLine
 10
-1.0
 20
0.16666666666667
 30
0.0
 11
-1.0
 21
-0.16666666666667
 31
0.0
  0
LINE
  5
F3
330
1A
100
AcDbEntity
  8
0
  6
ByBlock
 62
     0
100
AcDbLine
 10
0.0
 20
0.0
 30
0.0
 11
-1.0
 21
0.0
 31
0.0
  0
ENDBLK
  5
94
330
1A
100
AcDbEntity
  8
0
100
AcDbBlockEnd
  0
BLOCK
  5
68
330
1B
100
AcDbEntity
  8
0
100
AcDbBlockBegin
  2
_OPEN
 70
     0
 10
0.0
 20
0.0
 30
0.0
  3
_OPEN
  1

  0
LINE
  5
F4
330
1B
100
AcDbEntity
  8
0
  6
ByBlock
 62
     0
100
AcDbLine
 10
-1.0
 20
0.16666666666667
 30
0.0
 11
0.0
 21
0.0
 31
0.0
  0
LINE
  5
F5
330
1B
100
AcDbEntity
  8
0
  6
ByBlock
 62
     0
100
AcDbLine
 10
0.0
 20
0.0
 30
0.0
 11
-1.0
 21
-0.16666666666667
 31
0.0
  0
LINE
  5
F6
330
1B
100
AcDbEntity
  8
0
  6
ByBlock
 62
     0
100
AcDbLine
 10
0.0
 20
0.0
 30
0.0
 11
-1.0
 21
0.0
 31
0.0
  0
ENDBLK
  5
9E
330
1B
100
AcDbEntity
  8
0
100
AcDbBlockEnd
  0
BLOCK
  5
69
330
1C
100
AcDbEntity
  8
0
100
AcDbBlockBegin
  2
_OPEN30
 70
     0
 10
0.0
 20
0.0
 30
0.0
  3
_OPEN30
  1

  0
LINE
  5
F7
330
1C
100
AcDbEntity
  8
0
  6
ByBlock
 62
     0
100
AcDbLine
 10
-1.0
 20
0.2679491924311
 30
0.0
 11
0.0
 21
0.0
 31
0.0
  0
LINE
  5
F8
330
1C
100
AcDbEntity
  8
0
  6
ByBlock
 62
     0
100
AcDbLine
 10
0.0
 20
0.0
 30
0.0
 11
-1.0
 21
-0.2679491924311
 31
0.0
  0
LINE
  5
F9
330
1C
100
AcDbEntity
  8
0
  6
ByBlock
 62
     0
100
AcDbLine
 10
0.0
 20
0.0
 30
0.0
 11
-1.0
 21
0.0
 31
0.0
  0
ENDBLK
  5
9F
330
1C
100
AcDbEntity
  8
0
100
AcDbBlockEnd
  0
BLOCK
  5
6A
330
1D
100
AcDbEntity
  8
0
100
AcDbBlockBegin
  2
_OPEN90
 70
     0
 10
0.0
 20
0.0
 30
0.0
  3
_OPEN90
  1

  0
LINE
  5
FA
330
1D
100
AcDbEntity
  8
0
  6
ByBlock
 62
     0
100
AcDbLine
 10
-0.5
 20
0.5
 30
0.0
 11
0.0
 21
0.0
 31
0.0
  0
LINE
  5
FB
330
1D
100
AcDbEntity
  8
0
  6
ByBlock
 62
     0
100
AcDbLine
 10
0.0
 20
0.0
 30
0.0
 11
-0.5
 21
-0.5
 31
0.0
  0
LINE
  5
FC
330
1D
100
AcDbEntity
  8
0
  6
ByBlock
 62
     0
100
AcDbLine
 10
0.0
 20
0.0
 30
0.0
 11
-1.0
 21
0.0
 31
0.0
  0
ENDBLK
  5
A0
330
1D
100
AcDbEntity
  8
0
100
AcDbBlockEnd
  0
BLOCK
  5
6B
330
1E
100
AcDbEntity
  8
0
100
AcDbBlockBegin
  2
_CLOSEDBLANK
 70
     0
 10
0.0
 20
0.0
 30
0.0
  3
_CLOSEDBLANK
  1

  0
LINE
  5
FD
330
1E
100
AcDbEntity
  8
0
  6
ByBlock
 62
     0
100
AcDbLine
 10
-1.0
 20
0.16666666666667
 30
0.0
 11
0.0
 21
0.0
 31
0.0
  0
LINE
  5
FE
330
1E
100
AcDbEntity
  8
0
  6
ByBlock
 62
     0
100
AcDbLine
 10
0.0
 20
0.0
 30
0.0
 11
-1.0
 21
-0.16666666666667
 31
0.0
  0
LINE
  5
FF
330
1E
100
AcDbEntity
  8
0
  6
ByBlock
 62
     0
100
AcDbLine
 10
-1.0
 20
0.16666666666667
 30
0.0
 11
-1.0
 21
-0.16666666666667
 31
0.0
  0
ENDBLK
  5
95
330
1E
100
AcDbEntity
  8
0
100
AcDbBlockEnd
  0
BLOCK
  5
6C
330
1F
100
AcDbEntity
  8
0
100
AcDbBlockBegin
  2
_DOT
 70
     0
 10
0.0
 20
0.0
 30
0.0
  3
_DOT
  1

  0
LWPOLYLINE
  5
100
330
1F
100
AcDbEntity
  8
0
  6
ByBlock
 62
     0
100
AcDbPolyline
 90
        2
 70
     1
 43
0.5
 10
-0.25
 20
0.0
 42
1.0
 10
0.25
 20
0.0
 42
1.0
  0
LINE
  5
104
330
1F
100
AcDbEntity
  8
0
  6
ByBlock
 62
     0
100
AcDbLine
 10
-0.5
 20
0.0
 30
0.0
 11
-1.0
 21
0.0
 31
0.0
  0
ENDBLK
  5
98
330
1F
100
AcDbEntity
  8
0
100
AcDbBlockEnd
  0
BLOCK
  5
6D
330
20
100
AcDbEntity
  8
0
100
AcDbBlockBegin
  2
_DOTSMALL
 70
     0
 10
0.0
 20
0.0
 30
0.0
  3
_DOTSMALL
  1

  0
LWPOLYLINE
  5
105
330
20
100
AcDbEntity
  8
0
  6
ByBlock
 62
     0
100
AcDbPolyline
 90
        2
 70
     1
 43
0.5
 10
-0.0625
 20
0.0
 42
1.0
 10
0.0625
 20
0.0
 42
1.0
  0
ENDBLK
  5
9A
330
20
100
AcDbEntity
  8
0
100
AcDbBlockEnd
  0
BLOCK
  5
6E
330
21
100
AcDbEntity
  8
0
100
AcDbBlockBegin
  2
_DATUMBLANK
 70
     0
 10
0.0
 20
0.0
 30
0.0
  3
_DATUMBLANK
  1

  0
LINE
  5
109
330
21
100
AcDbEntity
  8
0
  6
ByBlock
 62
     0
100
AcDbLine
 10
0.0
 20
0.5773502700000001
 30
0.0
 11
-1.0
 21
0.0
 31
0.0
  0
LINE
  5
10A
330
21
100
AcDbEntity
  8
0
  6
ByBlock
 62
     0
100
AcDbLine
 10
-1.0
 20
0.0
 30
0.0
 11
0.0
 21
-0.5773502700000001
 31
0.0
  0
LINE
  5
10B
330
21
100
AcDbEntity
  8
0
  6
ByBlock
 62
     0
100
AcDbLine
 10
0.0
 20
-0.5773502700000001
 30
0.0
 11
0.0
 21
0.5773502700000001
 31
0.0
  0
ENDBLK
  5
96
330
21
100
AcDbEntity
  8
0
100
AcDbBlockEnd
  0
BLOCK
  5
6F
330
22
100
AcDbEntity
  8
0
100
AcDbBlockBegin
  2
_DATUMFILLED
 70
     0
 10
0.0
 20
0.0
 30
0.0
  3
_DATUMFILLED
  1

  0
SOLID
  5
10C
330
22
100
AcDbEntity
  8
0
  6
ByBlock
 62
     0
100
AcDbTrace
 10
0.0
 20
0.5773502700000001
 30
0.0
 11
-1.0
 21
0.0
 31
0.0
 12
0.0
 22
-0.5773502700000001
 32
0.0
 13
0.0
 23
-0.5773502700000001
 33
0.0
  0
ENDBLK
  5
97
330
22
100
AcDbEntity
  8
0
100
AcDbBlockEnd
  0
BLOCK
  5
70
330
23
100
AcDbEntity
  8
0
100
AcDbBlockBegin
  2
_ORIGIN
 70
     0
 10
0.0
 20
0.0
 30
0.0
  3
_ORIGIN
  1

  0
CIRCLE
  5
10D
330
23
100
AcDbEntity
  8
0
  6
ByBlock
 62
     0
100
AcDbCircle
 10
0.0
 20
0.0
 30
0.0
 40
0.5
  0
LINE
  5
10E
330
23
100
AcDbEntity
  8
0
  6
ByBlock
 62
     0
100
AcDbLine
 10
0.0
 20
0.0
 30
0.0
 11
-1.0
 21
0.0
 31
0.0
  0
ENDBLK
  5
A1
330
23
100
AcDbEntity
  8
0
100
AcDbBlockEnd
  0
BLOCK
  5
71
330
24
100
AcDbEntity
  8
0
100
AcDbBlockBegin
  2
_NONE
 70
     0
 10
0.0
 20
0.0
 30
0.0
  3
_NONE
  1

  0
CIRCLE
  5
10F
330
24
100
AcDbEntity
  8
0
  6
ByBlock
 62
     0
100
AcDbCircle
 10
0.0
 20
0.0
 30
0.0
 40
0.25
  0
ENDBLK
  5
9C
330
24
100
AcDbEntity
  8
0
100
AcDbBlockEnd
  0
BLOCK
  5
72
330
25
100
AcDbEntity
  8
0
100
AcDbBlockBegin
  2
_DOTBLANK
 70
     0
 10
0.0
 20
0.0
 30
0.0
  3
_DOTBLANK
  1

  0
CIRCLE
  5
110
330
25
100
AcDbEntity
  8
0
  6
ByBlock
 62
     0
100
AcDbCircle
 10
0.0
 20
0.0
 30
0.0
 40
0.5
  0
LINE
  5
111
330
25
100
AcDbEntity
  8
0
  6
ByBlock
 62
     0
100
AcDbLine
 10
-0.5
 20
0.0
 30
0.0
 11
-1.0
 21
0.0
 31
0.0
  0
ENDBLK
  5
99
330
25
100
AcDbEntity
  8
0
100
AcDbBlockEnd
  0
BLOCK
  5
73
330
26
100
AcDbEntity
  8
0
100
AcDbBlockBegin
  2
_INTEGRAL
 70
     0
 10
0.0
 20
0.0
 30
0.0
  3
_INTEGRAL
  1

  0
ARC
  5
112
330
26
100
AcDbEntity
  8
0
  6
ByBlock
 62
     0
100
AcDbCircle
 10
0.444888
 20
-0.091335
 30
0.0
 40
0.454167
100
AcDbArc
 50
102.0
 51
168.0
  0
ARC
  5
113
330
26
100
AcDbEntity
  8
0
  6
ByBlock
 62
     0
100
AcDbCircle
 10
-0.444888
 20
0.091335
 30
0.0
 40
0.454167
100
AcDbArc
 50
282.0
 51
348.0
  0
ENDBLK
  5
9B
330
26
100
AcDbEntity
  8
0
100
AcDbBlockEnd
  0
BLOCK
  5
74
330
27
100
AcDbEntity
  8
0
100
AcDbBlockBegin
  2
A2
 70
     0
 10
0.0
 20
0.0
 30
0.0
  3
A2
  1

  0
LWPOLYLINE
  5
114
330
27
100
AcDbEntity
  8
内図枠(作図領域)
  6
Continuous
 62
     7
100
AcDbPolyline
 90
        4
 70
     1
 43
0.0
 10
0.0000000000000142
 20
0.0
 10
544.0
 20
0.0
 10
544.0
 20
378.0
 10
0.0000000000000142
 20
378.0
  0
ENDBLK
  5
7F
330
27
100
AcDbEntity
  8
0
100
AcDbBlockEnd
  0
BLOCK
  5
75
330
28
100
AcDbEntity
  8
0
100
AcDbBlockBegin
  2
BLOCK001
 70
     0
 10
0.0
 20
0.0
 30
0.0
  3
BLOCK001
  1

  0
LINE
  5
115
330
28
100
AcDbEntity
  8
LEVEL001
  6
Continuous
 62
     7
100
AcDbLine
 10
2040.0
 20
180.0
 30
0.0
 11
2720.0
 21
180.0
 31
0.0
  0
LINE
  5
116
330
28
100
AcDbEntity
  8
LEVEL001
  6
Continuous
 62
     7
100
AcDbLine
 10
2040.0
 20
120.0
 30
0.0
 11
2720.0
 21
120.0
 31
0.0
  0
LINE
  5
117
330
28
100
AcDbEntity
  8
LEVEL001
  6
Continuous
 62
     7
100
AcDbLine
 10
2040.0
 20
180.0
 30
0.0
 11
2040.0
 21
120.0
 31
0.0
  0
LINE
  5
118
330
28
100
AcDbEntity
  8
LEVEL001
  6
Continuous
 62
     7
100
AcDbLine
 10
2080.0
 20
180.0
 30
0.0
 11
2080.0
 21
120.0
 31
0.0
  0
LINE
  5
119
330
28
100
AcDbEntity
  8
LEVEL001
  6
Continuous
 62
     7
100
AcDbLine
 10
2380.0
 20
180.0
 30
0.0
 11
2380.0
 21
120.0
 31
0.0
  0
LINE
  5
11A
330
28
100
AcDbEntity
  8
LEVEL001
  6
Continuous
 62
     7
100
AcDbLine
 10
2420.0
 20
180.0
 30
0.0
 11
2420.0
 21
120.0
 31
0.0
  0
LINE
  5
11B
330
28
100
AcDbEntity
  8
LEVEL001
  6
Continuous
 62
     7
100
AcDbLine
 10
2720.0
 20
180.0
 30
0.0
 11
2720.0
 21
120.0
 31
0.0
  0
ENDBLK
  5
80
330
28
100
AcDbEntity
  8
0
100
AcDbBlockEnd
  0
BLOCK
  5
76
330
29
100
AcDbEntity
  8
0
100
AcDbBlockBegin
  2
BLOCK002
 70
     0
 10
0.0
 20
0.0
 30
0.0
  3
BLOCK002
  1

  0
LINE
  5
11C
330
29
100
AcDbEntity
  8
LEVEL001
  6
Continuous
 62
     7
100
AcDbLine
 10
2040.0
 20
120.0
 30
0.0
 11
2720.0
 21
120.0
 31
0.0
  0
LINE
  5
11D
330
29
100
AcDbEntity
  8
LEVEL001
  6
Continuous
 62
     7
100
AcDbLine
 10
2230.0
 20
80.0
 30
0.0
 11
2720.0
 21
80.0
 31
0.0
  0
LINE
  5
11E
330
29
100
AcDbEntity
  8
LEVEL001
  6
Continuous
 62
     7
100
AcDbLine
 10
2040.0
 20
40.0
 30
0.0
 11
2720.0
 21
40.0
 31
0.0
  0
LINE
  5
11F
330
29
100
AcDbEntity
  8
LEVEL001
  6
Continuous
 62
     7
100
AcDbLine
 10
2040.0
 20
0.0
 30
0.0
 11
2720.0
 21
0.0
 31
0.0
  0
LINE
  5
120
330
29
100
AcDbEntity
  8
LEVEL001
  6
Continuous
 62
     7
100
AcDbLine
 10
2040.0
 20
120.0
 30
0.0
 11
2040.0
 21
0.0
 31
0.0
  0
LINE
  5
121
330
29
100
AcDbEntity
  8
LEVEL001
  6
Continuous
 62
     7
100
AcDbLine
 10
2080.0
 20
120.0
 30
0.0
 11
2080.0
 21
40.0
 31
0.0
  0
LINE
  5
122
330
29
100
AcDbEntity
  8
LEVEL001
  6
Continuous
 62
     7
100
AcDbLine
 10
2230.0
 20
120.0
 30
0.0
 11
2230.0
 21
40.0
 31
0.0
  0
LINE
  5
123
330
29
100
AcDbEntity
  8
LEVEL001
  6
Continuous
 62
     7
100
AcDbLine
 10
2380.0
 20
120.0
 30
0.0
 11
2380.0
 21
40.0
 31
0.0
  0
LINE
  5
124
330
29
100
AcDbEntity
  8
LEVEL001
  6
Continuous
 62
     7
100
AcDbLine
 10
2420.0
 20
120.0
 30
0.0
 11
2420.0
 21
40.0
 31
0.0
  0
LINE
  5
125
330
29
100
AcDbEntity
  8
LEVEL001
  6
Continuous
 62
     7
100
AcDbLine
 10
2520.0
 20
120.0
 30
0.0
 11
2520.0
 21
40.0
 31
0.0
  0
LINE
  5
126
330
29
100
AcDbEntity
  8
LEVEL001
  6
Continuous
 62
     7
100
AcDbLine
 10
2555.0
 20
120.0
 30
0.0
 11
2555.0
 21
80.0
 31
0.0
  0
LINE
  5
127
330
29
100
AcDbEntity
  8
LEVEL001
  6
Continuous
 62
     7
100
AcDbLine
 10
2585.0
 20
120.0
 30
0.0
 11
2585.0
 21
80.0
 31
0.0
  0
LINE
  5
128
330
29
100
AcDbEntity
  8
LEVEL001
  6
Continuous
 62
     7
100
AcDbLine
 10
2620.0
 20
120.0
 30
0.0
 11
2620.0
 21
40.0
 31
0.0
  0
LINE
  5
129
330
29
100
AcDbEntity
  8
LEVEL001
  6
Continuous
 62
     7
100
AcDbLine
 10
2720.0
 20
120.0
 30
0.0
 11
2720.0
 21
0.0
 31
0.0
  0
ENDBLK
  5
81
330
29
100
AcDbEntity
  8
0
100
AcDbBlockEnd
  0
BLOCK
  5
77
330
2A
100
AcDbEntity
  8
0
100
AcDbBlockBegin
  2
BLOCK003
 70
     0
 10
0.0
 20
0.0
 30
0.0
  3
BLOCK003
  1

  0
TEXT
  5
12A
330
2A
100
AcDbEntity
  8
LEVEL001
  6
ByBlock
 62
     7
100
AcDbText
 10
2226.0000228882
 20
10.0
 30
0.0
 40
20.0
  1
さぬき麺機株式会社
100
AcDbText
  0
TEXT
  5
12B
330
2A
100
AcDbEntity
  8
LEVEL001
  6
ByBlock
 62
     7
100
AcDbText
 10
2060.0
 20
175.55553436279
 30
0.0
 40
20.0
  1
名称
  7
STANDARD1
100
AcDbText
  0
TEXT
  5
12C
330
2A
100
AcDbEntity
  8
LEVEL001
  6
ByBlock
 62
     7
100
AcDbText
 10
2400.0
 20
175.55549621582
 30
0.0
 40
20.0
  1
図番
  7
STANDARD1
100
AcDbText
  0
TEXT
  5
12D
330
2A
100
AcDbEntity
  8
LEVEL001
  6
ByBlock
 62
     7
100
AcDbText
 10
2060.0
 20
108.8888891538
 30
0.0
 40
20.0
  1
画法
  7
STANDARD1
100
AcDbText
  0
TEXT
  5
12E
330
2A
100
AcDbEntity
  8
LEVEL001
  6
ByBlock
 62
     7
100
AcDbText
 10
2094.0000003576
 20
70.0
 30
0.0
 40
20.0
  1
第三角法
100
AcDbText
  0
TEXT
  5
12F
330
2A
100
AcDbEntity
  8
LEVEL001
  6
ByBlock
 62
     7
100
AcDbText
 10
2244.0000003576
 20
90.0
 30
0.0
 40
20.0
  1
共通機種
100
AcDbText
  0
TEXT
  5
130
330
2A
100
AcDbEntity
  8
LEVEL001
  6
ByBlock
 62
     7
100
AcDbText
 10
2383.999999764
 20
90.0
 30
0.0
 40
20.0
  1
個数
 41
0.80000001192093
100
AcDbText
  0
TEXT
  5
131
330
2A
100
AcDbEntity
  8
LEVEL001
  6
ByBlock
 62
     7
100
AcDbText
 10
2440.0
 20
90.0
 30
0.0
 40
20.0
  1
尺度
100
AcDbText
  0
TEXT
  5
132
330
2A
100
AcDbEntity
  8
LEVEL001
  6
ByBlock
 62
     7
100
AcDbText
 10
2530.0
 20
90.0
 30
0.0
 40
20.0
  1
年月日
100
AcDbText
  0
TEXT
  5
133
330
2A
100
AcDbEntity
  8
LEVEL001
  6
ByBlock
 62
     7
100
AcDbText
 10
2640.0
 20
90.0
 30
0.0
 40
20.0
  1
製図
100
AcDbText
  0
POINT
  5
134
330
2A
100
AcDbEntity
  8
LEVEL001
  6
ByBlock
 62
     7
100
AcDbPoint
 10
2520.0
 20
50.0
 30
0.0
  0
ENDBLK
  5
82
330
2A
100
AcDbEntity
  8
0
100
AcDbBlockEnd
  0
BLOCK
  5
78
330
2B
100
AcDbEntity
  8
0
100
AcDbBlockBegin
  2
EGF21M10
 70
     0
 10
0.0
 20
0.0
 30
0.0
  3
EGF21M10
  1

  0
LWPOLYLINE
  5
135
330
2B
100
AcDbEntity
  8
LEVEL001
  6
Continuous
 62
     7
100
AcDbPolyline
 90
        4
 70
     1
 43
0.0
 10
0.0
 20
-10.5
 10
2.0
 20
-10.5
 10
2.0
 20
10.5
 10
0.0
 20
10.5
  0
ENDBLK
  5
83
330
2B
100
AcDbEntity
  8
0
100
AcDbBlockEnd
  0
BLOCK
  5
79
330
2C
100
AcDbEntity
  8
0
100
AcDbBlockBegin
  2
EGF11M10
 70
     0
 10
0.0
 20
0.0
 30
0.0
  3
EGF11M10
  1

  0
ARC
  5
136
330
2C
100
AcDbEntity
  8
LEVEL001
  6
Continuous
 62
     7
100
AcDbCircle
 10
-5.779165296304699
 20
0.0
 30
0.0
 40
13.779165296305
100
AcDbArc
 50
339.13593563448
 51
20.864064365521
  0
ARC
  5
137
330
2C
100
AcDbEntity
  8
LEVEL001
  6
Continuous
 62
     7
100
AcDbCircle
 10
4.216386071101299
 20
7.361215932129099
 30
0.0
 40
3.7836139288987
100
AcDbArc
 50
319.57010315284
 51
0.0
  0
LWPOLYLINE
  5
138
330
2C
100
AcDbEntity
  8
LEVEL001
  6
Continuous
 62
     7
100
AcDbPolyline
 90
        6
 70
     1
 43
0.0
 10
0.0
 20
-9.8149545761978
 10
0.0
 20
9.8149545761978
 10
7.0964730540863
 20
9.8149545761978
 10
8.0
 20
8.25
 10
8.0
 20
-8.25
 10
7.0964730540863
 20
-9.8149545761978
  0
LINE
  5
139
330
2C
100
AcDbEntity
  8
LEVEL001
  6
Continuous
 62
     7
100
AcDbLine
 10
0.0
 20
4.907477288060199
 30
0.0
 11
7.0964730540863
 21
4.907477288060199
 31
0.0
  0
ARC
  5
13A
330
2C
100
AcDbEntity
  8
LEVEL001
  6
Continuous
 62
     7
100
AcDbCircle
 10
4.216386071101299
 20
-7.361215932129
 30
0.0
 40
3.7836139288987
100
AcDbArc
 50
0.0
 51
40.429896847157
  0
LINE
  5
13B
330
2C
100
AcDbEntity
  8
LEVEL001
  6
Continuous
 62
     7
100
AcDbLine
 10
0.0
 20
-4.907477288060199
 30
0.0
 11
7.0964730540863
 21
-4.907477288060199
 31
0.0
  0
ENDBLK
  5
84
330
2C
100
AcDbEntity
  8
0
100
AcDbBlockEnd
  0
BLOCK
  5
7A
330
2D
100
AcDbEntity
  8
0
100
AcDbBlockBegin
  2
EGF9M12
 70
     0
 10
0.0
 20
0.0
 30
0.0
  3
EGF9M12
  1

  0
CIRCLE
  5
13C
330
2D
100
AcDbEntity
  8
LEVEL001
  6
Continuous
 62
     7
100
AcDbCircle
 10
0.0
 20
0.0
 30
0.0
 40
6.0
  0
CIRCLE
  5
13D
330
2D
100
AcDbEntity
  8
LEVEL001
  6
Continuous
 62
     7
100
AcDbCircle
 10
0.0
 20
0.0
 30
0.0
 40
9.0
  0
LWPOLYLINE
  5
13E
330
2D
100
AcDbEntity
  8
LEVEL001
  6
Continuous
 62
     7
100
AcDbPolyline
 90
        6
 70
     1
 43
0.0
 10
0.0
 20
10.969655114577
 10
-9.5
 20
5.484827557249899
 10
-9.5
 20
-5.484827557249899
 10
0.0
 20
-10.969655114577
 10
9.5
 20
-5.484827557249899
 10
9.5
 20
5.484827557249899
  0
ENDBLK
  5
85
330
2D
100
AcDbEntity
  8
0
100
AcDbBlockEnd
  0
BLOCK
  5
7B
330
2E
100
AcDbEntity
  8
0
100
AcDbBlockBegin
  2
EGF11M12
 70
     0
 10
0.0
 20
0.0
 30
0.0
  3
EGF11M12
  1

  0
ARC
  5
13F
330
2E
100
AcDbEntity
  8
LEVEL001
  6
Continuous
 62
     7
100
AcDbCircle
 10
-3.7957441339726
 20
0.0
 30
0.0
 40
13.795744133973
100
AcDbArc
 50
336.57340248944
 51
23.426597510562
  0
ARC
  5
140
330
2E
100
AcDbEntity
  8
LEVEL001
  6
Continuous
 62
     7
100
AcDbCircle
 10
6.1246211248964
 20
8.2272413359135
 30
0.0
 40
3.875378875103599
100
AcDbArc
 50
314.95592675987
 51
0.0
  0
LWPOLYLINE
  5
141
330
2E
100
AcDbEntity
  8
LEVEL001
  6
Continuous
 62
     7
100
AcDbPolyline
 90
        6
 70
     1
 43
0.0
 10
0.0
 20
-10.969655114577
 10
0.0
 20
10.969655114577
 10
8.8628190892874
 20
10.969655114577
 10
10.0
 20
9.0
 10
10.0
 20
-9.0
 10
8.8628190892874
 20
-10.969655114577
  0
LINE
  5
142
330
2E
100
AcDbEntity
  8
LEVEL001
  6
Continuous
 62
     7
100
AcDbLine
 10
0.0
 20
5.484827557249899
 30
0.0
 11
8.8628190892874
 21
5.484827557249899
 31
0.0
  0
ARC
  5
143
330
2E
100
AcDbEntity
  8
LEVEL001
  6
Continuous
 62
     7
100
AcDbCircle
 10
6.1246211248964
 20
-8.2272413359135
 30
0.0
 40
3.875378875103599
100
AcDbArc
 50
0.0
 51
45.04407324012599
  0
LINE
  5
144
330
2E
100
AcDbEntity
  8
LEVEL001
  6
Continuous
 62
     7
100
AcDbLine
 10
0.0
 20
-5.484827557249899
 30
0.0
 11
8.8628190892874
 21
-5.484827557249899
 31
0.0
  0
ENDBLK
  5
86
330
2E
100
AcDbEntity
  8
0
100
AcDbBlockEnd
  0
BLOCK
  5
7C
330
2F
100
AcDbEntity
  8
0
100
AcDbBlockBegin
  2
EGF9M10
 70
     0
 10
0.0
 20
0.0
 30
0.0
  3
EGF9M10
  1

  0
CIRCLE
  5
145
330
2F
100
AcDbEntity
  8
LEVEL001
  6
Continuous
 62
     7
100
AcDbCircle
 10
0.0
 20
0.0
 30
0.0
 40
5.0
  0
CIRCLE
  5
146
330
2F
100
AcDbEntity
  8
LEVEL001
  6
Continuous
 62
     7
100
AcDbCircle
 10
0.0
 20
0.0
 30
0.0
 40
8.25
  0
LWPOLYLINE
  5
147
330
2F
100
AcDbEntity
  8
LEVEL001
  6
Continuous
 62
     7
100
AcDbPolyline
 90
        6
 70
     1
 43
0.0
 10
0.0
 20
9.8149545761978
 10
-8.5
 20
4.907477288060199
 10
-8.5
 20
-4.907477288060199
 10
0.0
 20
-9.8149545761978
 10
8.5
 20
-4.907477288060199
 10
8.5
 20
4.907477288060199
  0
ENDBLK
  5
87
330
2F
100
AcDbEntity
  8
0
100
AcDbBlockEnd
  0
ENDSEC
  0
SECTION
  2
ENTITIES
  0
INSERT
  5
148
330
B
100
AcDbEntity
  8
0
100
AcDbBlockReference
  2
A2
 10
0.0
 20
0.0
 30
0.0
 41
5.0
 42
5.0
  0
INSERT
  5
149
330
B
100
AcDbEntity
  8
LEVEL001
100
AcDbBlockReference
  2
BLOCK001
 10
0.0
 20
0.0
 30
0.0
  0
INSERT
  5
14A
330
B
100
AcDbEntity
  8
LEVEL001
100
AcDbBlockReference
  2
BLOCK002
 10
0.0
 20
0.0
 30
0.0
  0
INSERT
  5
14B
330
B
100
AcDbEntity
  8
0
100
AcDbBlockReference
  2
BLOCK003
 10
0.0
 20
0.0
 30
0.0
  0
LINE
  5
14C
330
B
100
AcDbEntity
  8
LEVEL001
  6
DASHDOT
 62
     1
100
AcDbLine
 10
289.0
 20
1602.0
 30
0.0
 11
1457.0
 21
1602.0
 31
0.0
  0
LINE
  5
14D
330
B
100
AcDbEntity
  8
LEVEL001
  6
DASHDOT
 62
     1
100
AcDbLine
 10
873.0
 20
1330.0
 30
0.0
 11
873.0
 21
1874.0
 31
0.0
  0
POINT
  5
14E
330
B
100
AcDbEntity
  8
LEVEL001
 62
     7
100
AcDbPoint
 10
1132.0
 20
1772.0
 30
0.0
  0
POINT
  5
14F
330
B
100
AcDbEntity
  8
LEVEL001
 62
     1
100
AcDbPoint
 10
533.0
 20
1373.5
 30
0.0
  0
POINT
  5
150
330
B
100
AcDbEntity
  8
LEVEL001
 62
     1
100
AcDbPoint
 10
533.0
 20
1345.5
 30
0.0
  0
POINT
  5
151
330
B
100
AcDbEntity
  8
LEVEL001
 62
     1
100
AcDbPoint
 10
588.0
 20
1345.5
 30
0.0
  0
POINT
  5
152
330
B
100
AcDbEntity
  8
LEVEL001
 62
     1
100
AcDbPoint
 10
588.0
 20
1373.5
 30
0.0
  0
POINT
  5
153
330
B
100
AcDbEntity
  8
LEVEL001
 62
     1
100
AcDbPoint
 10
533.0
 20
1858.5
 30
0.0
  0
POINT
  5
154
330
B
100
AcDbEntity
  8
LEVEL001
 62
     1
100
AcDbPoint
 10
533.0
 20
1830.5
 30
0.0
  0
POINT
  5
155
330
B
100
AcDbEntity
  8
LEVEL001
 62
     1
100
AcDbPoint
 10
588.0
 20
1830.5
 30
0.0
  0
POINT
  5
156
330
B
100
AcDbEntity
  8
LEVEL001
 62
     1
100
AcDbPoint
 10
588.0
 20
1858.5
 30
0.0
  0
POINT
  5
157
330
B
100
AcDbEntity
  8
LEVEL001
 62
     1
100
AcDbPoint
 10
1158.0
 20
1338.5
 30
0.0
  0
POINT
  5
158
330
B
100
AcDbEntity
  8
LEVEL001
 62
     1
100
AcDbPoint
 10
1158.0
 20
1380.5
 30
0.0
  0
POINT
  5
159
330
B
100
AcDbEntity
  8
LEVEL001
 62
     1
100
AcDbPoint
 10
1213.0
 20
1380.5
 30
0.0
  0
POINT
  5
15A
330
B
100
AcDbEntity
  8
LEVEL001
 62
     1
100
AcDbPoint
 10
1213.0
 20
1338.5
 30
0.0
  0
POINT
  5
15B
330
B
100
AcDbEntity
  8
LEVEL001
 62
     1
100
AcDbPoint
 10
1158.0
 20
1823.5
 30
0.0
  0
POINT
  5
15C
330
B
100
AcDbEntity
  8
LEVEL001
 62
     1
100
AcDbPoint
 10
1158.0
 20
1865.5
 30
0.0
  0
POINT
  5
15D
330
B
100
AcDbEntity
  8
LEVEL001
 62
     1
100
AcDbPoint
 10
1213.0
 20
1865.5
 30
0.0
  0
POINT
  5
15E
330
B
100
AcDbEntity
  8
LEVEL001
 62
     1
100
AcDbPoint
 10
1213.0
 20
1823.5
 30
0.0
  0
POINT
  5
15F
330
B
100
AcDbEntity
  8
LEVEL001
 62
     1
100
AcDbPoint
 10
548.0
 20
1682.0
 30
0.0
  0
POINT
  5
160
330
B
100
AcDbEntity
  8
LEVEL001
 62
     1
100
AcDbPoint
 10
548.0
 20
1522.0
 30
0.0
  0
POINT
  5
161
330
B
100
AcDbEntity
  8
LEVEL001
 62
     1
100
AcDbPoint
 10
1198.0
 20
1682.0
 30
0.0
  0
POINT
  5
162
330
B
100
AcDbEntity
  8
LEVEL001
 62
     1
100
AcDbPoint
 10
1198.0
 20
1522.0
 30
0.0
  0
LWPOLYLINE
  5
163
330
B
100
AcDbEntity
  8
LEVEL001
  6
Continuous
 62
     7
100
AcDbPolyline
 90
        4
 70
     1
 43
0.0
 10
408.0
 20
1431.0
 10
522.0
 20
1431.0
 10
522.0
 20
1773.0
 10
408.0
 20
1773.0
  0
POINT
  5
164
330
B
100
AcDbEntity
  8
LEVEL001
 62
     7
100
AcDbPoint
 10
423.0
 20
1431.0
 30
0.0
  0
POINT
  5
165
330
B
100
AcDbEntity
  8
LEVEL001
 62
     7
100
AcDbPoint
 10
507.0
 20
1431.0
 30
0.0
  0
LWPOLYLINE
  5
166
330
B
100
AcDbEntity
  8
LEVEL001
  6
Continuous
 62
     7
100
AcDbPolyline
 90
        4
 70
     1
 43
0.0
 10
1224.0
 20
1431.0
 10
1338.0
 20
1431.0
 10
1338.0
 20
1773.0
 10
1224.0
 20
1773.0
  0
POINT
  5
167
330
B
100
AcDbEntity
  8
LEVEL001
 62
     7
100
AcDbPoint
 10
1291.0
 20
1431.0
 30
0.0
  0
LINE
  5
168
330
B
100
AcDbEntity
  8
LEVEL001
  6
Continuous
 62
     7
100
AcDbLine
 10
604.0
 20
1702.0
 30
0.0
 11
522.0
 21
1702.0
 31
0.0
  0
LINE
  5
169
330
B
100
AcDbEntity
  8
LEVEL001
  6
Continuous
 62
     7
100
AcDbLine
 10
1224.0
 20
1502.0
 30
0.0
 11
1142.0
 21
1502.0
 31
0.0
  0
LINE
  5
16A
330
B
100
AcDbEntity
  8
LEVEL001
  6
Continuous
 62
     7
100
AcDbLine
 10
1142.0
 20
1702.0
 30
0.0
 11
1224.0
 21
1702.0
 31
0.0
  0
INSERT
  5
16B
330
B
100
AcDbEntity
  8
0
100
AcDbBlockReference
  2
EGF21M10
 10
554.0
 20
1392.7282608696
 30
0.0
 50
270.0
  0
INSERT
  5
16C
330
B
100
AcDbEntity
  8
0
100
AcDbBlockReference
  2
EGF21M10
 10
554.0
 20
1381.7282608696
 30
0.0
 50
270.0
  0
INSERT
  5
16D
330
B
100
AcDbEntity
  8
0
100
AcDbBlockReference
  2
EGF11M10
 10
554.0
 20
1379.7282608696
 30
0.0
 50
270.0
  0
LWPOLYLINE
  5
16E
330
B
100
AcDbEntity
  8
LEVEL001
  6
Continuous
 62
     7
100
AcDbPolyline
 90
        4
 70
     0
 43
0.0
 10
549.0
 20
1371.7282608696
 10
549.0
 20
1370.7282608696
 10
559.0
 20
1370.7282608696
 10
559.0
 20
1371.7282608696
  0
LWPOLYLINE
  5
16F
330
B
100
AcDbEntity
  8
LEVEL001
  6
Continuous
 62
     7
100
AcDbPolyline
 90
        4
 70
     0
 43
0.0
 10
543.5
 20
1393.7282608696
 10
543.5
 20
1392.7282608696
 10
564.5
 20
1392.7282608696
 10
564.5
 20
1393.7282608696
  0
LWPOLYLINE
  5
170
330
B
100
AcDbEntity
  8
LEVEL001
  6
Continuous
 62
     7
100
AcDbPolyline
 90
        4
 70
     1
 43
0.0
 10
537.0
 20
1390.7282608696
 10
594.0
 20
1390.7282608696
 10
594.0
 20
1381.7282608696
 10
537.0
 20
1381.7282608696
  0
LINE
  5
171
330
B
100
AcDbEntity
  8
LEVEL001
  6
Continuous
 62
     7
100
AcDbLine
 10
523.0
 20
1777.0
 30
0.0
 11
573.0
 21
1777.0
 31
0.0
  0
LWPOLYLINE
  5
172
330
B
100
AcDbEntity
  8
LEVEL001
  6
Continuous
 62
     7
100
AcDbPolyline
 90
        4
 70
     0
 43
0.0
 10
573.0
 20
1702.0
 10
573.0
 20
1874.5
 10
523.0
 20
1874.5
 10
523.0
 20
1702.0
  0
LINE
  5
173
330
B
100
AcDbEntity
  8
LEVEL001
  6
Continuous
 62
     7
100
AcDbLine
 10
573.0
 20
1803.9555041294
 30
0.0
 11
1173.0
 21
1803.9555041294
 31
0.0
  0
LWPOLYLINE
  5
174
330
B
100
AcDbEntity
  8
LEVEL001
  6
Continuous
 62
     7
100
AcDbPolyline
 90
        4
 70
     0
 43
0.0
 10
1173.0
 20
1702.0
 10
1173.0
 20
1874.5
 10
1223.0
 20
1874.5
 10
1223.0
 20
1702.0
  0
LWPOLYLINE
  5
175
330
B
100
AcDbEntity
  8
LEVEL001
  6
Continuous
 62
     7
100
AcDbPolyline
 90
        4
 70
     0
 43
0.0
 10
1223.0
 20
1502.0
 10
1223.0
 20
1329.5
 10
1173.0
 20
1329.5
 10
1173.0
 20
1502.0
  0
LINE
  5
176
330
B
100
AcDbEntity
  8
LEVEL001
  6
Continuous
 62
     7
100
AcDbLine
 10
1223.0
 20
1777.0
 30
0.0
 11
1173.0
 21
1777.0
 31
0.0
  0
LINE
  5
177
330
B
100
AcDbEntity
  8
LEVEL001
  6
Continuous
 62
     7
100
AcDbLine
 10
1223.0
 20
1427.0
 30
0.0
 11
1173.0
 21
1427.0
 31
0.0
  0
LINE
  5
178
330
B
100
AcDbEntity
  8
LEVEL001
  6
Continuous
 62
     7
100
AcDbLine
 10
523.0
 20
1427.0
 30
0.0
 11
532.99808406461
 21
1427.0
 31
0.0
  0
LINE
  5
179
330
B
100
AcDbEntity
  8
LEVEL001
  6
Continuous
 62
     7
100
AcDbLine
 10
573.0
 20
1471.3282608696
 30
0.0
 11
573.0
 21
1502.0
 31
0.0
  0
LWPOLYLINE
  5
17A
330
B
100
AcDbEntity
  8
LEVEL001
  6
Continuous
 62
     7
100
AcDbPolyline
 90
        4
 70
     0
 43
0.0
 10
523.0
 20
1393.7282608696
 10
523.0
 20
1329.5
 10
573.0
 20
1329.5
 10
573.0
 20
1381.7282608696
  0
LINE
  5
17B
330
B
100
AcDbEntity
  8
LEVEL001
  6
Continuous
 62
     7
100
AcDbLine
 10
573.0
 20
1390.7282608696
 30
0.0
 11
573.0
 21
1393.7282608696
 31
0.0
  0
LINE
  5
17C
330
B
100
AcDbEntity
  8
LEVEL001
  6
Continuous
 62
     7
100
AcDbLine
 10
594.0
 20
1383.4328420761
 30
0.0
 11
1170.0
 21
1383.4328420761
 31
0.0
  0
LINE
  5
17D
330
B
100
AcDbEntity
  8
LEVEL001
  6
Continuous
 62
     7
100
AcDbLine
 10
576.0
 20
1399.9782608696
 30
0.0
 11
576.0
 21
1390.7282608696
 31
0.0
  0
LWPOLYLINE
  5
17E
330
B
100
AcDbEntity
  8
LEVEL001
  6
Continuous
 62
     7
100
AcDbPolyline
 90
        4
 70
     0
 43
0.0
 10
576.0
 20
1381.7282608696
 10
576.0
 20
1374.8062753376
 10
1170.0
 20
1374.8062753376
 10
1170.0
 20
1502.0
  0
LWPOLYLINE
  5
17F
330
B
100
AcDbEntity
  8
LEVEL001
  6
Continuous
 62
     7
100
AcDbPolyline
 90
        4
 70
     0
 43
0.0
 10
573.0
 20
1874.5
 10
598.0
 20
1874.5
 10
598.0
 20
1814.5
 10
573.0
 20
1814.5
  0
LWPOLYLINE
  5
180
330
B
100
AcDbEntity
  8
LEVEL001
  6
Continuous
 62
     7
100
AcDbPolyline
 90
        3
 70
     0
 43
0.0
 10
573.0
 20
1329.5
 10
598.0
 20
1329.5
 10
598.0
 20
1374.8062753376
  0
LWPOLYLINE
  5
181
330
B
100
AcDbEntity
  8
LEVEL001
  6
Continuous
 62
     7
100
AcDbPolyline
 90
        3
 70
     0
 43
0.0
 10
1173.0
 20
1329.5
 10
1148.0
 20
1329.5
 10
1148.0
 20
1374.8062753376
  0
LWPOLYLINE
  5
182
330
B
100
AcDbEntity
  8
LEVEL001
  6
Continuous
 62
     7
100
AcDbPolyline
 90
        4
 70
     0
 43
0.0
 10
1173.0
 20
1874.5
 10
1148.0
 20
1874.5
 10
1148.0
 20
1814.5
 10
1173.0
 20
1814.5
  0
LWPOLYLINE
  5
183
330
B
100
AcDbEntity
  8
LEVEL001
  6
Continuous
 62
     7
100
AcDbPolyline
 90
        8
 70
     1
 43
0.0
 10
600.4999999999999
 20
1468.0
 10
581.5
 20
1468.0
 10
581.5
 20
1478.0
 10
575.4999999999999
 20
1478.0
 10
575.4999999999999
 20
1518.0
 10
581.5
 20
1518.0
 10
581.5
 20
1528.0
 10
600.4999999999999
 20
1528.0
  0
LWPOLYLINE
  5
184
330
B
100
AcDbEntity
  8
LEVEL001
  6
Continuous
 62
     7
100
AcDbPolyline
 90
        4
 70
     1
 43
0.0
 10
600.4999999999999
 20
1467.0
 10
645.5
 20
1467.0
 10
645.5
 20
1529.0
 10
600.4999999999999
 20
1529.0
  0
ARC
  5
185
330
B
100
AcDbEntity
  8
LEVEL001
  6
Continuous
 62
     7
100
AcDbCircle
 10
730.4999999999999
 20
1407.0
 30
0.0
 40
10.0
100
AcDbArc
 50
0.0
 51
90.0
  0
LINE
  5
186
330
B
100
AcDbEntity
  8
LEVEL001
  6
Continuous
 62
     7
100
AcDbLine
 10
730.4999999999999
 20
1417.0
 30
0.0
 11
723.5
 21
1417.0
 31
0.0
  0
LINE
  5
187
330
B
100
AcDbEntity
  8
LEVEL001
  6
Continuous
 62
     7
100
AcDbLine
 10
671.4999999999999
 20
1417.0
 30
0.0
 11
669.0
 21
1417.0
 31
0.0
  0
LINE
  5
188
330
B
100
AcDbEntity
  8
LEVEL001
  6
Continuous
 62
     7
100
AcDbLine
 10
669.0
 20
1407.0
 30
0.0
 11
671.4999999999999
 21
1407.0
 31
0.0
  0
LWPOLYLINE
  5
189
330
B
100
AcDbEntity
  8
LEVEL001
  6
Continuous
 62
     7
100
AcDbPolyline
 90
        4
 70
     0
 43
0.0
 10
671.4999999999999
 20
1420.0
 10
671.4999999999999
 20
1404.0
 10
723.5
 20
1404.0
 10
723.5
 20
1420.0
  0
LWPOLYLINE
  5
18A
330
B
100
AcDbEntity
  8
LEVEL001
  6
Continuous
 62
     7
100
AcDbPolyline
 90
        4
 70
     0
 43
0.0
 10
629.0
 20
1420.0
 10
629.0
 20
1419.0
 10
669.0
 20
1419.0
 10
669.0
 20
1420.0
  0
LWPOLYLINE
  5
18B
330
B
100
AcDbEntity
  8
LEVEL001
  6
Continuous
 62
     7
100
AcDbPolyline
 90
        4
 70
     0
 43
0.0
 10
649.0
 20
1419.0
 10
649.0
 20
1401.0
 10
669.0
 20
1401.0
 10
669.0
 20
1419.0
  0
LWPOLYLINE
  5
18C
330
B
100
AcDbEntity
  8
LEVEL001
  6
Continuous
 62
     7
100
AcDbPolyline
 90
        5
 70
     0
 43
0.0
 10
723.5
 20
1407.0
 10
730.4999999999999
 20
1407.0
 10
730.4999999999999
 20
1387.0
 10
740.5
 20
1387.0
 10
740.5
 20
1407.0
  0
ARC
  5
18D
330
B
100
AcDbEntity
  8
LEVEL001
  6
Continuous
 62
     7
100
AcDbCircle
 10
1015.5
 20
1407.0
 30
0.0
 40
10.0
100
AcDbArc
 50
90.0
 51
180.0
  0
LINE
  5
18E
330
B
100
AcDbEntity
  8
LEVEL001
  6
Continuous
 62
     7
100
AcDbLine
 10
1015.5
 20
1417.0
 30
0.0
 11
1022.5
 21
1417.0
 31
0.0
  0
LINE
  5
18F
330
B
100
AcDbEntity
  8
LEVEL001
  6
Continuous
 62
     7
100
AcDbLine
 10
1074.5
 20
1417.0
 30
0.0
 11
1077.0
 21
1417.0
 31
0.0
  0
LINE
  5
190
330
B
100
AcDbEntity
  8
LEVEL001
  6
Continuous
 62
     7
100
AcDbLine
 10
1077.0
 20
1407.0
 30
0.0
 11
1074.5
 21
1407.0
 31
0.0
  0
LWPOLYLINE
  5
191
330
B
100
AcDbEntity
  8
LEVEL001
  6
Continuous
 62
     7
100
AcDbPolyline
 90
        4
 70
     0
 43
0.0
 10
1074.5
 20
1420.0
 10
1074.5
 20
1404.0
 10
1022.5
 20
1404.0
 10
1022.5
 20
1420.0
  0
LWPOLYLINE
  5
192
330
B
100
AcDbEntity
  8
LEVEL001
  6
Continuous
 62
     7
100
AcDbPolyline
 90
        4
 70
     0
 43
0.0
 10
1117.0
 20
1420.0
 10
1117.0
 20
1419.0
 10
1077.0
 20
1419.0
 10
1077.0
 20
1420.0
  0
LWPOLYLINE
  5
193
330
B
100
AcDbEntity
  8
LEVEL001
  6
Continuous
 62
     7
100
AcDbPolyline
 90
        4
 70
     0
 43
0.0
 10
1097.0
 20
1419.0
 10
1097.0
 20
1401.0
 10
1077.0
 20
1401.0
 10
1077.0
 20
1419.0
  0
LWPOLYLINE
  5
194
330
B
100
AcDbEntity
  8
LEVEL001
  6
Continuous
 62
     7
100
AcDbPolyline
 90
        5
 70
     0
 43
0.0
 10
1022.5
 20
1407.0
 10
1015.5
 20
1407.0
 10
1015.5
 20
1387.0
 10
1005.5
 20
1387.0
 10
1005.5
 20
1407.0
  0
LINE
  5
195
330
B
100
AcDbEntity
  8
LEVEL001
  6
Continuous
 62
     7
100
AcDbLine
 10
1120.5
 20
1420.0
 30
0.0
 11
1120.5
 21
1779.0
 31
0.0
  0
LWPOLYLINE
  5
196
330
B
100
AcDbEntity
  8
LEVEL001
  6
Continuous
 62
     7
100
AcDbPolyline
 90
        4
 70
     1
 43
0.0
 10
655.0
 20
1470.0
 10
1091.0
 20
1470.0
 10
1091.0
 20
1638.0
 10
655.0
 20
1638.0
  0
LINE
  5
197
330
B
100
AcDbEntity
  8
LEVEL001
  6
Continuous
 62
     7
100
AcDbLine
 10
657.0
 20
1470.0
 30
0.0
 11
657.0
 21
1638.0
 31
0.0
  0
LINE
  5
198
330
B
100
AcDbEntity
  8
LEVEL001
  6
Continuous
 62
     7
100
AcDbLine
 10
660.0
 20
1638.0
 30
0.0
 11
660.0
 21
1470.0
 31
0.0
  0
LINE
  5
199
330
B
100
AcDbEntity
  8
LEVEL001
  6
Continuous
 62
     7
100
AcDbLine
 10
690.0
 20
1470.0
 30
0.0
 11
690.0
 21
1638.0
 31
0.0
  0
LINE
  5
19A
330
B
100
AcDbEntity
  8
LEVEL001
  6
Continuous
 62
     7
100
AcDbLine
 10
693.0
 20
1638.0
 30
0.0
 11
693.0
 21
1470.0
 31
0.0
  0
LINE
  5
19B
330
B
100
AcDbEntity
  8
LEVEL001
  6
Continuous
 62
     7
100
AcDbLine
 10
723.0
 20
1470.0
 30
0.0
 11
723.0
 21
1638.0
 31
0.0
  0
LINE
  5
19C
330
B
100
AcDbEntity
  8
LEVEL001
  6
Continuous
 62
     7
100
AcDbLine
 10
726.0
 20
1638.0
 30
0.0
 11
726.0
 21
1470.0
 31
0.0
  0
LINE
  5
19D
330
B
100
AcDbEntity
  8
LEVEL001
  6
Continuous
 62
     7
100
AcDbLine
 10
756.0
 20
1470.0
 30
0.0
 11
756.0
 21
1638.0
 31
0.0
  0
LINE
  5
19E
330
B
100
AcDbEntity
  8
LEVEL001
  6
Continuous
 62
     7
100
AcDbLine
 10
759.0
 20
1638.0
 30
0.0
 11
759.0
 21
1470.0
 31
0.0
  0
LINE
  5
19F
330
B
100
AcDbEntity
  8
LEVEL001
  6
Continuous
 62
     7
100
AcDbLine
 10
789.0
 20
1470.0
 30
0.0
 11
789.0
 21
1638.0
 31
0.0
  0
LINE
  5
1A0
330
B
100
AcDbEntity
  8
LEVEL001
  6
Continuous
 62
     7
100
AcDbLine
 10
792.0
 20
1638.0
 30
0.0
 11
792.0
 21
1470.0
 31
0.0
  0
LINE
  5
1A1
330
B
100
AcDbEntity
  8
LEVEL001
  6
Continuous
 62
     7
100
AcDbLine
 10
822.0
 20
1470.0
 30
0.0
 11
822.0
 21
1638.0
 31
0.0
  0
LINE
  5
1A2
330
B
100
AcDbEntity
  8
LEVEL001
  6
Continuous
 62
     7
100
AcDbLine
 10
825.0
 20
1638.0
 30
0.0
 11
825.0
 21
1470.0
 31
0.0
  0
LINE
  5
1A3
330
B
100
AcDbEntity
  8
LEVEL001
  6
Continuous
 62
     7
100
AcDbLine
 10
855.0
 20
1470.0
 30
0.0
 11
855.0
 21
1638.0
 31
0.0
  0
LINE
  5
1A4
330
B
100
AcDbEntity
  8
LEVEL001
  6
Continuous
 62
     7
100
AcDbLine
 10
858.0
 20
1638.0
 30
0.0
 11
858.0
 21
1470.0
 31
0.0
  0
LINE
  5
1A5
330
B
100
AcDbEntity
  8
LEVEL001
  6
Continuous
 62
     7
100
AcDbLine
 10
888.0
 20
1470.0
 30
0.0
 11
888.0
 21
1638.0
 31
0.0
  0
LINE
  5
1A6
330
B
100
AcDbEntity
  8
LEVEL001
  6
Continuous
 62
     7
100
AcDbLine
 10
891.0
 20
1638.0
 30
0.0
 11
891.0
 21
1470.0
 31
0.0
  0
LINE
  5
1A7
330
B
100
AcDbEntity
  8
LEVEL001
  6
Continuous
 62
     7
100
AcDbLine
 10
921.0
 20
1470.0
 30
0.0
 11
921.0
 21
1638.0
 31
0.0
  0
LINE
  5
1A8
330
B
100
AcDbEntity
  8
LEVEL001
  6
Continuous
 62
     7
100
AcDbLine
 10
924.0
 20
1638.0
 30
0.0
 11
924.0
 21
1470.0
 31
0.0
  0
LINE
  5
1A9
330
B
100
AcDbEntity
  8
LEVEL001
  6
Continuous
 62
     7
100
AcDbLine
 10
954.0
 20
1470.0
 30
0.0
 11
954.0
 21
1638.0
 31
0.0
  0
LINE
  5
1AA
330
B
100
AcDbEntity
  8
LEVEL001
  6
Continuous
 62
     7
100
AcDbLine
 10
957.0
 20
1638.0
 30
0.0
 11
957.0
 21
1470.0
 31
0.0
  0
LINE
  5
1AB
330
B
100
AcDbEntity
  8
LEVEL001
  6
Continuous
 62
     7
100
AcDbLine
 10
987.0
 20
1470.0
 30
0.0
 11
987.0
 21
1638.0
 31
0.0
  0
LINE
  5
1AC
330
B
100
AcDbEntity
  8
LEVEL001
  6
Continuous
 62
     7
100
AcDbLine
 10
990.0
 20
1638.0
 30
0.0
 11
990.0
 21
1470.0
 31
0.0
  0
LINE
  5
1AD
330
B
100
AcDbEntity
  8
LEVEL001
  6
Continuous
 62
     7
100
AcDbLine
 10
1020.0
 20
1470.0
 30
0.0
 11
1020.0
 21
1638.0
 31
0.0
  0
LINE
  5
1AE
330
B
100
AcDbEntity
  8
LEVEL001
  6
Continuous
 62
     7
100
AcDbLine
 10
1023.0
 20
1638.0
 30
0.0
 11
1023.0
 21
1470.0
 31
0.0
  0
LINE
  5
1AF
330
B
100
AcDbEntity
  8
LEVEL001
  6
Continuous
 62
     7
100
AcDbLine
 10
1053.0
 20
1470.0
 30
0.0
 11
1053.0
 21
1638.0
 31
0.0
  0
LINE
  5
1B0
330
B
100
AcDbEntity
  8
LEVEL001
  6
Continuous
 62
     7
100
AcDbLine
 10
1056.0
 20
1638.0
 30
0.0
 11
1056.0
 21
1470.0
 31
0.0
  0
LINE
  5
1B1
330
B
100
AcDbEntity
  8
LEVEL001
  6
Continuous
 62
     7
100
AcDbLine
 10
1086.0
 20
1470.0
 30
0.0
 11
1086.0
 21
1638.0
 31
0.0
  0
LINE
  5
1B2
330
B
100
AcDbEntity
  8
LEVEL001
  6
Continuous
 62
     7
100
AcDbLine
 10
1089.0
 20
1638.0
 30
0.0
 11
1089.0
 21
1470.0
 31
0.0
  0
LINE
  5
1B3
330
B
100
AcDbEntity
  8
LEVEL001
  6
Continuous
 62
     7
100
AcDbLine
 10
655.0
 20
1635.0
 30
0.0
 11
1091.0
 21
1635.0
 31
0.0
  0
LINE
  5
1B4
330
B
100
AcDbEntity
  8
LEVEL001
  6
Continuous
 62
     7
100
AcDbLine
 10
655.0
 20
1473.0
 30
0.0
 11
1091.0
 21
1473.0
 31
0.0
  0
LINE
  5
1B5
330
B
100
AcDbEntity
  8
LEVEL001
  6
Continuous
 62
     7
100
AcDbLine
 10
655.0
 20
1605.0
 30
0.0
 11
1091.0
 21
1605.0
 31
0.0
  0
LINE
  5
1B6
330
B
100
AcDbEntity
  8
LEVEL001
  6
Continuous
 62
     7
100
AcDbLine
 10
655.0
 20
1602.0
 30
0.0
 11
1091.0
 21
1602.0
 31
0.0
  0
LINE
  5
1B7
330
B
100
AcDbEntity
  8
LEVEL001
  6
Continuous
 62
     7
100
AcDbLine
 10
655.0
 20
1572.0
 30
0.0
 11
1091.0
 21
1572.0
 31
0.0
  0
LINE
  5
1B8
330
B
100
AcDbEntity
  8
LEVEL001
  6
Continuous
 62
     7
100
AcDbLine
 10
655.0
 20
1569.0
 30
0.0
 11
1091.0
 21
1569.0
 31
0.0
  0
LINE
  5
1B9
330
B
100
AcDbEntity
  8
LEVEL001
  6
Continuous
 62
     7
100
AcDbLine
 10
655.0
 20
1539.0
 30
0.0
 11
1091.0
 21
1539.0
 31
0.0
  0
LINE
  5
1BA
330
B
100
AcDbEntity
  8
LEVEL001
  6
Continuous
 62
     7
100
AcDbLine
 10
655.0
 20
1536.0
 30
0.0
 11
1091.0
 21
1536.0
 31
0.0
  0
LINE
  5
1BB
330
B
100
AcDbEntity
  8
LEVEL001
  6
Continuous
 62
     7
100
AcDbLine
 10
655.0
 20
1506.0
 30
0.0
 11
1091.0
 21
1506.0
 31
0.0
  0
LINE
  5
1BC
330
B
100
AcDbEntity
  8
LEVEL001
  6
Continuous
 62
     7
100
AcDbLine
 10
655.0
 20
1503.0
 30
0.0
 11
1091.0
 21
1503.0
 31
0.0
  0
LINE
  5
1BD
330
B
100
AcDbEntity
  8
LEVEL001
  6
Continuous
 62
     7
100
AcDbLine
 10
724.5
 20
1404.0
 30
0.0
 11
730.4999999999999
 21
1404.0
 31
0.0
  0
LINE
  5
1BE
330
B
100
AcDbEntity
  8
LEVEL001
  6
Continuous
 62
     7
100
AcDbLine
 10
740.5
 20
1404.0
 30
0.0
 11
1005.5
 21
1404.0
 31
0.0
  0
LINE
  5
1BF
330
B
100
AcDbEntity
  8
LEVEL001
  6
Continuous
 62
     7
100
AcDbLine
 10
1015.5
 20
1404.0
 30
0.0
 11
1022.5
 21
1404.0
 31
0.0
  0
LWPOLYLINE
  5
1C0
330
B
100
AcDbEntity
  8
LEVEL001
  6
Continuous
 62
     7
100
AcDbPolyline
 90
        4
 70
     0
 43
0.0
 10
1120.5
 20
1782.0
 10
1120.5
 20
1764.0
 10
1130.5
 20
1764.0
 10
1130.5
 20
1782.0
  0
LWPOLYLINE
  5
1C1
330
B
100
AcDbEntity
  8
LEVEL001
  6
Continuous
 62
     7
100
AcDbPolyline
 90
        4
 70
     0
 43
0.0
 10
1120.5
 20
1794.0
 10
1123.0477916398
 20
1801.0
 10
1127.9522083602
 20
1801.0
 10
1130.5
 20
1794.0
  0
LINE
  5
1C2
330
B
100
AcDbEntity
  8
LEVEL001
  6
Continuous
 62
     7
100
AcDbLine
 10
1120.5
 20
1779.0
 30
0.0
 11
625.4999999999999
 21
1779.0
 31
0.0
  0
LWPOLYLINE
  5
1C3
330
B
100
AcDbEntity
  8
LEVEL001
  6
Continuous
 62
     7
100
AcDbPolyline
 90
        4
 70
     1
 43
0.0
 10
539.0
 20
1447.0
 10
559.0
 20
1447.0
 10
559.0
 20
1542.0
 10
539.0
 20
1542.0
  0
LWPOLYLINE
  5
1C4
330
B
100
AcDbEntity
  8
LEVEL001
  6
Continuous
 62
     7
100
AcDbPolyline
 90
        4
 70
     0
 43
0.0
 10
522.0
 20
1554.5
 10
539.0
 20
1554.5
 10
539.0
 20
1434.5
 10
522.0
 20
1434.5
  0
LINE
  5
1C5
330
B
100
AcDbEntity
  8
LEVEL001
  6
Continuous
 62
     7
100
AcDbLine
 10
537.0
 20
1434.5
 30
0.0
 11
537.0
 21
1554.5
 31
0.0
  0
LWPOLYLINE
  5
1C6
330
B
100
AcDbEntity
  8
LEVEL001
  6
Continuous
 62
     7
100
AcDbPolyline
 90
        4
 70
     1
 43
0.0
 10
1141.5
 20
1794.0
 10
1109.5
 20
1794.0
 10
1109.5
 20
1782.0
 10
1141.5
 20
1782.0
  0
LWPOLYLINE
  5
1C7
330
B
100
AcDbEntity
  8
LEVEL001
  6
Continuous
 62
     7
100
AcDbPolyline
 90
        4
 70
     1
 43
0.0
 10
604.4999999999999
 20
1794.0
 10
636.5
 20
1794.0
 10
636.5
 20
1782.0
 10
604.4999999999999
 20
1782.0
  0
LWPOLYLINE
  5
1C8
330
B
100
AcDbEntity
  8
LEVEL001
  6
Continuous
 62
     7
100
AcDbPolyline
 90
        4
 70
     0
 43
0.0
 10
625.50000000003
 20
1794.0
 10
622.9522083601599
 20
1801.0
 10
618.0477916398301
 20
1801.0
 10
615.49999999997
 20
1794.0
  0
LWPOLYLINE
  5
1C9
330
B
100
AcDbEntity
  8
LEVEL001
  6
Continuous
 62
     7
100
AcDbPolyline
 90
        4
 70
     0
 43
0.0
 10
625.4999999999999
 20
1782.0
 10
625.4999999999999
 20
1764.0
 10
615.5
 20
1764.0
 10
615.5
 20
1782.0
  0
LWPOLYLINE
  5
1CA
330
B
100
AcDbEntity
  8
LEVEL001
  6
Continuous
 62
     7
100
AcDbPolyline
 90
        3
 70
     0
 43
0.0
 10
559.0
 20
1451.7282608696
 10
574.0
 20
1472.7282608696
 10
581.5
 20
1472.7282608696
  0
LINE
  5
1CB
330
B
100
AcDbEntity
  8
LEVEL001
  6
Continuous
 62
     7
100
AcDbLine
 10
523.0
 20
1434.5
 30
0.0
 11
523.0
 21
1423.6119114336
 31
0.0
  0
LINE
  5
1CC
330
B
100
AcDbEntity
  8
LEVEL001
  6
Continuous
 62
     7
100
AcDbLine
 10
559.0
 20
1502.0
 30
0.0
 11
575.4999999999999
 21
1502.0
 31
0.0
  0
LINE
  5
1CD
330
B
100
AcDbEntity
  8
LEVEL001
  6
Continuous
 62
     7
100
AcDbLine
 10
576.0
 20
1478.0
 30
0.0
 11
576.0
 21
1472.7282608696
 31
0.0
  0
LINE
  5
1CE
330
B
100
AcDbEntity
  8
LEVEL001
  6
Continuous
 62
     7
100
AcDbLine
 10
625.4999999999999
 20
1420.0
 30
0.0
 11
625.4999999999999
 21
1467.0
 31
0.0
  0
LINE
  5
1CF
330
B
100
AcDbEntity
  8
LEVEL001
  6
Continuous
 62
     7
100
AcDbLine
 10
625.4999999999999
 20
1529.0
 30
0.0
 11
625.4999999999999
 21
1779.0
 31
0.0
  0
LWPOLYLINE
  5
1D0
330
B
100
AcDbEntity
  8
LEVEL001
  6
Continuous
 62
     7
100
AcDbPolyline
 90
        3
 70
     0
 43
0.0
 10
615.5
 20
1779.0
 10
604.4999999999999
 20
1779.0
 10
604.4999999999999
 20
1529.0
  0
LWPOLYLINE
  5
1D1
330
B
100
AcDbEntity
  8
LEVEL001
  6
Continuous
 62
     7
100
AcDbPolyline
 90
        5
 70
     0
 43
0.0
 10
604.4999999999999
 20
1467.0
 10
604.4999999999999
 20
1420.0
 10
1141.5
 20
1420.0
 10
1141.5
 20
1779.0
 10
1130.5
 20
1779.0
  0
LWPOLYLINE
  5
1D2
330
B
100
AcDbEntity
  8
LEVEL001
  6
Continuous
 62
     7
100
AcDbPolyline
 90
        3
 70
     0
 43
0.0
 10
604.0
 20
1467.0
 10
604.0
 20
1422.0
 10
604.4999999999999
 20
1422.0
  0
LWPOLYLINE
  5
1D3
330
B
100
AcDbEntity
  8
LEVEL001
  6
Continuous
 62
     7
100
AcDbPolyline
 90
        5
 70
     0
 43
0.0
 10
1141.5
 20
1422.0
 10
1142.0
 20
1422.0
 10
1142.0
 20
1782.0
 10
604.0
 20
1782.0
 10
604.0
 20
1529.0
  0
INSERT
  5
1D4
330
B
100
AcDbEntity
  8
0
100
AcDbBlockReference
  2
EGF9M12
 10
1152.0
 20
1756.0
 30
0.0
  0
LWPOLYLINE
  5
1D5
330
B
100
AcDbEntity
  8
LEVEL001
  6
Continuous
 62
     7
100
AcDbPolyline
 90
        6
 70
     0
 43
0.0
 10
1142.0
 20
1766.0
 10
1162.0
 20
1766.0
 10
1162.0
 20
1747.0
 10
1168.0
 20
1747.0
 10
1168.0
 20
1772.0
 10
1142.0
 20
1772.0
  0
POINT
  5
1D6
330
B
100
AcDbEntity
  8
LEVEL001
 62
     7
100
AcDbPoint
 10
560.5
 20
1359.5
 30
0.0
  0
POINT
  5
1D7
330
B
100
AcDbEntity
  8
LEVEL001
 62
     7
100
AcDbPoint
 10
560.5
 20
1844.5
 30
0.0
  0
POINT
  5
1D8
330
B
100
AcDbEntity
  8
LEVEL001
 62
     7
100
AcDbPoint
 10
1185.5
 20
1844.5
 30
0.0
  0
POINT
  5
1D9
330
B
100
AcDbEntity
  8
LEVEL001
 62
     7
100
AcDbPoint
 10
1185.5
 20
1359.5
 30
0.0
  0
LWPOLYLINE
  5
1DA
330
B
100
AcDbEntity
  8
LEVEL001
  6
Continuous
 62
     7
100
AcDbPolyline
 90
        4
 70
     0
 43
0.0
 10
417.4999999999999
 20
1431.0
 10
417.4999999999999
 20
1429.5
 10
512.5
 20
1429.5
 10
512.5
 20
1431.0
  0
LWPOLYLINE
  5
1DB
330
B
100
AcDbEntity
  8
LEVEL001
  6
Continuous
 62
     7
100
AcDbPolyline
 90
        4
 70
     0
 43
0.0
 10
1273.5
 20
1431.0
 10
1273.5
 20
1428.5
 10
1308.5
 20
1428.5
 10
1308.5
 20
1431.0
  0
LWPOLYLINE
  5
1DC
330
B
100
AcDbEntity
  8
LEVEL001
  6
Continuous
 62
     7
100
AcDbPolyline
 90
        4
 70
     0
 43
0.0
 10
1274.75
 20
1428.5
 10
1274.75
 20
1417.0
 10
1307.25
 20
1417.0
 10
1307.25
 20
1428.5
  0
LWPOLYLINE
  5
1DD
330
B
100
AcDbEntity
  8
LEVEL001
  6
Continuous
 62
     7
100
AcDbPolyline
 90
        4
 70
     0
 43
0.0
 10
1278.5
 20
1417.0
 10
1278.5
 20
1411.0
 10
1303.5
 20
1411.0
 10
1303.5
 20
1417.0
  0
LWPOLYLINE
  5
1DE
330
B
100
AcDbEntity
  8
LEVEL001
  6
Continuous
 62
     7
100
AcDbPolyline
 90
        8
 70
     1
 43
0.0
 10
433.4999999999999
 20
1429.5
 10
433.4999999999999
 20
1425.5
 10
436.5
 20
1425.5
 10
436.5
 20
1422.5
 10
493.5
 20
1422.5
 10
493.5
 20
1425.5
 10
496.4999999999999
 20
1425.5
 10
496.4999999999999
 20
1429.5
  0
LINE
  5
1DF
330
B
100
AcDbEntity
  8
LEVEL001
  6
Continuous
 62
     7
100
AcDbLine
 10
452.0
 20
1421.5
 30
0.0
 11
453.5
 21
1420.0
 31
0.0
  0
LINE
  5
1E0
330
B
100
AcDbEntity
  8
LEVEL001
  6
Continuous
 62
     7
100
AcDbLine
 10
476.4999999999999
 20
1420.0
 30
0.0
 11
478.0
 21
1421.5
 31
0.0
  0
LWPOLYLINE
  5
1E1
330
B
100
AcDbEntity
  8
LEVEL001
  6
Continuous
 62
     7
100
AcDbPolyline
 90
        4
 70
     0
 43
0.0
 10
453.5
 20
1410.0
 10
457.0
 20
1409.5
 10
473.0
 20
1409.5
 10
476.4999999999999
 20
1410.0
  0
LWPOLYLINE
  5
1E2
330
B
100
AcDbEntity
  8
LEVEL001
  6
Continuous
 62
     7
100
AcDbPolyline
 90
        4
 70
     0
 43
0.0
 10
462.5
 20
1422.5
 10
462.5
 20
1411.5
 10
467.4999999999999
 20
1411.5
 10
467.4999999999999
 20
1422.5
  0
LWPOLYLINE
  5
1E3
330
B
100
AcDbEntity
  8
LEVEL001
  6
Continuous
 62
     7
100
AcDbPolyline
 90
        4
 70
     0
 43
0.0
 10
463.0
 20
1422.5
 10
463.0
 20
1412.5
 10
467.0
 20
1412.5
 10
467.0
 20
1422.5
  0
LINE
  5
1E4
330
B
100
AcDbEntity
  8
LEVEL001
  6
Continuous
 62
     7
100
AcDbLine
 10
464.5
 20
1422.5
 30
0.0
 11
464.5
 21
1411.5
 31
0.0
  0
LINE
  5
1E5
330
B
100
AcDbEntity
  8
LEVEL001
  6
Continuous
 62
     7
100
AcDbLine
 10
465.5
 20
1411.5
 30
0.0
 11
465.5
 21
1422.5
 31
0.0
  0
LINE
  5
1E6
330
B
100
AcDbEntity
  8
LEVEL001
  6
Continuous
 62
     7
100
AcDbLine
 10
463.0
 20
1412.5
 30
0.0
 11
462.5
 21
1411.5
 31
0.0
  0
LINE
  5
1E7
330
B
100
AcDbEntity
  8
LEVEL001
  6
Continuous
 62
     7
100
AcDbLine
 10
467.0
 20
1412.5
 30
0.0
 11
467.4999999999999
 21
1411.5
 31
0.0
  0
LWPOLYLINE
  5
1E8
330
B
100
AcDbEntity
  8
LEVEL001
  6
Continuous
 62
     7
100
AcDbPolyline
 90
        3
 70
     0
 43
0.0
 10
452.0
 20
1422.5
 10
452.0
 20
1421.5
 10
462.5
 20
1421.5
  0
LWPOLYLINE
  5
1E9
330
B
100
AcDbEntity
  8
LEVEL001
  6
Continuous
 62
     7
100
AcDbPolyline
 90
        3
 70
     0
 43
0.0
 10
467.4999999999999
 20
1421.5
 10
478.0
 20
1421.5
 10
478.0
 20
1422.5
  0
LWPOLYLINE
  5
1EA
330
B
100
AcDbEntity
  8
LEVEL001
  6
Continuous
 62
     7
100
AcDbPolyline
 90
        6
 70
     0
 43
0.0
 10
462.5
 20
1420.0
 10
453.5
 20
1420.0
 10
453.5
 20
1410.0
 10
476.4999999999999
 20
1410.0
 10
476.4999999999999
 20
1420.0
 10
467.4999999999999
 20
1420.0
  0
LWPOLYLINE
  5
1EB
330
B
100
AcDbEntity
  8
LEVEL001
  6
Continuous
 62
     7
100
AcDbPolyline
 90
        3
 70
     0
 43
0.0
 10
428.75
 20
1429.5
 10
428.75
 20
1419.5
 10
453.5
 20
1419.5
  0
LWPOLYLINE
  5
1EC
330
B
100
AcDbEntity
  8
LEVEL001
  6
Continuous
 62
     7
100
AcDbPolyline
 90
        3
 70
     0
 43
0.0
 10
432.5
 20
1419.5
 10
432.5
 20
1413.5
 10
453.5
 20
1413.5
  0
LINE
  5
1ED
330
B
100
AcDbEntity
  8
LEVEL001
  6
Continuous
 62
     7
100
AcDbLine
 10
436.5
 20
1425.5
 30
0.0
 11
493.5
 21
1425.5
 31
0.0
  0
LWPOLYLINE
  5
1EE
330
B
100
AcDbEntity
  8
LEVEL001
  6
Continuous
 62
     7
100
AcDbPolyline
 90
        3
 70
     0
 43
0.0
 10
501.25
 20
1429.5
 10
501.25
 20
1419.5
 10
476.4999999999999
 20
1419.5
  0
LWPOLYLINE
  5
1EF
330
B
100
AcDbEntity
  8
LEVEL001
  6
Continuous
 62
     7
100
AcDbPolyline
 90
        3
 70
     0
 43
0.0
 10
497.5
 20
1419.5
 10
497.5
 20
1413.5
 10
476.4999999999999
 20
1413.5
  0
LWPOLYLINE
  5
1F0
330
B
100
AcDbEntity
  8
LEVEL001
  6
Continuous
 62
     7
100
AcDbPolyline
 90
        4
 70
     1
 43
0.0
 10
1338.0
 20
206.0
 10
1338.0
 20
916.0
 10
1224.0
 20
916.0
 10
1224.0
 20
206.0
  0
LWPOLYLINE
  5
1F1
330
B
100
AcDbEntity
  8
LEVEL001
  6
Continuous
 62
     7
100
AcDbPolyline
 90
        4
 70
     0
 43
0.0
 10
523.0
 20
666.0
 10
523.0
 20
206.0
 10
1223.0
 20
206.0
 10
1223.0
 20
666.0
  0
LINE
  5
1F2
330
B
100
AcDbEntity
  8
LEVEL001
  6
Continuous
 62
     7
100
AcDbLine
 10
1173.0
 20
666.0
 30
0.0
 11
1173.0
 21
206.0
 31
0.0
  0
LINE
  5
1F3
330
B
100
AcDbEntity
  8
LEVEL001
  6
Continuous
 62
     7
100
AcDbLine
 10
573.0
 20
256.0
 30
0.0
 11
1173.0
 21
256.0
 31
0.0
  0
LINE
  5
1F4
330
B
100
AcDbEntity
  8
LEVEL001
  6
Continuous
 62
     7
100
AcDbLine
 10
1224.0
 20
666.0
 30
0.0
 11
1142.0
 21
666.0
 31
0.0
  0
POINT
  5
1F5
330
B
100
AcDbEntity
  8
LEVEL001
 62
     7
100
AcDbPoint
 10
423.0
 20
826.0
 30
0.0
  0
POINT
  5
1F6
330
B
100
AcDbEntity
  8
LEVEL001
 62
     7
100
AcDbPoint
 10
507.0
 20
826.0
 30
0.0
  0
POINT
  5
1F7
330
B
100
AcDbEntity
  8
LEVEL001
 62
     7
100
AcDbPoint
 10
1291.0
 20
866.0
 30
0.0
  0
POINT
  5
1F8
330
B
100
AcDbEntity
  8
LEVEL001
 62
     7
100
AcDbPoint
 10
423.0
 20
1021.0
 30
0.0
  0
POINT
  5
1F9
330
B
100
AcDbEntity
  8
LEVEL001
 62
     7
100
AcDbPoint
 10
507.0
 20
1021.0
 30
0.0
  0
LINE
  5
1FA
330
B
100
AcDbEntity
  8
LEVEL001
  6
Continuous
 62
     7
100
AcDbLine
 10
576.0
 20
465.2751458327499
 30
0.0
 11
1170.0
 21
465.2751458327499
 31
0.0
  0
LWPOLYLINE
  5
1FB
330
B
100
AcDbEntity
  8
LEVEL001
  6
Continuous
 62
     7
100
AcDbPolyline
 90
        6
 70
     0
 43
0.0
 10
604.0
 20
580.46227562342
 10
576.0
 20
580.46227562342
 10
576.0
 20
424.5754463485499
 10
1170.0
 20
424.5754463485499
 10
1170.0
 20
580.46227562342
 10
1142.0
 20
580.46227562342
  0
LWPOLYLINE
  5
1FC
330
B
100
AcDbEntity
  8
LEVEL001
  6
Continuous
 62
     7
100
AcDbPolyline
 90
        6
 70
     0
 43
0.0
 10
522.0
 20
1030.0
 10
537.0
 20
1030.0
 10
537.0
 20
1000.0
 10
535.0
 20
1000.0
 10
535.0
 20
1028.0
 10
522.0
 20
1028.0
  0
LWPOLYLINE
  5
1FD
330
B
100
AcDbEntity
  8
LEVEL001
  6
Continuous
 62
     7
100
AcDbPolyline
 90
        4
 70
     1
 43
0.0
 10
537.0
 20
992.0
 10
539.0
 20
992.0
 10
539.0
 20
1064.5
 10
537.0
 20
1064.5
  0
LWPOLYLINE
  5
1FE
330
B
100
AcDbEntity
  8
LEVEL001
  6
Continuous
 62
     7
100
AcDbPolyline
 90
        4
 70
     1
 43
0.0
 10
539.0
 20
1029.5
 10
559.0
 20
1029.5
 10
559.0
 20
1064.5
 10
539.0
 20
1064.5
  0
LWPOLYLINE
  5
1FF
330
B
100
AcDbEntity
  8
LEVEL001
  6
Continuous
 62
     7
100
AcDbPolyline
 90
        4
 70
     1
 43
0.0
 10
417.4999999999999
 20
820.5
 10
512.5
 20
820.5
 10
512.5
 20
1026.5
 10
417.4999999999999
 20
1026.5
  0
CIRCLE
  5
200
330
B
100
AcDbEntity
  8
LEVEL001
  6
Continuous
 62
     7
100
AcDbCircle
 10
445.0
 20
870.5
 30
0.0
 40
12.5
  0
CIRCLE
  5
201
330
B
100
AcDbEntity
  8
LEVEL001
  6
Continuous
 62
     7
100
AcDbCircle
 10
445.0
 20
870.5
 30
0.0
 40
16.25
  0
CIRCLE
  5
202
330
B
100
AcDbEntity
  8
LEVEL001
  6
Continuous
 62
     7
100
AcDbCircle
 10
485.0
 20
870.5
 30
0.0
 40
16.25
  0
CIRCLE
  5
203
330
B
100
AcDbEntity
  8
LEVEL001
  6
Continuous
 62
     7
100
AcDbCircle
 10
485.0
 20
870.5
 30
0.0
 40
12.5
  0
CIRCLE
  5
204
330
B
100
AcDbEntity
  8
LEVEL001
  6
Continuous
 62
     7
100
AcDbCircle
 10
1291.0
 20
866.0
 30
0.0
 40
12.5
  0
CIRCLE
  5
205
330
B
100
AcDbEntity
  8
LEVEL001
  6
Continuous
 62
     7
100
AcDbCircle
 10
1291.0
 20
866.0
 30
0.0
 40
16.25
  0
ARC
  5
206
330
B
100
AcDbEntity
  8
LEVEL001
  6
Continuous
 62
     7
100
AcDbCircle
 10
1291.0
 20
866.0
 30
0.0
 40
17.5
100
AcDbArc
 50
180.0
 51
0.0
  0
LWPOLYLINE
  5
207
330
B
100
AcDbEntity
  8
LEVEL001
  6
Continuous
 62
     7
100
AcDbPolyline
 90
        4
 70
     0
 43
0.0
 10
1273.5
 20
866.0
 10
1273.5
 20
893.5
 10
1308.5
 20
893.5
 10
1308.5
 20
866.0
  0
POINT
  5
208
330
B
100
AcDbEntity
  8
LEVEL001
 62
     7
100
AcDbPoint
 10
560.5
 20
197.0
 30
0.0
  0
POINT
  5
209
330
B
100
AcDbEntity
  8
LEVEL001
 62
     7
100
AcDbPoint
 10
1185.5
 20
197.0
 30
0.0
  0
LWPOLYLINE
  5
20A
330
B
100
AcDbEntity
  8
LEVEL001
  6
Continuous
 62
     7
100
AcDbPolyline
 90
        4
 70
     0
 43
0.0
 10
525.4999999999999
 20
197.0
 10
525.4999999999999
 20
195.0
 10
540.5
 20
195.0
 10
550.72294420435
 20
147.40019525466
  0
LWPOLYLINE
  5
20B
330
B
100
AcDbEntity
  8
LEVEL001
  6
Continuous
 62
     7
100
AcDbPolyline
 90
        4
 70
     0
 43
0.0
 10
570.2770557956499
 20
147.40019525466
 10
580.4999999999999
 20
195.00000000004
 10
595.5
 20
195.0
 10
595.5
 20
197.0
  0
ARC
  5
20C
330
B
100
AcDbEntity
  8
LEVEL001
  6
Continuous
 62
     7
100
AcDbCircle
 10
560.5
 20
149.50000000004
 30
0.0
 40
10.0
100
AcDbArc
 50
192.12120800569
 51
347.8787919943
  0
LWPOLYLINE
  5
20D
330
B
100
AcDbEntity
  8
LEVEL001
  6
Continuous
 62
     7
100
AcDbPolyline
 90
        4
 70
     0
 43
0.0
 10
1220.5
 20
197.0
 10
1220.5
 20
195.0
 10
1216.5
 20
195.0
 10
1216.5
 20
149.5
  0
ARC
  5
20E
330
B
100
AcDbEntity
  8
LEVEL001
  6
Continuous
 62
     7
100
AcDbCircle
 10
1206.5
 20
149.50000000001
 30
0.0
 40
10.0
100
AcDbArc
 50
222.93977396344
 51
0.0
  0
ARC
  5
20F
330
B
100
AcDbEntity
  8
LEVEL001
  6
Continuous
 62
     7
100
AcDbCircle
 10
560.5
 20
149.5
 30
0.0
 40
32.5
100
AcDbArc
 50
120.04142114486
 51
59.958578855153
  0
LWPOLYLINE
  5
210
330
B
100
AcDbEntity
  8
LEVEL001
  6
Continuous
 62
     7
100
AcDbPolyline
 90
        4
 70
     0
 43
0.0
 10
1199.17929825
 20
142.68770773623
 10
1154.5
 20
195.0
 10
1150.5
 20
195.0
 10
1150.5
 20
197.0
  0
ARC
  5
211
330
B
100
AcDbEntity
  8
LEVEL001
  6
Continuous
 62
     7
100
AcDbCircle
 10
1206.5
 20
149.5
 30
0.0
 40
32.5
100
AcDbArc
 50
148.40366219439
 51
72.079786860611
  0
LINE
  5
212
330
B
100
AcDbEntity
  8
LEVEL001
  6
Continuous
 62
     7
100
AcDbLine
 10
1154.5
 20
195.0
 30
0.0
 11
1216.5
 21
195.0
 31
0.0
  0
LINE
  5
213
330
B
100
AcDbEntity
  8
LEVEL001
  6
Continuous
 62
     7
100
AcDbLine
 10
364.0
 20
117.0
 30
0.0
 11
1367.0
 21
117.0
 31
0.0
  0
LWPOLYLINE
  5
214
330
B
100
AcDbEntity
  8
LEVEL001
  6
HIDDEN
 62
     1
100
AcDbPolyline
 90
        4
 70
     0
 43
0.0
 10
628.0
 20
1068.0
 10
628.0
 20
548.0
 10
1118.0
 20
548.0
 10
1118.0
 20
1068.0
  0
LWPOLYLINE
  5
215
330
B
100
AcDbEntity
  8
LEVEL001
  6
Continuous
 62
     7
100
AcDbPolyline
 90
        4
 70
     1
 43
0.0
 10
604.0
 20
547.0
 10
1142.0
 20
547.0
 10
1142.0
 20
1068.0
 10
604.0
 20
1068.0
  0
LINE
  5
216
330
B
100
AcDbEntity
  8
LEVEL001
  6
Continuous
 62
     7
100
AcDbLine
 10
604.0
 20
1030.0
 30
0.0
 11
1142.0
 21
1030.0
 31
0.0
  0
POINT
  5
217
330
B
100
AcDbEntity
  8
LEVEL001
 62
     7
100
AcDbPoint
 10
1132.0
 20
1050.18
 30
0.0
  0
LWPOLYLINE
  5
218
330
B
100
AcDbEntity
  8
LEVEL001
  6
Continuous
 62
     7
100
AcDbPolyline
 90
        3
 70
     0
 43
0.0
 10
671.4999999999999
 20
1063.0
 10
723.5
 20
1063.0
 10
723.5
 20
1047.0
  0
CIRCLE
  5
219
330
B
100
AcDbEntity
  8
LEVEL001
  6
Continuous
 62
     7
100
AcDbCircle
 10
735.5
 20
1055.0
 30
0.0
 40
5.0
  0
LINE
  5
21A
330
B
100
AcDbEntity
  8
LEVEL001
  6
Continuous
 62
     7
100
AcDbLine
 10
735.5
 20
1060.0
 30
0.0
 11
723.5
 21
1060.0
 31
0.0
  0
LINE
  5
21B
330
B
100
AcDbEntity
  8
LEVEL001
  6
Continuous
 62
     7
100
AcDbLine
 10
735.5
 20
1050.0
 30
0.0
 11
723.5
 21
1050.0
 31
0.0
  0
LWPOLYLINE
  5
21C
330
B
100
AcDbEntity
  8
LEVEL001
  6
Continuous
 62
     7
100
AcDbPolyline
 90
        6
 70
     1
 43
0.0
 10
600.4999999999999
 20
1049.0
 10
602.5
 20
1049.0
 10
602.5
 20
1083.0
 10
645.5
 20
1083.0
 10
645.5
 20
1085.0
 10
600.4999999999999
 20
1085.0
  0
LINE
  5
21D
330
B
100
AcDbEntity
  8
LEVEL001
  6
Continuous
 62
     7
100
AcDbLine
 10
671.4999999999999
 20
1060.0
 30
0.0
 11
669.0
 21
1060.0
 31
0.0
  0
LINE
  5
21E
330
B
100
AcDbEntity
  8
LEVEL001
  6
Continuous
 62
     7
100
AcDbLine
 10
669.0
 20
1050.0
 30
0.0
 11
671.4999999999999
 21
1050.0
 31
0.0
  0
LWPOLYLINE
  5
21F
330
B
100
AcDbEntity
  8
LEVEL001
  6
Continuous
 62
     7
100
AcDbPolyline
 90
        4
 70
     1
 43
0.0
 10
669.0
 20
1028.0
 10
629.0
 20
1028.0
 10
629.0
 20
1066.0
 10
669.0
 20
1066.0
  0
LWPOLYLINE
  5
220
330
B
100
AcDbEntity
  8
LEVEL001
  6
Continuous
 62
     7
100
AcDbPolyline
 90
        3
 70
     0
 43
0.0
 10
669.0
 20
1040.0
 10
649.0
 20
1040.0
 10
649.0
 20
1066.0
  0
LWPOLYLINE
  5
221
330
B
100
AcDbEntity
  8
LEVEL001
  6
Continuous
 62
     7
100
AcDbPolyline
 90
        4
 70
     1
 43
0.0
 10
600.4999999999999
 20
1050.0
 10
600.4999999999999
 20
1085.0
 10
575.4999999999999
 20
1085.0
 10
575.4999999999999
 20
1050.0
  0
POINT
  5
222
330
B
100
AcDbEntity
  8
LEVEL001
 62
     7
100
AcDbPoint
 10
639.0
 20
1056.0
 30
0.0
  0
POINT
  5
223
330
B
100
AcDbEntity
  8
LEVEL001
 62
     7
100
AcDbPoint
 10
639.0
 20
1052.0
 30
0.0
  0
POINT
  5
224
330
B
100
AcDbEntity
  8
LEVEL001
 62
     7
100
AcDbPoint
 10
639.0
 20
1040.0
 30
0.0
  0
POINT
  5
225
330
B
100
AcDbEntity
  8
LEVEL001
 62
     7
100
AcDbPoint
 10
639.0
 20
1036.0
 30
0.0
  0
LWPOLYLINE
  5
226
330
B
100
AcDbEntity
  8
LEVEL001
  6
Continuous
 62
     7
100
AcDbPolyline
 90
       12
 70
     1
 43
0.0
 10
604.4999999999999
 20
1068.0
 10
604.4999999999999
 20
1070.0
 10
625.4999999999999
 20
1070.0
 10
625.4999999999999
 20
1083.0
 10
1120.5
 20
1083.0
 10
1120.5
 20
1070.0
 10
1141.5
 20
1070.0
 10
1141.5
 20
1068.0
 10
1074.5
 20
1068.0
 10
1074.5
 20
1045.0
 10
671.4999999999999
 20
1045.0
 10
671.4999999999999
 20
1068.0
  0
LINE
  5
227
330
B
100
AcDbEntity
  8
LEVEL001
  6
Continuous
 62
     7
100
AcDbLine
 10
671.4999999999999
 20
1047.0
 30
0.0
 11
1074.5
 21
1047.0
 31
0.0
  0
LINE
  5
228
330
B
100
AcDbEntity
  8
LEVEL001
  6
Continuous
 62
     7
100
AcDbLine
 10
1074.5
 20
1060.0
 30
0.0
 11
1077.0
 21
1060.0
 31
0.0
  0
LINE
  5
229
330
B
100
AcDbEntity
  8
LEVEL001
  6
Continuous
 62
     7
100
AcDbLine
 10
1077.0
 20
1050.0
 30
0.0
 11
1074.5
 21
1050.0
 31
0.0
  0
LWPOLYLINE
  5
22A
330
B
100
AcDbEntity
  8
LEVEL001
  6
Continuous
 62
     7
100
AcDbPolyline
 90
        4
 70
     1
 43
0.0
 10
1077.0
 20
1028.0
 10
1117.0
 20
1028.0
 10
1117.0
 20
1066.0
 10
1077.0
 20
1066.0
  0
LWPOLYLINE
  5
22B
330
B
100
AcDbEntity
  8
LEVEL001
  6
Continuous
 62
     7
100
AcDbPolyline
 90
        3
 70
     0
 43
0.0
 10
1077.0
 20
1040.0
 10
1097.0
 20
1040.0
 10
1097.0
 20
1066.0
  0
POINT
  5
22C
330
B
100
AcDbEntity
  8
LEVEL001
 62
     7
100
AcDbPoint
 10
1107.0
 20
1056.0
 30
0.0
  0
POINT
  5
22D
330
B
100
AcDbEntity
  8
LEVEL001
 62
     7
100
AcDbPoint
 10
1107.0
 20
1052.0
 30
0.0
  0
POINT
  5
22E
330
B
100
AcDbEntity
  8
LEVEL001
 62
     7
100
AcDbPoint
 10
1107.0
 20
1040.0
 30
0.0
  0
POINT
  5
22F
330
B
100
AcDbEntity
  8
LEVEL001
 62
     7
100
AcDbPoint
 10
1107.0
 20
1036.0
 30
0.0
  0
LWPOLYLINE
  5
230
330
B
100
AcDbEntity
  8
LEVEL001
  6
Continuous
 62
     7
100
AcDbPolyline
 90
        3
 70
     0
 43
0.0
 10
1074.5
 20
1063.0
 10
1022.5
 20
1063.0
 10
1022.5
 20
1047.0
  0
CIRCLE
  5
231
330
B
100
AcDbEntity
  8
LEVEL001
  6
Continuous
 62
     7
100
AcDbCircle
 10
1010.5
 20
1055.0
 30
0.0
 40
5.0
  0
LINE
  5
232
330
B
100
AcDbEntity
  8
LEVEL001
  6
Continuous
 62
     7
100
AcDbLine
 10
1010.5
 20
1060.0
 30
0.0
 11
1022.5
 21
1060.0
 31
0.0
  0
LINE
  5
233
330
B
100
AcDbEntity
  8
LEVEL001
  6
Continuous
 62
     7
100
AcDbLine
 10
1010.5
 20
1050.0
 30
0.0
 11
1022.5
 21
1050.0
 31
0.0
  0
CIRCLE
  5
234
330
B
100
AcDbEntity
  8
LEVEL001
  6
Continuous
 62
     7
100
AcDbCircle
 10
1125.5
 20
1075.0
 30
0.0
 40
5.0
  0
POINT
  5
235
330
B
100
AcDbEntity
  8
LEVEL001
 62
     7
100
AcDbPoint
 10
613.0
 20
1050.9
 30
0.0
  0
CIRCLE
  5
236
330
B
100
AcDbEntity
  8
LEVEL001
  6
Continuous
 62
     7
100
AcDbCircle
 10
620.5
 20
1075.0
 30
0.0
 40
5.0
  0
LWPOLYLINE
  5
237
330
B
100
AcDbEntity
  8
LEVEL001
  6
Continuous
 62
     7
100
AcDbPolyline
 90
        4
 70
     0
 43
0.0
 10
1141.5
 20
1070.0
 10
1141.5
 20
1086.18
 10
1109.5
 20
1086.18
 10
1109.5
 20
1083.0
  0
LINE
  5
238
330
B
100
AcDbEntity
  8
LEVEL001
  6
Continuous
 62
     7
100
AcDbLine
 10
1162.0
 20
1035.18
 30
0.0
 11
1162.0
 21
985.1799999999999
 31
0.0
  0
LWPOLYLINE
  5
239
330
B
100
AcDbEntity
  8
LEVEL001
  6
Continuous
 62
     7
100
AcDbPolyline
 90
        3
 70
     0
 43
0.0
 10
1142.0
 20
1035.18
 10
1142.0
 20
1010.18
 10
1162.0
 20
1010.18
  0
LWPOLYLINE
  5
23A
330
B
100
AcDbEntity
  8
LEVEL001
  6
Continuous
 62
     7
100
AcDbPolyline
 90
        4
 70
     0
 43
0.0
 10
1142.0
 20
985.1799999999999
 10
1168.0
 20
985.1799999999999
 10
1168.0
 20
1035.18
 10
1142.0
 20
1035.18
  0
POINT
  5
23B
330
B
100
AcDbEntity
  8
LEVEL001
 62
     7
100
AcDbPoint
 10
1132.0
 20
1000.18
 30
0.0
  0
INSERT
  5
23C
330
B
100
AcDbEntity
  8
0
100
AcDbBlockReference
  2
EGF11M12
 10
1152.0
 20
1035.18
 30
0.0
 50
90.0
  0
LINE
  5
23D
330
B
100
AcDbEntity
  8
LEVEL001
  6
Continuous
 62
     7
100
AcDbLine
 10
581.5
 20
1085.0
 30
0.0
 11
581.5
 21
1050.0
 31
0.0
  0
LINE
  5
23E
330
B
100
AcDbEntity
  8
LEVEL001
  6
Continuous
 62
     7
100
AcDbLine
 10
604.0
 20
818.0
 30
0.0
 11
522.0
 21
818.0
 31
0.0
  0
LINE
  5
23F
330
B
100
AcDbEntity
  8
LEVEL001
  6
Continuous
 62
     7
100
AcDbLine
 10
1142.0
 20
818.0
 30
0.0
 11
1224.0
 21
818.0
 31
0.0
  0
LINE
  5
240
330
B
100
AcDbEntity
  8
LEVEL001
  6
Continuous
 62
     7
100
AcDbLine
 10
504.0
 20
682.0
 30
0.0
 11
504.0
 21
666.0
 31
0.0
  0
LINE
  5
241
330
B
100
AcDbEntity
  8
LEVEL001
  6
Continuous
 62
     7
100
AcDbLine
 10
574.0
 20
682.0
 30
0.0
 11
574.0
 21
666.0
 31
0.0
  0
INSERT
  5
242
330
B
100
AcDbEntity
  8
0
100
AcDbBlockReference
  2
EGF21M10
 10
554.0
 20
682.0
 30
0.0
 50
90.0
  0
INSERT
  5
243
330
B
100
AcDbEntity
  8
0
100
AcDbBlockReference
  2
EGF11M10
 10
554.0
 20
684.0
 30
0.0
 50
90.0
  0
LWPOLYLINE
  5
244
330
B
100
AcDbEntity
  8
LEVEL001
  6
Continuous
 62
     7
100
AcDbPolyline
 90
        3
 70
     0
 43
0.0
 10
535.0
 20
666.0
 10
535.0
 20
635.0
 10
573.0
 20
635.0
  0
LINE
  5
245
330
B
100
AcDbEntity
  8
LEVEL001
  6
Continuous
 62
     7
100
AcDbLine
 10
590.0
 20
682.0
 30
0.0
 11
590.0
 21
666.0
 31
0.0
  0
LINE
  5
246
330
B
100
AcDbEntity
  8
LEVEL001
  6
DASHDOT
 62
     1
100
AcDbLine
 10
289.0
 20
718.0
 30
0.0
 11
1457.0
 21
718.0
 31
0.0
  0
LWPOLYLINE
  5
247
330
B
100
AcDbEntity
  8
LEVEL001
  6
Continuous
 62
     7
100
AcDbPolyline
 90
        6
 70
     0
 43
0.0
 10
522.0
 20
682.0
 10
522.0
 20
1031.0
 10
408.0
 20
1031.0
 10
408.0
 20
206.0
 10
522.0
 20
206.0
 10
522.0
 20
666.0
  0
LWPOLYLINE
  5
248
330
B
100
AcDbEntity
  8
LEVEL001
  6
Continuous
 62
     7
100
AcDbPolyline
 90
        4
 70
     0
 43
0.0
 10
598.0
 20
206.0
 10
598.0
 20
197.0
 10
523.0
 20
197.0
 10
523.0
 20
206.0
  0
LWPOLYLINE
  5
249
330
B
100
AcDbEntity
  8
LEVEL001
  6
Continuous
 62
     7
100
AcDbPolyline
 90
        4
 70
     0
 43
0.0
 10
1148.0
 20
206.0
 10
1148.0
 20
197.0
 10
1223.0
 20
197.0
 10
1223.0
 20
206.0
  0
CIRCLE
  5
24A
330
B
100
AcDbEntity
  8
LEVEL001
  6
Continuous
 62
     7
100
AcDbCircle
 10
560.5
 20
149.5
 30
0.0
 40
4.15
  0
CIRCLE
  5
24B
330
B
100
AcDbEntity
  8
LEVEL001
  6
Continuous
 62
     7
100
AcDbCircle
 10
1206.5
 20
149.5
 30
0.0
 40
4.15
  0
LINE
  5
24C
330
B
100
AcDbEntity
  8
LEVEL001
  6
Continuous
 62
     7
100
AcDbLine
 10
1151.0
 20
1195.18
 30
0.0
 11
1153.0
 21
1195.18
 31
0.0
  0
LINE
  5
24D
330
B
100
AcDbEntity
  8
LEVEL001
  6
Continuous
 62
     7
100
AcDbLine
 10
1146.0
 20
1190.18
 30
0.0
 11
1146.0
 21
1045.18
 31
0.0
  0
LINE
  5
24E
330
B
100
AcDbEntity
  8
LEVEL001
  6
Continuous
 62
     7
100
AcDbLine
 10
1158.0
 20
1190.18
 30
0.0
 11
1158.0
 21
1045.18
 31
0.0
  0
ARC
  5
24F
330
B
100
AcDbEntity
  8
LEVEL001
  6
Continuous
 62
     7
100
AcDbCircle
 10
1151.0
 20
1190.18
 30
0.0
 40
5.0
100
AcDbArc
 50
90.0
 51
180.00000000006
  0
ARC
  5
250
330
B
100
AcDbEntity
  8
LEVEL001
  6
Continuous
 62
     7
100
AcDbCircle
 10
1153.0
 20
1190.18
 30
0.0
 40
5.0
100
AcDbArc
 50
0.0
 51
89.99999999994299
  0
LWPOLYLINE
  5
251
330
B
100
AcDbEntity
  8
LEVEL001
  6
Continuous
 62
     7
100
AcDbPolyline
 90
        4
 70
     1
 43
0.0
 10
433.4999999999999
 20
900.5
 10
496.4999999999999
 20
900.5
 10
496.4999999999999
 20
984.5
 10
433.4999999999999
 20
984.5
  0
LWPOLYLINE
  5
252
330
B
100
AcDbEntity
  8
LEVEL001
  6
Continuous
 62
     7
100
AcDbPolyline
 90
        4
 70
     1
 43
0.0
 10
439.0
 20
911.0
 10
491.0
 20
911.0
 10
491.0
 20
974.0
 10
439.0
 20
974.0
  0
POINT
  5
253
330
B
100
AcDbEntity
  8
LEVEL001
 62
     7
100
AcDbPoint
 10
465.0
 20
947.7
 30
0.0
  0
LWPOLYLINE
  5
254
330
B
100
AcDbEntity
  8
LEVEL001
  6
Continuous
 62
     7
100
AcDbPolyline
 90
        4
 70
     0
 43
0.0
 10
462.5
 20
958.9249721603199
 10
463.0
 20
963.9499999999999
 10
467.0
 20
963.9499999999999
 10
467.4999999999999
 20
958.9249721603199
  0
LWPOLYLINE
  5
255
330
B
100
AcDbEntity
  8
LEVEL001
  6
Continuous
 62
     7
100
AcDbPolyline
 90
        4
 70
     0
 43
0.0
 10
462.5
 20
936.4750278396799
 10
463.0
 20
931.45
 10
467.0
 20
931.45
 10
467.4999999999999
 20
936.4750278396799
  0
LINE
  5
256
330
B
100
AcDbEntity
  8
LEVEL001
  6
Continuous
 62
     7
100
AcDbLine
 10
464.5
 20
963.9499999999999
 30
0.0
 11
464.5
 21
959.18912529308
 31
0.0
  0
LINE
  5
257
330
B
100
AcDbEntity
  8
LEVEL001
  6
Continuous
 62
     7
100
AcDbLine
 10
465.5
 20
963.9499999999999
 30
0.0
 11
465.5
 21
959.18912529308
 31
0.0
  0
CIRCLE
  5
258
330
B
100
AcDbEntity
  8
LEVEL001
  6
Continuous
 62
     7
100
AcDbCircle
 10
465.0
 20
947.7
 30
0.0
 40
8.0
  0
ARC
  5
259
330
B
100
AcDbEntity
  8
LEVEL001
  6
Continuous
 62
     7
100
AcDbCircle
 10
465.00000000053
 20
932.2434194268199
 30
0.0
 40
4.9565805731756
100
AcDbArc
 50
58.91685076561099
 51
121.08314923817
  0
ARC
  5
25A
330
B
100
AcDbEntity
  8
LEVEL001
  6
Continuous
 62
     7
100
AcDbCircle
 10
477.0844413039699
 20
938.0629796410099
 30
0.0
 40
4.9565805731756
100
AcDbArc
 50
110.34542219429
 51
172.51172066697
  0
ARC
  5
25B
330
B
100
AcDbEntity
  8
LEVEL001
  6
Continuous
 62
     7
100
AcDbCircle
 10
480.06905182826
 20
951.1394127448999
 30
0.0
 40
4.9565805731756
100
AcDbArc
 50
161.77399362286
 51
223.94029209553
  0
ARC
  5
25C
330
B
100
AcDbEntity
  8
LEVEL001
  6
Continuous
 62
     7
100
AcDbCircle
 10
471.70635897365
 20
961.62589790065
 30
0.0
 40
4.9565805731756
100
AcDbArc
 50
213.20256505146
 51
275.36886352416
  0
ARC
  5
25D
330
B
100
AcDbEntity
  8
LEVEL001
  6
Continuous
 62
     7
100
AcDbCircle
 10
458.29364102754
 20
961.6258979006699
 30
0.0
 40
4.9565805731756
100
AcDbArc
 50
264.63113648
 51
326.79743495269
  0
ARC
  5
25E
330
B
100
AcDbEntity
  8
LEVEL001
  6
Continuous
 62
     7
100
AcDbCircle
 10
449.93094817291
 20
951.1394127449401
 30
0.0
 40
4.9565805731756
100
AcDbArc
 50
316.05970790858
 51
18.226006381258
  0
ARC
  5
25F
330
B
100
AcDbEntity
  8
LEVEL001
  6
Continuous
 62
     7
100
AcDbCircle
 10
452.91555869715
 20
938.0629796410399
 30
0.0
 40
4.9565805731756
100
AcDbArc
 50
7.488279337166099
 51
69.654577809868
  0
ARC
  5
260
330
B
100
AcDbEntity
  8
LEVEL001
  6
Continuous
 62
     7
100
AcDbCircle
 10
464.9999999999899
 20
947.7
 30
0.0
 40
11.5
100
AcDbArc
 50
231.42857143251
 51
257.14285714497
  0
ARC
  5
261
330
B
100
AcDbEntity
  8
LEVEL001
  6
Continuous
 62
     7
100
AcDbCircle
 10
465.0
 20
947.7
 30
0.0
 40
11.5
100
AcDbArc
 50
282.85714285912
 51
308.5714285755
  0
ARC
  5
262
330
B
100
AcDbEntity
  8
LEVEL001
  6
Continuous
 62
     7
100
AcDbCircle
 10
465.0
 20
947.7
 30
0.0
 40
11.5
100
AcDbArc
 50
334.28571428416
 51
0.0
  0
ARC
  5
263
330
B
100
AcDbEntity
  8
LEVEL001
  6
Continuous
 62
     7
100
AcDbCircle
 10
465.0
 20
947.7
 30
0.0
 40
11.5
100
AcDbArc
 50
180.00000000273
 51
205.71428571279
  0
ARC
  5
264
330
B
100
AcDbEntity
  8
LEVEL001
  6
Continuous
 62
     7
100
AcDbCircle
 10
465.0
 20
947.7000000000101
 30
0.0
 40
11.5
100
AcDbArc
 50
128.57142857084
 51
154.28571428183
  0
ARC
  5
265
330
B
100
AcDbEntity
  8
LEVEL001
  6
Continuous
 62
     7
100
AcDbCircle
 10
465.0
 20
947.7
 30
0.0
 40
11.5
100
AcDbArc
 50
25.714285710171
 51
51.428571428225
  0
ARC
  5
266
330
B
100
AcDbEntity
  8
LEVEL001
  6
Continuous
 62
     7
100
AcDbCircle
 10
464.9999999999899
 20
947.7
 30
0.0
 40
11.5
100
AcDbArc
 50
77.142857139147
 51
102.85714285369
  0
ARC
  5
267
330
B
100
AcDbEntity
  8
LEVEL001
  6
Continuous
 62
     7
100
AcDbCircle
 10
464.9999999999899
 20
947.7
 30
0.0
 40
13.0
100
AcDbArc
 50
100.3903380831
 51
259.6096619169
  0
ARC
  5
268
330
B
100
AcDbEntity
  8
LEVEL001
  6
Continuous
 62
     7
100
AcDbCircle
 10
465.0
 20
947.7
 30
0.0
 40
13.0
100
AcDbArc
 50
280.39033808312
 51
79.609661916877
  0
ARC
  5
269
330
B
100
AcDbEntity
  8
LEVEL001
  6
Continuous
 62
     7
100
AcDbCircle
 10
465.0
 20
947.7
 30
0.0
 40
20.0
100
AcDbArc
 50
299.9999999998
 51
240.0000000002
  0
LWPOLYLINE
  5
26A
330
B
100
AcDbEntity
  8
LEVEL001
  6
Continuous
 62
     7
100
AcDbPolyline
 90
        4
 70
     1
 43
0.0
 10
436.5
 20
908.5
 10
493.5
 20
908.5
 10
493.5
 20
976.5
 10
436.5
 20
976.5
  0
LINE
  5
26B
330
B
100
AcDbEntity
  8
LEVEL001
  6
DASHDOT
 62
     1
100
AcDbLine
 10
873.0
 20
85.0
 30
0.0
 11
873.0
 21
1118.0
 31
0.0
  0
POINT
  5
26C
330
B
100
AcDbEntity
  8
LEVEL001
 62
     7
100
AcDbPoint
 10
1856.0
 20
197.0
 30
0.0
  0
LWPOLYLINE
  5
26D
330
B
100
AcDbEntity
  8
LEVEL001
  6
Continuous
 62
     7
100
AcDbPolyline
 90
        4
 70
     1
 43
0.0
 10
1843.5
 20
117.0
 10
1868.5
 20
117.0
 10
1868.5
 20
182.0
 10
1843.5
 20
182.0
  0
LWPOLYLINE
  5
26E
330
B
100
AcDbEntity
  8
LEVEL001
  6
Continuous
 62
     7
100
AcDbPolyline
 90
       12
 70
     0
 43
0.0
 10
1827.0
 20
197.0
 10
1827.0
 20
195.0
 10
1839.0
 20
195.0
 10
1839.0
 20
142.68770773623
 10
1841.0
 20
142.68770773623
 10
1841.0
 20
182.0
 10
1871.0
 20
182.0
 10
1871.0
 20
142.68770773623
 10
1873.0
 20
142.68770773623
 10
1873.0
 20
195.0
 10
1885.0
 20
195.0
 10
1885.0
 20
197.0
  0
LINE
  5
26F
330
B
100
AcDbEntity
  8
LEVEL001
  6
Continuous
 62
     7
100
AcDbLine
 10
1839.0
 20
195.0
 30
0.0
 11
1873.0
 21
195.0
 31
0.0
  0
LWPOLYLINE
  5
270
330
B
100
AcDbEntity
  8
LEVEL001
  6
Continuous
 62
     7
100
AcDbPolyline
 90
        4
 70
     0
 43
0.0
 10
1886.0
 20
206.0
 10
1886.0
 20
197.0
 10
1826.0
 20
197.0
 10
1826.0
 20
206.0
  0
LINE
  5
271
330
B
100
AcDbEntity
  8
LEVEL001
  6
Continuous
 62
     7
100
AcDbLine
 10
1805.0
 20
117.0
 30
0.0
 11
1928.0
 21
117.0
 31
0.0
  0
LWPOLYLINE
  5
272
330
B
100
AcDbEntity
  8
LEVEL001
  6
Continuous
 62
     7
100
AcDbPolyline
 90
        4
 70
     1
 43
0.0
 10
1927.5
 20
206.0
 10
2269.5
 20
206.0
 10
2269.5
 20
916.0
 10
1927.5
 20
916.0
  0
LWPOLYLINE
  5
273
330
B
100
AcDbEntity
  8
LEVEL001
  6
Continuous
 62
     7
100
AcDbPolyline
 90
        4
 70
     0
 43
0.0
 10
1927.5
 20
666.0
 10
1923.5
 20
666.0
 10
1826.0
 20
206.0
 10
1927.5
 20
206.0
  0
ARC
  5
274
330
B
100
AcDbEntity
  8
LEVEL001
  6
HIDDEN
 62
     1
100
AcDbCircle
 10
2098.5
 20
718.0
 30
0.0
 40
171.0
100
AcDbArc
 50
180.0
 51
0.0
  0
ARC
  5
275
330
B
100
AcDbEntity
  8
LEVEL001
  6
HIDDEN
 62
     1
100
AcDbCircle
 10
2098.5
 20
718.0
 30
0.0
 40
170.0
100
AcDbArc
 50
180.0
 51
0.0
  0
POINT
  5
276
330
B
100
AcDbEntity
  8
LEVEL001
 62
     7
100
AcDbPoint
 10
2268.5
 20
1050.18
 30
0.0
  0
POINT
  5
277
330
B
100
AcDbEntity
  8
LEVEL001
 62
     7
100
AcDbPoint
 10
2268.5
 20
1000.18
 30
0.0
  0
LWPOLYLINE
  5
278
330
B
100
AcDbEntity
  8
LEVEL001
  6
Continuous
 62
     7
100
AcDbPolyline
 90
        4
 70
     0
 43
0.0
 10
2269.5
 20
1068.0
 10
2278.5
 20
1068.0
 10
2278.5
 20
1030.0
 10
2269.5
 20
1030.0
  0
POINT
  5
279
330
B
100
AcDbEntity
  8
LEVEL001
 62
     7
100
AcDbPoint
 10
1928.5
 20
1050.18
 30
0.0
  0
LWPOLYLINE
  5
27A
330
B
100
AcDbEntity
  8
LEVEL001
  6
Continuous
 62
     7
100
AcDbPolyline
 90
        4
 70
     0
 43
0.0
 10
1927.5
 20
1068.0
 10
1918.5
 20
1068.0
 10
1918.5
 20
1030.0
 10
1927.5
 20
1030.0
  0
LWPOLYLINE
  5
27B
330
B
100
AcDbEntity
  8
LEVEL001
  6
Continuous
 62
     7
100
AcDbPolyline
 90
        4
 70
     0
 43
0.0
 10
1872.2845421541
 20
424.3680963167499
 10
1871.3062753376
 20
424.5754463485099
 10
1879.9328420761
 20
465.27514583271
 10
1881.0201814282
 20
465.5823944303199
  0
LINE
  5
27C
330
B
100
AcDbEntity
  8
LEVEL001
  6
HIDDEN
 62
     1
100
AcDbLine
 10
1881.0201814282
 20
465.5823944303199
 30
0.0
 11
2287.5750576949
 21
580.46227562338
 31
0.0
  0
LWPOLYLINE
  5
27D
330
B
100
AcDbEntity
  8
LEVEL001
  6
Continuous
 62
     7
100
AcDbPolyline
 90
        6
 70
     0
 43
0.0
 10
1923.5
 20
666.0
 10
1891.2282608696
 20
666.0
 10
1891.2282608696
 20
635.0
 10
1897.2282608696
 20
635.0
 10
1897.2282608696
 20
660.0
 10
1922.2282608696
 20
660.0
  0
INSERT
  5
27E
330
B
100
AcDbEntity
  8
0
100
AcDbBlockReference
  2
EGF21M10
 10
1887.2282608696
 20
653.0
 30
0.0
  0
INSERT
  5
27F
330
B
100
AcDbEntity
  8
0
100
AcDbBlockReference
  2
EGF21M10
 10
1889.2282608696
 20
653.0
 30
0.0
  0
INSERT
  5
280
330
B
100
AcDbEntity
  8
0
100
AcDbBlockReference
  2
EGF21M10
 10
1876.2282608696
 20
653.0
 30
0.0
  0
INSERT
  5
281
330
B
100
AcDbEntity
  8
0
100
AcDbBlockReference
  2
EGF11M10
 10
1876.2282608696
 20
653.0
 30
0.0
 50
180.0
  0
INSERT
  5
282
330
B
100
AcDbEntity
  8
0
100
AcDbBlockReference
  2
EGF21M10
 10
1907.2282608696
 20
682.0
 30
0.0
 50
90.0
  0
INSERT
  5
283
330
B
100
AcDbEntity
  8
0
100
AcDbBlockReference
  2
EGF11M10
 10
1907.2282608696
 20
684.0
 30
0.0
 50
90.0
  0
LWPOLYLINE
  5
284
330
B
100
AcDbEntity
  8
LEVEL001
  6
Continuous
 62
     7
100
AcDbPolyline
 90
        4
 70
     0
 43
0.0
 10
1868.2282608696
 20
658.0
 10
1867.2282608696
 20
658.0
 10
1867.2282608696
 20
648.0
 10
1868.2282608696
 20
648.0
  0
LWPOLYLINE
  5
285
330
B
100
AcDbEntity
  8
LEVEL001
  6
Continuous
 62
     7
100
AcDbPolyline
 90
        4
 70
     0
 43
0.0
 10
1878.2282608696
 20
666.0
 10
1878.2282608696
 20
643.0
 10
1887.2282608696
 20
643.0
 10
1887.2282608696
 20
666.0
  0
LWPOLYLINE
  5
286
330
B
100
AcDbEntity
  8
LEVEL001
  6
Continuous
 62
     7
100
AcDbPolyline
 90
        4
 70
     0
 43
0.0
 10
1927.5
 20
682.0
 10
1874.2282608696
 20
682.0
 10
1874.2282608696
 20
666.0
 10
1891.2282608696
 20
666.0
  0
LWPOLYLINE
  5
287
330
B
100
AcDbEntity
  8
LEVEL001
  6
Continuous
 62
     7
100
AcDbPolyline
 90
        4
 70
     0
 43
0.0
 10
2278.5
 20
1080.0
 10
2260.5
 20
1080.0
 10
2260.5
 20
1070.0
 10
2278.5
 20
1070.0
  0
LWPOLYLINE
  5
288
330
B
100
AcDbEntity
  8
LEVEL001
  6
Continuous
 62
     7
100
AcDbPolyline
 90
        4
 70
     0
 43
0.0
 10
2290.5
 20
1080.0
 10
2297.5
 20
1077.4522083602
 10
2297.5
 20
1072.5477916398
 10
2290.5
 20
1070.0
  0
LWPOLYLINE
  5
289
330
B
100
AcDbEntity
  8
LEVEL001
  6
Continuous
 62
     7
100
AcDbPolyline
 90
        4
 70
     1
 43
0.0
 10
2278.5
 20
1039.18
 10
2290.5
 20
1039.18
 10
2290.5
 20
1086.18
 10
2278.5
 20
1086.18
  0
LWPOLYLINE
  5
28A
330
B
100
AcDbEntity
  8
LEVEL001
  6
Continuous
 62
     7
100
AcDbPolyline
 90
        4
 70
     1
 43
0.0
 10
1915.5
 20
1066.0
 10
1915.5
 20
1028.0
 10
1918.5
 20
1028.0
 10
1918.5
 20
1066.0
  0
LWPOLYLINE
  5
28B
330
B
100
AcDbEntity
  8
LEVEL001
  6
Continuous
 62
     7
100
AcDbPolyline
 90
        4
 70
     0
 43
0.0
 10
1915.5
 20
1066.0
 10
1897.5
 20
1066.0
 10
1897.5
 20
1040.0
 10
1915.5
 20
1040.0
  0
LWPOLYLINE
  5
28C
330
B
100
AcDbEntity
  8
LEVEL001
  6
Continuous
 62
     7
100
AcDbPolyline
 90
        4
 70
     0
 43
0.0
 10
1897.5
 20
1060.0
 10
1883.5
 20
1060.0
 10
1883.5
 20
1050.0
 10
1897.5
 20
1050.0
  0
LWPOLYLINE
  5
28D
330
B
100
AcDbEntity
  8
LEVEL001
  6
Continuous
 62
     7
100
AcDbPolyline
 90
        4
 70
     0
 43
0.0
 10
1963.5
 20
1083.0
 10
1963.5
 20
1085.0
 10
2025.5
 20
1085.0
 10
2025.5
 20
1083.0
  0
INSERT
  5
28E
330
B
100
AcDbEntity
  8
0
100
AcDbBlockReference
  2
EGF11M12
 10
2252.5
 20
1035.18
 30
0.0
 50
90.0
  0
LINE
  5
28F
330
B
100
AcDbEntity
  8
LEVEL001
  6
Continuous
 62
     7
100
AcDbLine
 10
2262.5
 20
1035.18
 30
0.0
 11
2262.5
 21
985.1799999999999
 31
0.0
  0
LWPOLYLINE
  5
290
330
B
100
AcDbEntity
  8
LEVEL001
  6
Continuous
 62
     7
100
AcDbPolyline
 90
        3
 70
     0
 43
0.0
 10
2242.5
 20
1035.18
 10
2242.5
 20
1010.18
 10
2262.5
 20
1010.18
  0
LWPOLYLINE
  5
291
330
B
100
AcDbEntity
  8
LEVEL001
  6
Continuous
 62
     7
100
AcDbPolyline
 90
        5
 70
     0
 43
0.0
 10
2243.5
 20
1010.18
 10
2243.5
 20
985.1799999999999
 10
2268.5
 20
985.1799999999999
 10
2268.5
 20
1035.18
 10
2242.5
 20
1035.18
  0
LINE
  5
292
330
B
100
AcDbEntity
  8
LEVEL001
  6
HIDDEN
 62
     1
100
AcDbLine
 10
2268.5
 20
718.0
 30
0.0
 11
2268.5
 21
916.0
 31
0.0
  0
LINE
  5
293
330
B
100
AcDbEntity
  8
LEVEL001
  6
HIDDEN
 62
     1
100
AcDbLine
 10
1928.5
 20
718.0
 30
0.0
 11
1928.5
 21
916.0
 31
0.0
  0
LWPOLYLINE
  5
294
330
B
100
AcDbEntity
  8
LEVEL001
  6
Continuous
 62
     7
100
AcDbPolyline
 90
        3
 70
     0
 43
0.0
 10
2230.0
 20
1068.0
 10
1918.5
 20
1068.0
 10
1918.5
 20
1066.0
  0
LWPOLYLINE
  5
295
330
B
100
AcDbEntity
  8
LEVEL001
  6
Continuous
 62
     7
100
AcDbPolyline
 90
        4
 70
     0
 43
0.0
 10
1927.5
 20
893.5
 10
1925.0
 20
893.5
 10
1925.0
 20
848.4999999999999
 10
1927.5
 20
848.4999999999999
  0
LWPOLYLINE
  5
296
330
B
100
AcDbEntity
  8
LEVEL001
  6
Continuous
 62
     7
100
AcDbPolyline
 90
        4
 70
     0
 43
0.0
 10
1925.0
 20
882.2499999999999
 10
1913.5
 20
882.2499999999999
 10
1913.5
 20
849.75
 10
1925.0
 20
849.75
  0
LWPOLYLINE
  5
297
330
B
100
AcDbEntity
  8
LEVEL001
  6
Continuous
 62
     7
100
AcDbPolyline
 90
        4
 70
     0
 43
0.0
 10
1913.5
 20
878.5
 10
1907.5
 20
878.5
 10
1907.5
 20
853.5
 10
1913.5
 20
853.5
  0
LWPOLYLINE
  5
298
330
B
100
AcDbEntity
  8
LEVEL001
  6
Continuous
 62
     7
100
AcDbPolyline
 90
        3
 70
     0
 43
0.0
 10
1927.5
 20
1026.5
 10
1926.0
 20
1026.5
 10
1926.0
 20
893.5
  0
LWPOLYLINE
  5
299
330
B
100
AcDbEntity
  8
LEVEL001
  6
Continuous
 62
     7
100
AcDbPolyline
 90
        3
 70
     0
 43
0.0
 10
1926.0
 20
848.4999999999999
 10
1926.0
 20
820.5
 10
1927.5
 20
820.5
  0
LWPOLYLINE
  5
29A
330
B
100
AcDbEntity
  8
LEVEL001
  6
Continuous
 62
     7
100
AcDbPolyline
 90
        3
 70
     0
 43
0.0
 10
1914.5
 20
883.0
 10
1908.5
 20
883.0
 10
1908.5
 20
878.5
  0
LWPOLYLINE
  5
29B
330
B
100
AcDbEntity
  8
LEVEL001
  6
Continuous
 62
     7
100
AcDbPolyline
 90
        3
 70
     0
 43
0.0
 10
1925.0
 20
886.7499999999999
 10
1914.5
 20
886.7499999999999
 10
1914.5
 20
882.2499999999999
  0
LWPOLYLINE
  5
29C
330
B
100
AcDbEntity
  8
LEVEL001
  6
Continuous
 62
     7
100
AcDbPolyline
 90
        3
 70
     0
 43
0.0
 10
1927.5
 20
256.0
 10
1887.7086264893
 20
256.0
 10
1927.5
 20
443.73365964022
  0
LWPOLYLINE
  5
29D
330
B
100
AcDbEntity
  8
LEVEL001
  6
Continuous
 62
     7
100
AcDbPolyline
 90
        4
 70
     0
 43
0.0
 10
2269.5
 20
666.0
 10
2273.5
 20
666.0
 10
2371.0
 20
206.0
 10
2269.5
 20
206.0
  0
LWPOLYLINE
  5
29E
330
B
100
AcDbEntity
  8
LEVEL001
  6
Continuous
 62
     7
100
AcDbPolyline
 90
        3
 70
     0
 43
0.0
 10
2269.5
 20
256.0
 10
2309.2913735107
 20
256.0
 10
2269.5
 20
443.73365964022
  0
LWPOLYLINE
  5
29F
330
B
100
AcDbEntity
  8
LEVEL001
  6
Continuous
 62
     7
100
AcDbPolyline
 90
        3
 70
     0
 43
0.0
 10
1916.5
 20
1066.0
 10
1916.5
 20
1083.0
 10
2246.5
 20
1083.0
  0
LINE
  5
2A0
330
B
100
AcDbEntity
  8
LEVEL001
  6
Continuous
 62
     7
100
AcDbLine
 10
2246.5
 20
1070.0
 30
0.0
 11
1916.5
 21
1070.0
 31
0.0
  0
LWPOLYLINE
  5
2A1
330
B
100
AcDbEntity
  8
LEVEL001
  6
Continuous
 62
     7
100
AcDbPolyline
 90
        3
 70
     0
 43
0.0
 10
2246.5
 20
1068.0
 10
1928.5
 20
1068.0
 10
1928.5
 20
916.0
  0
LWPOLYLINE
  5
2A2
330
B
100
AcDbEntity
  8
LEVEL001
  6
Continuous
 62
     7
100
AcDbPolyline
 90
        3
 70
     0
 43
0.0
 10
2258.5
 20
1083.0
 10
2275.5
 20
1083.0
 10
2275.5
 20
1080.0
  0
LINE
  5
2A3
330
B
100
AcDbEntity
  8
LEVEL001
  6
Continuous
 62
     7
100
AcDbLine
 10
2275.5
 20
1070.0
 30
0.0
 11
2258.5
 21
1070.0
 31
0.0
  0
LWPOLYLINE
  5
2A4
330
B
100
AcDbEntity
  8
LEVEL001
  6
Continuous
 62
     7
100
AcDbPolyline
 90
        3
 70
     0
 43
0.0
 10
2268.5
 20
916.0
 10
2268.5
 20
1068.0
 10
2258.5
 20
1068.0
  0
LWPOLYLINE
  5
2A5
330
B
100
AcDbEntity
  8
LEVEL001
  6
Continuous
 62
     7
100
AcDbPolyline
 90
        3
 70
     0
 43
0.0
 10
2275.5
 20
1070.0
 10
2275.5
 20
1068.0
 10
2258.5
 20
1068.0
  0
LINE
  5
2A6
330
B
100
AcDbEntity
  8
LEVEL001
  6
Continuous
 62
     7
100
AcDbLine
 10
2251.5
 20
1195.18
 30
0.0
 11
2253.5
 21
1195.18
 31
0.0
  0
LINE
  5
2A7
330
B
100
AcDbEntity
  8
LEVEL001
  6
Continuous
 62
     7
100
AcDbLine
 10
2246.5
 20
1190.18
 30
0.0
 11
2246.5
 21
1045.18
 31
0.0
  0
LINE
  5
2A8
330
B
100
AcDbEntity
  8
LEVEL001
  6
Continuous
 62
     7
100
AcDbLine
 10
2258.5
 20
1190.18
 30
0.0
 11
2258.5
 21
1045.18
 31
0.0
  0
ARC
  5
2A9
330
B
100
AcDbEntity
  8
LEVEL001
  6
Continuous
 62
     7
100
AcDbCircle
 10
2251.5
 20
1190.18
 30
0.0
 40
5.0
100
AcDbArc
 50
90.0
 51
180.00000000005
  0
ARC
  5
2AA
330
B
100
AcDbEntity
  8
LEVEL001
  6
Continuous
 62
     7
100
AcDbCircle
 10
2253.5
 20
1190.18
 30
0.0
 40
5.0
100
AcDbArc
 50
0.0
 51
89.999999999948
  0
LINE
  5
2AB
330
B
100
AcDbEntity
  8
LEVEL001
  6
Continuous
 62
     7
100
AcDbLine
 10
1927.5
 20
916.0
 30
0.0
 11
1927.5
 21
1068.0
 31
0.0
  0
LINE
  5
2AC
330
B
100
AcDbEntity
  8
LEVEL001
  6
Continuous
 62
     7
100
AcDbLine
 10
2269.5
 20
916.0
 30
0.0
 11
2269.5
 21
1068.0
 31
0.0
  0
LWPOLYLINE
  5
2AD
330
B
100
AcDbEntity
  8
LEVEL001
  6
Continuous
 62
     7
100
AcDbPolyline
 90
        4
 70
     1
 43
0.0
 10
1906.5
 20
936.2
 10
1916.5
 20
936.2
 10
1916.5
 20
959.2
 10
1906.5
 20
959.2
  0
LWPOLYLINE
  5
2AE
330
B
100
AcDbEntity
  8
LEVEL001
  6
Continuous
 62
     7
100
AcDbPolyline
 90
        4
 70
     0
 43
0.0
 10
1906.5
 20
959.2
 10
1906.0
 20
955.7
 10
1906.0
 20
939.7
 10
1906.5
 20
936.2
  0
LWPOLYLINE
  5
2AF
330
B
100
AcDbEntity
  8
LEVEL001
  6
Continuous
 62
     7
100
AcDbPolyline
 90
        3
 70
     0
 43
0.0
 10
1908.0
 20
936.2
 10
1909.0
 20
931.45
 10
1919.0
 20
931.45
  0
LWPOLYLINE
  5
2B0
330
B
100
AcDbEntity
  8
LEVEL001
  6
Continuous
 62
     7
100
AcDbPolyline
 90
        4
 70
     1
 43
0.0
 10
1922.0
 20
900.5
 10
1926.0
 20
900.5
 10
1926.0
 20
984.5
 10
1922.0
 20
984.5
  0
LWPOLYLINE
  5
2B1
330
B
100
AcDbEntity
  8
LEVEL001
  6
Continuous
 62
     7
100
AcDbPolyline
 90
        4
 70
     0
 43
0.0
 10
1922.0
 20
976.5
 10
1919.0
 20
976.5
 10
1919.0
 20
908.5
 10
1922.0
 20
908.5
  0
LWPOLYLINE
  5
2B2
330
B
100
AcDbEntity
  8
LEVEL001
  6
Continuous
 62
     7
100
AcDbPolyline
 90
        4
 70
     0
 43
0.0
 10
1919.0
 20
960.7000000000001
 10
1918.0
 20
960.7000000000001
 10
1918.0
 20
934.7000000000001
 10
1919.0
 20
934.7000000000001
  0
LINE
  5
2B3
330
B
100
AcDbEntity
  8
LEVEL001
  6
Continuous
 62
     7
100
AcDbLine
 10
1916.5
 20
959.2
 30
0.0
 11
1918.0
 21
960.7000000000001
 31
0.0
  0
LINE
  5
2B4
330
B
100
AcDbEntity
  8
LEVEL001
  6
Continuous
 62
     7
100
AcDbLine
 10
1916.5
 20
936.2
 30
0.0
 11
1918.0
 21
934.7000000000001
 31
0.0
  0
LWPOLYLINE
  5
2B5
330
B
100
AcDbEntity
  8
LEVEL001
  6
Continuous
 62
     7
100
AcDbPolyline
 90
        3
 70
     0
 43
0.0
 10
1908.0
 20
959.2
 10
1909.0
 20
963.9499999999999
 10
1919.0
 20
963.9499999999999
  0
LWPOLYLINE
  5
2B6
330
B
100
AcDbEntity
  8
LEVEL001
  6
Continuous
 62
     7
100
AcDbPolyline
 90
        4
 70
     0
 43
0.0
 10
2311.0
 20
206.0
 10
2311.0
 20
197.0
 10
2371.0
 20
197.0
 10
2371.0
 20
206.0
  0
LINE
  5
2B7
330
B
100
AcDbEntity
  8
LEVEL001
  6
DASHDOT
 62
     1
100
AcDbLine
 10
2098.5
 20
190.0
 30
0.0
 11
2098.5
 21
1110.0
 31
0.0
  0
TEXT
  5
2B8
330
B
100
AcDbEntity
  8
LEVEL001
 62
     7
100
AcDbText
 10
2165.0
 20
140.0
 30
0.0
 40
20.0
  1
SN-25P 承認図
100
AcDbText
  0
LINE
  5
2B9
330
B
100
AcDbEntity
  8
LEVEL001
  6
Continuous
 62
     7
100
AcDbLine
 10
1129.8952624153
 20
1795.6615028588
 30
0.0
 11
1173.0
 21
1795.6615028588
 31
0.0
  0
LWPOLYLINE
  5
2BA
330
B
100
AcDbEntity
  8
LEVEL001
  6
Continuous
 62
     7
100
AcDbPolyline
 90
        3
 70
     0
 43
0.0
 10
1170.0
 20
1702.0
 10
1170.0
 20
1791.0750576949
 10
1141.5
 20
1791.0750576949
  0
LINE
  5
2BB
330
B
100
AcDbEntity
  8
LEVEL001
  6
Continuous
 62
     7
100
AcDbLine
 10
1109.5
 20
1791.0750576949
 30
0.0
 11
636.5
 21
1791.0750576949
 31
0.0
  0
LWPOLYLINE
  5
2BC
330
B
100
AcDbEntity
  8
LEVEL001
  6
Continuous
 62
     7
100
AcDbPolyline
 90
        3
 70
     0
 43
0.0
 10
604.4999999999999
 20
1791.0750576949
 10
576.0
 20
1791.0750576949
 10
576.0
 20
1702.0
  0
LINE
  5
2BD
330
B
100
AcDbEntity
  8
LEVEL001
  6
Continuous
 62
     7
100
AcDbLine
 10
573.0
 20
1795.6615028588
 30
0.0
 11
616.1047375847399
 21
1795.6615028588
 31
0.0
  0
LINE
  5
2BE
330
B
100
AcDbEntity
  8
LEVEL001
  6
Continuous
 62
     7
100
AcDbLine
 10
624.89526241526
 20
1795.6615028588
 30
0.0
 11
1121.1047375847
 21
1795.6615028588
 31
0.0
  0
LINE
  5
2BF
330
B
100
AcDbEntity
  8
LEVEL001
  6
Continuous
 62
     7
100
AcDbLine
 10
555.62267080745
 20
1447.0
 30
0.0
 11
544.0
 21
1430.7282608696
 31
0.0
  0
LWPOLYLINE
  5
2C0
330
B
100
AcDbEntity
  8
LEVEL001
  6
Continuous
 62
     7
100
AcDbPolyline
 90
        4
 70
     0
 43
0.0
 10
604.0
 20
1443.7282608696
 10
590.0
 20
1443.7282608696
 10
574.0
 20
1393.7282608696
 10
504.0
 20
1393.7282608696
  0
LINE
  5
2C1
330
B
100
AcDbEntity
  8
LEVEL001
  6
Continuous
 62
     7
100
AcDbLine
 10
504.0
 20
1393.7282608696
 30
0.0
 11
425.18524029277
 21
1377.8462310953
 31
0.0
  0
LINE
  5
2C2
330
B
100
AcDbEntity
  8
LEVEL001
  6
Continuous
 62
     7
100
AcDbLine
 10
544.0
 20
1430.7282608696
 30
0.0
 11
497.5
 21
1414.9705304853
 31
0.0
  0
LINE
  5
2C3
330
B
100
AcDbEntity
  8
LEVEL001
  6
Continuous
 62
     7
100
AcDbLine
 10
493.1605636788299
 20
1413.5
 30
0.0
 11
422.0743103455499
 21
1389.410580343
 31
0.0
  0
CIRCLE
  5
2C4
330
B
100
AcDbEntity
  8
LEVEL001
  6
Continuous
 62
     7
100
AcDbCircle
 10
554.0
 20
1410.7282608696
 30
0.0
 40
10.5
  0
INSERT
  5
2C5
330
B
100
AcDbEntity
  8
0
100
AcDbBlockReference
  2
EGF9M10
 10
554.0
 20
1410.7282608696
 30
0.0
  0
ARC
  5
2C6
330
B
100
AcDbEntity
  8
LEVEL001
  6
Continuous
 62
     7
100
AcDbCircle
 10
423.9999999999599
 20
1383.728
 30
0.0
 40
6.0
100
AcDbArc
 50
108.72028227079
 51
281.39314451807
  0
CIRCLE
  5
2C7
330
B
100
AcDbEntity
  8
LEVEL001
  6
Continuous
 62
     7
100
AcDbCircle
 10
554.0
 20
653.0
 30
0.0
 40
10.5
  0
INSERT
  5
2C8
330
B
100
AcDbEntity
  8
0
100
AcDbBlockReference
  2
EGF9M10
 10
554.0
 20
653.0
 30
0.0
  0
POINT
  5
2C9
330
B
100
AcDbEntity
  8
LEVEL001
 62
     7
100
AcDbPoint
 10
554.0
 20
653.0
 30
0.0
  0
ARC
  5
2CA
330
B
100
AcDbEntity
  8
LEVEL001
  6
Continuous
 62
     7
100
AcDbCircle
 10
553.9999999999899
 20
663.0
 30
0.0
 40
10.0
100
AcDbArc
 50
14.999999999609
 51
89.999999999952
  0
LWPOLYLINE
  5
2CB
330
B
100
AcDbEntity
  8
LEVEL001
  6
Continuous
 62
     7
100
AcDbPolyline
 90
        4
 70
     0
 43
0.0
 10
604.0
 20
682.0
 10
418.0
 20
682.0
 10
418.0
 20
666.0
 10
539.2704914868899
 20
666.0
  0
LINE
  5
2CC
330
B
100
AcDbEntity
  8
LEVEL001
  6
Continuous
 62
     7
100
AcDbLine
 10
563.5393920141599
 20
666.0
 30
0.0
 11
604.0
 21
666.0
 31
0.0
  0
LWPOLYLINE
  5
2CD
330
B
100
AcDbEntity
  8
LEVEL001
  6
Continuous
 62
     7
100
AcDbPolyline
 90
        3
 70
     0
 43
0.0
 10
543.50007599383
 20
652.96005172472
 10
537.0
 20
673.0
 10
554.0
 20
673.0
  0
LWPOLYLINE
  5
2CE
330
B
100
AcDbEntity
  8
LEVEL001
  6
Continuous
 62
     7
100
AcDbPolyline
 90
        5
 70
     0
 43
0.0
 10
557.2015621187199
 20
643.0
 10
594.0
 20
643.0
 10
594.0
 20
653.0
 10
565.9769679016299
 20
656.9383803220099
 10
563.6592582629
 20
665.58819045096
  0
LINE
  5
2CF
330
B
100
AcDbEntity
  8
LEVEL001
  6
Continuous
 62
     7
100
AcDbLine
 10
573.0
 20
643.0
 30
0.0
 11
573.0
 21
206.0
 31
0.0
  0
LINE
  5
2D0
330
B
100
AcDbEntity
  8
LEVEL001
  6
Continuous
 62
     7
100
AcDbLine
 10
573.0
 20
666.0
 30
0.0
 11
573.0
 21
655.95135752876
 31
0.0
  0
TEXT
  5
2D1
330
B
100
AcDbEntity
  8
LEVEL001
 62
     7
100
AcDbText
 10
2510.0
 20
140.0
 30
0.0
 40
20.0
  1
SN-25P
 41
0.5
100
AcDbText
  0
TEXT
  5
2D2
330
B
100
AcDbEntity
  8
LEVEL001
 62
     7
100
AcDbText
 10
2531.0
 20
50.0
 30
0.0
 40
20.0
  1
14. 2.15
 41
0.5
100
AcDbText
  0
TEXT
  5
2D3
330
B
100
AcDbEntity
  8
LEVEL001
 62
     7
100
AcDbText
 10
2650.0
 20
50.0
 30
0.0
 40
20.0
  1
井上
100
AcDbText
  0
TEXT
  5
2D4
330
B
100
AcDbEntity
  8
LEVEL001
 62
     7
100
AcDbText
 10
2425.0
 20
50.0
 30
0.0
 40
20.0
  1
(A2) 1/5
 41
0.5
100
AcDbText
  0
LWPOLYLINE
  5
2D5
330
B
100
AcDbEntity
  8
LEVEL001
  6
HIDDEN
 62
     1
100
AcDbPolyline
 90
       22
 70
     1
 43
0.0
 10
943.0
 20
583.0
 10
943.0
 20
608.0
 10
948.0
 20
613.0
 10
1083.0
 20
613.0
 10
1088.0
 20
618.0
 10
1088.0
 20
808.0
 10
1083.0
 20
813.0
 10
1041.0
 20
824.0
 10
983.0
 20
828.0
 10
935.0
 20
821.0
 10
898.0
 20
808.0
 10
893.0
 20
813.0
 10
893.0
 20
823.0
 10
898.0
 20
828.0
 10
925.0
 20
850.0
 10
965.0
 20
867.0
 10
1011.0
 20
873.0
 10
1108.0
 20
873.0
 10
1113.0
 20
868.0
 10
1113.0
 20
583.0
 10
1108.0
 20
578.0
 10
948.0
 20
578.0
  0
LWPOLYLINE
  5
2D6
330
B
100
AcDbEntity
  8
LEVEL001
  6
HIDDEN
 62
     1
100
AcDbPolyline
 90
       22
 70
     1
 43
0.0
 10
803.0
 20
853.0
 10
803.0
 20
828.0
 10
798.0
 20
823.0
 10
663.0
 20
823.0
 10
658.0
 20
818.0
 10
658.0
 20
628.0
 10
663.0
 20
623.0
 10
705.0
 20
612.0
 10
763.0
 20
608.0
 10
811.0
 20
615.0
 10
848.0
 20
628.0
 10
853.0
 20
623.0
 10
853.0
 20
613.0
 10
848.0
 20
608.0
 10
821.0
 20
586.0
 10
781.0
 20
569.0
 10
735.0
 20
563.0
 10
638.0
 20
563.0
 10
633.0
 20
568.0
 10
633.0
 20
853.0
 10
638.0
 20
858.0
 10
798.0
 20
858.0
  0
DIMENSION
  5
2D7
330
B
100
AcDbEntity
  8
LEVEL001
  6
Continuous
 62
     1
100
AcDbDimension
  2
*D0
 10
1118.0
 20
343.0
 30
0.0
 11
873.0
 21
343.0
 31
0.0
 71
     5
 42
-1.0
  3
GMM001
100
AcDbAlignedDimension
 13
628.0
 23
548.0
 33
0.0
 14
1118.0
 24
548.0
 34
0.0
100
AcDbRotatedDimension
  0
DIMENSION
  5
2D8
330
B
100
AcDbEntity
  8
LEVEL001
  6
Continuous
 62
     1
100
AcDbDimension
  2
*D1
 10
1338.0
 20
1264.0
 30
0.0
 11
873.0
 21
1264.0
 31
0.0
 71
     5
 42
-1.0
  3
GMM001
100
AcDbAlignedDimension
 13
408.0
 23
1031.0
 33
0.0
 14
1338.0
 24
916.0
 34
0.0
100
AcDbRotatedDimension
  0
DIMENSION
  5
2D9
330
B
100
AcDbEntity
  8
LEVEL001
  6
Continuous
 62
     1
100
AcDbDimension
  2
*D2
 10
2098.5
 20
718.0
 30
0.0
 11
2025.2474911648
 21
673.0069330696299
 31
0.0
 70
     4
 71
     5
 42
-1.0
  3
GMM002
100
AcDbRadialDimension
 15
1968.5788915084
 25
608.3619337623799
 35
0.0
 40
0.0
  0
DIMENSION
  5
2DA
330
B
100
AcDbEntity
  8
LEVEL001
  6
Continuous
 62
     1
100
AcDbDimension
  2
*D3
 10
2376.0
 20
1264.0
 30
0.0
 11
2098.5
 21
1264.0
 31
0.0
 71
     5
 42
-1.0
  3
GMM001
100
AcDbAlignedDimension
 13
1821.0
 23
226.0
 33
0.0
 14
2376.0
 24
226.0
 34
0.0
100
AcDbRotatedDimension
  0
DIMENSION
  5
2DB
330
B
100
AcDbEntity
  8
LEVEL001
  6
Continuous
 62
     1
100
AcDbDimension
  2
*D4
 10
523.0
 20
29.0
 30
0.0
 11
465.5
 21
29.0
 31
0.0
 71
     5
 42
-1.0
  3
GMM003
100
AcDbAlignedDimension
 13
408.0
 23
206.0
 33
0.0
 14
523.0
 24
206.0
 34
0.0
100
AcDbRotatedDimension
  0
DIMENSION
  5
2DC
330
B
100
AcDbEntity
  8
LEVEL001
  6
Continuous
 62
     1
100
AcDbDimension
  2
*D5
 10
1223.0
 20
29.0
 30
0.0
 11
873.0
 21
29.0
 31
0.0
 71
     5
 42
-1.0
  3
GMM003
100
AcDbAlignedDimension
 13
523.0
 23
206.0
 33
0.0
 14
1223.0
 24
206.0
 34
0.0
100
AcDbRotatedDimension
  0
DIMENSION
  5
2DD
330
B
100
AcDbEntity
  8
LEVEL001
  6
Continuous
 62
     1
100
AcDbDimension
  2
*D6
 10
1338.0
 20
29.0
 30
0.0
 11
1280.5
 21
29.0
 31
0.0
 71
     5
 42
-1.0
  3
GMM001
100
AcDbAlignedDimension
 13
1223.0
 23
206.0
 33
0.0
 14
1338.0
 24
206.0
 34
0.0
100
AcDbRotatedDimension
  0
LINE
  5
2DE
330
B
100
AcDbEntity
  8
LEVEL001
  6
Continuous
 62
     7
100
AcDbLine
 10
1709.1
 20
1473.0
 30
0.0
 11
1709.1
 21
1593.0
 31
0.0
  0
LINE
  5
2DF
330
B
100
AcDbEntity
  8
LEVEL001
  6
Continuous
 62
     7
100
AcDbLine
 10
1669.1
 20
1353.0
 30
0.0
 11
1669.1
 21
1833.0
 31
0.0
  0
LINE
  5
2E0
330
B
100
AcDbEntity
  8
LEVEL001
  6
Continuous
 62
     7
100
AcDbLine
 10
1927.85
 20
1833.0
 30
0.0
 11
1927.85
 21
1353.0
 31
0.0
  0
LINE
  5
2E1
330
B
100
AcDbEntity
  8
LEVEL001
  6
Continuous
 62
     7
100
AcDbLine
 10
2477.85
 20
1393.0
 30
0.0
 11
1669.1
 21
1393.0
 31
0.0
  0
LINE
  5
2E2
330
B
100
AcDbEntity
  8
LEVEL001
  6
Continuous
 62
     7
100
AcDbLine
 10
2477.85
 20
1833.0
 30
0.0
 11
1669.1
 21
1833.0
 31
0.0
  0
LINE
  5
2E3
330
B
100
AcDbEntity
  8
LEVEL001
  6
Continuous
 62
     7
100
AcDbLine
 10
1669.1
 20
1793.0
 30
0.0
 11
2477.85
 21
1793.0
 31
0.0
  0
LINE
  5
2E4
330
B
100
AcDbEntity
  8
LEVEL001
  6
Continuous
 62
     7
100
AcDbLine
 10
1669.1
 20
1753.0
 30
0.0
 11
2477.85
 21
1753.0
 31
0.0
  0
LINE
  5
2E5
330
B
100
AcDbEntity
  8
LEVEL001
  6
Continuous
 62
     7
100
AcDbLine
 10
1669.1
 20
1713.0
 30
0.0
 11
2477.85
 21
1713.0
 31
0.0
  0
LINE
  5
2E6
330
B
100
AcDbEntity
  8
LEVEL001
  6
Continuous
 62
     7
100
AcDbLine
 10
1669.1
 20
1673.0
 30
0.0
 11
2477.85
 21
1673.0
 31
0.0
  0
LINE
  5
2E7
330
B
100
AcDbEntity
  8
LEVEL001
  6
Continuous
 62
     7
100
AcDbLine
 10
1669.1
 20
1633.0
 30
0.0
 11
2477.85
 21
1633.0
 31
0.0
  0
LINE
  5
2E8
330
B
100
AcDbEntity
  8
LEVEL001
  6
Continuous
 62
     7
100
AcDbLine
 10
1669.1
 20
1593.0
 30
0.0
 11
2477.85
 21
1593.0
 31
0.0
  0
LINE
  5
2E9
330
B
100
AcDbEntity
  8
LEVEL001
  6
Continuous
 62
     7
100
AcDbLine
 10
1709.1
 20
1553.0
 30
0.0
 11
2477.85
 21
1553.0
 31
0.0
  0
LINE
  5
2EA
330
B
100
AcDbEntity
  8
LEVEL001
  6
Continuous
 62
     7
100
AcDbLine
 10
1709.1
 20
1513.0
 30
0.0
 11
2477.85
 21
1513.0
 31
0.0
  0
LINE
  5
2EB
330
B
100
AcDbEntity
  8
LEVEL001
  6
Continuous
 62
     7
100
AcDbLine
 10
1669.1
 20
1473.0
 30
0.0
 11
2477.85
 21
1473.0
 31
0.0
  0
LINE
  5
2EC
330
B
100
AcDbEntity
  8
LEVEL001
  6
Continuous
 62
     7
100
AcDbLine
 10
1669.1
 20
1433.0
 30
0.0
 11
2477.85
 21
1433.0
 31
0.0
  0
LINE
  5
2ED
330
B
100
AcDbEntity
  8
LEVEL001
  6
Continuous
 62
     7
100
AcDbLine
 10
2477.85
 20
1833.0
 30
0.0
 11
2477.85
 21
1353.0
 31
0.0
  0
LINE
  5
2EE
330
B
100
AcDbEntity
  8
LEVEL001
  6
Continuous
 62
     7
100
AcDbLine
 10
1669.1
 20
1353.0
 30
0.0
 11
2477.85
 21
1353.0
 31
0.0
  0
TEXT
  5
2EF
330
B
100
AcDbEntity
  8
LEVEL001
 62
     1
100
AcDbText
 10
1714.1
 20
1478.0
 30
0.0
 40
20.0
  1
安全カバ－
100
AcDbText
  0
TEXT
  5
2F0
330
B
100
AcDbEntity
  8
LEVEL001
 62
     1
100
AcDbText
 10
1714.1
 20
1718.0
 30
0.0
 40
20.0
  1
寸法（Ｗ×Ｄ×Ｈ）
100
AcDbText
  0
TEXT
  5
2F1
330
B
100
AcDbEntity
  8
LEVEL001
 62
     1
100
AcDbText
 10
1677.85
 20
1546.75
 30
0.0
 40
20.0
  1
材
100
AcDbText
  0
TEXT
  5
2F2
330
B
100
AcDbEntity
  8
LEVEL001
 62
     1
100
AcDbText
 10
1677.85
 20
1493.4166666667
 30
0.0
 40
20.0
  1
質
100
AcDbText
  0
TEXT
  5
2F3
330
B
100
AcDbEntity
  8
LEVEL001
 62
     1
100
AcDbText
 10
1714.1
 20
1598.0
 30
0.0
 40
20.0
  1
消  費  電  力
100
AcDbText
  0
TEXT
  5
2F4
330
B
100
AcDbEntity
  8
LEVEL001
 62
     1
100
AcDbText
 10
1714.1
 20
1638.0
 30
0.0
 40
20.0
  1
電          源
100
AcDbText
  0
TEXT
  5
2F5
330
B
100
AcDbEntity
  8
LEVEL001
 62
     1
100
AcDbText
 10
1714.1
 20
1678.0
 30
0.0
 40
20.0
  1
能          力
100
AcDbText
  0
TEXT
  5
2F6
330
B
100
AcDbEntity
  8
LEVEL001
 62
     1
100
AcDbText
 10
1714.1
 20
1758.0
 30
0.0
 40
20.0
  1
型          式
100
AcDbText
  0
TEXT
  5
2F7
330
B
100
AcDbEntity
  8
LEVEL001
 62
     1
100
AcDbText
 10
1714.1
 20
1798.0
 30
0.0
 40
20.0
  1
製　  品  　名
100
AcDbText
  0
TEXT
  5
2F8
330
B
100
AcDbEntity
  8
LEVEL001
 62
     1
100
AcDbText
 10
1714.1
 20
1398.0
 30
0.0
 40
20.0
  1
電源プラグ
100
AcDbText
  0
TEXT
  5
2F9
330
B
100
AcDbEntity
  8
LEVEL001
 62
     1
100
AcDbText
 10
1714.1
 20
1358.0
 30
0.0
 40
20.0
  1
製品重量
100
AcDbText
  0
TEXT
  5
2FA
330
B
100
AcDbEntity
  8
LEVEL001
 62
     1
100
AcDbText
 10
1714.1
 20
1438.0
 30
0.0
 40
20.0
  1
コ－ド長さ
100
AcDbText
  0
TEXT
  5
2FB
330
B
100
AcDbEntity
  8
LEVEL001
 62
     1
100
AcDbText
 10
1934.1
 20
1438.0
 30
0.0
 40
20.0
  1
３．０ｍ
100
AcDbText
  0
TEXT
  5
2FC
330
B
100
AcDbEntity
  8
LEVEL001
 62
     1
100
AcDbText
 10
1934.1
 20
1798.0
 30
0.0
 40
20.0
  1
手打麺専用ネリ機
100
AcDbText
  0
TEXT
  5
2FD
330
B
100
AcDbEntity
  8
LEVEL001
 62
     1
100
AcDbText
 10
1714.1
 20
1558.0
 30
0.0
 40
20.0
  1
ドラム
100
AcDbText
  0
TEXT
  5
2FE
330
B
100
AcDbEntity
  8
LEVEL001
 62
     1
100
AcDbText
 10
1714.1
 20
1518.0
 30
0.0
 40
20.0
  1
羽根
100
AcDbText
  0
TEXT
  5
2FF
330
B
100
AcDbEntity
  8
LEVEL001
 62
     1
100
AcDbText
 10
1934.1
 20
1558.0
 30
0.0
 40
20.0
  1
ＳＵＳ３０４
100
AcDbText
  0
TEXT
  5
300
330
B
100
AcDbEntity
  8
LEVEL001
 62
     1
100
AcDbText
 10
1934.1
 20
1478.0
 30
0.0
 40
20.0
  1
ＳＵＳ３０４
100
AcDbText
  0
TEXT
  5
301
330
B
100
AcDbEntity
  8
LEVEL001
 62
     1
100
AcDbText
 10
1934.1
 20
1518.0
 30
0.0
 40
20.0
  1
アルミニウム
100
AcDbText
  0
TEXT
  5
302
330
B
100
AcDbEntity
  8
LEVEL001
 62
     1
100
AcDbText
 10
1934.1
 20
1678.0
 30
0.0
 40
20.0
  1
１２ｋｇ～２５ｋｇ／回
100
AcDbText
  0
TEXT
  5
303
330
B
100
AcDbEntity
  8
LEVEL001
 62
     1
100
AcDbText
 10
1934.1
 20
1598.0
 30
0.0
 40
20.0
  1
４００Ｗ
100
AcDbText
  0
TEXT
  5
304
330
B
100
AcDbEntity
  8
LEVEL001
 62
     1
100
AcDbText
 10
1934.1
 20
1358.0
 30
0.0
 40
20.0
  1
１８０ｋｇ
100
AcDbText
  0
TEXT
  5
305
330
B
100
AcDbEntity
  8
LEVEL001
 62
     1
100
AcDbText
 10
1934.1
 20
1638.0
 30
0.0
 40
20.0
  1
単相１００Ｖ　又は　３相２００Ｖ　５０／６０Ｈｚ
100
AcDbText
  0
TEXT
  5
306
330
B
100
AcDbEntity
  8
LEVEL001
 62
     1
100
AcDbText
 10
1934.1
 20
1398.0
 30
0.0
 40
20.0
  1
２Ｐ１５Ａ（単相１００Ｖ）　４Ｐ２０Ａ（３相２００Ｖ）
100
AcDbText
  0
TEXT
  5
307
330
B
100
AcDbEntity
  8
LEVEL001
 62
     1
100
AcDbText
 10
1934.1
 20
1758.0
 30
0.0
 40
20.0
  1
ス－パ－ニ－ダ－　ＳＮ－２５Ｐ型
100
AcDbText
  0
TEXT
  5
308
330
B
100
AcDbEntity
  8
LEVEL001
 62
     1
100
AcDbText
 10
1934.1
 20
1718.0
 30
0.0
 40
20.0
  1
９３０×５５５×１，０８０
100
AcDbText
  0
DIMENSION
  5
309
330
B
100
AcDbEntity
  8
LEVEL001
  6
Continuous
 62
     1
100
AcDbDimension
  2
*D7
 10
1557.0
 20
1197.0
 30
0.0
 11
1557.0
 21
657.0
 31
0.0
 71
     5
 42
-1.0
  3
GMM001
100
AcDbAlignedDimension
 13
1367.0
 23
117.0
 33
0.0
 14
1153.0
 24
1197.0
 34
0.0
 50
90.0
100
AcDbRotatedDimension
  0
DIMENSION
  5
30A
330
B
100
AcDbEntity
  8
LEVEL001
  6
Continuous
 62
     1
100
AcDbDimension
  2
*D8
 10
1496.0
 20
1087.0
 30
0.0
 11
1496.0
 21
602.0
 31
0.0
 71
     5
 42
-1.0
  3
GMM001
100
AcDbAlignedDimension
 13
1367.0
 23
117.0
 33
0.0
 14
1141.5
 24
1087.0
 34
0.0
 50
90.0
100
AcDbRotatedDimension
  0
LINE
  5
30B
330
B
100
AcDbEntity
  8
LEVEL001
  6
DASHDOT
 62
     1
100
AcDbLine
 10
1855.0
 20
718.0
 30
0.0
 11
2341.0
 21
718.0
 31
0.0
  0
ENDSEC
  0
SECTION
  2
OBJECTS
  0
DICTIONARY
  5
54
330
0
100
AcDbDictionary
281
     1
  3
ACAD_COLOR
350
311
  3
ACAD_GROUP
350
55
  3
ACAD_LAYOUT
350
314
  3
ACAD_MATERIAL
350
310
  3
ACAD_MLINESTYLE
350
56
  3
ACAD_PLOTSETTINGS
350
315
  3
ACAD_PLOTSTYLENAME
350
30E
  3
ACAD_TABLESTYLE
350
312
  3
ACDBHEADERROUNDTRIPXREC
350
320
  3
AcDbVariableDictionary
350
31B
  0
DICTIONARY
  5
311
102
{ACAD_REACTORS
330
54
102
}
330
54
100
AcDbDictionary
281
     1
  0
DICTIONARY
  5
55
102
{ACAD_REACTORS
330
54
102
}
330
0
100
AcDbDictionary
281
     1
  0
DICTIONARY
  5
314
102
{ACAD_REACTORS
330
54
102
}
330
54
100
AcDbDictionary
281
     1
  3
Model
350
316
  3
レイアウト1
350
317
  0
DICTIONARY
  5
310
102
{ACAD_REACTORS
330
54
102
}
330
54
100
AcDbDictionary
281
     1
  0
DICTIONARY
  5
56
102
{ACAD_REACTORS
330
54
102
}
330
0
100
AcDbDictionary
281
     1
  3
STANDARD
350
57
  0
DICTIONARY
  5
315
102
{ACAD_REACTORS
330
54
102
}
330
54
100
AcDbDictionary
281
     1
  0
ACDBDICTIONARYWDFLT
  5
30E
102
{ACAD_REACTORS
330
54
102
}
330
54
100
AcDbDictionary
281
     1
  3
Normal
350
30F
100
AcDbDictionaryWithDefault
340
30F
  0
DICTIONARY
  5
312
102
{ACAD_REACTORS
330
54
102
}
330
54
100
AcDbDictionary
281
     1
  3
Standard
350
313
  0
DICTIONARY
  5
320
102
{ACAD_REACTORS
330
54
102
}
330
54
100
AcDbDictionary
281
     1
  0
DICTIONARY
  5
31B
102
{ACAD_REACTORS
330
54
102
}
330
54
100
AcDbDictionary
281
     1
  3
CTABLESTYLE
350
31C
  3
DIMASSOC
350
31D
  3
PROJECTNAME
350
31E
  0
LAYOUT
  5
316
102
{ACAD_XDICTIONARY
360
321
102
}
102
{ACAD_REACTORS
330
314
102
}
330
314
100
AcDbPlotSettings
  1

  2
Microsoft XPS Document Writer
  4

  6

 40
0.0
 41
0.0
 42
0.0
 43
0.0
 44
0.0
 45
0.0
 46
0.0
 47
0.0
 48
0.0
 49
0.0
140
0.0
141
0.0
142
1.0
143
1.0
 70
  1712
 72
     0
 73
     0
 74
     0
  7

 75
     0
147
1.0
148
0.0
149
0.0
100
AcDbLayout
  1
Model
 70
     1
 71
     0
 10
0.0
 20
0.0
 11
12.0
 21
9.0
 12
0.0
 22
0.0
 32
0.0
 14
0.0
 24
0.0
 34
0.0
 15
0.0
 25
0.0
 35
0.0
146
0.0
 13
0.0
 23
0.0
 33
0.0
 16
1.0
 26
0.0
 36
0.0
 17
0.0
 27
1.0
 37
0.0
 76
     0
330
B
  0
LAYOUT
  5
317
102
{ACAD_XDICTIONARY
360
323
102
}
102
{ACAD_REACTORS
330
314
102
}
330
314
100
AcDbPlotSettings
  1

  2
Microsoft XPS Document Writer
  4

  6

 40
0.0
 41
0.0
 42
0.0
 43
0.0
 44
0.0
 45
0.0
 46
0.0
 47
0.0
 48
0.0
 49
0.0
140
0.0
141
0.0
142
1.0
143
1.0
 70
   688
 72
     0
 73
     0
 74
     5
  7

 75
    16
147
1.0
148
0.0
149
0.0
100
AcDbLayout
  1
レイアウト1
 70
     1
 71
     1
 10
0.0
 20
0.0
 11
12.0
 21
9.0
 12
0.0
 22
0.0
 32
0.0
 14
1.000000000000000E+20
 24
1.000000000000000E+20
 34
1.000000000000000E+20
 15
-1.000000000000000E+20
 25
-1.000000000000000E+20
 35
-1.000000000000000E+20
146
0.0
 13
0.0
 23
0.0
 33
0.0
 16
1.0
 26
0.0
 36
0.0
 17
0.0
 27
1.0
 37
0.0
 76
     0
330
C
  0
MLINESTYLE
  5
57
102
{ACAD_REACTORS
330
56
102
}
330
0
100
AcDbMlineStyle
  2
STANDARD
 70
     0
  3

 62
   256
 51
90.0
 52
90.0
 71
     2
 49
0.5
 62
   256
  6
BYLAYER
 49
-0.5
 62
   256
  6
BYLAYER
  0
ACDBPLACEHOLDER
  5
30F
102
{ACAD_REACTORS
330
30E
102
}
330
30E
  0
TABLESTYLE
  5
313
102
{ACAD_REACTORS
330
312
102
}
330
312
100
AcDbTableStyle
  3
Standard
 70
     0
 71
     0
 40
0.06
 41
0.06
280
     0
281
     0
  7
STANDARD
140
0.18
170
     2
 62
     0
 63
     7
283
     0
274
    -2
284
     1
 64
     0
275
    -2
285
     1
 65
     0
276
    -2
286
     1
 66
     0
277
    -2
287
     1
 67
     0
278
    -2
288
     1
 68
     0
279
    -2
289
     1
 69
     0
  7
STANDARD
140
0.25
170
     5
 62
     0
 63
     7
283
     0
274
    -2
284
     1
 64
     0
275
    -2
285
     1
 65
     0
276
    -2
286
     1
 66
     0
277
    -2
287
     1
 67
     0
278
    -2
288
     1
 68
     0
279
    -2
289
     1
 69
     0
  7
STANDARD
140
0.18
170
     5
 62
     0
 63
     7
283
     0
274
    -2
284
     1
 64
     0
275
    -2
285
     1
 65
     0
276
    -2
286
     1
 66
     0
277
    -2
287
     1
 67
     0
278
    -2
288
     1
 68
     0
279
    -2
289
     1
 69
     0
  0
DICTIONARYVAR
  5
31C
102
{ACAD_REACTORS
330
31B
102
}
330
31B
100
DictionaryVariables
280
     0
  1
STANDARD
  0
DICTIONARYVAR
  5
31D
102
{ACAD_REACTORS
330
31B
102
}
330
31B
100
DictionaryVariables
280
     0
  1
1
  0
DICTIONARYVAR
  5
31E
102
{ACAD_REACTORS
330
31B
102
}
330
31B
100
DictionaryVariables
280
     0
  1

  0
DICTIONARY
  5
321
330
316
100
AcDbDictionary
280
     1
281
     1
  3
ACAD_XREC_ROUNDTRIP
360
322
  0
DICTIONARY
  5
323
330
317
100
AcDbDictionary
280
     1
281
     1
  3
ACAD_XREC_ROUNDTRIP
360
324
  0
XRECORD
  5
322
102
{ACAD_REACTORS
330
321
102
}
330
321
100
AcDbXrecord
280
     1
102
SHADEPLOT
 70
     0
102
SHADEPLOTRESLEVEL
 70
     2
102
SHADEPLOTCUSTOMDPI
 70
   300
  0
XRECORD
  5
324
102
{ACAD_REACTORS
330
323
102
}
330
323
100
AcDbXrecord
280
     1
102
SHADEPLOT
 70
     0
102
SHADEPLOTRESLEVEL
 70
     2
102
SHADEPLOTCUSTOMDPI
 70
   300
  0
ENDSEC
  0
EOF
