   0
SECTION
   2
HEADER
   9
$ACADVER
   1
AC1015
   9
$DWGCODEPAGE
   3
ANSI_932
   9
$LIMMIN
  10
0.0
  20
0.0
   9
$LIMMAX
  10
 3564.0000000000
  20
 2520.0000000000
   9
$EXTMIN
  10
0.0
  20
0.0
  30
0.0
   9
$EXTMAX
  10
 3564.0000000000
  20
 2520.0000000000
  30
0.0
   9
$LTSCALE
  40
 71.280000000000
   9
$HANDSEED
   5
3A1
   0
ENDSEC
   0
SECTION
   2
TABLES
  0
TABLE
  2
VPORT
  5
8
100
AcDbSymbolTable
 70
     1
  0
VPORT
  5
3A0
100
AcDbSymbolTableRecord
100
AcDbViewportTableRecord
  2
*ACTIVE
 70
     0
 10
0.0
 20
0.0
 11
1.0
 21
1.0
  12
 1782.0000000000
  22
 1260.0000000000
 13
0.0
 23
0.0
 14
1.0
 24
1.0
 15
0.0
 25
0.0
 16
0.0
 26
0.0
 36
1.0
 17
0.0
 27
0.0
 37
0.0
  40
 3564.0000000000
  41
 1.4787878787879
 42
50.0
 43
0.0
 44
0.0
 50
0.0
 51
0.0
 71
     0
 72
   100
 73
     1
 74
     1
 75
     0
 76
     0
 77
     0
 78
     0
  0
ENDTAB
  0
TABLE
  2
LTYPE
  5
5
100
AcDbSymbolTable
 70
    25
  0
LTYPE
  5
12
100
AcDbSymbolTableRecord
100
AcDbLinetypeTableRecord
  2
BYBLOCK
 70
     0
  3

 72
    65
 73
     0
 40
0.0
  0
LTYPE
  5
13
100
AcDbSymbolTableRecord
100
AcDbLinetypeTableRecord
  2
BYLAYER
 70
     0
  3

 72
    65
 73
     0
 40
0.0
  0
LTYPE
  5
14
100
AcDbSymbolTableRecord
100
AcDbLinetypeTableRecord
  2
CONTINUOUS
 70
     0
  3
Solid line
 72
    65
 73
     0
 40
0.0
  0
LTYPE
  5
20
100
AcDbSymbolTableRecord
100
AcDbLinetypeTableRecord
  2
BORDER
 70
     0
  3
__ __ . __ __ . __ __ . __ __ . __ __ . __ __ .
 72
    65
 73
     6
 40
1.75
 49
0.5
 74
     0
 49
-0.25
 74
     0
 49
0.5
 74
     0
 49
-0.25
 74
     0
 49
0.0
 74
     0
 49
-0.25
 74
     0
  0
LTYPE
  5
21
100
AcDbSymbolTableRecord
100
AcDbLinetypeTableRecord
  2
BORDER2
 70
     0
  3
__.__.__.__.__.__.__.__.__.__.__.__.__.__.__.__
 72
    65
 73
     6
 40
0.875
 49
0.25
 74
     0
 49
-0.125
 74
     0
 49
0.25
 74
     0
 49
-0.125
 74
     0
 49
0.0
 74
     0
 49
-0.125
 74
     0
  0
LTYPE
  5
22
100
AcDbSymbolTableRecord
100
AcDbLinetypeTableRecord
  2
BORDERX2
 70
     0
  3
____  ____  .  ____  ____  .  ____  ____  .  __
 72
    65
 73
     6
 40
3.5
 49
1.0
 74
     0
 49
-0.5
 74
     0
 49
1.0
 74
     0
 49
-0.5
 74
     0
 49
0.0
 74
     0
 49
-0.5
 74
     0
  0
LTYPE
  5
23
100
AcDbSymbolTableRecord
100
AcDbLinetypeTableRecord
  2
CENTER
 70
     0
  3
____ _ ____ _ ____ _ ____ _ ____ _ ____ _ ____ 
 72
    65
 73
     4
 40
2.0
 49
1.25
 74
     0
 49
-0.25
 74
     0
 49
0.25
 74
     0
 49
-0.25
 74
     0
  0
LTYPE
  5
24
100
AcDbSymbolTableRecord
100
AcDbLinetypeTableRecord
  2
CENTER2
 70
     0
  3
___ _ ___ _ ___ _ ___ _ ___ _ ___ _ ___ _ ___ _
 72
    65
 73
     4
 40
1.125
 49
0.75
 74
     0
 49
-0.125
 74
     0
 49
0.125
 74
     0
 49
-0.125
 74
     0
  0
LTYPE
  5
25
100
AcDbSymbolTableRecord
100
AcDbLinetypeTableRecord
  2
CENTERX2
 70
     0
  3
________  __  ________  __  ________  __  _____
 72
    65
 73
     4
 40
4.0
 49
2.5
 74
     0
 49
-0.5
 74
     0
 49
0.5
 74
     0
 49
-0.5
 74
     0
  0
LTYPE
  5
26
100
AcDbSymbolTableRecord
100
AcDbLinetypeTableRecord
  2
DASHDOT
 70
     0
  3
__ . __ . __ . __ . __ . __ . __ . __ . __ . __
 72
    65
 73
     4
 40
1.0
 49
0.5
 74
     0
 49
-0.25
 74
     0
 49
0.0
 74
     0
 49
-0.25
 74
     0
  0
LTYPE
  5
27
100
AcDbSymbolTableRecord
100
AcDbLinetypeTableRecord
  2
DASHDOT2
 70
     0
  3
_._._._._._._._._._._._._._._._._._._._._._._._
 72
    65
 73
     4
 40
0.5
 49
0.25
 74
     0
 49
-0.125
 74
     0
 49
0.0
 74
     0
 49
-0.125
 74
     0
  0
LTYPE
  5
28
100
AcDbSymbolTableRecord
100
AcDbLinetypeTableRecord
  2
DASHDOTX2
 70
     0
  3
____  .  ____  .  ____  .  ____  .  ____  .  __
 72
    65
 73
     4
 40
2.0
 49
1.0
 74
     0
 49
-0.5
 74
     0
 49
0.0
 74
     0
 49
-0.5
 74
     0
  0
LTYPE
  5
29
100
AcDbSymbolTableRecord
100
AcDbLinetypeTableRecord
  2
DASHED
 70
     0
  3
__ __ __ __ __ __ __ __ __ __ __ __ __ __ __ __
 72
    65
 73
     2
 40
0.75
 49
0.5
 74
     0
 49
-0.25
 74
     0
  0
LTYPE
  5
2A
100
AcDbSymbolTableRecord
100
AcDbLinetypeTableRecord
  2
DASHED2
 70
     0
  3
_ _ _ _ _ _ _ _ _ _ _ _ _ _ _ _ _ _ _ _ _ _ _ _
 72
    65
 73
     2
 40
0.375
 49
0.25
 74
     0
 49
-0.125
 74
     0
  0
LTYPE
  5
2B
100
AcDbSymbolTableRecord
100
AcDbLinetypeTableRecord
  2
DASHEDX2
 70
     0
  3
____  ____  ____  ____  ____  ____  ____  ____ 
 72
    65
 73
     2
 40
1.5
 49
1.0
 74
     0
 49
-0.5
 74
     0
  0
LTYPE
  5
2C
100
AcDbSymbolTableRecord
100
AcDbLinetypeTableRecord
  2
DIVIDE
 70
     0
  3
____ . . ____ . . ____ . . ____ . . ____ . . __
 72
    65
 73
     6
 40
1.25
 49
0.5
 74
     0
 49
-0.25
 74
     0
 49
0.0
 74
     0
 49
-0.25
 74
     0
 49
0.0
 74
     0
 49
-0.25
 74
     0
  0
LTYPE
  5
2D
100
AcDbSymbolTableRecord
100
AcDbLinetypeTableRecord
  2
DIVIDE2
 70
     0
  3
__..__..__..__..__..__..__..__..__..__..__..__.
 72
    65
 73
     6
 40
0.625
 49
0.25
 74
     0
 49
-0.125
 74
     0
 49
0.0
 74
     0
 49
-0.125
 74
     0
 49
0.0
 74
     0
 49
-0.125
 74
     0
  0
LTYPE
  5
2E
100
AcDbSymbolTableRecord
100
AcDbLinetypeTableRecord
  2
DIVIDEX2
 70
     0
  3
________  .  .  ________  .  .  ________  .  . 
 72
    65
 73
     6
 40
2.5
 49
1.0
 74
     0
 49
-0.5
 74
     0
 49
0.0
 74
     0
 49
-0.5
 74
     0
 49
0.0
 74
     0
 49
-0.5
 74
     0
  0
LTYPE
  5
2F
100
AcDbSymbolTableRecord
100
AcDbLinetypeTableRecord
  2
DOT
 70
     0
  3
. . . . . . . . . . . . . . . . . . . . . . . .
 72
    65
 73
     2
 40
0.25
 49
0.0
 74
     0
 49
-0.25
 74
     0
  0
LTYPE
  5
30
100
AcDbSymbolTableRecord
100
AcDbLinetypeTableRecord
  2
DOT2
 70
     0
  3
...............................................
 72
    65
 73
     2
 40
0.125
 49
0.0
 74
     0
 49
-0.125
 74
     0
  0
LTYPE
  5
31
100
AcDbSymbolTableRecord
100
AcDbLinetypeTableRecord
  2
DOTX2
 70
     0
  3
.  .  .  .  .  .  .  .  .  .  .  .  .  .  .  . 
 72
    65
 73
     2
 40
0.5
 49
0.0
 74
     0
 49
-0.5
 74
     0
  0
LTYPE
  5
32
100
AcDbSymbolTableRecord
100
AcDbLinetypeTableRecord
  2
HIDDEN
 70
     0
  3
__ __ __ __ __ __ __ __ __ __ __ __ __ __ __ __
 72
    65
 73
     2
 40
0.375
 49
0.25
 74
     0
 49
-0.125
 74
     0
  0
LTYPE
  5
33
100
AcDbSymbolTableRecord
100
AcDbLinetypeTableRecord
  2
HIDDEN2
 70
     0
  3
_ _ _ _ _ _ _ _ _ _ _ _ _ _ _ _ _ _ _ _ _ _ _ _
 72
    65
 73
     2
 40
0.1875
 49
0.125
 74
     0
 49
-0.0625
 74
     0
  0
LTYPE
  5
34
100
AcDbSymbolTableRecord
100
AcDbLinetypeTableRecord
  2
HIDDENX2
 70
     0
  3
____ ____ ____ ____ ____ ____ ____ ____ ____ __
 72
    65
 73
     2
 40
0.75
 49
0.5
 74
     0
 49
-0.25
 74
     0
  0
LTYPE
  5
35
100
AcDbSymbolTableRecord
100
AcDbLinetypeTableRecord
  2
PHANTOM
 70
     0
  3
______  __  __  ______  __  __  ______  __  __ 
 72
    65
 73
     6
 40
2.5
 49
1.25
 74
     0
 49
-0.25
 74
     0
 49
0.25
 74
     0
 49
-0.25
 74
     0
 49
0.25
 74
     0
 49
-0.25
 74
     0
  0
LTYPE
  5
36
100
AcDbSymbolTableRecord
100
AcDbLinetypeTableRecord
  2
PHANTOM2
 70
     0
  3
___ _ _ ___ _ _ ___ _ _ ___ _ _ ___ _ _ ___ _ _
 72
    65
 73
     6
 40
1.25
 49
0.625
 74
     0
 49
-0.125
 74
     0
 49
0.125
 74
     0
 49
-0.125
 74
     0
 49
0.125
 74
     0
 49
-0.125
 74
     0
  0
LTYPE
  5
37
100
AcDbSymbolTableRecord
100
AcDbLinetypeTableRecord
  2
PHANTOMX2
 70
     0
  3
____________    ____    ____    ____________   
 72
    65
 73
     6
 40
5.0
 49
2.5
 74
     0
 49
-0.5
 74
     0
 49
0.5
 74
     0
 49
-0.5
 74
     0
 49
0.5
 74
     0
 49
-0.5
 74
     0
  0
ENDTAB
   0
TABLE
   2
LAYER
   5
2
 100
AcDbSymbolTable
  70
6
   0
LAYER
   5
E
 100
AcDbSymbolTableRecord
 100
AcDbLayerTableRecord
   2
0
  70
0
  62
7
   6
CONTINUOUS
 390
30
   0
LAYER
   5
39
 100
AcDbSymbolTableRecord
 100
AcDbLayerTableRecord
   2
LEVEL001
  70
0
  62
7
   6
CONTINUOUS
 390
30
   0
LAYER
   5
3A
 100
AcDbSymbolTableRecord
 100
AcDbLayerTableRecord
   2
LEVEL002
  70
0
  62
7
   6
CONTINUOUS
 390
30
   0
LAYER
   5
3B
 100
AcDbSymbolTableRecord
 100
AcDbLayerTableRecord
   2
内図枠(作図領域)
  70
0
  62
7
   6
CONTINUOUS
 390
30
   0
LAYER
   5
3C
 100
AcDbSymbolTableRecord
 100
AcDbLayerTableRecord
   2
外図枠(出力紙領域)
  70
0
  62
7
   6
CONTINUOUS
 390
30
   0
LAYER
   5
3D
 100
AcDbSymbolTableRecord
 100
AcDbLayerTableRecord
   2
部品表金額表示用
  70
0
  62
7
   6
CONTINUOUS
 390
30
   0
ENDTAB
  0
TABLE
  2
STYLE
  5
3
100
AcDbSymbolTable
  70
4
  0
STYLE
  5
F
100
AcDbSymbolTableRecord
100
AcDbTextStyleTableRecord
  2
STANDARD
 70
     0
 40
0.0
 41
1.0
 50
0.0
 71
     0
 42
0.2
  3
TXT
  4
BIGFONT
  0
STYLE
  5
38
100
AcDbSymbolTableRecord
100
AcDbTextStyleTableRecord
  2
STANDARD1
 70
     4
 40
0.0
 41
1.0
 50
0.0
 71
     0
 42
0.2
  3
TXT
  4
BIGFONT
   0
STYLE
   5
3E
 100
AcDbSymbolTableRecord
 100
AcDbTextStyleTableRecord
   2
GMM001
  70
0
  40
0.0
  41
 1.0000000000000
  50
0.0
  71
     0
  42
1.0
   3
txt.shx
   4
bigfont.shx
   0
STYLE
   5
3F
 100
AcDbSymbolTableRecord
 100
AcDbTextStyleTableRecord
   2
GMM002
  70
0
  40
0.0
  41
 0.50000000000000
  50
0.0
  71
     0
  42
1.0
   3
txt.shx
   4
bigfont.shx
   0
ENDTAB
  0
TABLE
  2
VIEW
  5
6
100
AcDbSymbolTable
 70
     0
  0
ENDTAB
  0
TABLE
  2
UCS
  5
7
100
AcDbSymbolTable
 70
     0
  0
ENDTAB
  0
TABLE
  2
APPID
  5
9
100
AcDbSymbolTable
 70
     1
  0
APPID
  5
10
100
AcDbSymbolTableRecord
100
AcDbRegAppTableRecord
  2
ACAD
 70
     0
  0
ENDTAB
   0
TABLE
   2
DIMSTYLE
   5
A
 100
AcDbSymbolTable
  70
3
 100
AcDbDimStyleTable
  0
DIMSTYLE
105
1D
100
AcDbSymbolTableRecord
100
AcDbDimStyleTableRecord
  2
STANDARD
 70
     0
  3

  4

  5

  6

  7

 40
1.0
 41
0.18
 42
0.0625
 43
0.38
 44
0.18
 45
0.0
 46
0.0
 47
0.0
 48
0.0
140
0.18
141
0.09
142
0.0
143
25.4
144
1.0
145
0.0
146
1.0
147
0.09
 71
     0
 72
     0
 73
     1
 74
     1
 75
     0
 76
     0
 77
     0
 78
     0
170
     0
171
     2
172
     0
173
     0
174
     0
175
     0
176
     0
177
     0
178
     0
270
     2
271
     4
272
     4
273
     2
274
     2
340
F
275
     0
280
     0
281
     0
282
     0
283
     1
284
     0
285
     0
286
     0
287
     3
288
     0
   0
DIMSTYLE
 105
40
 100
AcDbSymbolTableRecord
 100
AcDbDimStyleTableRecord
   2
GMM001
  70
0
   3

   4

   5

   6
_OPEN30
   7
_OPEN30
  40
 1.0000000000000
  41
 18.000000000000
  42
0.0
  43
 48.000000000000
  44
 12.000000000000
  45
0.0
  46
0.0
  47
0.0
  48
0.0
 140
 24.000000000000
 141
 6.0000000000000
 142
0.0
 143
 0.39400000000000E-1
 144
 1.0000000000000
 145
0.0
 146
 0.62500000000000
 147
 6.0000000000000
  71
0
  72
0
  73
0
  74
0
  75
0
  76
0
  77
3
  78
8
 170
0
 171
2
 172
1
 173
1
 174
0
 175
0
 176
1
 177
1
 178
7
 270
2
 271
6
 272
0
 273
2
 274
2
 340
3E
 275
0
 280
0
 281
0
 282
0
 283
1
 284
0
 285
0
 286
0
 287
3
 288
0
   0
ENDTAB
  0
TABLE
  2
BLOCK_RECORD
  5
1
100
AcDbSymbolTable
 70
     0
  0
BLOCK_RECORD
  5
18
100
AcDbSymbolTableRecord
100
AcDbBlockTableRecord
  2
*MODEL_SPACE
  0
BLOCK_RECORD
  5
15
100
AcDbSymbolTableRecord
100
AcDbBlockTableRecord
  2
*PAPER_SPACE
   0
BLOCK_RECORD
   5
41
 100
AcDbSymbolTableRecord
 100
AcDbBlockTableRecord
   2
GMM001
   0
BLOCK_RECORD
   5
42
 100
AcDbSymbolTableRecord
 100
AcDbBlockTableRecord
   2
*D1
   0
BLOCK_RECORD
   5
43
 100
AcDbSymbolTableRecord
 100
AcDbBlockTableRecord
   2
*D2
   0
BLOCK_RECORD
   5
44
 100
AcDbSymbolTableRecord
 100
AcDbBlockTableRecord
   2
*D3
   0
BLOCK_RECORD
   5
45
 100
AcDbSymbolTableRecord
 100
AcDbBlockTableRecord
   2
_ARCHTICK
   0
BLOCK_RECORD
   5
46
 100
AcDbSymbolTableRecord
 100
AcDbBlockTableRecord
   2
_BOXBLANK
   0
BLOCK_RECORD
   5
47
 100
AcDbSymbolTableRecord
 100
AcDbBlockTableRecord
   2
_BOXFILLED
   0
BLOCK_RECORD
   5
48
 100
AcDbSymbolTableRecord
 100
AcDbBlockTableRecord
   2
_CLOSED
   0
BLOCK_RECORD
   5
49
 100
AcDbSymbolTableRecord
 100
AcDbBlockTableRecord
   2
_CLOSEDBLANK
   0
BLOCK_RECORD
   5
4A
 100
AcDbSymbolTableRecord
 100
AcDbBlockTableRecord
   2
_DATUMBLANK
   0
BLOCK_RECORD
   5
4B
 100
AcDbSymbolTableRecord
 100
AcDbBlockTableRecord
   2
_DATUMFILLED
   0
BLOCK_RECORD
   5
4C
 100
AcDbSymbolTableRecord
 100
AcDbBlockTableRecord
   2
_DOT
   0
BLOCK_RECORD
   5
4D
 100
AcDbSymbolTableRecord
 100
AcDbBlockTableRecord
   2
_DOTBLANK
   0
BLOCK_RECORD
   5
4E
 100
AcDbSymbolTableRecord
 100
AcDbBlockTableRecord
   2
_DOTSMALL
   0
BLOCK_RECORD
   5
4F
 100
AcDbSymbolTableRecord
 100
AcDbBlockTableRecord
   2
_INTEGRAL
   0
BLOCK_RECORD
   5
50
 100
AcDbSymbolTableRecord
 100
AcDbBlockTableRecord
   2
_NONE
   0
BLOCK_RECORD
   5
51
 100
AcDbSymbolTableRecord
 100
AcDbBlockTableRecord
   2
_OBLIQUE
   0
BLOCK_RECORD
   5
52
 100
AcDbSymbolTableRecord
 100
AcDbBlockTableRecord
   2
_OPEN
   0
BLOCK_RECORD
   5
53
 100
AcDbSymbolTableRecord
 100
AcDbBlockTableRecord
   2
_OPEN30
   0
BLOCK_RECORD
   5
54
 100
AcDbSymbolTableRecord
 100
AcDbBlockTableRecord
   2
_OPEN90
   0
BLOCK_RECORD
   5
55
 100
AcDbSymbolTableRecord
 100
AcDbBlockTableRecord
   2
_ORIGIN
   0
ENDTAB
   0
ENDSEC
  0
SECTION
  2
BLOCKS
  0
BLOCK
  5
19
100
AcDbEntity
  8
0
100
AcDbBlockBegin
  2
*MODEL_SPACE
 70
     0
 10
0.0
 20
0.0
 30
0.0
  3
*MODEL_SPACE
  1

  0
ENDBLK
  5
1A
100
AcDbEntity
  8
0
100
AcDbBlockEnd
  0
BLOCK
  5
16
100
AcDbEntity
 67
     1
  8
0
100
AcDbBlockBegin
  2
*PAPER_SPACE
 70
     0
 10
0.0
 20
0.0
 30
0.0
  3
*PAPER_SPACE
  1

  0
ENDBLK
  5
17
100
AcDbEntity
 67
     1
  8
0
100
AcDbBlockEnd
   0
BLOCK
   5
56
 100
AcDbEntity
   8
0
 100
AcDbBlockBegin
   2
_ARCHTICK
  70
0
  10
0.0
  20
0.0
  30
0.0
   3
_ARCHTICK
   0
POLYLINE
   5
57
 100
AcDbEntity
   8
0
 370
-2
   6
BYBLOCK
  62
0
 100
AcDb2dPolyline
  66
1
  10
0.0
  20
0.0
  30
0.0
  70
1
  40
 0.15000000000000
  41
 0.15000000000000
   0
VERTEX
   5
58
 100
AcDbEntity
   8
0
   6
BYBLOCK
  62
0
 100
AcDbVertex
 100
AcDb2dVertex
  10
-0.50000000000000
  20
-0.50000000000000
  30
0.0
  40
 0.15000000000000
  41
 0.15000000000000
   0
VERTEX
   5
59
 100
AcDbEntity
   8
0
   6
BYBLOCK
  62
0
 100
AcDbVertex
 100
AcDb2dVertex
  10
 0.50000000000000
  20
 0.50000000000000
  30
0.0
  40
 0.15000000000000
  41
 0.15000000000000
   0
SEQEND
   5
5A
 100
AcDbEntity
   8
0
   6
BYBLOCK
  62
0
   0
ENDBLK
   5
5B
 100
AcDbEntity
   8
0
 100
AcDbBlockEnd
   0
BLOCK
   5
5C
 100
AcDbEntity
   8
0
 100
AcDbBlockBegin
   2
_OBLIQUE
  70
0
  10
0.0
  20
0.0
  30
0.0
   3
_OBLIQUE
   0
LINE
   5
5D
 100
AcDbEntity
   8
0
 370
-2
 100
AcDbLine
   6
BYBLOCK
  62
0
  10
-0.50000000000000
  20
-0.50000000000000
  30
0.0
  11
 0.50000000000000
  21
 0.50000000000000
  31
0.0
   0
ENDBLK
   5
5E
 100
AcDbEntity
   8
0
 100
AcDbBlockEnd
   0
BLOCK
   5
5F
 100
AcDbEntity
   8
0
 100
AcDbBlockBegin
   2
_BOXBLANK
  70
0
  10
0.0
  20
0.0
  30
0.0
   3
_BOXBLANK
   0
LINE
   5
60
 100
AcDbEntity
   8
0
 370
-2
 100
AcDbLine
   6
BYBLOCK
  62
0
  10
-0.50000000000000
  20
-0.50000000000000
  30
0.0
  11
 0.50000000000000
  21
-0.50000000000000
  31
0.0
   0
LINE
   5
61
 100
AcDbEntity
   8
0
 370
-2
 100
AcDbLine
   6
BYBLOCK
  62
0
  10
 0.50000000000000
  20
-0.50000000000000
  30
0.0
  11
 0.50000000000000
  21
 0.50000000000000
  31
0.0
   0
LINE
   5
62
 100
AcDbEntity
   8
0
 370
-2
 100
AcDbLine
   6
BYBLOCK
  62
0
  10
 0.50000000000000
  20
 0.50000000000000
  30
0.0
  11
-0.50000000000000
  21
 0.50000000000000
  31
0.0
   0
LINE
   5
63
 100
AcDbEntity
   8
0
 370
-2
 100
AcDbLine
   6
BYBLOCK
  62
0
  10
-0.50000000000000
  20
 0.50000000000000
  30
0.0
  11
-0.50000000000000
  21
-0.50000000000000
  31
0.0
   0
LINE
   5
64
 100
AcDbEntity
   8
0
 370
-2
 100
AcDbLine
   6
BYBLOCK
  62
0
  10
-0.50000000000000
  20
0.0
  30
0.0
  11
-1.0000000000000
  21
0.0
  31
0.0
   0
ENDBLK
   5
65
 100
AcDbEntity
   8
0
 100
AcDbBlockEnd
   0
BLOCK
   5
66
 100
AcDbEntity
   8
0
 100
AcDbBlockBegin
   2
_BOXFILLED
  70
0
  10
0.0
  20
0.0
  30
0.0
   3
_BOXFILLED
   0
SOLID
   5
67
 100
AcDbEntity
   8
0
 100
AcDbTrace
   6
BYBLOCK
  62
0
  10
-0.50000000000000
  20
 0.50000000000000
  30
0.0
  11
 0.50000000000000
  21
 0.50000000000000
  31
0.0
  12
-0.50000000000000
  22
-0.50000000000000
  32
0.0
  13
 0.50000000000000
  23
-0.50000000000000
  33
0.0
   0
LINE
   5
68
 100
AcDbEntity
   8
0
 370
-2
 100
AcDbLine
   6
BYBLOCK
  62
0
  10
-0.50000000000000
  20
0.0
  30
0.0
  11
-1.0000000000000
  21
0.0
  31
0.0
   0
ENDBLK
   5
69
 100
AcDbEntity
   8
0
 100
AcDbBlockEnd
   0
BLOCK
   5
6A
 100
AcDbEntity
   8
0
 100
AcDbBlockBegin
   2
_CLOSED
  70
0
  10
0.0
  20
0.0
  30
0.0
   3
_CLOSED
   0
LINE
   5
6B
 100
AcDbEntity
   8
0
 370
-2
 100
AcDbLine
   6
BYBLOCK
  62
0
  10
-1.0000000000000
  20
 0.16666666666667
  30
0.0
  11
0.0
  21
0.0
  31
0.0
   0
LINE
   5
6C
 100
AcDbEntity
   8
0
 370
-2
 100
AcDbLine
   6
BYBLOCK
  62
0
  10
0.0
  20
0.0
  30
0.0
  11
-1.0000000000000
  21
-0.16666666666667
  31
0.0
   0
LINE
   5
6D
 100
AcDbEntity
   8
0
 370
-2
 100
AcDbLine
   6
BYBLOCK
  62
0
  10
-1.0000000000000
  20
 0.16666666666667
  30
0.0
  11
-1.0000000000000
  21
-0.16666666666667
  31
0.0
   0
LINE
   5
6E
 100
AcDbEntity
   8
0
 370
-2
 100
AcDbLine
   6
BYBLOCK
  62
0
  10
0.0
  20
0.0
  30
0.0
  11
-1.0000000000000
  21
0.0
  31
0.0
   0
ENDBLK
   5
6F
 100
AcDbEntity
   8
0
 100
AcDbBlockEnd
   0
BLOCK
   5
70
 100
AcDbEntity
   8
0
 100
AcDbBlockBegin
   2
_OPEN
  70
0
  10
0.0
  20
0.0
  30
0.0
   3
_OPEN
   0
LINE
   5
71
 100
AcDbEntity
   8
0
 370
-2
 100
AcDbLine
   6
BYBLOCK
  62
0
  10
-1.0000000000000
  20
 0.16666666666667
  30
0.0
  11
0.0
  21
0.0
  31
0.0
   0
LINE
   5
72
 100
AcDbEntity
   8
0
 370
-2
 100
AcDbLine
   6
BYBLOCK
  62
0
  10
0.0
  20
0.0
  30
0.0
  11
-1.0000000000000
  21
-0.16666666666667
  31
0.0
   0
LINE
   5
73
 100
AcDbEntity
   8
0
 370
-2
 100
AcDbLine
   6
BYBLOCK
  62
0
  10
0.0
  20
0.0
  30
0.0
  11
-1.0000000000000
  21
0.0
  31
0.0
   0
ENDBLK
   5
74
 100
AcDbEntity
   8
0
 100
AcDbBlockEnd
   0
BLOCK
   5
75
 100
AcDbEntity
   8
0
 100
AcDbBlockBegin
   2
_OPEN30
  70
0
  10
0.0
  20
0.0
  30
0.0
   3
_OPEN30
   0
LINE
   5
76
 100
AcDbEntity
   8
0
 370
-2
 100
AcDbLine
   6
BYBLOCK
  62
0
  10
-1.0000000000000
  20
 0.26794919243110
  30
0.0
  11
0.0
  21
0.0
  31
0.0
   0
LINE
   5
77
 100
AcDbEntity
   8
0
 370
-2
 100
AcDbLine
   6
BYBLOCK
  62
0
  10
0.0
  20
0.0
  30
0.0
  11
-1.0000000000000
  21
-0.26794919243110
  31
0.0
   0
LINE
   5
78
 100
AcDbEntity
   8
0
 370
-2
 100
AcDbLine
   6
BYBLOCK
  62
0
  10
0.0
  20
0.0
  30
0.0
  11
-1.0000000000000
  21
0.0
  31
0.0
   0
ENDBLK
   5
79
 100
AcDbEntity
   8
0
 100
AcDbBlockEnd
   0
BLOCK
   5
7A
 100
AcDbEntity
   8
0
 100
AcDbBlockBegin
   2
_OPEN90
  70
0
  10
0.0
  20
0.0
  30
0.0
   3
_OPEN90
   0
LINE
   5
7B
 100
AcDbEntity
   8
0
 370
-2
 100
AcDbLine
   6
BYBLOCK
  62
0
  10
-0.50000000000000
  20
 0.50000000000000
  30
0.0
  11
0.0
  21
0.0
  31
0.0
   0
LINE
   5
7C
 100
AcDbEntity
   8
0
 370
-2
 100
AcDbLine
   6
BYBLOCK
  62
0
  10
0.0
  20
0.0
  30
0.0
  11
-0.50000000000000
  21
-0.50000000000000
  31
0.0
   0
LINE
   5
7D
 100
AcDbEntity
   8
0
 370
-2
 100
AcDbLine
   6
BYBLOCK
  62
0
  10
0.0
  20
0.0
  30
0.0
  11
-1.0000000000000
  21
0.0
  31
0.0
   0
ENDBLK
   5
7E
 100
AcDbEntity
   8
0
 100
AcDbBlockEnd
   0
BLOCK
   5
7F
 100
AcDbEntity
   8
0
 100
AcDbBlockBegin
   2
_CLOSEDBLANK
  70
0
  10
0.0
  20
0.0
  30
0.0
   3
_CLOSEDBLANK
   0
LINE
   5
80
 100
AcDbEntity
   8
0
 370
-2
 100
AcDbLine
   6
BYBLOCK
  62
0
  10
-1.0000000000000
  20
 0.16666666666667
  30
0.0
  11
0.0
  21
0.0
  31
0.0
   0
LINE
   5
81
 100
AcDbEntity
   8
0
 370
-2
 100
AcDbLine
   6
BYBLOCK
  62
0
  10
0.0
  20
0.0
  30
0.0
  11
-1.0000000000000
  21
-0.16666666666667
  31
0.0
   0
LINE
   5
82
 100
AcDbEntity
   8
0
 370
-2
 100
AcDbLine
   6
BYBLOCK
  62
0
  10
-1.0000000000000
  20
 0.16666666666667
  30
0.0
  11
-1.0000000000000
  21
-0.16666666666667
  31
0.0
   0
ENDBLK
   5
83
 100
AcDbEntity
   8
0
 100
AcDbBlockEnd
   0
BLOCK
   5
84
 100
AcDbEntity
   8
0
 100
AcDbBlockBegin
   2
_DOT
  70
0
  10
0.0
  20
0.0
  30
0.0
   3
_DOT
   0
POLYLINE
   5
85
 100
AcDbEntity
   8
0
 370
-2
   6
BYBLOCK
  62
0
 100
AcDb2dPolyline
  66
1
  10
0.0
  20
0.0
  30
0.0
  70
1
  40
 0.50000000000000
  41
 0.50000000000000
   0
VERTEX
   5
86
 100
AcDbEntity
   8
0
   6
BYBLOCK
  62
0
 100
AcDbVertex
 100
AcDb2dVertex
  10
-0.25000000000000
  20
0.0
  30
0.0
  42
 1.0000000000000
  40
 0.50000000000000
  41
 0.50000000000000
   0
VERTEX
   5
87
 100
AcDbEntity
   8
0
   6
BYBLOCK
  62
0
 100
AcDbVertex
 100
AcDb2dVertex
  10
 0.25000000000000
  20
0.0
  30
0.0
  42
 1.0000000000000
  40
 0.50000000000000
  41
 0.50000000000000
   0
SEQEND
   5
88
 100
AcDbEntity
   8
0
   6
BYBLOCK
  62
0
   0
LINE
   5
89
 100
AcDbEntity
   8
0
 370
-2
 100
AcDbLine
   6
BYBLOCK
  62
0
  10
-0.50000000000000
  20
0.0
  30
0.0
  11
-1.0000000000000
  21
0.0
  31
0.0
   0
ENDBLK
   5
8A
 100
AcDbEntity
   8
0
 100
AcDbBlockEnd
   0
BLOCK
   5
8B
 100
AcDbEntity
   8
0
 100
AcDbBlockBegin
   2
_DOTSMALL
  70
0
  10
0.0
  20
0.0
  30
0.0
   3
_DOTSMALL
   0
POLYLINE
   5
8C
 100
AcDbEntity
   8
0
 370
-2
   6
BYBLOCK
  62
0
 100
AcDb2dPolyline
  66
1
  10
0.0
  20
0.0
  30
0.0
  70
1
  40
 0.50000000000000
  41
 0.50000000000000
   0
VERTEX
   5
8D
 100
AcDbEntity
   8
0
   6
BYBLOCK
  62
0
 100
AcDbVertex
 100
AcDb2dVertex
  10
-0.62500000000000E-1
  20
0.0
  30
0.0
  42
 1.0000000000000
  40
 0.50000000000000
  41
 0.50000000000000
   0
VERTEX
   5
8E
 100
AcDbEntity
   8
0
   6
BYBLOCK
  62
0
 100
AcDbVertex
 100
AcDb2dVertex
  10
 0.62500000000000E-1
  20
0.0
  30
0.0
  42
 1.0000000000000
  40
 0.50000000000000
  41
 0.50000000000000
   0
SEQEND
   5
8F
 100
AcDbEntity
   8
0
   6
BYBLOCK
  62
0
   0
ENDBLK
   5
90
 100
AcDbEntity
   8
0
 100
AcDbBlockEnd
   0
BLOCK
   5
91
 100
AcDbEntity
   8
0
 100
AcDbBlockBegin
   2
_DATUMBLANK
  70
0
  10
0.0
  20
0.0
  30
0.0
   3
_DATUMBLANK
   0
LINE
   5
92
 100
AcDbEntity
   8
0
 370
-2
 100
AcDbLine
   6
BYBLOCK
  62
0
  10
0.0
  20
 0.57735027000000
  30
0.0
  11
-1.0000000000000
  21
0.0
  31
0.0
   0
LINE
   5
93
 100
AcDbEntity
   8
0
 370
-2
 100
AcDbLine
   6
BYBLOCK
  62
0
  10
-1.0000000000000
  20
0.0
  30
0.0
  11
0.0
  21
-0.57735027000000
  31
0.0
   0
LINE
   5
94
 100
AcDbEntity
   8
0
 370
-2
 100
AcDbLine
   6
BYBLOCK
  62
0
  10
0.0
  20
-0.57735027000000
  30
0.0
  11
0.0
  21
 0.57735027000000
  31
0.0
   0
ENDBLK
   5
95
 100
AcDbEntity
   8
0
 100
AcDbBlockEnd
   0
BLOCK
   5
96
 100
AcDbEntity
   8
0
 100
AcDbBlockBegin
   2
_DATUMFILLED
  70
0
  10
0.0
  20
0.0
  30
0.0
   3
_DATUMFILLED
   0
SOLID
   5
97
 100
AcDbEntity
   8
0
 100
AcDbTrace
   6
BYBLOCK
  62
0
  10
0.0
  20
 0.57735027000000
  30
0.0
  11
-1.0000000000000
  21
0.0
  31
0.0
  12
0.0
  22
-0.57735027000000
  32
0.0
  13
0.0
  23
-0.57735027000000
  33
0.0
   0
ENDBLK
   5
98
 100
AcDbEntity
   8
0
 100
AcDbBlockEnd
   0
BLOCK
   5
99
 100
AcDbEntity
   8
0
 100
AcDbBlockBegin
   2
_ORIGIN
  70
0
  10
0.0
  20
0.0
  30
0.0
   3
_ORIGIN
   0
CIRCLE
   5
9A
 100
AcDbEntity
   8
0
 370
-2
 100
AcDbCircle
   6
BYBLOCK
  62
0
  10
0.0
  20
0.0
  30
0.0
  40
 0.50000000000000
   0
LINE
   5
9B
 100
AcDbEntity
   8
0
 370
-2
 100
AcDbLine
   6
BYBLOCK
  62
0
  10
0.0
  20
0.0
  30
0.0
  11
-1.0000000000000
  21
0.0
  31
0.0
   0
ENDBLK
   5
9C
 100
AcDbEntity
   8
0
 100
AcDbBlockEnd
   0
BLOCK
   5
9D
 100
AcDbEntity
   8
0
 100
AcDbBlockBegin
   2
_NONE
  70
0
  10
0.0
  20
0.0
  30
0.0
   3
_NONE
   0
CIRCLE
   5
9E
 100
AcDbEntity
   8
0
 370
-2
 100
AcDbCircle
   6
BYBLOCK
  62
0
  10
0.0
  20
0.0
  30
0.0
  40
 0.25000000000000
   0
ENDBLK
   5
9F
 100
AcDbEntity
   8
0
 100
AcDbBlockEnd
   0
BLOCK
   5
A0
 100
AcDbEntity
   8
0
 100
AcDbBlockBegin
   2
_DOTBLANK
  70
0
  10
0.0
  20
0.0
  30
0.0
   3
_DOTBLANK
   0
CIRCLE
   5
A1
 100
AcDbEntity
   8
0
 370
-2
 100
AcDbCircle
   6
BYBLOCK
  62
0
  10
0.0
  20
0.0
  30
0.0
  40
 0.50000000000000
   0
LINE
   5
A2
 100
AcDbEntity
   8
0
 370
-2
 100
AcDbLine
   6
BYBLOCK
  62
0
  10
-0.50000000000000
  20
0.0
  30
0.0
  11
-1.0000000000000
  21
0.0
  31
0.0
   0
ENDBLK
   5
A3
 100
AcDbEntity
   8
0
 100
AcDbBlockEnd
   0
BLOCK
   5
A4
 100
AcDbEntity
   8
0
 100
AcDbBlockBegin
   2
_INTEGRAL
  70
0
  10
0.0
  20
0.0
  30
0.0
   3
_INTEGRAL
   0
ARC
   5
A5
 100
AcDbEntity
   8
0
 370
-2
   6
BYBLOCK
  62
0
 100
AcDbCircle
  10
 0.44488800000000
  20
-0.91335000000000E-1
  30
0.0
  40
 0.45416700000000
 100
AcDbArc
  50
 102.00000000000
  51
 168.00000000000
   0
ARC
   5
A6
 100
AcDbEntity
   8
0
 370
-2
   6
BYBLOCK
  62
0
 100
AcDbCircle
  10
-0.44488800000000
  20
 0.91335000000000E-1
  30
0.0
  40
 0.45416700000000
 100
AcDbArc
  50
 282.00000000000
  51
 348.00000000000
   0
ENDBLK
   5
A7
 100
AcDbEntity
   8
0
 100
AcDbBlockEnd
   0
BLOCK
   5
A8
 100
AcDbEntity
   8
0
 100
AcDbBlockBegin
   2
GMM001
  70
64
  10
0.0
  20
0.0
  30
0.0
   3
GMM001
   0
LWPOLYLINE
   5
A9
 100
AcDbEntity
   8
LEVEL001
 370
30
   6
CONTINUOUS
  62
7
 100
AcDbPolyline
  90
4
  70
1
  10
-568.00000000000
  20
 394.00000000000
  10
-568.00000000000
  20
0.0
  10
0.0
  20
0.0
  10
0.0
  20
 394.00000000000
   0
LINE
   5
AA
 100
AcDbEntity
   8
LEVEL001
 370
30
 100
AcDbLine
   6
CONTINUOUS
  62
7
  10
-135.00000000000
  20
 10.000000000000
  30
0.0
  11
0.0
  21
 10.000000000000
  31
0.0
   0
LINE
   5
AB
 100
AcDbEntity
   8
LEVEL001
 370
30
 100
AcDbLine
   6
CONTINUOUS
  62
7
  10
0.0
  20
 18.000000000000
  30
0.0
  11
-97.000000000000
  21
 18.000000000000
  31
0.0
   0
LINE
   5
AC
 100
AcDbEntity
   8
LEVEL001
 370
30
 100
AcDbLine
   6
CONTINUOUS
  62
7
  10
-135.00000000000
  20
 26.000000000000
  30
0.0
  11
0.0
  21
 26.000000000000
  31
0.0
   0
LINE
   5
AD
 100
AcDbEntity
   8
LEVEL001
 370
30
 100
AcDbLine
   6
CONTINUOUS
  62
7
  10
-97.000000000000
  20
 26.000000000000
  30
0.0
  11
-97.000000000000
  21
 10.000000000000
  31
0.0
   0
LINE
   5
AE
 100
AcDbEntity
   8
LEVEL001
 370
30
 100
AcDbLine
   6
CONTINUOUS
  62
7
  10
-39.000000000000
  20
 26.000000000000
  30
0.0
  11
-39.000000000000
  21
 10.000000000000
  31
0.0
   0
LINE
   5
AF
 100
AcDbEntity
   8
LEVEL001
 370
30
 100
AcDbLine
   6
CONTINUOUS
  62
7
  10
-31.000000000000
  20
 26.000000000000
  30
0.0
  11
-31.000000000000
  21
 10.000000000000
  31
0.0
   0
LINE
   5
B0
 100
AcDbEntity
   8
LEVEL001
 370
30
 100
AcDbLine
   6
CONTINUOUS
  62
7
  10
-23.000000000000
  20
 26.000000000000
  30
0.0
  11
-23.000000000000
  21
 10.000000000000
  31
0.0
   0
LINE
   5
B1
 100
AcDbEntity
   8
LEVEL001
 370
30
 100
AcDbLine
   6
CONTINUOUS
  62
7
  10
-15.000000000000
  20
 26.000000000000
  30
0.0
  11
-15.000000000000
  21
 10.000000000000
  31
0.0
   0
MTEXT
   5
B3
 100
AcDbEntity
   8
LEVEL001
 370
30
  62
7
 100
AcDbMText
  10
-66.768592015439
  20
 19.890823176117
  30
0.0
  40
 3.6000000000000
  41
0.0
  71
7
  72
1
   1
\T1.000000;個
   7
GMM001
  44
 0.79999984000003
   0
MTEXT
   5
B5
 100
AcDbEntity
   8
LEVEL001
 370
30
  62
7
 100
AcDbMText
  10
-63.168592015439
  20
 19.890823176117
  30
0.0
  40
 3.6000000000000
  41
0.0
  71
7
  72
1
   1
\T1.000000;数
   7
GMM001
  44
 0.79999984000003
   0
MTEXT
   5
B7
 100
AcDbEntity
   8
LEVEL001
 370
30
  62
7
 100
AcDbMText
  10
-54.799712276311
  20
 20.036370662307
  30
0.0
  40
 3.6000000000000
  41
0.0
  71
7
  72
1
   1
\T1.000000;尺
   7
GMM001
  44
 0.79999984000003
   0
MTEXT
   5
B9
 100
AcDbEntity
   8
LEVEL001
 370
30
  62
7
 100
AcDbMText
  10
-36.905811353661
  20
 20.191231118064
  30
0.0
  40
 3.6000000000000
  41
0.0
  71
7
  72
1
   1
\T1.000000;年
   7
GMM001
  44
 0.79999984000003
   0
MTEXT
   5
BB
 100
AcDbEntity
   8
LEVEL001
 370
30
  62
7
 100
AcDbMText
  10
-29.006925672360
  20
 20.076338823367
  30
0.0
  40
 3.6000000000000
  41
0.0
  71
7
  72
1
   1
\T1.000000;月
   7
GMM001
  44
 0.79999984000003
   0
MTEXT
   5
BD
 100
AcDbEntity
   8
LEVEL001
 370
30
  62
7
 100
AcDbMText
  10
-133.05073750221
  20
 13.474059353471
  30
0.0
  40
 3.6000000000000
  41
0.0
  71
7
  72
1
   1
\T1.000000;法
   7
GMM001
  44
 0.79999984000003
   0
MTEXT
   5
BF
 100
AcDbEntity
   8
LEVEL001
 370
30
  62
7
 100
AcDbMText
  10
-133.05073750221
  20
 19.495906200318
  30
0.0
  40
 3.6000000000000
  41
0.0
  71
7
  72
1
   1
\T1.000000;画
   7
GMM001
  44
 0.79999984000003
   0
MTEXT
   5
C1
 100
AcDbEntity
   8
LEVEL001
 370
30
  62
7
 100
AcDbMText
  10
-123.09620208444
  20
 15.917386504151
  30
0.0
  40
 3.6000000000000
  41
0.0
  71
7
  72
1
   1
\T1.000000;第
   7
GMM001
  44
 0.79999984000003
   0
MTEXT
   5
C3
 100
AcDbEntity
   8
LEVEL001
 370
30
  62
7
 100
AcDbMText
  10
-105.66588610669
  20
 15.917386504151
  30
0.0
  40
 3.6000000000000
  41
0.0
  71
7
  72
1
   1
\T1.000000;法
   7
GMM001
  44
 0.79999984000003
   0
MTEXT
   5
C5
 100
AcDbEntity
   8
LEVEL001
 370
30
  62
7
 100
AcDbMText
  10
-111.85332648825
  20
 15.917386504151
  30
0.0
  40
 3.6000000000000
  41
0.0
  71
7
  72
1
   1
\T1.000000;画
   7
GMM001
  44
 0.79999984000003
   0
MTEXT
   5
C7
 100
AcDbEntity
   8
LEVEL001
 370
30
  62
7
 100
AcDbMText
  10
-117.44781178237
  20
 15.917386504151
  30
0.0
  40
 3.6000000000000
  41
0.0
  71
7
  72
1
   1
\T1.000000;三
   7
GMM001
  44
 0.79999984000003
   0
MTEXT
   5
C9
 100
AcDbEntity
   8
LEVEL001
 370
30
  62
7
 100
AcDbMText
  10
-93.366063857976
  20
 19.826214449744
  30
0.0
  40
 3.6000000000000
  41
0.0
  71
7
  72
1
   1
\T1.000000;共
   7
GMM001
  44
 0.79999984000003
   0
MTEXT
   5
CB
 100
AcDbEntity
   8
LEVEL001
 370
30
  62
7
 100
AcDbMText
  10
-75.234982776895
  20
 19.826214449744
  30
0.0
  40
 3.6000000000000
  41
0.0
  71
7
  72
1
   1
\T1.000000;種
   7
GMM001
  44
 0.79999984000003
   0
MTEXT
   5
CD
 100
AcDbEntity
   8
LEVEL001
 370
30
  62
7
 100
AcDbMText
  10
-81.422423158452
  20
 19.826214449744
  30
0.0
  40
 3.6000000000000
  41
0.0
  71
7
  72
1
   1
\T1.000000;機
   7
GMM001
  44
 0.79999984000003
   0
MTEXT
   5
CF
 100
AcDbEntity
   8
LEVEL001
 370
30
  62
7
 100
AcDbMText
  10
-87.502053524112
  20
 19.826214449744
  30
0.0
  40
 3.6000000000000
  41
0.0
  71
7
  72
1
   1
\T1.000000;通
   7
GMM001
  44
 0.79999984000003
   0
MTEXT
   5
D1
 100
AcDbEntity
   8
LEVEL001
 370
30
  62
7
 100
AcDbMText
  10
-48.666176902702
  20
 20.036370662307
  30
0.0
  40
 3.6000000000000
  41
0.0
  71
7
  72
1
   1
\T1.000000;度
   7
GMM001
  44
 0.79999984000003
   0
MTEXT
   5
D3
 100
AcDbEntity
   8
LEVEL001
 370
30
  62
7
 100
AcDbMText
  10
-21.032113419726
  20
 19.874883349168
  30
0.0
  40
 3.6000000000000
  41
0.0
  71
7
  72
1
   1
\T1.000000;日
   7
GMM001
  44
 0.79999984000003
   0
MTEXT
   5
D5
 100
AcDbEntity
   8
LEVEL001
 370
30
  62
7
 100
AcDbMText
  10
-107.53500000000
  20
 2.2398892493447
  30
0.0
  40
 5.0700000000000
  41
0.0
  71
7
  72
1
   1
\T1.000000;さ
   7
GMM001
  44
 0.79999984000003
   0
MTEXT
   5
D7
 100
AcDbEntity
   8
LEVEL001
 370
30
  62
7
 100
AcDbMText
  10
-97.535000000000
  20
 2.2398892493447
  30
0.0
  40
 5.0700000000000
  41
0.0
  71
7
  72
1
   1
\T1.000000;ぬ
   7
GMM001
  44
 0.79999984000003
   0
MTEXT
   5
D9
 100
AcDbEntity
   8
LEVEL001
 370
30
  62
7
 100
AcDbMText
  10
-87.535000000000
  20
 2.2398892493447
  30
0.0
  40
 5.0700000000000
  41
0.0
  71
7
  72
1
   1
\T1.000000;き
   7
GMM001
  44
 0.79999984000003
   0
MTEXT
   5
DB
 100
AcDbEntity
   8
LEVEL001
 370
30
  62
7
 100
AcDbMText
  10
-27.384057622806
  20
 2.2398892493447
  30
0.0
  40
 5.0700000000000
  41
0.0
  71
7
  72
1
   1
\T1.000000;社
   7
GMM001
  44
 0.79999984000003
   0
MTEXT
   5
DD
 100
AcDbEntity
   8
LEVEL001
 370
30
  62
7
 100
AcDbMText
  10
-37.384057622806
  20
 2.2398892493447
  30
0.0
  40
 5.0700000000000
  41
0.0
  71
7
  72
1
   1
\T1.000000;会
   7
GMM001
  44
 0.79999984000003
   0
MTEXT
   5
DF
 100
AcDbEntity
   8
LEVEL001
 370
30
  62
7
 100
AcDbMText
  10
-47.384057622806
  20
 2.2398892493447
  30
0.0
  40
 5.0700000000000
  41
0.0
  71
7
  72
1
   1
\T1.000000;式
   7
GMM001
  44
 0.79999984000003
   0
MTEXT
   5
E1
 100
AcDbEntity
   8
LEVEL001
 370
30
  62
7
 100
AcDbMText
  10
-57.384057622806
  20
 2.2398892493447
  30
0.0
  40
 5.0700000000000
  41
0.0
  71
7
  72
1
   1
\T1.000000;株
   7
GMM001
  44
 0.79999984000003
   0
MTEXT
   5
E3
 100
AcDbEntity
   8
LEVEL001
 370
30
  62
7
 100
AcDbMText
  10
-67.535000000000
  20
 2.2398892493447
  30
0.0
  40
 5.0700000000000
  41
0.0
  71
7
  72
1
   1
\T1.000000;機
   7
GMM001
  44
 0.79999984000003
   0
MTEXT
   5
E5
 100
AcDbEntity
   8
LEVEL001
 370
30
  62
7
 100
AcDbMText
  10
-77.535000000000
  20
 2.2398892493447
  30
0.0
  40
 5.0700000000000
  41
0.0
  71
7
  72
1
   1
\T1.000000;麺
   7
GMM001
  44
 0.79999984000003
   0
MTEXT
   5
E7
 100
AcDbEntity
   8
LEVEL001
 370
30
  62
7
 100
AcDbMText
  10
-7.0395193042363
  20
 19.867801070369
  30
0.0
  40
 3.6000000000000
  41
0.0
  71
7
  72
1
   1
\T1.000000;図
   7
GMM001
  44
 0.79999984000003
   0
MTEXT
   5
E9
 100
AcDbEntity
   8
LEVEL001
 370
30
  62
7
 100
AcDbMText
  10
-12.256669542710
  20
 19.867801070369
  30
0.0
  40
 3.6000000000000
  41
0.0
  71
7
  72
1
   1
\T1.000000;製
   7
GMM001
  44
 0.79999984000003
   0
LINE
   5
EA
 100
AcDbEntity
   8
LEVEL001
 370
30
 100
AcDbLine
   6
CONTINUOUS
  62
7
  10
0.0
  20
0.0
  30
0.0
  11
0.0
  21
 38.000000000000
  31
0.0
   0
LINE
   5
EB
 100
AcDbEntity
   8
LEVEL001
 370
30
 100
AcDbLine
   6
CONTINUOUS
  62
7
  10
-59.000000000000
  20
 38.000000000000
  30
0.0
  11
-59.000000000000
  21
 10.000000000000
  31
0.0
   0
LINE
   5
EC
 100
AcDbEntity
   8
LEVEL001
 370
30
 100
AcDbLine
   6
CONTINUOUS
  62
7
  10
-67.000000000000
  20
 38.000000000000
  30
0.0
  11
-67.000000000000
  21
 10.000000000000
  31
0.0
   0
LINE
   5
ED
 100
AcDbEntity
   8
LEVEL001
 370
30
 100
AcDbLine
   6
CONTINUOUS
  62
7
  10
-127.00000000000
  20
 38.000000000000
  30
0.0
  11
-127.00000000000
  21
 10.000000000000
  31
0.0
   0
MTEXT
   5
EF
 100
AcDbEntity
   8
LEVEL001
 370
30
  62
7
 100
AcDbMText
  10
-64.988844727080
  20
 33.040849283540
  30
0.0
  40
 3.6000000000000
  41
0.0
  71
7
  72
1
   1
\T1.000000;図
   7
GMM001
  44
 0.79999984000003
   0
MTEXT
   5
F1
 100
AcDbEntity
   8
LEVEL001
 370
30
  62
7
 100
AcDbMText
  10
-64.964975431747
  20
 26.999645926203
  30
0.0
  40
 3.6000000000000
  41
0.0
  71
7
  72
1
   1
\T1.000000;番
   7
GMM001
  44
 0.79999984000003
   0
MTEXT
   5
F3
 100
AcDbEntity
   8
LEVEL001
 370
30
  62
7
 100
AcDbMText
  10
-132.92204869229
  20
 33.000109852500
  30
0.0
  40
 3.6000000000000
  41
0.0
  71
7
  72
1
   1
\T1.000000;名
   7
GMM001
  44
 0.79999984000003
   0
MTEXT
   5
F5
 100
AcDbEntity
   8
LEVEL001
 370
30
  62
7
 100
AcDbMText
  10
-132.75496362496
  20
 27.340815220497
  30
0.0
  40
 3.6000000000000
  41
0.0
  71
7
  72
1
   1
\T1.000000;称
   7
GMM001
  44
 0.79999984000003
   0
LINE
   5
F6
 100
AcDbEntity
   8
LEVEL001
 370
30
 100
AcDbLine
   6
CONTINUOUS
  62
7
  10
0.0
  20
 38.000000000000
  30
0.0
  11
-135.00000000000
  21
 38.000000000000
  31
0.0
   0
LINE
   5
F7
 100
AcDbEntity
   8
LEVEL001
 370
30
 100
AcDbLine
   6
CONTINUOUS
  62
7
  10
-135.00000000000
  20
0.0
  30
0.0
  11
-135.00000000000
  21
 38.000000000000
  31
0.0
   0
ENDBLK
   5
F8
 100
AcDbEntity
   8
0
 100
AcDbBlockEnd
   0
BLOCK
   5
F9
 100
AcDbEntity
   8
0
 100
AcDbBlockBegin
   2
*D1
  70
65
  10
0.0
  20
0.0
  30
0.0
   3
*D1
   0
LINE
   5
FA
 100
AcDbEntity
   8
LEVEL001
 370
9
 100
AcDbLine
   6
CONTINUOUS
  62
1
  10
 2439.0414465338
  20
 531.89155548517
  30
0.0
  11
 2489.6309652792
  21
 531.89155548517
  31
0.0
   0
LINE
   5
FB
 100
AcDbEntity
   8
LEVEL001
 370
9
 100
AcDbLine
   6
CONTINUOUS
  62
1
  10
 2046.7559453554
  20
 1096.8915554852
  30
0.0
  11
 2489.6309652792
  21
 1096.8915554852
  31
0.0
   0
LINE
   5
FC
 100
AcDbEntity
   8
LEVEL001
 370
9
 100
AcDbLine
   6
CONTINUOUS
  62
1
  10
 2477.6309652792
  20
 531.89155548517
  30
0.0
  11
 2477.6309652792
  21
 814.39155548517
  31
0.0
   0
LINE
   5
FD
 100
AcDbEntity
   8
LEVEL001
 370
9
 100
AcDbLine
   6
CONTINUOUS
  62
1
  10
 2477.6309652792
  20
 1096.8915554852
  30
0.0
  11
 2477.6309652792
  21
 814.39155548517
  31
0.0
   0
INSERT
   5
FE
 100
AcDbEntity
   8
LEVEL001
   6
CONTINUOUS
  62
1
 100
AcDbBlockReference
   2
_OPEN30
  10
 2477.6309652792
  20
 531.89155548517
  30
0.0
  41
 18.000000000000
  42
 18.000000000000
  43
 18.000000000000
  50
 270.00000000000
   0
INSERT
   5
FF
 100
AcDbEntity
   8
LEVEL001
   6
CONTINUOUS
  62
1
 100
AcDbBlockReference
   2
_OPEN30
  10
 2477.6309652792
  20
 1096.8915554852
  30
0.0
  41
 18.000000000000
  42
 18.000000000000
  43
 18.000000000000
  50
 90.000000000000
   0
MTEXT
   5
100
 100
AcDbEntity
   8
LEVEL001
 370
30
  62
7
 100
AcDbMText
  10
 2471.6309652792
  20
 814.39155548517
  30
0.0
  40
 24.000000000000
  41
0.0
  71
8
  72
1
   1
\A1;565
   7
GMM001
  11
0.0
  21
 1.0000000000000
  31
0.0
   0
ENDBLK
   5
101
 100
AcDbEntity
   8
0
 100
AcDbBlockEnd
   0
BLOCK
   5
102
 100
AcDbEntity
   8
0
 100
AcDbBlockBegin
   2
*D2
  70
65
  10
0.0
  20
0.0
  30
0.0
   3
*D2
   0
LINE
   5
103
 100
AcDbEntity
   8
LEVEL001
 370
9
 100
AcDbLine
   6
CONTINUOUS
  62
1
  10
 2558.6190227161
  20
 966.65061386080
  30
0.0
  11
 2558.6190227161
  21
 1200.3946610871
  31
0.0
   0
LINE
   5
104
 100
AcDbEntity
   8
LEVEL001
 370
9
 100
AcDbLine
   6
CONTINUOUS
  62
1
  10
 3273.6190227161
  20
 1007.2869957591
  30
0.0
  11
 3273.6190227161
  21
 1200.3946610871
  31
0.0
   0
LINE
   5
105
 100
AcDbEntity
   8
LEVEL001
 370
9
 100
AcDbLine
   6
CONTINUOUS
  62
1
  10
 2558.6190227161
  20
 1188.3946610871
  30
0.0
  11
 2916.1190227161
  21
 1188.3946610871
  31
0.0
   0
LINE
   5
106
 100
AcDbEntity
   8
LEVEL001
 370
9
 100
AcDbLine
   6
CONTINUOUS
  62
1
  10
 3273.6190227161
  20
 1188.3946610871
  30
0.0
  11
 2916.1190227161
  21
 1188.3946610871
  31
0.0
   0
INSERT
   5
107
 100
AcDbEntity
   8
LEVEL001
   6
CONTINUOUS
  62
1
 100
AcDbBlockReference
   2
_OPEN30
  10
 2558.6190227161
  20
 1188.3946610871
  30
0.0
  41
 18.000000000000
  42
 18.000000000000
  43
 18.000000000000
  50
 180.00000000000
   0
INSERT
   5
108
 100
AcDbEntity
   8
LEVEL001
   6
CONTINUOUS
  62
1
 100
AcDbBlockReference
   2
_OPEN30
  10
 3273.6190227161
  20
 1188.3946610871
  30
0.0
  41
 18.000000000000
  42
 18.000000000000
  43
 18.000000000000
  50
0.0
   0
MTEXT
   5
109
 100
AcDbEntity
   8
LEVEL001
 370
30
  62
7
 100
AcDbMText
  10
 2916.1190227161
  20
 1194.3946610871
  30
0.0
  40
 24.000000000000
  41
0.0
  71
8
  72
1
   1
\A1;715
   7
GMM001
   0
ENDBLK
   5
10A
 100
AcDbEntity
   8
0
 100
AcDbBlockEnd
   0
BLOCK
   5
10B
 100
AcDbEntity
   8
0
 100
AcDbBlockBegin
   2
*D3
  70
65
  10
0.0
  20
0.0
  30
0.0
   3
*D3
   0
LINE
   5
10C
 100
AcDbEntity
   8
LEVEL001
 370
9
 100
AcDbLine
   6
CONTINUOUS
  62
1
  10
 933.41902271613
  20
 1005.4167480171
  30
0.0
  11
 933.41902271613
  21
 1200.3946610871
  31
0.0
   0
LINE
   5
10D
 100
AcDbEntity
   8
LEVEL001
 370
9
 100
AcDbLine
   6
CONTINUOUS
  62
1
  10
 2393.4190227161
  20
 790.93682748358
  30
0.0
  11
 2393.4190227161
  21
 1200.3946610871
  31
0.0
   0
LINE
   5
10E
 100
AcDbEntity
   8
LEVEL001
 370
9
 100
AcDbLine
   6
CONTINUOUS
  62
1
  10
 933.41902271613
  20
 1188.3946610871
  30
0.0
  11
 1663.4190227161
  21
 1188.3946610871
  31
0.0
   0
LINE
   5
10F
 100
AcDbEntity
   8
LEVEL001
 370
9
 100
AcDbLine
   6
CONTINUOUS
  62
1
  10
 2393.4190227161
  20
 1188.3946610871
  30
0.0
  11
 1663.4190227161
  21
 1188.3946610871
  31
0.0
   0
INSERT
   5
110
 100
AcDbEntity
   8
LEVEL001
   6
CONTINUOUS
  62
1
 100
AcDbBlockReference
   2
_OPEN30
  10
 933.41902271613
  20
 1188.3946610871
  30
0.0
  41
 18.000000000000
  42
 18.000000000000
  43
 18.000000000000
  50
 180.00000000000
   0
INSERT
   5
111
 100
AcDbEntity
   8
LEVEL001
   6
CONTINUOUS
  62
1
 100
AcDbBlockReference
   2
_OPEN30
  10
 2393.4190227161
  20
 1188.3946610871
  30
0.0
  41
 18.000000000000
  42
 18.000000000000
  43
 18.000000000000
  50
0.0
   0
MTEXT
   5
112
 100
AcDbEntity
   8
LEVEL001
 370
30
  62
7
 100
AcDbMText
  10
 1663.4190227161
  20
 1194.3946610871
  30
0.0
  40
 24.000000000000
  41
0.0
  71
8
  72
1
   1
\A1;1460
   7
GMM001
   0
ENDBLK
   5
113
 100
AcDbEntity
   8
0
 100
AcDbBlockEnd
   0
ENDSEC
   0
SECTION
   2
ENTITIES
   0
INSERT
   5
114
 100
AcDbEntity
   8
0
 100
AcDbBlockReference
   2
GMM001
  10
 3485.1724137931
  20
 81.103448275862
  30
0.0
  41
 6.0000000000000
  42
 6.0000000000000
   0
LINE
   5
115
 100
AcDbEntity
   8
LEVEL002
 370
30
 100
AcDbLine
   6
CONTINUOUS
  62
7
  10
 2049.4190227161
  20
 1478.8915554852
  30
0.0
  11
 2049.4190227161
  21
 1858.8915554852
  31
0.0
   0
LINE
   5
116
 100
AcDbEntity
   8
LEVEL002
 370
30
 100
AcDbLine
   6
CONTINUOUS
  62
7
  10
 2049.4190227161
  20
 1858.8915554852
  30
0.0
  11
 2036.4190227161
  21
 1858.8915554852
  31
0.0
   0
LINE
   5
117
 100
AcDbEntity
   8
LEVEL002
 370
30
 100
AcDbLine
   6
CONTINUOUS
  62
7
  10
 2036.4190227161
  20
 1858.8915554852
  30
0.0
  11
 2036.4190227161
  21
 1478.8915554852
  31
0.0
   0
LINE
   5
118
 100
AcDbEntity
   8
LEVEL002
 370
30
 100
AcDbLine
   6
CONTINUOUS
  62
7
  10
 2036.4190227161
  20
 1478.8915554852
  30
0.0
  11
 2049.4190227161
  21
 1478.8915554852
  31
0.0
   0
LINE
   5
119
 100
AcDbEntity
   8
LEVEL002
 370
30
 100
AcDbLine
   6
CONTINUOUS
  62
7
  10
 1760.4190227161
  20
 1485.8915554852
  30
0.0
  11
 1763.4190227161
  21
 1485.8915554852
  31
0.0
   0
LINE
   5
11A
 100
AcDbEntity
   8
LEVEL002
 370
30
 100
AcDbLine
   6
CONTINUOUS
  62
7
  10
 1763.4190227161
  20
 1485.8915554852
  30
0.0
  11
 1763.4190227161
  21
 1851.8915554852
  31
0.0
   0
LINE
   5
11B
 100
AcDbEntity
   8
LEVEL002
 370
30
 100
AcDbLine
   6
CONTINUOUS
  62
7
  10
 1763.4190227161
  20
 1851.8915554852
  30
0.0
  11
 1760.4190227161
  21
 1851.8915554852
  31
0.0
   0
LINE
   5
11C
 100
AcDbEntity
   8
LEVEL002
 370
30
 100
AcDbLine
   6
CONTINUOUS
  62
7
  10
 1760.4190227161
  20
 1851.8915554852
  30
0.0
  11
 1760.4190227161
  21
 1485.8915554852
  31
0.0
   0
LINE
   5
11D
 100
AcDbEntity
   8
LEVEL002
 370
30
 100
AcDbLine
   6
CONTINUOUS
  62
7
  10
 2389.4190227161
  20
 1463.8915554852
  30
0.0
  11
 2338.4190227161
  21
 1463.8915554852
  31
0.0
   0
LINE
   5
11E
 100
AcDbEntity
   8
LEVEL002
 370
30
 100
AcDbLine
   6
CONTINUOUS
  62
7
  10
 2338.4190227161
  20
 1463.8915554852
  30
0.0
  11
 2338.4190227161
  21
 1489.3915554852
  31
0.0
   0
LINE
   5
11F
 100
AcDbEntity
   8
LEVEL002
 370
30
 100
AcDbLine
   6
CONTINUOUS
  62
7
  10
 2338.4190227161
  20
 1489.3915554852
  30
0.0
  11
 2337.4190227161
  21
 1489.3915554852
  31
0.0
   0
LINE
   5
120
 100
AcDbEntity
   8
LEVEL002
 370
30
 100
AcDbLine
   6
CONTINUOUS
  62
7
  10
 2337.4190227161
  20
 1489.3915554852
  30
0.0
  11
 2337.4190227161
  21
 1848.3915554852
  31
0.0
   0
LINE
   5
121
 100
AcDbEntity
   8
LEVEL002
 370
30
 100
AcDbLine
   6
CONTINUOUS
  62
7
  10
 2337.4190227161
  20
 1848.3915554852
  30
0.0
  11
 2338.4190227161
  21
 1848.3915554852
  31
0.0
   0
LINE
   5
122
 100
AcDbEntity
   8
LEVEL002
 370
30
 100
AcDbLine
   6
CONTINUOUS
  62
7
  10
 2338.4190227161
  20
 1848.3915554852
  30
0.0
  11
 2338.4190227161
  21
 1873.8915554852
  31
0.0
   0
LINE
   5
123
 100
AcDbEntity
   8
LEVEL002
 370
30
 100
AcDbLine
   6
CONTINUOUS
  62
7
  10
 2338.4190227161
  20
 1873.8915554852
  30
0.0
  11
 2389.4190227161
  21
 1873.8915554852
  31
0.0
   0
LINE
   5
124
 100
AcDbEntity
   8
LEVEL002
 370
30
 100
AcDbLine
   6
CONTINUOUS
  62
7
  10
 2389.4190227161
  20
 1873.8915554852
  30
0.0
  11
 2389.4190227161
  21
 1463.8915554852
  31
0.0
   0
LINE
   5
125
 100
AcDbEntity
   8
LEVEL002
 370
30
 100
AcDbLine
   6
CONTINUOUS
  62
7
  10
 2036.4190227161
  20
 1528.6136976860
  30
0.0
  11
 1764.4190227161
  21
 1528.6136976860
  31
0.0
   0
LINE
   5
126
 100
AcDbEntity
   8
LEVEL002
 370
30
 100
AcDbLine
   6
CONTINUOUS
  62
7
  10
 1763.4190227161
  20
 1452.6915554852
  30
0.0
  11
 2036.4190227161
  21
 1452.6915554852
  31
0.0
   0
LINE
   5
127
 100
AcDbEntity
   8
LEVEL002
 370
30
 100
AcDbLine
   6
CONTINUOUS
  62
7
  10
 2036.4190227161
  20
 1452.6915554852
  30
0.0
  11
 2036.4190227161
  21
 1918.1915554852
  31
0.0
   0
LINE
   5
128
 100
AcDbEntity
   8
LEVEL002
 370
30
 100
AcDbLine
   6
CONTINUOUS
  62
7
  10
 2036.4190227161
  20
 1918.1915554852
  30
0.0
  11
 1763.4190227161
  21
 1918.1915554852
  31
0.0
   0
LINE
   5
129
 100
AcDbEntity
   8
LEVEL002
 370
30
 100
AcDbLine
   6
CONTINUOUS
  62
7
  10
 1763.4190227161
  20
 1918.1915554852
  30
0.0
  11
 1763.4190227161
  21
 1452.6915554852
  31
0.0
   0
POINT
   5
12A
 100
AcDbEntity
   8
LEVEL002
 100
AcDbPoint
  62
7
  10
 1809.4190227161
  20
 1460.6147078082
  30
0.0
   0
POINT
   5
12B
 100
AcDbEntity
   8
LEVEL002
 100
AcDbPoint
  62
7
  10
 1989.4190227161
  20
 1460.6147078082
  30
0.0
   0
POINT
   5
12C
 100
AcDbEntity
   8
LEVEL002
 100
AcDbPoint
  62
7
  10
 1809.4190227161
  20
 1520.5355924602
  30
0.0
   0
POINT
   5
12D
 100
AcDbEntity
   8
LEVEL002
 100
AcDbPoint
  62
7
  10
 1989.4190227161
  20
 1520.5355924602
  30
0.0
   0
LINE
   5
12E
 100
AcDbEntity
   8
LEVEL002
 370
30
 100
AcDbLine
   6
CONTINUOUS
  62
7
  10
 2036.9190227161
  20
 1463.6915554852
  30
0.0
  11
 2036.9190227161
  21
 1452.6915554852
  31
0.0
   0
LINE
   5
12F
 100
AcDbEntity
   8
LEVEL002
 370
30
 100
AcDbLine
   6
CONTINUOUS
  62
7
  10
 2036.9190227161
  20
 1452.6915554852
  30
0.0
  11
 2336.9190227161
  21
 1452.6915554852
  31
0.0
   0
LINE
   5
130
 100
AcDbEntity
   8
LEVEL002
 370
30
 100
AcDbLine
   6
CONTINUOUS
  62
7
  10
 2336.9190227161
  20
 1452.6915554852
  30
0.0
  11
 2336.9190227161
  21
 1483.6915554852
  31
0.0
   0
LINE
   5
131
 100
AcDbEntity
   8
LEVEL002
 370
30
 100
AcDbLine
   6
CONTINUOUS
  62
7
  10
 2336.9190227161
  20
 1483.6915554852
  30
0.0
  11
 2333.4190227161
  21
 1483.6915554852
  31
0.0
   0
LINE
   5
132
 100
AcDbEntity
   8
LEVEL002
 370
30
 100
AcDbLine
   6
CONTINUOUS
  62
7
  10
 2040.9190227161
  20
 1478.8915554852
  30
0.0
  11
 2040.9190227161
  21
 1474.6915554852
  31
0.0
   0
LINE
   5
133
 100
AcDbEntity
   8
LEVEL002
 370
30
 100
AcDbLine
   6
CONTINUOUS
  62
7
  10
 2040.9190227161
  20
 1474.6915554852
  30
0.0
  11
 2036.4190227161
  21
 1474.6915554852
  31
0.0
   0
LINE
   5
134
 100
AcDbEntity
   8
LEVEL002
 370
30
 100
AcDbLine
   6
CONTINUOUS
  62
7
  10
 2036.4190227161
  20
 1474.6915554852
  30
0.0
  11
 2036.4190227161
  21
 1463.6915554852
  31
0.0
   0
LINE
   5
135
 100
AcDbEntity
   8
LEVEL002
 370
30
 100
AcDbLine
   6
CONTINUOUS
  62
7
  10
 2036.4190227161
  20
 1463.6915554852
  30
0.0
  11
 2037.4190227161
  21
 1463.6915554852
  31
0.0
   0
LINE
   5
136
 100
AcDbEntity
   8
LEVEL002
 370
30
 100
AcDbLine
   6
CONTINUOUS
  62
7
  10
 2037.4190227161
  20
 1463.6915554852
  30
0.0
  11
 2037.4190227161
  21
 1473.6915554852
  31
0.0
   0
LINE
   5
137
 100
AcDbEntity
   8
LEVEL002
 370
30
 100
AcDbLine
   6
CONTINUOUS
  62
7
  10
 2037.4190227161
  20
 1473.6915554852
  30
0.0
  11
 2041.9190227161
  21
 1473.6915554852
  31
0.0
   0
LINE
   5
138
 100
AcDbEntity
   8
LEVEL002
 370
30
 100
AcDbLine
   6
CONTINUOUS
  62
7
  10
 2041.9190227161
  20
 1473.6915554852
  30
0.0
  11
 2041.9190227161
  21
 1478.8915554852
  31
0.0
   0
LINE
   5
139
 100
AcDbEntity
   8
LEVEL002
 370
30
 100
AcDbLine
   6
CONTINUOUS
  62
7
  10
 2338.4190227161
  20
 1483.6915554852
  30
0.0
  11
 2337.4190227161
  21
 1483.6915554852
  31
0.0
   0
LINE
   5
13A
 100
AcDbEntity
   8
LEVEL002
 370
30
 100
AcDbLine
   6
CONTINUOUS
  62
7
  10
 2337.4190227161
  20
 1483.6915554852
  30
0.0
  11
 2337.4190227161
  21
 1452.6915554852
  31
0.0
   0
LINE
   5
13B
 100
AcDbEntity
   8
LEVEL002
 370
30
 100
AcDbLine
   6
CONTINUOUS
  62
7
  10
 2337.4190227161
  20
 1452.6915554852
  30
0.0
  11
 2388.4190227161
  21
 1452.6915554852
  31
0.0
   0
LINE
   5
13C
 100
AcDbEntity
   8
LEVEL002
 370
30
 100
AcDbLine
   6
CONTINUOUS
  62
7
  10
 2388.4190227161
  20
 1452.6915554852
  30
0.0
  11
 2388.4190227161
  21
 1463.8915554852
  31
0.0
   0
LINE
   5
13D
 100
AcDbEntity
   8
LEVEL002
 370
30
 100
AcDbLine
   6
CONTINUOUS
  62
7
  10
 1853.4190227161
  20
 1456.8183957112
  30
0.0
  11
 1994.4190227161
  21
 1456.8183957112
  31
0.0
   0
LINE
   5
13E
 100
AcDbEntity
   8
LEVEL002
 370
30
 100
AcDbLine
   6
CONTINUOUS
  62
7
  10
 1994.4190227161
  20
 1456.8183957112
  30
0.0
  11
 1994.4190227161
  21
 1521.7326874176
  31
0.0
   0
LINE
   5
13F
 100
AcDbEntity
   8
LEVEL002
 370
30
 100
AcDbLine
   6
CONTINUOUS
  62
7
  10
 1994.4190227161
  20
 1521.7326874176
  30
0.0
  11
 1804.4190227161
  21
 1521.7326874176
  31
0.0
   0
LINE
   5
140
 100
AcDbEntity
   8
LEVEL002
 370
30
 100
AcDbLine
   6
CONTINUOUS
  62
7
  10
 1804.4190227161
  20
 1521.7326874176
  30
0.0
  11
 1804.4190227161
  21
 1456.8183957112
  31
0.0
   0
LINE
   5
141
 100
AcDbEntity
   8
LEVEL002
 370
30
 100
AcDbLine
   6
CONTINUOUS
  62
7
  10
 1804.4190227161
  20
 1456.8183957112
  30
0.0
  11
 1843.4190227161
  21
 1456.8183957112
  31
0.0
   0
LINE
   5
142
 100
AcDbEntity
   8
LEVEL002
 370
30
 100
AcDbLine
   6
CONTINUOUS
  62
7
  10
 1994.4190227161
  20
 1521.7326874176
  30
0.0
  11
 1994.4190227161
  21
 1523.0322959874
  31
0.0
   0
LINE
   5
143
 100
AcDbEntity
   8
LEVEL002
 370
30
 100
AcDbLine
   6
CONTINUOUS
  62
7
  10
 1994.4190227161
  20
 1523.0322959874
  30
0.0
  11
 1804.4190227161
  21
 1523.0322959874
  31
0.0
   0
LINE
   5
144
 100
AcDbEntity
   8
LEVEL002
 370
30
 100
AcDbLine
   6
CONTINUOUS
  62
7
  10
 1804.4190227161
  20
 1523.0322959874
  30
0.0
  11
 1804.4190227161
  21
 1521.7326874176
  31
0.0
   0
ELLIPSE
   5
145
 100
AcDbEntity
   8
LEVEL002
 370
30
   6
CONTINUOUS
  62
7
 100
AcDbEllipse
  10
 1906.4190227161
  20
 1490.2742229752
  30
0.0
  11
 28.000000000000
  21
0.0
  31
0.0
  40
 0.49934070543354
  41
-1.0471975455140
  42
-2.0943950967059
   0
LINE
   5
146
 100
AcDbEntity
   8
LEVEL002
 370
30
 100
AcDbLine
   6
CONTINUOUS
  62
7
  10
 1884.9697783088
  20
 1481.2870624582
  30
0.0
  11
 1888.4169783028
  21
 1482.7314275413
  31
0.0
   0
LINE
   5
147
 100
AcDbEntity
   8
LEVEL002
 370
30
 100
AcDbLine
   6
CONTINUOUS
  62
7
  10
 1880.1076293341
  20
 1485.4922547453
  30
0.0
  11
 1884.3362461276
  21
 1486.2607853537
  31
0.0
   0
LINE
   5
148
 100
AcDbEntity
   8
LEVEL002
 370
30
 100
AcDbLine
   6
CONTINUOUS
  62
7
  10
 1878.8444056318
  20
 1487.8463540763
  30
0.0
  11
 1883.2760405203
  21
 1488.2365472922
  31
0.0
   0
LINE
   5
149
 100
AcDbEntity
   8
LEVEL002
 370
30
 100
AcDbLine
   6
CONTINUOUS
  62
7
  10
 1878.4190227161
  20
 1490.2742229752
  30
0.0
  11
 1887.4190227161
  21
 1490.2742229752
  31
0.0
   0
LINE
   5
14A
 100
AcDbEntity
   8
LEVEL002
 370
30
 100
AcDbLine
   6
CONTINUOUS
  62
7
  10
 1878.8444056318
  20
 1492.7020918742
  30
0.0
  11
 1883.2760405203
  21
 1492.3118986583
  31
0.0
   0
LINE
   5
14B
 100
AcDbEntity
   8
LEVEL002
 370
30
 100
AcDbLine
   6
CONTINUOUS
  62
7
  10
 1880.1076293341
  20
 1495.0561912052
  30
0.0
  11
 1884.3362461276
  21
 1494.2876605968
  31
0.0
   0
LINE
   5
14C
 100
AcDbEntity
   8
LEVEL002
 370
30
 100
AcDbLine
   6
CONTINUOUS
  62
7
  10
 1882.1703114101
  20
 1497.2649928513
  30
0.0
  11
 1889.9645400442
  21
 1495.0179596769
  31
0.0
   0
LINE
   5
14D
 100
AcDbEntity
   8
LEVEL002
 370
30
 100
AcDbLine
   6
CONTINUOUS
  62
7
  10
 1884.9697783087
  20
 1499.2613834922
  30
0.0
  11
 1888.4169783028
  21
 1497.8170184091
  31
0.0
   0
LINE
   5
14E
 100
AcDbEntity
   8
LEVEL002
 370
30
 100
AcDbLine
   6
CONTINUOUS
  62
7
  10
 1888.4209696449
  20
 1500.9847038086
  30
0.0
  11
 1891.3135138885
  21
 1499.2633765318
  31
0.0
   0
LINE
   5
14F
 100
AcDbEntity
   8
LEVEL002
 370
30
 100
AcDbLine
   6
CONTINUOUS
  62
7
  10
 1892.4190227161
  20
 1502.3825915846
  30
0.0
  11
 1896.9190227161
  21
 1498.4906159602
  31
0.0
   0
LINE
   5
150
 100
AcDbEntity
   8
LEVEL002
 370
30
 100
AcDbLine
   6
CONTINUOUS
  62
7
  10
 1896.8424587030
  20
 1503.4125727076
  30
0.0
  11
 1898.3815493480
  21
 1501.3010522149
  31
0.0
   0
LINE
   5
151
 100
AcDbEntity
   8
LEVEL002
 370
30
 100
AcDbLine
   6
CONTINUOUS
  62
7
  10
 1901.5568737414
  20
 1504.0433517222
  30
0.0
  11
 1902.3382905409
  21
 1501.8304560307
  31
0.0
   0
LINE
   5
152
 100
AcDbEntity
   8
LEVEL002
 370
30
 100
AcDbLine
   6
CONTINUOUS
  62
7
  10
 1906.4190227161
  20
 1504.2557627274
  30
0.0
  11
 1906.4190227161
  21
 1499.7616963785
  31
0.0
   0
LINE
   5
153
 100
AcDbEntity
   8
LEVEL002
 370
30
 100
AcDbLine
   6
CONTINUOUS
  62
7
  10
 1911.2811716908
  20
 1504.0433517222
  30
0.0
  11
 1910.4997548913
  21
 1501.8304560307
  31
0.0
   0
LINE
   5
154
 100
AcDbEntity
   8
LEVEL002
 370
30
 100
AcDbLine
   6
CONTINUOUS
  62
7
  10
 1915.9955867292
  20
 1503.4125727076
  30
0.0
  11
 1914.4564960842
  21
 1501.3010522149
  31
0.0
   0
LINE
   5
155
 100
AcDbEntity
   8
LEVEL002
 370
30
 100
AcDbLine
   6
CONTINUOUS
  62
7
  10
 1920.4190227162
  20
 1502.3825915846
  30
0.0
  11
 1915.9190227162
  21
 1498.4906159602
  31
0.0
   0
LINE
   5
156
 100
AcDbEntity
   8
LEVEL002
 370
30
 100
AcDbLine
   6
CONTINUOUS
  62
7
  10
 1924.4170757873
  20
 1500.9847038086
  30
0.0
  11
 1921.5245315437
  21
 1499.2633765318
  31
0.0
   0
LINE
   5
157
 100
AcDbEntity
   8
LEVEL002
 370
30
 100
AcDbLine
   6
CONTINUOUS
  62
7
  10
 1927.8682671234
  20
 1499.2613834923
  30
0.0
  11
 1924.4210671294
  21
 1497.8170184092
  31
0.0
   0
LINE
   5
158
 100
AcDbEntity
   8
LEVEL002
 370
30
 100
AcDbLine
   6
CONTINUOUS
  62
7
  10
 1930.6677340221
  20
 1497.2649928513
  30
0.0
  11
 1922.8735053881
  21
 1495.0179596768
  31
0.0
   0
LINE
   5
159
 100
AcDbEntity
   8
LEVEL002
 370
30
 100
AcDbLine
   6
CONTINUOUS
  62
7
  10
 1932.7304160981
  20
 1495.0561912052
  30
0.0
  11
 1928.5017993046
  21
 1494.2876605968
  31
0.0
   0
LINE
   5
15A
 100
AcDbEntity
   8
LEVEL002
 370
30
 100
AcDbLine
   6
CONTINUOUS
  62
7
  10
 1933.9936398004
  20
 1492.7020918742
  30
0.0
  11
 1929.5620049119
  21
 1492.3118986583
  31
0.0
   0
LINE
   5
15B
 100
AcDbEntity
   8
LEVEL002
 370
30
 100
AcDbLine
   6
CONTINUOUS
  62
7
  10
 1934.4190227161
  20
 1490.2742229752
  30
0.0
  11
 1925.4190227161
  21
 1490.2742229752
  31
0.0
   0
LINE
   5
15C
 100
AcDbEntity
   8
LEVEL002
 370
30
 100
AcDbLine
   6
CONTINUOUS
  62
7
  10
 1933.9936398004
  20
 1487.8463540763
  30
0.0
  11
 1929.5620049119
  21
 1488.2365472922
  31
0.0
   0
LINE
   5
15D
 100
AcDbEntity
   8
LEVEL002
 370
30
 100
AcDbLine
   6
CONTINUOUS
  62
7
  10
 1932.7304160981
  20
 1485.4922547453
  30
0.0
  11
 1928.5017993046
  21
 1486.2607853537
  31
0.0
   0
LINE
   5
15E
 100
AcDbEntity
   8
LEVEL002
 370
30
 100
AcDbLine
   6
CONTINUOUS
  62
7
  10
 1927.8682671234
  20
 1481.2870624582
  30
0.0
  11
 1924.4210671294
  21
 1482.7314275413
  31
0.0
   0
LINE
   5
15F
 100
AcDbEntity
   8
LEVEL002
 370
30
 100
AcDbLine
   6
CONTINUOUS
  62
7
  10
 1905.9190227161
  20
 1490.0713217295
  30
0.0
  11
 1905.9190227161
  21
 1492.9442778803
  31
0.0
   0
LINE
   5
160
 100
AcDbEntity
   8
LEVEL002
 370
30
 100
AcDbLine
   6
CONTINUOUS
  62
7
  10
 1906.9190227161
  20
 1492.9442778803
  30
0.0
  11
 1906.9190227161
  21
 1490.0713217295
  31
0.0
   0
ELLIPSE
   5
161
 100
AcDbEntity
   8
LEVEL002
 370
30
   6
CONTINUOUS
  62
7
 100
AcDbEllipse
  10
 1906.4190227161
  20
 1465.1484572919
  30
0.0
  11
-9.0000000000000
  21
0.0
  31
0.0
  40
 0.49934070543354
  41
0.0
  42
 6.2831853071796
   0
ELLIPSE
   5
162
 100
AcDbEntity
   8
LEVEL002
 370
30
   6
CONTINUOUS
  62
7
 100
AcDbEllipse
  10
 1906.4190227161
  20
 1465.1484572919
  30
0.0
  11
-11.250000000000
  21
0.0
  31
0.0
  40
 0.49934070543354
  41
0.0
  42
 6.2831853071796
   0
LINE
   5
163
 100
AcDbEntity
   8
LEVEL002
 370
30
 100
AcDbLine
   6
CONTINUOUS
  62
7
  10
 1888.9190227161
  20
 1490.2742229752
  30
0.0
  11
 1888.9190227161
  21
 1484.2093829827
  31
0.0
   0
LINE
   5
164
 100
AcDbEntity
   8
LEVEL002
 370
30
 100
AcDbLine
   6
CONTINUOUS
  62
7
  10
 1923.9190227161
  20
 1490.2742229752
  30
0.0
  11
 1923.9190227161
  21
 1484.2093829827
  31
0.0
   0
LINE
   5
165
 100
AcDbEntity
   8
LEVEL002
 370
30
 100
AcDbLine
   6
CONTINUOUS
  62
7
  10
 1894.6690227161
  20
 1484.2093829827
  30
0.0
  11
 1895.1690227161
  21
 1465.1484572919
  31
0.0
   0
LINE
   5
166
 100
AcDbEntity
   8
LEVEL002
 370
30
 100
AcDbLine
   6
CONTINUOUS
  62
7
  10
 1918.1690227161
  20
 1484.2093829827
  30
0.0
  11
 1917.6690227161
  21
 1465.1484572919
  31
0.0
   0
LINE
   5
167
 100
AcDbEntity
   8
LEVEL002
 370
30
 100
AcDbLine
   6
CONTINUOUS
  62
7
  10
 1892.4190227162
  20
 1478.1658543659
  30
0.0
  11
 1892.9535269139
  21
 1478.6281382123
  31
0.0
   0
LINE
   5
168
 100
AcDbEntity
   8
LEVEL002
 370
30
 100
AcDbLine
   6
CONTINUOUS
  62
7
  10
 1888.4209696449
  20
 1479.5637421419
  30
0.0
  11
 1890.3710771968
  21
 1480.7242337503
  31
0.0
   0
LINE
   5
169
 100
AcDbEntity
   8
LEVEL002
 370
30
 100
AcDbLine
   6
CONTINUOUS
  62
7
  10
 1882.1703114102
  20
 1483.2834530991
  30
0.0
  11
 1889.0474467544
  21
 1485.2660933307
  31
0.0
   0
LINE
   5
16A
 100
AcDbEntity
   8
LEVEL002
 370
30
 100
AcDbLine
   6
CONTINUOUS
  62
7
  10
 1930.6677340220
  20
 1483.2834530992
  30
0.0
  11
 1923.7905986252
  21
 1485.2660933459
  31
0.0
   0
LINE
   5
16B
 100
AcDbEntity
   8
LEVEL002
 370
30
 100
AcDbLine
   6
CONTINUOUS
  62
7
  10
 1924.4170757874
  20
 1479.5637421419
  30
0.0
  11
 1922.4669683417
  21
 1480.7242336871
  31
0.0
   0
LINE
   5
16C
 100
AcDbEntity
   8
LEVEL002
 370
30
 100
AcDbLine
   6
CONTINUOUS
  62
7
  10
 1920.4190227161
  20
 1478.1658543659
  30
0.0
  11
 1919.8845186243
  21
 1478.6281381206
  31
0.0
   0
ELLIPSE
   5
16D
 100
AcDbEntity
   8
LEVEL002
 370
30
   6
CONTINUOUS
  62
7
 100
AcDbEllipse
  10
 1906.4190227161
  20
 1490.2742229752
  30
0.0
  11
 19.000000000000
  21
0.0
  31
0.0
  40
 0.49934070543354
  41
-0.40002147162590
  42
-2.7415711780267
   0
ELLIPSE
   5
16E
 100
AcDbEntity
   8
LEVEL002
 370
30
   6
CONTINUOUS
  62
7
 100
AcDbEllipse
  10
 1906.4190227161
  20
 1490.2742229752
  30
0.0
  11
 17.500000000000
  21
0.0
  31
0.0
  40
 0.49934070543354
  41
 0.30831831639199E-7
  42
-3.1415926227580
   0
ELLIPSE
   5
16F
 100
AcDbEntity
   8
LEVEL002
 370
30
   6
CONTINUOUS
  62
7
 100
AcDbEllipse
  10
 1906.4190227161
  20
 1484.2093829827
  30
0.0
  11
 11.750000000000
  21
0.0
  31
0.0
  40
 0.49934070543354
  41
 0.17411336162123E-7
  42
-3.1415926535898
   0
ELLIPSE
   5
170
 100
AcDbEntity
   8
LEVEL002
 370
30
   6
CONTINUOUS
  62
7
 100
AcDbEllipse
  10
 1906.4190227161
  20
 1484.2093829827
  30
0.0
  11
 17.500000000000
  21
0.0
  31
0.0
  40
 0.49934070543354
  41
-0.84783700396300
  42
-2.2937556422196
   0
LINE
   5
171
 100
AcDbEntity
   8
LEVEL002
 370
30
 100
AcDbLine
   6
CONTINUOUS
  62
7
  10
 1843.4190227161
  20
 1475.2229039705
  30
0.0
  11
 1853.4190227161
  21
 1475.2229039705
  31
0.0
   0
LINE
   5
172
 100
AcDbEntity
   8
LEVEL002
 370
30
 100
AcDbLine
   6
CONTINUOUS
  62
7
  10
 1853.4190227161
  20
 1475.2229039705
  30
0.0
  11
 1853.4190227161
  21
 1485.7090587846
  31
0.0
   0
LINE
   5
173
 100
AcDbEntity
   8
LEVEL002
 370
30
 100
AcDbLine
   6
CONTINUOUS
  62
7
  10
 1853.4190227161
  20
 1485.7090587846
  30
0.0
  11
 1843.4190227161
  21
 1485.7090587846
  31
0.0
   0
LINE
   5
174
 100
AcDbEntity
   8
LEVEL002
 370
30
 100
AcDbLine
   6
CONTINUOUS
  62
7
  10
 1843.4190227161
  20
 1485.7090587846
  30
0.0
  11
 1843.4190227161
  21
 1475.2229039705
  31
0.0
   0
LINE
   5
175
 100
AcDbEntity
   8
LEVEL002
 370
30
 100
AcDbLine
   6
CONTINUOUS
  62
7
  10
 1834.1690227161
  20
 1496.9276899287
  30
0.0
  11
 1834.1690227161
  21
 1501.2597184948
  31
0.0
   0
LINE
   5
176
 100
AcDbEntity
   8
LEVEL002
 370
30
 100
AcDbLine
   6
CONTINUOUS
  62
7
  10
 1862.6690227161
  20
 1496.9276899287
  30
0.0
  11
 1862.6690227161
  21
 1501.2597184948
  31
0.0
   0
ELLIPSE
   5
177
 100
AcDbEntity
   8
LEVEL002
 370
30
   6
CONTINUOUS
  62
7
 100
AcDbEllipse
  10
 1848.4190227161
  20
 1501.2597184948
  30
0.0
  11
 14.250000000000
  21
0.0
  31
0.0
  40
 0.49934070543354
  41
 0.20420318401710E-7
  42
-3.1415926331695
   0
LINE
   5
178
 100
AcDbEntity
   8
LEVEL002
 370
30
 100
AcDbLine
   6
CONTINUOUS
  62
7
  10
 1862.4359981278
  20
 1495.6461340891
  30
0.0
  11
 1861.2064388815
  21
 1492.2929283858
  31
0.0
   0
LINE
   5
179
 100
AcDbEntity
   8
LEVEL002
 370
30
 100
AcDbLine
   6
CONTINUOUS
  62
7
  10
 1834.4020473127
  20
 1495.6461341738
  30
0.0
  11
 1835.6316065589
  21
 1492.2929285218
  31
0.0
   0
ELLIPSE
   5
17A
 100
AcDbEntity
   8
LEVEL002
 370
30
   6
CONTINUOUS
  62
7
 100
AcDbEllipse
  10
 1848.4190227161
  20
 1496.9276899287
  30
0.0
  11
 14.250000000000
  21
0.0
  31
0.0
  40
 0.49934070543354
  41
-0.18109315580070
  42
-2.9604994894953
   0
LINE
   5
17B
 100
AcDbEntity
   8
LEVEL002
 370
30
 100
AcDbLine
   6
CONTINUOUS
  62
7
  10
 1836.6690227161
  20
 1493.4620670758
  30
0.0
  11
 1836.6690227161
  21
 1489.1300385097
  31
0.0
   0
LINE
   5
17C
 100
AcDbEntity
   8
LEVEL002
 370
30
 100
AcDbLine
   6
CONTINUOUS
  62
7
  10
 1860.1690227161
  20
 1493.4620670758
  30
0.0
  11
 1860.1690227161
  21
 1489.1300385097
  31
0.0
   0
ELLIPSE
   5
17D
 100
AcDbEntity
   8
LEVEL002
 370
30
   6
CONTINUOUS
  62
7
 100
AcDbEllipse
  10
 1848.4190227161
  20
 1493.4620670758
  30
0.0
  11
 11.750000000000
  21
0.0
  31
0.0
  40
 0.49934070543354
  41
 0.17411336162123E-7
  42
-3.1415926535898
   0
ELLIPSE
   5
17E
 100
AcDbEntity
   8
LEVEL002
 370
30
   6
CONTINUOUS
  62
7
 100
AcDbEllipse
  10
 1848.4190227161
  20
 1493.4620670758
  30
0.0
  11
 13.000000000000
  21
0.0
  31
0.0
  40
 0.49934070543354
  41
-0.44212112996459
  42
-2.6994715153807
   0
LINE
   5
17F
 100
AcDbEntity
   8
LEVEL002
 370
30
 100
AcDbLine
   6
CONTINUOUS
  62
7
  10
 1843.4190227161
  20
 1485.7090587846
  30
0.0
  11
 1843.4190227161
  21
 1494.3731159168
  31
0.0
   0
LINE
   5
180
 100
AcDbEntity
   8
LEVEL002
 370
30
 100
AcDbLine
   6
CONTINUOUS
  62
7
  10
 1843.4190227161
  20
 1494.3731159168
  30
0.0
  11
 1853.4190227161
  21
 1494.3731159168
  31
0.0
   0
LINE
   5
181
 100
AcDbEntity
   8
LEVEL002
 370
30
 100
AcDbLine
   6
CONTINUOUS
  62
7
  10
 1853.4190227161
  20
 1494.3731159168
  30
0.0
  11
 1853.4190227161
  21
 1485.7090587846
  31
0.0
   0
ELLIPSE
   5
182
 100
AcDbEntity
   8
LEVEL002
 370
30
   6
CONTINUOUS
  62
7
 100
AcDbEllipse
  10
 1848.4190227161
  20
 1489.1300385097
  30
0.0
  11
 11.750000000000
  21
0.0
  31
0.0
  40
 0.49934070543354
  41
-1.1312467321789
  42
-2.0103459170753
   0
LINE
   5
183
 100
AcDbEntity
   8
LEVEL002
 370
30
 100
AcDbLine
   6
CONTINUOUS
  62
7
  10
 1843.4190227161
  20
 1453.2519129314
  30
0.0
  11
 1853.4190227161
  21
 1453.2519129314
  31
0.0
   0
LINE
   5
184
 100
AcDbEntity
   8
LEVEL002
 370
30
 100
AcDbLine
   6
CONTINUOUS
  62
7
  10
 1853.4190227161
  20
 1453.2519129314
  30
0.0
  11
 1853.4190227161
  21
 1463.7380677455
  31
0.0
   0
LINE
   5
185
 100
AcDbEntity
   8
LEVEL002
 370
30
 100
AcDbLine
   6
CONTINUOUS
  62
7
  10
 1853.4190227161
  20
 1463.7380677455
  30
0.0
  11
 1843.4190227161
  21
 1463.7380677455
  31
0.0
   0
LINE
   5
186
 100
AcDbEntity
   8
LEVEL002
 370
30
 100
AcDbLine
   6
CONTINUOUS
  62
7
  10
 1843.4190227161
  20
 1463.7380677455
  30
0.0
  11
 1843.4190227161
  21
 1453.2519129314
  31
0.0
   0
LINE
   5
187
 100
AcDbEntity
   8
LEVEL002
 370
30
 100
AcDbLine
   6
CONTINUOUS
  62
7
  10
 1834.1690227161
  20
 1474.9566988896
  30
0.0
  11
 1834.1690227161
  21
 1479.2887274557
  31
0.0
   0
LINE
   5
188
 100
AcDbEntity
   8
LEVEL002
 370
30
 100
AcDbLine
   6
CONTINUOUS
  62
7
  10
 1862.6690227161
  20
 1474.9566988896
  30
0.0
  11
 1862.6690227161
  21
 1479.2887274557
  31
0.0
   0
LINE
   5
189
 100
AcDbEntity
   8
LEVEL002
 370
30
 100
AcDbLine
   6
CONTINUOUS
  62
7
  10
 1862.4359981278
  20
 1473.6751430501
  30
0.0
  11
 1861.2064388815
  21
 1470.3219373467
  31
0.0
   0
LINE
   5
18A
 100
AcDbEntity
   8
LEVEL002
 370
30
 100
AcDbLine
   6
CONTINUOUS
  62
7
  10
 1834.4020473127
  20
 1473.6751431347
  30
0.0
  11
 1835.6316065589
  21
 1470.3219374827
  31
0.0
   0
LINE
   5
18B
 100
AcDbEntity
   8
LEVEL002
 370
30
 100
AcDbLine
   6
CONTINUOUS
  62
7
  10
 1836.6690227161
  20
 1471.4910760367
  30
0.0
  11
 1836.6690227161
  21
 1467.1590474707
  31
0.0
   0
LINE
   5
18C
 100
AcDbEntity
   8
LEVEL002
 370
30
 100
AcDbLine
   6
CONTINUOUS
  62
7
  10
 1860.1690227161
  20
 1471.4910760367
  30
0.0
  11
 1860.1690227161
  21
 1467.1590474707
  31
0.0
   0
LINE
   5
18D
 100
AcDbEntity
   8
LEVEL002
 370
30
 100
AcDbLine
   6
CONTINUOUS
  62
7
  10
 1843.4190227161
  20
 1463.7380677455
  30
0.0
  11
 1843.4190227161
  21
 1472.4021248777
  31
0.0
   0
LINE
   5
18E
 100
AcDbEntity
   8
LEVEL002
 370
30
 100
AcDbLine
   6
CONTINUOUS
  62
7
  10
 1843.4190227161
  20
 1472.4021248777
  30
0.0
  11
 1853.4190227161
  21
 1472.4021248777
  31
0.0
   0
LINE
   5
18F
 100
AcDbEntity
   8
LEVEL002
 370
30
 100
AcDbLine
   6
CONTINUOUS
  62
7
  10
 1853.4190227161
  20
 1472.4021248777
  30
0.0
  11
 1853.4190227161
  21
 1463.7380677455
  31
0.0
   0
ELLIPSE
   5
190
 100
AcDbEntity
   8
LEVEL002
 370
30
   6
CONTINUOUS
  62
7
 100
AcDbEllipse
  10
 1848.4190227161
  20
 1467.1590474707
  30
0.0
  11
 11.750000000000
  21
0.0
  31
0.0
  40
 0.49934070543354
  41
-1.1312467321789
  42
-2.0103459170753
   0
ELLIPSE
   5
191
 100
AcDbEntity
   8
LEVEL002
 370
30
   6
CONTINUOUS
  62
7
 100
AcDbEllipse
  10
 1848.4190227161
  20
 1479.2887274557
  30
0.0
  11
 14.250000000000
  21
0.0
  31
0.0
  40
 0.49934070543354
  41
 0.20420318401710E-7
  42
 0.93947992601625
   0
ELLIPSE
   5
192
 100
AcDbEntity
   8
LEVEL002
 370
30
   6
CONTINUOUS
  62
7
 100
AcDbEllipse
  10
 1848.4190227161
  20
 1479.2887274557
  30
0.0
  11
 14.250000000000
  21
0.0
  31
0.0
  40
 0.49934070543354
  41
 2.2021127479669
  42
-3.1415926331695
   0
ELLIPSE
   5
193
 100
AcDbEntity
   8
LEVEL002
 370
30
   6
CONTINUOUS
  62
7
 100
AcDbEllipse
  10
 1848.4190227161
  20
 1474.9566988896
  30
0.0
  11
 14.250000000000
  21
0.0
  31
0.0
  40
 0.49934070543354
  41
-0.18109315580070
  42
 1.2122886397290
   0
ELLIPSE
   5
194
 100
AcDbEntity
   8
LEVEL002
 370
30
   6
CONTINUOUS
  62
7
 100
AcDbEllipse
  10
 1848.4190227161
  20
 1474.9566988896
  30
0.0
  11
 14.250000000000
  21
0.0
  31
0.0
  40
 0.49934070543354
  41
 1.9293040189457
  42
-2.9604994894953
   0
ELLIPSE
   5
195
 100
AcDbEntity
   8
LEVEL002
 370
30
   6
CONTINUOUS
  62
7
 100
AcDbEllipse
  10
 1848.4190227161
  20
 1471.4910760367
  30
0.0
  11
 11.750000000000
  21
0.0
  31
0.0
  40
 0.49934070543354
  41
 0.17411336162123E-7
  42
 1.1312467365145
   0
ELLIPSE
   5
196
 100
AcDbEntity
   8
LEVEL002
 370
30
   6
CONTINUOUS
  62
7
 100
AcDbEllipse
  10
 1848.4190227161
  20
 1471.4910760367
  30
0.0
  11
 11.750000000000
  21
0.0
  31
0.0
  40
 0.49934070543354
  41
 2.0103459214109
  42
-3.1415926535898
   0
ELLIPSE
   5
197
 100
AcDbEntity
   8
LEVEL002
 370
30
   6
CONTINUOUS
  62
7
 100
AcDbEllipse
  10
 1848.4190227161
  20
 1471.4910760367
  30
0.0
  11
 13.000000000000
  21
0.0
  31
0.0
  40
 0.49934070543354
  41
-0.44212112996459
  42
 1.1760052112174
   0
ELLIPSE
   5
198
 100
AcDbEntity
   8
LEVEL002
 370
30
   6
CONTINUOUS
  62
7
 100
AcDbEllipse
  10
 1848.4190227161
  20
 1471.4910760367
  30
0.0
  11
 13.000000000000
  21
0.0
  31
0.0
  40
 0.49934070543354
  41
 1.9655874506169
  42
-2.6994715153807
   0
LINE
   5
199
 100
AcDbEntity
   8
LEVEL002
 370
30
 100
AcDbLine
   6
CONTINUOUS
  62
7
  10
 1952.8432238592
  20
 1499.8207787181
  30
0.0
  11
 1953.8008037442
  21
 1498.2318612577
  31
0.0
   0
LINE
   5
19A
 100
AcDbEntity
   8
LEVEL002
 370
30
 100
AcDbLine
   6
CONTINUOUS
  62
7
  10
 1971.0372416753
  20
 1498.2318611625
  30
0.0
  11
 1971.9948215604
  21
 1499.8207785865
  31
0.0
   0
ELLIPSE
   5
19B
 100
AcDbEntity
   8
LEVEL002
 370
30
   6
CONTINUOUS
  62
7
 100
AcDbEllipse
  10
 1962.4190227161
  20
 1501.2597184948
  30
0.0
  11
 10.000000000000
  21
0.0
  31
0.0
  40
 0.49934070543354
  41
-0.29231306866500
  42
-2.8492795816447
   0
ELLIPSE
   5
19C
 100
AcDbEntity
   8
LEVEL002
 370
30
   6
CONTINUOUS
  62
7
 100
AcDbEllipse
  10
 1962.4190227161
  20
 1499.5269070684
  30
0.0
  11
 9.0000000000000
  21
0.0
  31
0.0
  40
 0.49934070543354
  41
 0.22982312644117E-7
  42
-3.1415926306074
   0
ARC
   5
19D
 100
AcDbEntity
   8
LEVEL002
 370
30
   6
CONTINUOUS
  62
7
 100
AcDbCircle
  10
 1962.4190227161
  20
 1499.5269070684
  30
0.0
  40
 9.0000000000000
 100
AcDbArc
  50
 180.00000000000
  51
0.0
   0
ELLIPSE
   5
19E
 100
AcDbEntity
   8
LEVEL002
 370
30
   6
CONTINUOUS
  62
7
 100
AcDbEllipse
  10
 1962.4190227161
  20
 1474.9137094475
  30
0.0
  11
-7.0000000000000
  21
0.0
  31
0.0
  40
 0.49934070543354
  41
0.0
  42
 6.2831853071796
   0
LINE
   5
19F
 100
AcDbEntity
   8
LEVEL002
 370
30
 100
AcDbLine
   6
CONTINUOUS
  62
7
  10
 1953.4190227161
  20
 1487.9097951844
  30
0.0
  11
 1953.4190227161
  21
 1483.5777666184
  31
0.0
   0
LINE
   5
1A0
 100
AcDbEntity
   8
LEVEL002
 370
30
 100
AcDbLine
   6
CONTINUOUS
  62
7
  10
 1971.4190227161
  20
 1487.9097951070
  30
0.0
  11
 1971.4190227161
  21
 1483.5777665409
  31
0.0
   0
LINE
   5
1A1
 100
AcDbEntity
   8
LEVEL002
 370
30
 100
AcDbLine
   6
CONTINUOUS
  62
7
  10
 1954.4323202900
  20
 1483.3475362039
  30
0.0
  11
 1955.4306580933
  21
 1474.7122579027
  31
0.0
   0
LINE
   5
1A2
 100
AcDbEntity
   8
LEVEL002
 370
30
 100
AcDbLine
   6
CONTINUOUS
  62
7
  10
 1970.4057251424
  20
 1483.3475362057
  30
0.0
  11
 1969.4073873391
  21
 1474.7122578363
  31
0.0
   0
ELLIPSE
   5
1A3
 100
AcDbEntity
   8
LEVEL002
 370
30
   6
CONTINUOUS
  62
7
 100
AcDbEllipse
  10
 1962.4190227161
  20
 1483.5777665796
  30
0.0
  11
 9.0000000000000
  21
0.0
  31
0.0
  40
 0.49934070543354
  41
-0.53354779026279
  42
-2.6080448590164
   0
ELLIPSE
   5
1A4
 100
AcDbEntity
   8
LEVEL002
 370
30
   6
CONTINUOUS
  62
7
 100
AcDbEllipse
  10
 1962.4190227161
  20
 1483.5777665796
  30
0.0
  11
 8.0000000000000
  21
0.0
  31
0.0
  40
 0.49934070543354
  41
-0.57665542530691E-1
  42
-3.0839271106053
   0
ELLIPSE
   5
1A5
 100
AcDbEntity
   8
LEVEL002
 370
30
   6
CONTINUOUS
  62
7
 100
AcDbEllipse
  10
 1962.4190227161
  20
 1462.4301918116
  30
0.0
  11
-7.0000000000000
  21
0.0
  31
0.0
  40
 0.49934070543354
  41
0.0
  42
 6.2831853071796
   0
LINE
   5
1A6
 100
AcDbEntity
   8
LEVEL002
 370
30
 100
AcDbLine
   6
CONTINUOUS
  62
7
  10
 1953.4190227161
  20
 1475.4262775486
  30
0.0
  11
 1953.4190227161
  21
 1471.0942489825
  31
0.0
   0
LINE
   5
1A7
 100
AcDbEntity
   8
LEVEL002
 370
30
 100
AcDbLine
   6
CONTINUOUS
  62
7
  10
 1954.4323202900
  20
 1470.8640185681
  30
0.0
  11
 1955.4306580933
  21
 1462.2287402668
  31
0.0
   0
LINE
   5
1A8
 100
AcDbEntity
   8
LEVEL002
 370
30
 100
AcDbLine
   6
CONTINUOUS
  62
7
  10
 1971.4190227161
  20
 1475.4262774712
  30
0.0
  11
 1971.4190227161
  21
 1471.0942489051
  31
0.0
   0
LINE
   5
1A9
 100
AcDbEntity
   8
LEVEL002
 370
30
 100
AcDbLine
   6
CONTINUOUS
  62
7
  10
 1970.4057251424
  20
 1470.8640185699
  30
0.0
  11
 1969.4073873391
  21
 1462.2287402005
  31
0.0
   0
ELLIPSE
   5
1AA
 100
AcDbEntity
   8
LEVEL002
 370
30
   6
CONTINUOUS
  62
7
 100
AcDbEllipse
  10
 1962.4190227161
  20
 1488.7762008589
  30
0.0
  11
 10.500000000000
  21
0.0
  31
0.0
  40
 0.49934070543354
  41
-0.82718066979876E-1
  42
 0.96255074975734
   0
ELLIPSE
   5
1AB
 100
AcDbEntity
   8
LEVEL002
 370
30
   6
CONTINUOUS
  62
7
 100
AcDbEllipse
  10
 1962.4190227161
  20
 1488.7762008589
  30
0.0
  11
 10.500000000000
  21
0.0
  31
0.0
  40
 0.49934070543354
  41
 2.1790419075778
  42
-3.0588745717428
   0
ELLIPSE
   5
1AC
 100
AcDbEntity
   8
LEVEL002
 370
30
   6
CONTINUOUS
  62
7
 100
AcDbEllipse
  10
 1962.4190227161
  20
 1487.9097951457
  30
0.0
  11
 9.0000000000000
  21
0.0
  31
0.0
  40
 0.49934070543354
  41
 0.57309565303001E-8
  42
 0.98176535944009
   0
ELLIPSE
   5
1AD
 100
AcDbEntity
   8
LEVEL002
 370
30
   6
CONTINUOUS
  62
7
 100
AcDbEllipse
  10
 1962.4190227161
  20
 1487.9097951457
  30
0.0
  11
 9.0000000000000
  21
0.0
  31
0.0
  40
 0.49934070543354
  41
 2.1598272998725
  42
-3.1415926535898
   0
ELLIPSE
   5
1AE
 100
AcDbEntity
   8
LEVEL002
 370
30
   6
CONTINUOUS
  62
7
 100
AcDbEllipse
  10
 1962.4190227161
  20
 1487.9097951457
  30
0.0
  11
 10.500000000000
  21
0.0
  31
0.0
  40
 0.49934070543354
  41
 2.1868297745807
  42
-2.6004931257600
   0
ELLIPSE
   5
1AF
 100
AcDbEntity
   8
LEVEL002
 370
30
   6
CONTINUOUS
  62
7
 100
AcDbEllipse
  10
 1962.4190227161
  20
 1487.9097951457
  30
0.0
  11
 10.500000000000
  21
0.0
  31
0.0
  40
 0.49934070543354
  41
-0.54109952408441
  42
 0.96255074975734
   0
ELLIPSE
   5
1B0
 100
AcDbEntity
   8
LEVEL002
 370
30
   6
CONTINUOUS
  62
7
 100
AcDbEllipse
  10
 1962.4190227161
  20
 1476.2926832231
  30
0.0
  11
 10.500000000000
  21
0.0
  31
0.0
  40
 0.49934070543354
  41
-0.82718066979789E-1
  42
 0.76287651023361
   0
ELLIPSE
   5
1B1
 100
AcDbEntity
   8
LEVEL002
 370
30
   6
CONTINUOUS
  62
7
 100
AcDbEllipse
  10
 1962.4190227161
  20
 1476.2926832231
  30
0.0
  11
 10.500000000000
  21
0.0
  31
0.0
  40
 0.49934070543354
  41
 2.3787161473368
  42
-3.0588745717430
   0
ELLIPSE
   5
1B2
 100
AcDbEntity
   8
LEVEL002
 370
30
   6
CONTINUOUS
  62
7
 100
AcDbEllipse
  10
 1962.4190227161
  20
 1475.4262775099
  30
0.0
  11
 10.500000000000
  21
0.0
  31
0.0
  40
 0.49934070543354
  41
-0.54109952408449
  42
 0.77581810423520
   0
ELLIPSE
   5
1B3
 100
AcDbEntity
   8
LEVEL002
 370
30
   6
CONTINUOUS
  62
7
 100
AcDbEllipse
  10
 1962.4190227161
  20
 1475.4262775099
  30
0.0
  11
 10.500000000000
  21
0.0
  31
0.0
  40
 0.49934070543354
  41
 2.3657745532287
  42
-2.6004931257599
   0
ELLIPSE
   5
1B4
 100
AcDbEntity
   8
LEVEL002
 370
30
   6
CONTINUOUS
  62
7
 100
AcDbEllipse
  10
 1962.4190227161
  20
 1475.4262775099
  30
0.0
  11
 9.0000000000000
  21
0.0
  31
0.0
  40
 0.49934070543354
  41
 0.57301470231079E-8
  42
 0.61148136242370
   0
ELLIPSE
   5
1B5
 100
AcDbEntity
   8
LEVEL002
 370
30
   6
CONTINUOUS
  62
7
 100
AcDbEllipse
  10
 1962.4190227161
  20
 1475.4262775099
  30
0.0
  11
 9.0000000000000
  21
0.0
  31
0.0
  40
 0.49934070543354
  41
 2.5301112973283
  42
-3.1415926535898
   0
ELLIPSE
   5
1B6
 100
AcDbEntity
   8
LEVEL002
 370
30
   6
CONTINUOUS
  62
7
 100
AcDbEllipse
  10
 1962.4190227161
  20
 1471.0942489438
  30
0.0
  11
 9.0000000000000
  21
0.0
  31
0.0
  40
 0.49934070543354
  41
-0.53354779026269
  42
 0.71731574490779
   0
ELLIPSE
   5
1B7
 100
AcDbEntity
   8
LEVEL002
 370
30
   6
CONTINUOUS
  62
7
 100
AcDbEllipse
  10
 1962.4190227161
  20
 1471.0942489438
  30
0.0
  11
 9.0000000000000
  21
0.0
  31
0.0
  40
 0.49934070543354
  41
 2.4242769316341
  42
-2.6080448590164
   0
ELLIPSE
   5
1B8
 100
AcDbEntity
   8
LEVEL002
 370
30
   6
CONTINUOUS
  62
7
 100
AcDbEllipse
  10
 1962.4190227161
  20
 1471.0942489438
  30
0.0
  11
 8.0000000000000
  21
0.0
  31
0.0
  40
 0.49934070543354
  41
-0.57665542530464E-1
  42
 0.64428616760139
   0
ELLIPSE
   5
1B9
 100
AcDbEntity
   8
LEVEL002
 370
30
   6
CONTINUOUS
  62
7
 100
AcDbEllipse
  10
 1962.4190227161
  20
 1471.0942489438
  30
0.0
  11
 8.0000000000000
  21
0.0
  31
0.0
  40
 0.49934070543354
  41
 2.4973064859884
  42
-3.0839271106050
   0
LINE
   5
1BA
 100
AcDbEntity
   8
LEVEL002
 370
30
 100
AcDbLine
   6
CONTINUOUS
  62
7
  10
 1845.4190227161
  20
 1472.4021248777
  30
0.0
  11
 1845.4190227161
  21
 1455.2492757532
  31
0.0
   0
LINE
   5
1BB
 100
AcDbEntity
   8
LEVEL002
 370
30
 100
AcDbLine
   6
CONTINUOUS
  62
7
  10
 1845.4190227161
  20
 1455.2492757532
  30
0.0
  11
 1851.4190227161
  21
 1455.2492757532
  31
0.0
   0
LINE
   5
1BC
 100
AcDbEntity
   8
LEVEL002
 370
30
 100
AcDbLine
   6
CONTINUOUS
  62
7
  10
 1851.4190227161
  20
 1455.2492757532
  30
0.0
  11
 1851.4190227161
  21
 1472.4021248777
  31
0.0
   0
LINE
   5
1BD
 100
AcDbEntity
   8
LEVEL002
 370
30
 100
AcDbLine
   6
CONTINUOUS
  62
7
  10
 1848.4190227161
  20
 1456.7472978695
  30
0.0
  11
 1848.4190227161
  21
 1472.4021248777
  31
0.0
   0
LINE
   5
1BE
 100
AcDbEntity
   8
LEVEL002
 370
30
 100
AcDbLine
   6
CONTINUOUS
  62
7
  10
 1845.4190227161
  20
 1494.3731159168
  30
0.0
  11
 1845.4190227161
  21
 1477.2202667922
  31
0.0
   0
LINE
   5
1BF
 100
AcDbEntity
   8
LEVEL002
 370
30
 100
AcDbLine
   6
CONTINUOUS
  62
7
  10
 1845.4190227161
  20
 1477.2202667922
  30
0.0
  11
 1851.4190227161
  21
 1477.2202667922
  31
0.0
   0
LINE
   5
1C0
 100
AcDbEntity
   8
LEVEL002
 370
30
 100
AcDbLine
   6
CONTINUOUS
  62
7
  10
 1851.4190227161
  20
 1477.2202667922
  30
0.0
  11
 1851.4190227161
  21
 1494.3731159168
  31
0.0
   0
LINE
   5
1C1
 100
AcDbEntity
   8
LEVEL002
 370
30
 100
AcDbLine
   6
CONTINUOUS
  62
7
  10
 1848.4190227161
  20
 1478.7182889085
  30
0.0
  11
 1848.4190227161
  21
 1494.3731159168
  31
0.0
   0
LINE
   5
1C2
 100
AcDbEntity
   8
LEVEL002
 370
30
 100
AcDbLine
   6
CONTINUOUS
  62
7
  10
 2040.9190227161
  20
 1858.8915554852
  30
0.0
  11
 2040.9190227161
  21
 1863.0915554852
  31
0.0
   0
LINE
   5
1C3
 100
AcDbEntity
   8
LEVEL002
 370
30
 100
AcDbLine
   6
CONTINUOUS
  62
7
  10
 2040.9190227161
  20
 1863.0915554852
  30
0.0
  11
 2036.4190227161
  21
 1863.0915554852
  31
0.0
   0
LINE
   5
1C4
 100
AcDbEntity
   8
LEVEL002
 370
30
 100
AcDbLine
   6
CONTINUOUS
  62
7
  10
 2036.4190227161
  20
 1863.0915554852
  30
0.0
  11
 2036.4190227161
  21
 1874.0915554852
  31
0.0
   0
LINE
   5
1C5
 100
AcDbEntity
   8
LEVEL002
 370
30
 100
AcDbLine
   6
CONTINUOUS
  62
7
  10
 2036.4190227161
  20
 1874.0915554852
  30
0.0
  11
 2037.4190227161
  21
 1874.0915554852
  31
0.0
   0
LINE
   5
1C6
 100
AcDbEntity
   8
LEVEL002
 370
30
 100
AcDbLine
   6
CONTINUOUS
  62
7
  10
 2037.4190227161
  20
 1874.0915554852
  30
0.0
  11
 2037.4190227161
  21
 1864.0915554852
  31
0.0
   0
LINE
   5
1C7
 100
AcDbEntity
   8
LEVEL002
 370
30
 100
AcDbLine
   6
CONTINUOUS
  62
7
  10
 2037.4190227161
  20
 1864.0915554852
  30
0.0
  11
 2041.9190227161
  21
 1864.0915554852
  31
0.0
   0
LINE
   5
1C8
 100
AcDbEntity
   8
LEVEL002
 370
30
 100
AcDbLine
   6
CONTINUOUS
  62
7
  10
 2041.9190227161
  20
 1864.0915554852
  30
0.0
  11
 2041.9190227161
  21
 1858.8915554852
  31
0.0
   0
LINE
   5
1C9
 100
AcDbEntity
   8
LEVEL002
 370
30
 100
AcDbLine
   6
CONTINUOUS
  62
7
  10
 1766.4190227161
  20
 2053.0915554852
  30
0.0
  11
 1766.4190227161
  21
 1919.0915554852
  31
0.0
   0
LINE
   5
1CA
 100
AcDbEntity
   8
LEVEL002
 370
30
 100
AcDbLine
   6
CONTINUOUS
  62
7
  10
 1766.4190227161
  20
 1919.0915554852
  30
0.0
  11
 2005.4190227161
  21
 1919.0915554852
  31
0.0
   0
LINE
   5
1CB
 100
AcDbEntity
   8
LEVEL002
 370
30
 100
AcDbLine
   6
CONTINUOUS
  62
7
  10
 2005.4190227161
  20
 1919.0915554852
  30
0.0
  11
 2005.4190227161
  21
 2163.0915554852
  31
0.0
   0
LINE
   5
1CC
 100
AcDbEntity
   8
LEVEL002
 370
30
 100
AcDbLine
   6
CONTINUOUS
  62
7
  10
 2005.4190227161
  20
 2163.0915554852
  30
0.0
  11
 1784.4190227161
  21
 2163.0915554852
  31
0.0
   0
LINE
   5
1CD
 100
AcDbEntity
   8
LEVEL002
 370
30
 100
AcDbLine
   6
CONTINUOUS
  62
7
  10
 1019.4190227161
  20
 2164.0915554852
  30
0.0
  11
 1019.4190227161
  21
 2053.0915554852
  31
0.0
   0
LINE
   5
1CE
 100
AcDbEntity
   8
LEVEL002
 370
30
 100
AcDbLine
   6
CONTINUOUS
  62
7
  10
 1019.4190227161
  20
 2053.0915554852
  30
0.0
  11
 1050.4190227161
  21
 2053.0915554852
  31
0.0
   0
LINE
   5
1CF
 100
AcDbEntity
   8
LEVEL002
 370
30
 100
AcDbLine
   6
CONTINUOUS
  62
7
  10
 1050.4190227161
  20
 2053.0915554852
  30
0.0
  11
 1050.4190227161
  21
 2052.0915554852
  31
0.0
   0
LINE
   5
1D0
 100
AcDbEntity
   8
LEVEL002
 370
30
 100
AcDbLine
   6
CONTINUOUS
  62
7
  10
 1050.4190227161
  20
 2052.0915554852
  30
0.0
  11
 1753.4190227161
  21
 2052.0915554852
  31
0.0
   0
LINE
   5
1D1
 100
AcDbEntity
   8
LEVEL002
 370
30
 100
AcDbLine
   6
CONTINUOUS
  62
7
  10
 1753.4190227161
  20
 2052.0915554852
  30
0.0
  11
 1753.4190227161
  21
 2053.0915554852
  31
0.0
   0
LINE
   5
1D2
 100
AcDbEntity
   8
LEVEL002
 370
30
 100
AcDbLine
   6
CONTINUOUS
  62
7
  10
 1753.4190227161
  20
 2053.0915554852
  30
0.0
  11
 1784.4190227161
  21
 2053.0915554852
  31
0.0
   0
LINE
   5
1D3
 100
AcDbEntity
   8
LEVEL002
 370
30
 100
AcDbLine
   6
CONTINUOUS
  62
7
  10
 1784.4190227161
  20
 2053.0915554852
  30
0.0
  11
 1784.4190227161
  21
 2164.0915554852
  31
0.0
   0
LINE
   5
1D4
 100
AcDbEntity
   8
LEVEL002
 370
30
 100
AcDbLine
   6
CONTINUOUS
  62
7
  10
 1784.4190227161
  20
 2164.0915554852
  30
0.0
  11
 1019.4190227161
  21
 2164.0915554852
  31
0.0
   0
LINE
   5
1D5
 100
AcDbEntity
   8
LEVEL002
 370
30
 100
AcDbLine
   6
CONTINUOUS
  62
7
  10
 1051.9190227161
  20
 2052.0915554852
  30
0.0
  11
 1051.9190227161
  21
 1960.7385911961
  31
0.0
   0
LINE
   5
1D6
 100
AcDbEntity
   8
LEVEL002
 370
30
 100
AcDbLine
   6
CONTINUOUS
  62
7
  10
 1051.9190227161
  20
 1960.7385911961
  30
0.0
  11
 1751.9190227161
  21
 1960.7385911961
  31
0.0
   0
LINE
   5
1D7
 100
AcDbEntity
   8
LEVEL002
 370
30
 100
AcDbLine
   6
CONTINUOUS
  62
7
  10
 1751.9190227161
  20
 1960.7385911961
  30
0.0
  11
 1751.9190227161
  21
 2052.0915554852
  31
0.0
   0
LINE
   5
1D8
 100
AcDbEntity
   8
LEVEL002
 370
30
 100
AcDbLine
   6
CONTINUOUS
  62
7
  10
 1754.4190227161
  20
 1955.4915554852
  30
0.0
  11
 1764.4190227161
  21
 1955.4915554852
  31
0.0
   0
LINE
   5
1D9
 100
AcDbEntity
   8
LEVEL002
 370
30
 100
AcDbLine
   6
CONTINUOUS
  62
7
  10
 1754.4190227161
  20
 2012.3915554852
  30
0.0
  11
 1764.4190227161
  21
 2012.3915554852
  31
0.0
   0
LINE
   5
1DA
 100
AcDbEntity
   8
LEVEL002
 370
30
 100
AcDbLine
   6
CONTINUOUS
  62
7
  10
 1049.4190227161
  20
 1955.4915554852
  30
0.0
  11
 1039.4190227161
  21
 1955.4915554852
  31
0.0
   0
LINE
   5
1DB
 100
AcDbEntity
   8
LEVEL002
 370
30
 100
AcDbLine
   6
CONTINUOUS
  62
7
  10
 1049.4190227161
  20
 2012.3915554852
  30
0.0
  11
 1039.4190227161
  21
 2012.3915554852
  31
0.0
   0
LINE
   5
1DC
 100
AcDbEntity
   8
LEVEL002
 370
30
 100
AcDbLine
   6
CONTINUOUS
  62
7
  10
 1754.4190227161
  20
 2053.0915554852
  30
0.0
  11
 1754.4190227161
  21
 1927.0915554852
  31
0.0
   0
LINE
   5
1DD
 100
AcDbEntity
   8
LEVEL002
 370
30
 100
AcDbLine
   6
CONTINUOUS
  62
7
  10
 1754.4190227161
  20
 1927.0915554852
  30
0.0
  11
 1764.4190227161
  21
 1927.0915554852
  31
0.0
   0
LINE
   5
1DE
 100
AcDbEntity
   8
LEVEL002
 370
30
 100
AcDbLine
   6
CONTINUOUS
  62
7
  10
 1764.4190227161
  20
 1927.0915554852
  30
0.0
  11
 1764.4190227161
  21
 2053.0915554852
  31
0.0
   0
LINE
   5
1DF
 100
AcDbEntity
   8
LEVEL002
 370
30
 100
AcDbLine
   6
CONTINUOUS
  62
7
  10
 1049.4190227161
  20
 2053.0915554852
  30
0.0
  11
 1049.4190227161
  21
 1927.0915554852
  31
0.0
   0
LINE
   5
1E0
 100
AcDbEntity
   8
LEVEL002
 370
30
 100
AcDbLine
   6
CONTINUOUS
  62
7
  10
 1049.4190227161
  20
 1927.0915554852
  30
0.0
  11
 1039.4190227161
  21
 1927.0915554852
  31
0.0
   0
LINE
   5
1E1
 100
AcDbEntity
   8
LEVEL002
 370
30
 100
AcDbLine
   6
CONTINUOUS
  62
7
  10
 1039.4190227161
  20
 1927.0915554852
  30
0.0
  11
 1039.4190227161
  21
 2053.0915554852
  31
0.0
   0
CIRCLE
   5
1E2
 100
AcDbEntity
   8
LEVEL002
 370
30
 100
AcDbCircle
   6
CONTINUOUS
  62
7
  10
 976.41902271613
  20
 1952.0915554852
  30
0.0
  40
 20.000000000000
   0
POINT
   5
1E3
 100
AcDbEntity
   8
LEVEL002
 100
AcDbPoint
  62
6
  10
 976.41902271613
  20
 1938.8915554852
  30
0.0
   0
POINT
   5
1E4
 100
AcDbEntity
   8
LEVEL002
 100
AcDbPoint
  62
6
  10
 976.41902271613
  20
 1938.8915554852
  30
0.0
   0
LINE
   5
1E5
 100
AcDbEntity
   8
LEVEL002
 370
30
 100
AcDbLine
   6
CONTINUOUS
  62
7
  10
 1039.4190227161
  20
 1912.0915554852
  30
0.0
  11
 1049.4190227161
  21
 1912.0915554852
  31
0.0
   0
LINE
   5
1E6
 100
AcDbEntity
   8
LEVEL002
 370
30
 100
AcDbLine
   6
CONTINUOUS
  62
7
  10
 1049.4190227161
  20
 1912.0915554852
  30
0.0
  11
 1049.4190227161
  21
 1825.0915554852
  31
0.0
   0
LINE
   5
1E7
 100
AcDbEntity
   8
LEVEL002
 370
30
 100
AcDbLine
   6
CONTINUOUS
  62
7
  10
 1049.4190227161
  20
 1825.0915554852
  30
0.0
  11
 1039.4190227161
  21
 1825.0915554852
  31
0.0
   0
LINE
   5
1E8
 100
AcDbEntity
   8
LEVEL002
 370
30
 100
AcDbLine
   6
CONTINUOUS
  62
7
  10
 1039.4190227161
  20
 1825.0915554852
  30
0.0
  11
 1039.4190227161
  21
 1912.0915554852
  31
0.0
   0
LINE
   5
1E9
 100
AcDbEntity
   8
LEVEL002
 370
30
 100
AcDbLine
   6
CONTINUOUS
  62
7
  10
 1049.4190227161
  20
 1839.5915554852
  30
0.0
  11
 1039.4190227161
  21
 1839.5915554852
  31
0.0
   0
LINE
   5
1EA
 100
AcDbEntity
   8
LEVEL002
 370
30
 100
AcDbLine
   6
CONTINUOUS
  62
7
  10
 1048.3190227161
  20
 1840.0915554852
  30
0.0
  11
 1041.3190227161
  21
 1840.0915554852
  31
0.0
   0
LINE
   5
1EB
 100
AcDbEntity
   8
LEVEL002
 370
30
 100
AcDbLine
   6
CONTINUOUS
  62
7
  10
 1041.3190227161
  20
 1840.0915554852
  30
0.0
  11
 1041.3190227161
  21
 1864.0915554852
  31
0.0
   0
LINE
   5
1EC
 100
AcDbEntity
   8
LEVEL002
 370
30
 100
AcDbLine
   6
CONTINUOUS
  62
7
  10
 1041.3190227161
  20
 1864.0915554852
  30
0.0
  11
 1048.3190227161
  21
 1864.0915554852
  31
0.0
   0
LINE
   5
1ED
 100
AcDbEntity
   8
LEVEL002
 370
30
 100
AcDbLine
   6
CONTINUOUS
  62
7
  10
 1048.3190227161
  20
 1864.0915554852
  30
0.0
  11
 1048.3190227161
  21
 1840.0915554852
  31
0.0
   0
LINE
   5
1EE
 100
AcDbEntity
   8
LEVEL002
 370
30
 100
AcDbLine
   6
CONTINUOUS
  62
7
  10
 1751.9190227161
  20
 1869.5915554852
  30
0.0
  11
 1051.9190227161
  21
 1869.5915554852
  31
0.0
   0
LINE
   5
1EF
 100
AcDbEntity
   8
LEVEL002
 370
30
 100
AcDbLine
   6
CONTINUOUS
  62
7
  10
 1051.9190227161
  20
 1869.5915554852
  30
0.0
  11
 1051.9190227161
  21
 1834.5915554852
  31
0.0
   0
LINE
   5
1F0
 100
AcDbEntity
   8
LEVEL002
 370
30
 100
AcDbLine
   6
CONTINUOUS
  62
7
  10
 1051.9190227161
  20
 1834.5915554852
  30
0.0
  11
 1751.9190227161
  21
 1834.5915554852
  31
0.0
   0
LINE
   5
1F1
 100
AcDbEntity
   8
LEVEL002
 370
30
 100
AcDbLine
   6
CONTINUOUS
  62
7
  10
 1751.9190227161
  20
 1834.5915554852
  30
0.0
  11
 1751.9190227161
  21
 1869.5915554852
  31
0.0
   0
LINE
   5
1F2
 100
AcDbEntity
   8
LEVEL002
 370
30
 100
AcDbLine
   6
CONTINUOUS
  62
7
  10
 1049.4190227161
  20
 1864.5915554852
  30
0.0
  11
 1039.4190227161
  21
 1864.5915554852
  31
0.0
   0
LINE
   5
1F3
 100
AcDbEntity
   8
LEVEL002
 370
30
 100
AcDbLine
   6
CONTINUOUS
  62
7
  10
 1754.4190227161
  20
 1864.5915554852
  30
0.0
  11
 1763.4190227161
  21
 1864.5915554852
  31
0.0
   0
LINE
   5
1F4
 100
AcDbEntity
   8
LEVEL002
 370
30
 100
AcDbLine
   6
CONTINUOUS
  62
7
  10
 1763.4190227161
  20
 1912.0915554852
  30
0.0
  11
 1754.4190227161
  21
 1912.0915554852
  31
0.0
   0
LINE
   5
1F5
 100
AcDbEntity
   8
LEVEL002
 370
30
 100
AcDbLine
   6
CONTINUOUS
  62
7
  10
 1754.4190227161
  20
 1912.0915554852
  30
0.0
  11
 1754.4190227161
  21
 1825.0915554852
  31
0.0
   0
LINE
   5
1F6
 100
AcDbEntity
   8
LEVEL002
 370
30
 100
AcDbLine
   6
CONTINUOUS
  62
7
  10
 1754.4190227161
  20
 1825.0915554852
  30
0.0
  11
 1760.4190227161
  21
 1825.0915554852
  31
0.0
   0
LINE
   5
1F7
 100
AcDbEntity
   8
LEVEL002
 370
30
 100
AcDbLine
   6
CONTINUOUS
  62
7
  10
 1754.4190227161
  20
 1839.5915554852
  30
0.0
  11
 1760.4190227161
  21
 1839.5915554852
  31
0.0
   0
LINE
   5
1F8
 100
AcDbEntity
   8
LEVEL002
 370
30
 100
AcDbLine
   6
CONTINUOUS
  62
7
  10
 1762.5190227161
  20
 1851.8915554852
  30
0.0
  11
 1762.5190227161
  21
 1864.0915554852
  31
0.0
   0
LINE
   5
1F9
 100
AcDbEntity
   8
LEVEL002
 370
30
 100
AcDbLine
   6
CONTINUOUS
  62
7
  10
 1762.5190227161
  20
 1864.0915554852
  30
0.0
  11
 1755.5190227161
  21
 1864.0915554852
  31
0.0
   0
LINE
   5
1FA
 100
AcDbEntity
   8
LEVEL002
 370
30
 100
AcDbLine
   6
CONTINUOUS
  62
7
  10
 1755.5190227161
  20
 1864.0915554852
  30
0.0
  11
 1755.5190227161
  21
 1840.0915554852
  31
0.0
   0
LINE
   5
1FB
 100
AcDbEntity
   8
LEVEL002
 370
30
 100
AcDbLine
   6
CONTINUOUS
  62
7
  10
 1755.5190227161
  20
 1840.0915554852
  30
0.0
  11
 1760.4190227161
  21
 1840.0915554852
  31
0.0
   0
LINE
   5
1FC
 100
AcDbEntity
   8
LEVEL002
 370
30
 100
AcDbLine
   6
CONTINUOUS
  62
7
  10
 1049.4190227161
  20
 1877.0915554852
  30
0.0
  11
 1754.4190227161
  21
 1877.0915554852
  31
0.0
   0
LINE
   5
1FD
 100
AcDbEntity
   8
LEVEL002
 370
30
 100
AcDbLine
   6
CONTINUOUS
  62
7
  10
 2388.4190227161
  20
 1873.8915554852
  30
0.0
  11
 2388.4190227161
  21
 1918.1915554852
  31
0.0
   0
LINE
   5
1FE
 100
AcDbEntity
   8
LEVEL002
 370
30
 100
AcDbLine
   6
CONTINUOUS
  62
7
  10
 2388.4190227161
  20
 1918.1915554852
  30
0.0
  11
 2036.9190227161
  21
 1918.1915554852
  31
0.0
   0
LINE
   5
1FF
 100
AcDbEntity
   8
LEVEL002
 370
30
 100
AcDbLine
   6
CONTINUOUS
  62
7
  10
 2036.9190227161
  20
 1918.1915554852
  30
0.0
  11
 2036.9190227161
  21
 1874.0915554852
  31
0.0
   0
LINE
   5
200
 100
AcDbEntity
   8
LEVEL002
 370
30
 100
AcDbLine
   6
CONTINUOUS
  62
7
  10
 2044.4190227161
  20
 1858.8915554852
  30
0.0
  11
 2044.4190227161
  21
 1873.8915554852
  31
0.0
   0
LINE
   5
201
 100
AcDbEntity
   8
LEVEL002
 370
30
 100
AcDbLine
   6
CONTINUOUS
  62
7
  10
 2044.4190227161
  20
 1873.8915554852
  30
0.0
  11
 2333.4190227161
  21
 1873.8915554852
  31
0.0
   0
LINE
   5
202
 100
AcDbEntity
   8
LEVEL002
 370
30
 100
AcDbLine
   6
CONTINUOUS
  62
7
  10
 2333.4190227161
  20
 1873.8915554852
  30
0.0
  11
 2333.4190227161
  21
 1848.3915554852
  31
0.0
   0
LINE
   5
203
 100
AcDbEntity
   8
LEVEL002
 370
30
 100
AcDbLine
   6
CONTINUOUS
  62
7
  10
 2333.4190227161
  20
 1848.3915554852
  30
0.0
  11
 2336.4190227161
  21
 1848.3915554852
  31
0.0
   0
LINE
   5
204
 100
AcDbEntity
   8
LEVEL002
 370
30
 100
AcDbLine
   6
CONTINUOUS
  62
7
  10
 2336.4190227161
  20
 1848.3915554852
  30
0.0
  11
 2336.4190227161
  21
 1489.3915554852
  31
0.0
   0
LINE
   5
205
 100
AcDbEntity
   8
LEVEL002
 370
30
 100
AcDbLine
   6
CONTINUOUS
  62
7
  10
 2336.4190227161
  20
 1489.3915554852
  30
0.0
  11
 2333.4190227161
  21
 1489.3915554852
  31
0.0
   0
LINE
   5
206
 100
AcDbEntity
   8
LEVEL002
 370
30
 100
AcDbLine
   6
CONTINUOUS
  62
7
  10
 2333.4190227161
  20
 1489.3915554852
  30
0.0
  11
 2333.4190227161
  21
 1463.8915554852
  31
0.0
   0
LINE
   5
207
 100
AcDbEntity
   8
LEVEL002
 370
30
 100
AcDbLine
   6
CONTINUOUS
  62
7
  10
 2333.4190227161
  20
 1463.8915554852
  30
0.0
  11
 2044.4190227161
  21
 1463.8915554852
  31
0.0
   0
LINE
   5
208
 100
AcDbEntity
   8
LEVEL002
 370
30
 100
AcDbLine
   6
CONTINUOUS
  62
7
  10
 2044.4190227161
  20
 1463.8915554852
  30
0.0
  11
 2044.4190227161
  21
 1478.8915554852
  31
0.0
   0
LINE
   5
209
 100
AcDbEntity
   8
LEVEL002
 370
30
 100
AcDbLine
   6
CONTINUOUS
  62
7
  10
 2333.4190227161
  20
 1854.0915554852
  30
0.0
  11
 2338.4190227161
  21
 1854.0915554852
  31
0.0
   0
LINE
   5
20A
 100
AcDbEntity
   8
LEVEL002
 370
30
 100
AcDbLine
   6
CONTINUOUS
  62
7
  10
 2426.4190227161
  20
 2113.8915554852
  30
0.0
  11
 3386.4190227161
  21
 2113.8915554852
  31
0.0
   0
LINE
   5
20B
 100
AcDbEntity
   8
LEVEL002
 370
30
 100
AcDbLine
   6
CONTINUOUS
  62
7
  10
 3386.4190227161
  20
 2113.8915554852
  30
0.0
  11
 3386.4190227161
  21
 1489.8915554852
  31
0.0
   0
LINE
   5
20C
 100
AcDbEntity
   8
LEVEL002
 370
30
 100
AcDbLine
   6
CONTINUOUS
  62
7
  10
 3386.4190227161
  20
 1489.8915554852
  30
0.0
  11
 2426.4190227161
  21
 1489.8915554852
  31
0.0
   0
LINE
   5
20D
 100
AcDbEntity
   8
LEVEL002
 370
30
 100
AcDbLine
   6
CONTINUOUS
  62
7
  10
 2426.4190227161
  20
 1489.8915554852
  30
0.0
  11
 2426.4190227161
  21
 2113.8915554852
  31
0.0
   0
LINE
   5
20E
 100
AcDbEntity
   8
LEVEL002
 370
30
 100
AcDbLine
   6
CONTINUOUS
  62
7
  10
 2426.4190227161
  20
 2065.8915554852
  30
0.0
  11
 3386.4190227161
  21
 2065.8915554852
  31
0.0
   0
LINE
   5
20F
 100
AcDbEntity
   8
LEVEL002
 370
30
 100
AcDbLine
   6
CONTINUOUS
  62
7
  10
 2426.4190227161
  20
 2017.8915554852
  30
0.0
  11
 3386.4190227161
  21
 2017.8915554852
  31
0.0
   0
LINE
   5
210
 100
AcDbEntity
   8
LEVEL002
 370
30
 100
AcDbLine
   6
CONTINUOUS
  62
7
  10
 2426.4190227161
  20
 1969.8915554852
  30
0.0
  11
 3386.4190227161
  21
 1969.8915554852
  31
0.0
   0
LINE
   5
211
 100
AcDbEntity
   8
LEVEL002
 370
30
 100
AcDbLine
   6
CONTINUOUS
  62
7
  10
 2426.4190227161
  20
 1921.8915554852
  30
0.0
  11
 3386.4190227161
  21
 1921.8915554852
  31
0.0
   0
LINE
   5
212
 100
AcDbEntity
   8
LEVEL002
 370
30
 100
AcDbLine
   6
CONTINUOUS
  62
7
  10
 2426.4190227161
  20
 1873.8915554852
  30
0.0
  11
 3386.4190227161
  21
 1873.8915554852
  31
0.0
   0
LINE
   5
213
 100
AcDbEntity
   8
LEVEL002
 370
30
 100
AcDbLine
   6
CONTINUOUS
  62
7
  10
 2426.4190227161
  20
 1825.8915554852
  30
0.0
  11
 3386.4190227161
  21
 1825.8915554852
  31
0.0
   0
LINE
   5
214
 100
AcDbEntity
   8
LEVEL002
 370
30
 100
AcDbLine
   6
CONTINUOUS
  62
7
  10
 2426.4190227161
  20
 1633.8915554852
  30
0.0
  11
 3386.4190227161
  21
 1633.8915554852
  31
0.0
   0
LINE
   5
215
 100
AcDbEntity
   8
LEVEL002
 370
30
 100
AcDbLine
   6
CONTINUOUS
  62
7
  10
 2474.4190227161
  20
 1825.8915554852
  30
0.0
  11
 2474.4190227161
  21
 1633.8915554852
  31
0.0
   0
LINE
   5
216
 100
AcDbEntity
   8
LEVEL002
 370
30
 100
AcDbLine
   6
CONTINUOUS
  62
7
  10
 2474.4190227161
  20
 1777.8915554852
  30
0.0
  11
 3386.4190227161
  21
 1777.8915554852
  31
0.0
   0
LINE
   5
217
 100
AcDbEntity
   8
LEVEL002
 370
30
 100
AcDbLine
   6
CONTINUOUS
  62
7
  10
 2474.4190227161
  20
 1729.8915554852
  30
0.0
  11
 3386.4190227161
  21
 1729.8915554852
  31
0.0
   0
LINE
   5
218
 100
AcDbEntity
   8
LEVEL002
 370
30
 100
AcDbLine
   6
CONTINUOUS
  62
7
  10
 2474.4190227161
  20
 1681.8915554852
  30
0.0
  11
 3386.4190227161
  21
 1681.8915554852
  31
0.0
   0
LINE
   5
219
 100
AcDbEntity
   8
LEVEL002
 370
30
 100
AcDbLine
   6
CONTINUOUS
  62
7
  10
 2426.4190227161
  20
 1585.8915554852
  30
0.0
  11
 3386.4190227161
  21
 1585.8915554852
  31
0.0
   0
LINE
   5
21A
 100
AcDbEntity
   8
LEVEL002
 370
30
 100
AcDbLine
   6
CONTINUOUS
  62
7
  10
 2426.4190227161
  20
 1537.8915554852
  30
0.0
  11
 3386.4190227161
  21
 1537.8915554852
  31
0.0
   0
LINE
   5
21B
 100
AcDbEntity
   8
LEVEL002
 370
30
 100
AcDbLine
   6
CONTINUOUS
  62
7
  10
 2736.4190227161
  20
 2113.8915554852
  30
0.0
  11
 2736.4190227161
  21
 1489.8915554852
  31
0.0
   0
LINE
   5
21C
 100
AcDbEntity
   8
LEVEL002
 370
30
 100
AcDbLine
   6
CONTINUOUS
  62
7
  10
 1038.4190227161
  20
 2053.0915554852
  30
0.0
  11
 1038.4190227161
  21
 1852.0915554852
  31
0.0
   0
LINE
   5
21D
 100
AcDbEntity
   8
LEVEL002
 370
30
 100
AcDbLine
   6
CONTINUOUS
  62
7
  10
 1038.4190227161
  20
 1852.0915554852
  30
0.0
  11
 969.42577272630
  21
 1852.0915554852
  31
0.0
   0
LINE
   5
21E
 100
AcDbEntity
   8
LEVEL002
 370
30
 100
AcDbLine
   6
CONTINUOUS
  62
7
  10
 943.41227270596
  20
 1852.0915554852
  30
0.0
  11
 937.41902271613
  21
 1852.0915554852
  31
0.0
   0
LINE
   5
21F
 100
AcDbEntity
   8
LEVEL002
 370
30
 100
AcDbLine
   6
CONTINUOUS
  62
7
  10
 937.41902271613
  20
 1852.0915554852
  30
0.0
  11
 937.41902271613
  21
 2163.0915554852
  31
0.0
   0
LINE
   5
220
 100
AcDbEntity
   8
LEVEL002
 370
30
 100
AcDbLine
   6
CONTINUOUS
  62
7
  10
 937.41902271613
  20
 2163.0915554852
  30
0.0
  11
 1019.4190227161
  21
 2163.0915554852
  31
0.0
   0
LINE
   5
221
 100
AcDbEntity
   8
LEVEL002
 370
30
 100
AcDbLine
   6
CONTINUOUS
  62
7
  10
 964.72673586081
  20
 1849.0915554852
  30
0.0
  11
 1039.4190227161
  21
 1849.0915554852
  31
0.0
   0
CIRCLE
   5
222
 100
AcDbEntity
   8
LEVEL002
 370
30
 100
AcDbCircle
   6
CONTINUOUS
  62
7
  10
 956.41902271613
  20
 1830.9315554852
  30
0.0
  40
 20.000000000000
   0
LINE
   5
223
 100
AcDbEntity
   8
LEVEL002
 370
30
 100
AcDbLine
   6
CONTINUOUS
  62
7
  10
 966.41902271613
  20
 1848.2520635609
  30
0.0
  11
 966.41902271613
  21
 1849.0915554852
  31
0.0
   0
LINE
   5
224
 100
AcDbEntity
   8
LEVEL002
 370
30
 100
AcDbLine
   6
CONTINUOUS
  62
7
  10
 946.41902271613
  20
 1849.0915554852
  30
0.0
  11
 946.41902271613
  21
 1848.2520635609
  31
0.0
   0
LINE
   5
225
 100
AcDbEntity
   8
LEVEL002
 370
30
 100
AcDbLine
   6
CONTINUOUS
  62
7
  10
 961.82452204888
  20
 1850.0915554852
  30
0.0
  11
 1038.4190227161
  21
 1850.0915554852
  31
0.0
   0
LINE
   5
226
 100
AcDbEntity
   8
LEVEL002
 370
30
 100
AcDbLine
   6
CONTINUOUS
  62
7
  10
 1038.4190227161
  20
 1850.0915554852
  30
0.0
  11
 1038.4190227161
  21
 1852.0915554852
  31
0.0
   0
LINE
   5
227
 100
AcDbEntity
   8
LEVEL002
 370
30
 100
AcDbLine
   6
CONTINUOUS
  62
7
  10
 1038.4190227161
  20
 1852.0915554852
  30
0.0
  11
 956.41902271613
  21
 1852.0915554852
  31
0.0
   0
LINE
   5
228
 100
AcDbEntity
   8
LEVEL002
 370
30
 100
AcDbLine
   6
CONTINUOUS
  62
7
  10
 956.41902271613
  20
 1852.0915554852
  30
0.0
  11
 938.41902271613
  21
 1852.0915554852
  31
0.0
   0
LINE
   5
229
 100
AcDbEntity
   8
LEVEL002
 370
30
 100
AcDbLine
   6
CONTINUOUS
  62
7
  10
 938.41902271613
  20
 1852.0915554852
  30
0.0
  11
 938.41902271613
  21
 1850.0915554852
  31
0.0
   0
LINE
   5
22A
 100
AcDbEntity
   8
LEVEL002
 370
30
 100
AcDbLine
   6
CONTINUOUS
  62
7
  10
 938.41902271613
  20
 1850.0915554852
  30
0.0
  11
 950.65344426739
  21
 1850.0915554852
  31
0.0
   0
LINE
   5
22B
 100
AcDbEntity
   8
LEVEL002
 370
30
 100
AcDbLine
   6
CONTINUOUS
  62
7
  10
 1763.4190227161
  20
 1452.6915554852
  30
0.0
  11
 938.41902271613
  21
 1452.6915554852
  31
0.0
   0
LINE
   5
22C
 100
AcDbEntity
   8
LEVEL002
 370
30
 100
AcDbLine
   6
CONTINUOUS
  62
7
  10
 938.41902271613
  20
 1452.6915554852
  30
0.0
  11
 938.41902271613
  21
 1822.2137575981
  31
0.0
   0
LINE
   5
22D
 100
AcDbEntity
   8
LEVEL002
 370
30
 100
AcDbLine
   6
CONTINUOUS
  62
7
  10
 938.41902271613
  20
 1839.6493533723
  30
0.0
  11
 938.41902271613
  21
 1849.0915554852
  31
0.0
   0
LINE
   5
22E
 100
AcDbEntity
   8
LEVEL002
 370
30
 100
AcDbLine
   6
CONTINUOUS
  62
7
  10
 938.41902271613
  20
 1849.0915554852
  30
0.0
  11
 948.11130957145
  21
 1849.0915554852
  31
0.0
   0
MTEXT
   5
230
 100
AcDbEntity
   8
LEVEL002
 370
9
  62
1
 100
AcDbMText
  10
 2481.4190227161
  20
 1737.8915554852
  30
0.0
  40
 24.000000000000
  41
0.0
  71
7
  72
1
   1
\T1.000000;ベルトコンベア－
   7
GMM001
  44
 0.79999984000003
   0
MTEXT
   5
232
 100
AcDbEntity
   8
LEVEL002
 370
9
  62
1
 100
AcDbMText
  10
 2481.4190227161
  20
 1689.8915554852
  30
0.0
  40
 24.000000000000
  41
0.0
  71
7
  72
1
   1
\T1.000000;包丁刃
   7
GMM001
  44
 0.79999984000003
   0
MTEXT
   5
234
 100
AcDbEntity
   8
LEVEL002
 370
9
  62
1
 100
AcDbMText
  10
 2481.4190227161
  20
 1641.8915554852
  30
0.0
  40
 24.000000000000
  41
0.0
  71
7
  72
1
   1
\T1.000000;安全カバ－類
   7
GMM001
  44
 0.79999984000003
   0
MTEXT
   5
236
 100
AcDbEntity
   8
LEVEL002
 370
9
  62
1
 100
AcDbMText
  10
 2438.4190227161
  20
 1752.8915554852
  30
0.0
  40
 24.000000000000
  41
0.0
  71
7
  72
1
   1
\T1.000000;材
   7
GMM001
  44
 0.79999984000003
   0
MTEXT
   5
238
 100
AcDbEntity
   8
LEVEL002
 370
9
  62
1
 100
AcDbMText
  10
 2438.4190227161
  20
 1688.8915554852
  30
0.0
  40
 24.000000000000
  41
0.0
  71
7
  72
1
   1
\T1.000000;質
   7
GMM001
  44
 0.79999984000003
   0
MTEXT
   5
23A
 100
AcDbEntity
   8
LEVEL002
 370
9
  62
1
 100
AcDbMText
  10
 2742.4190227161
  20
 1736.8915554852
  30
0.0
  40
 24.000000000000
  41
0.0
  71
7
  72
1
   1
\T1.000000;樹脂ベルト　ＮＳ８２ＵＮ０／２Ｇ
   7
GMM001
  44
 0.79999984000003
   0
MTEXT
   5
23C
 100
AcDbEntity
   8
LEVEL002
 370
9
  62
1
 100
AcDbMText
  10
 2742.4190227161
  20
 1640.8915554852
  30
0.0
  40
 24.000000000000
  41
0.0
  71
7
  72
1
   1
\T1.000000;ＳＵＳ４３０
   7
GMM001
  44
 0.79999984000003
   0
MTEXT
   5
23E
 100
AcDbEntity
   8
LEVEL002
 370
9
  62
1
 100
AcDbMText
  10
 2742.4190227161
  20
 1592.8915554852
  30
0.0
  40
 24.000000000000
  41
0.0
  71
7
  72
1
   1
\T1.000000;３．０ｍ
   7
GMM001
  44
 0.79999984000003
   0
MTEXT
   5
240
 100
AcDbEntity
   8
LEVEL002
 370
9
  62
1
 100
AcDbMText
  10
 2480.4190227161
  20
 2072.8915554852
  30
0.0
  40
 24.000000000000
  41
0.0
  71
7
  72
1
   1
\T1.000000;製　　品　　名
   7
GMM001
  44
 0.79999984000003
   0
MTEXT
   5
242
 100
AcDbEntity
   8
LEVEL002
 370
9
  62
1
 100
AcDbMText
  10
 2480.4190227161
  20
 2024.8915554852
  30
0.0
  40
 24.000000000000
  41
0.0
  71
7
  72
1
   1
\T1.000000;型　　　　　式
   7
GMM001
  44
 0.79999984000003
   0
MTEXT
   5
244
 100
AcDbEntity
   8
LEVEL002
 370
9
  62
1
 100
AcDbMText
  10
 2480.4190227161
  20
 1976.8915554852
  30
0.0
  40
 24.000000000000
  41
0.0
  71
7
  72
1
   1
\W1.000000;\T1.000000;寸法\W0.500000;\T1.000000;(\W1.000000;\T1.000000;Ｗ×Ｄ×Ｈ）
   7
GMM001
  44
 0.79999984000003
   0
MTEXT
   5
246
 100
AcDbEntity
   8
LEVEL002
 370
9
  62
1
 100
AcDbMText
  10
 2480.4190227161
  20
 1928.8915554852
  30
0.0
  40
 24.000000000000
  41
0.0
  71
7
  72
1
   1
\T1.000000;能　　　　　力
   7
GMM001
  44
 0.79999984000003
   0
MTEXT
   5
248
 100
AcDbEntity
   8
LEVEL002
 370
9
  62
1
 100
AcDbMText
  10
 2480.4190227161
  20
 1880.8915554852
  30
0.0
  40
 24.000000000000
  41
0.0
  71
7
  72
1
   1
\T1.000000;電　　　　　源
   7
GMM001
  44
 0.79999984000003
   0
MTEXT
   5
24A
 100
AcDbEntity
   8
LEVEL002
 370
9
  62
1
 100
AcDbMText
  10
 2480.4190227161
  20
 1832.8915554852
  30
0.0
  40
 24.000000000000
  41
0.0
  71
7
  72
1
   1
\T1.000000;消　費　電　力
   7
GMM001
  44
 0.79999984000003
   0
MTEXT
   5
24C
 100
AcDbEntity
   8
LEVEL002
 370
9
  62
1
 100
AcDbMText
  10
 2480.4190227161
  20
 1592.8915554852
  30
0.0
  40
 24.000000000000
  41
0.0
  71
7
  72
1
   1
\T1.000000;コ－ド長さ
   7
GMM001
  44
 0.79999984000003
   0
MTEXT
   5
24E
 100
AcDbEntity
   8
LEVEL002
 370
9
  62
1
 100
AcDbMText
  10
 2480.4190227161
  20
 1544.8915554852
  30
0.0
  40
 24.000000000000
  41
0.0
  71
7
  72
1
   1
\T1.000000;電源プラグ
   7
GMM001
  44
 0.79999984000003
   0
MTEXT
   5
250
 100
AcDbEntity
   8
LEVEL002
 370
9
  62
1
 100
AcDbMText
  10
 2480.4190227161
  20
 1496.8915554852
  30
0.0
  40
 24.000000000000
  41
0.0
  71
7
  72
1
   1
\T1.000000;製品重量
   7
GMM001
  44
 0.79999984000003
   0
MTEXT
   5
252
 100
AcDbEntity
   8
LEVEL002
 370
9
  62
1
 100
AcDbMText
  10
 2742.4190227161
  20
 1688.8915554852
  30
0.0
  40
 24.000000000000
  41
0.0
  71
7
  72
1
   1
\T1.000000;ＳＵＳ　（長さ３６０）
   7
GMM001
  44
 0.79999984000003
   0
MTEXT
   5
254
 100
AcDbEntity
   8
LEVEL002
 370
9
  62
1
 100
AcDbMText
  10
 2742.4190227161
  20
 1928.8915554852
  30
0.0
  40
 24.000000000000
  41
0.0
  71
7
  72
1
   1
\T1.000000;２５０～３００食／時
   7
GMM001
  44
 0.79999984000003
   0
MTEXT
   5
256
 100
AcDbEntity
   8
LEVEL002
 370
9
  62
1
 100
AcDbMText
  10
 2742.4190227161
  20
 1496.8915554852
  30
0.0
  40
 24.000000000000
  41
0.0
  71
7
  72
1
   1
\T1.000000;２００ｋｇ
   7
GMM001
  44
 0.79999984000003
   0
MTEXT
   5
258
 100
AcDbEntity
   8
LEVEL002
 370
9
  62
1
 100
AcDbMText
  10
 2742.4190227161
  20
 2072.8915554852
  30
0.0
  40
 24.000000000000
  41
0.0
  71
7
  72
1
   1
\T1.000000;手打そば専用機
   7
GMM001
  44
 0.79999984000003
   0
MTEXT
   5
25A
 100
AcDbEntity
   8
LEVEL002
 370
9
  62
1
 100
AcDbMText
  10
 2742.4190227161
  20
 2024.8915554852
  30
0.0
  40
 24.000000000000
  41
0.0
  71
7
  72
1
   1
\T1.000000;更科Ｐ型
   7
GMM001
  44
 0.79999984000003
   0
MTEXT
   5
25C
 100
AcDbEntity
   8
LEVEL002
 370
9
  62
1
 100
AcDbMText
  10
 2742.4190227161
  20
 1976.8915554852
  30
0.0
  40
 24.000000000000
  41
0.0
  71
7
  72
1
   1
\T1.000000;１，４６０×７１５×５１５
   7
GMM001
  44
 0.79999984000003
   0
MTEXT
   5
25E
 100
AcDbEntity
   8
LEVEL002
 370
9
  62
1
 100
AcDbMText
  10
 2481.4190227161
  20
 1785.8915554852
  30
0.0
  40
 24.000000000000
  41
0.0
  71
7
  72
1
   1
\T1.000000;平ロ－ル
   7
GMM001
  44
 0.79999984000003
   0
MTEXT
   5
260
 100
AcDbEntity
   8
LEVEL002
 370
9
  62
1
 100
AcDbMText
  10
 2742.4190227161
  20
 1784.8915554852
  30
0.0
  40
 24.000000000000
  41
0.0
  71
7
  72
1
   1
\T1.000000;ポリプロピレン　（長さ７００）
   7
GMM001
  44
 0.79999984000003
   0
LWPOLYLINE
   5
261
 100
AcDbEntity
   8
LEVEL001
 370
30
   6
CONTINUOUS
  62
7
 100
AcDbPolyline
  90
5
  70
0
  10
 3270.8190227161
  20
 756.89155548517
  10
 3271.8190227161
  20
 756.89155548517
  10
 3271.8190227161
  20
 1001.8915554852
  10
 3159.8190227161
  20
 1001.8915554852
  10
 3159.8190227161
  20
 1000.8915554852
   0
CIRCLE
   5
262
 100
AcDbEntity
   8
LEVEL001
 370
9
 100
AcDbCircle
   6
HIDDEN
  62
1
  10
 3124.9660584270
  20
 867.44581262882
  30
0.0
  40
 56.500000000000
   0
CIRCLE
   5
263
 100
AcDbEntity
   8
LEVEL001
 370
9
 100
AcDbCircle
   6
HIDDEN
  62
1
  10
 3189.8190227161
  20
 774.89155548517
  30
0.0
  40
 56.500000000000
   0
LINE
   5
264
 100
AcDbEntity
   8
LEVEL001
 370
9
 100
AcDbLine
   6
DASHDOT
  62
1
  10
 3207.5130941379
  20
 867.44581262882
  30
0.0
  11
 3042.4190227161
  21
 867.44581262882
  31
0.0
   0
LINE
   5
265
 100
AcDbEntity
   8
LEVEL001
 370
9
 100
AcDbLine
   6
DASHDOT
  62
1
  10
 3189.8190227161
  20
 856.89155548517
  30
0.0
  11
 3189.8190227161
  21
 695.89155548517
  31
0.0
   0
LINE
   5
266
 100
AcDbEntity
   8
LEVEL001
 370
9
 100
AcDbLine
   6
DASHDOT
  62
1
  10
 3263.4190227161
  20
 774.89155548517
  30
0.0
  11
 3109.4190227161
  21
 774.89155548517
  31
0.0
   0
LINE
   5
267
 100
AcDbEntity
   8
LEVEL001
 370
30
 100
AcDbLine
   6
CONTINUOUS
  62
7
  10
 2593.4190227161
  20
 535.09155548517
  30
0.0
  11
 3253.4190227161
  21
 535.09155548517
  31
0.0
   0
POINT
   5
268
 100
AcDbEntity
   8
LEVEL001
 100
AcDbPoint
  62
7
  10
 2568.3421752821
  20
 970.90655360227
  30
0.0
   0
POINT
   5
269
 100
AcDbEntity
   8
LEVEL001
 100
AcDbPoint
  62
7
  10
 2628.2630589597
  20
 1074.8752391885
  30
0.0
   0
LWPOLYLINE
   5
26A
 100
AcDbEntity
   8
LEVEL001
 370
30
   6
CONTINUOUS
  62
7
 100
AcDbPolyline
  90
5
  70
0
  10
 2560.4190227161
  20
 782.89155548517
  10
 2560.4190227161
  20
 957.15909683213
  10
 2636.3411649169
  20
 1088.8915554852
  10
 3025.9190227161
  20
 1088.8915554852
  10
 3025.9190227161
  20
 782.89155548517
   0
LWPOLYLINE
   5
26B
 100
AcDbEntity
   8
LEVEL001
 370
30
   6
CONTINUOUS
  62
7
 100
AcDbPolyline
  90
4
  70
1
  10
 2565.8454717854
  20
 966.57452501861
  10
 2630.7597626993
  20
 1079.2072681937
  10
 2629.4601541242
  20
 1079.9562792427
  10
 2564.5458632103
  20
 967.32353606762
   0
ARC
   5
26C
 100
AcDbEntity
   8
LEVEL001
 370
30
   6
CONTINUOUS
  62
7
 100
AcDbCircle
  10
 2607.2543740179
  20
 1045.4323262554
  30
0.0
  40
 9.0000000000000
 100
AcDbArc
  50
 60.043609403126
  51
 240.04360940313
   0
LWPOLYLINE
   5
26D
 100
AcDbEntity
   8
LEVEL001
 370
30
   6
CONTINUOUS
  62
7
 100
AcDbPolyline
  90
4
  70
1
  10
 2611.7484403120
  20
 1053.2299777060
  10
 2602.7603077239
  20
 1037.6346748048
  10
 2603.9937784580
  20
 1035.7695876894
  10
 2613.9805924448
  20
 1053.0977020240
   0
LWPOLYLINE
   5
26E
 100
AcDbEntity
   8
LEVEL001
 370
30
   6
CONTINUOUS
  62
7
 100
AcDbPolyline
  90
9
  70
0
  10
 2574.8269905894
  20
 997.17815748232
  10
 2583.3157824782
  20
 1011.9070546668
  10
 2587.6478110618
  20
 1009.4103511701
  10
 2578.6596784737
  20
 993.81504826890
  10
 2574.3276498901
  20
 996.31175176559
  10
 2574.8269905894
  20
 997.17815748232
  10
 2566.6622741214
  20
 1003.0379701924
  10
 2573.6530439122
  20
 1015.1676502267
  10
 2582.8164417788
  20
 1011.0406489500
   0
LWPOLYLINE
   5
26F
 100
AcDbEntity
   8
LEVEL001
 370
30
   6
CONTINUOUS
  62
7
 100
AcDbPolyline
  90
4
  70
1
  10
 2578.7770731415
  20
 992.01609899447
  10
 2577.9106674247
  20
 992.51543969381
  10
 2588.3968221108
  20
 1010.7099597452
  10
 2589.2632278276
  20
 1010.2106190458
   0
LWPOLYLINE
   5
270
 100
AcDbEntity
   8
LEVEL001
 370
30
   6
CONTINUOUS
  62
7
 100
AcDbPolyline
  90
9
  70
0
  10
 2587.3105080729
  20
 1018.8383004006
  10
 2595.7992999616
  20
 1033.5671975850
  10
 2600.1313285453
  20
 1031.0704940884
  10
 2591.1431959572
  20
 1015.4751911872
  10
 2586.8111673735
  20
 1017.9718946839
  10
 2587.3105080729
  20
 1018.8383004006
  10
 2579.1457916049
  20
 1024.6981131107
  10
 2586.1365613956
  20
 1036.8277931450
  10
 2595.2999592623
  20
 1032.7007918683
   0
LWPOLYLINE
   5
271
 100
AcDbEntity
   8
LEVEL001
 370
30
   6
CONTINUOUS
  62
7
 100
AcDbPolyline
  90
4
  70
1
  10
 2591.2605906249
  20
 1013.6762419128
  10
 2590.3941849082
  20
 1014.1755826121
  10
 2600.8803395943
  20
 1032.3701026635
  10
 2601.7467453110
  20
 1031.8707619641
   0
LINE
   5
272
 100
AcDbEntity
   8
LEVEL001
 370
30
 100
AcDbLine
   6
CONTINUOUS
  62
7
  10
 2602.1005827602
  20
 1060.5216746731
  30
0.0
  11
 2591.6598226831
  21
 1042.4059187778
  31
0.0
   0
LINE
   5
273
 100
AcDbEntity
   8
LEVEL001
 370
30
 100
AcDbLine
   6
CONTINUOUS
  62
7
  10
 2611.7707618333
  20
 1059.2766298168
  30
0.0
  11
 2608.8922032032
  21
 1054.2820446441
  31
0.0
   0
LINE
   5
274
 100
AcDbEntity
   8
LEVEL001
 370
30
 100
AcDbLine
   6
CONTINUOUS
  62
7
  10
 2584.9311992439
  20
 1012.7073225425
  30
0.0
  11
 2584.1821881949
  21
 1011.4077139674
  31
0.0
   0
LINE
   5
275
 100
AcDbEntity
   8
LEVEL001
 370
30
 100
AcDbLine
   6
CONTINUOUS
  62
7
  10
 2580.1295919893
  20
 1022.3998231369
  30
0.0
  11
 2575.4857234855
  21
 1014.3422499713
  31
0.0
   0
LINE
   5
276
 100
AcDbEntity
   8
LEVEL001
 370
30
 100
AcDbLine
   6
CONTINUOUS
  62
7
  10
 2580.0674224188
  20
 1012.2787493330
  30
0.0
  11
 2584.3594827027
  21
 1019.7259002891
  31
0.0
   0
LWPOLYLINE
   5
277
 100
AcDbEntity
   8
LEVEL001
 370
30
   6
CONTINUOUS
  62
7
 100
AcDbPolyline
  90
4
  70
0
  10
 2576.6639691224
  20
 1024.3971859343
  10
 2571.4655348220
  20
 1027.3932301303
  10
 2560.9793801359
  20
 1009.1987100790
  10
 2567.9106258698
  20
 1005.2039844843
   0
LWPOLYLINE
   5
278
 100
AcDbEntity
   8
LEVEL001
 370
30
   6
CONTINUOUS
  62
7
 100
AcDbPolyline
  90
4
  70
0
  10
 2616.1027904170
  20
 1056.7799263201
  10
 2611.7707618333
  20
 1059.2766298168
  10
 2607.6809630922
  20
 1060.1909854683
  10
 2604.0142315578
  20
 1053.8288420112
   0
LINE
   5
279
 100
AcDbEntity
   8
LEVEL001
 370
30
 100
AcDbLine
   6
CONTINUOUS
  62
7
  10
 2598.3648364438
  20
 1044.0265802903
  30
0.0
  11
 2596.0485945281
  21
 1040.0076704762
  31
0.0
   0
LINE
   5
27A
 100
AcDbEntity
   8
LEVEL001
 370
30
 100
AcDbLine
   6
CONTINUOUS
  62
7
  10
 2597.8041032661
  20
 1039.0483711556
  30
0.0
  11
 2594.3836194756
  21
 1033.1134919960
  31
0.0
   0
LINE
   5
27B
 100
AcDbEntity
   8
LEVEL001
 370
30
 100
AcDbLine
   6
CONTINUOUS
  62
7
  10
 2586.4940364261
  20
 1019.4242816716
  30
0.0
  11
 2586.0695968316
  21
 1018.6878368124
  31
0.0
   0
LWPOLYLINE
   5
27C
 100
AcDbEntity
   8
LEVEL001
 370
30
   6
CONTINUOUS
  62
7
 100
AcDbPolyline
  90
3
  70
0
  10
 2589.2632278276
  20
 1010.2106190458
  10
 2585.7976049606
  20
 1012.2079818432
  10
 2588.5439788070
  20
 1016.9732132852
   0
LINE
   5
27D
 100
AcDbEntity
   8
LEVEL001
 370
30
 100
AcDbLine
   6
CONTINUOUS
  62
7
  10
 2597.5321113951
  20
 1032.5685161864
  30
0.0
  11
 2601.1398657306
  21
 1038.8283283447
  31
0.0
   0
LINE
   5
27E
 100
AcDbEntity
   8
LEVEL001
 370
30
 100
AcDbLine
   6
CONTINUOUS
  62
7
  10
 2596.0485945281
  20
 1040.0076704762
  30
0.0
  11
 2598.3648364438
  21
 1044.0265802903
  31
0.0
   0
LWPOLYLINE
   5
27F
 100
AcDbEntity
   8
LEVEL001
 370
30
   6
CONTINUOUS
  62
7
 100
AcDbPolyline
  90
7
  70
0
  10
 2604.0142315578
  20
 1053.8288420112
  10
 2607.0567872180
  20
 1059.1079783224
  10
 2602.7247586344
  20
 1061.6046818190
  10
 2602.1005827602
  20
 1060.5216746731
  10
 2593.4365255929
  20
 1065.5150816665
  10
 2582.9503709068
  20
 1047.3205616151
  10
 2591.6144280741
  20
 1042.3271546218
   0
LWPOLYLINE
   5
280
 100
AcDbEntity
   8
LEVEL001
 370
30
   6
CONTINUOUS
  62
7
 100
AcDbPolyline
  90
8
  70
0
  10
 2599.1856218019
  20
 1041.4454430522
  10
 2597.8041032661
  20
 1039.0483711556
  10
 2578.4935071483
  20
 1049.6006636827
  10
 2567.2583414132
  20
 1030.1065350562
  10
 2586.0695968316
  20
 1018.6878368124
  10
 2583.1983878104
  20
 1013.7060039412
  10
 2585.7976049606
  20
 1012.2079818432
  10
 2588.5439788070
  20
 1016.9732132852
   0
LINE
   5
281
 100
AcDbEntity
   8
LEVEL001
 370
30
 100
AcDbLine
   6
CONTINUOUS
  62
7
  10
 2597.5321113951
  20
 1032.5685161864
  30
0.0
  11
 2601.1398657306
  21
 1038.8283283447
  31
0.0
   0
LINE
   5
282
 100
AcDbEntity
   8
LEVEL001
 370
30
 100
AcDbLine
   6
CONTINUOUS
  62
7
  10
 2593.4190227161
  20
 927.89155548517
  30
0.0
  11
 2959.8190227161
  21
 927.89155548517
  31
0.0
   0
LWPOLYLINE
   5
283
 100
AcDbEntity
   8
LEVEL001
 370
30
   6
CONTINUOUS
  62
7
 100
AcDbPolyline
  90
4
  70
0
  10
 2966.6190227161
  20
 927.89155548517
  10
 2966.6190227161
  20
 930.89155548517
  10
 2586.6190227161
  20
 930.89155548517
  10
 2586.6190227161
  20
 927.89155548517
   0
LWPOLYLINE
   5
284
 100
AcDbEntity
   8
LEVEL001
 370
30
   6
CONTINUOUS
  62
7
 100
AcDbPolyline
  90
4
  70
0
  10
 2593.4190227161
  20
 927.89155548517
  10
 2571.4190227161
  20
 927.89155548517
  10
 2571.4190227161
  20
 783.89155548517
  10
 2571.6190227161
  20
 783.89155548517
   0
LINE
   5
285
 100
AcDbEntity
   8
LEVEL001
 370
30
 100
AcDbLine
   6
CONTINUOUS
  62
7
  10
 2581.4190227161
  20
 785.89155548517
  30
0.0
  11
 2581.4190227161
  21
 927.89155548517
  31
0.0
   0
LINE
   5
286
 100
AcDbEntity
   8
LEVEL001
 370
30
 100
AcDbLine
   6
CONTINUOUS
  62
7
  10
 2593.4190227161
  20
 785.89155548517
  30
0.0
  11
 2593.4190227161
  21
 927.89155548517
  31
0.0
   0
LWPOLYLINE
   5
287
 100
AcDbEntity
   8
LEVEL001
 370
30
   6
CONTINUOUS
  62
7
 100
AcDbPolyline
  90
8
  70
1
  10
 2571.6190227161
  20
 610.89155548517
  10
 2597.1190227161
  20
 610.89155548517
  10
 2597.1190227161
  20
 609.89155548517
  10
 2956.1190227161
  20
 609.89155548517
  10
 2956.1190227161
  20
 610.89155548517
  10
 2981.6190227161
  20
 610.89155548517
  10
 2981.6190227161
  20
 783.89155548517
  10
 2571.6190227161
  20
 783.89155548517
   0
LWPOLYLINE
   5
288
 100
AcDbEntity
   8
LEVEL001
 370
30
   6
CONTINUOUS
  62
7
 100
AcDbPolyline
  90
5
  70
0
  10
 2961.8190227161
  20
 610.89155548517
  10
 2961.8190227161
  20
 609.89155548517
  10
 3025.9190227161
  20
 609.89155548517
  10
 3025.9190227161
  20
 782.89155548517
  10
 2981.6190227161
  20
 782.89155548517
   0
LWPOLYLINE
   5
289
 100
AcDbEntity
   8
LEVEL001
 370
30
   6
CONTINUOUS
  62
7
 100
AcDbPolyline
  90
4
  70
0
  10
 2959.8190227161
  20
 927.89155548517
  10
 2981.8190227161
  20
 927.89155548517
  10
 2981.8190227161
  20
 783.89155548517
  10
 2981.6190227161
  20
 783.89155548517
   0
LINE
   5
28A
 100
AcDbEntity
   8
LEVEL001
 370
30
 100
AcDbLine
   6
CONTINUOUS
  62
7
  10
 2959.8190227161
  20
 785.89155548517
  30
0.0
  11
 2959.8190227161
  21
 927.89155548517
  31
0.0
   0
LINE
   5
28B
 100
AcDbEntity
   8
LEVEL001
 370
30
 100
AcDbLine
   6
CONTINUOUS
  62
7
  10
 2971.8190227161
  20
 927.89155548517
  30
0.0
  11
 2971.8190227161
  21
 785.89155548517
  31
0.0
   0
LWPOLYLINE
   5
28C
 100
AcDbEntity
   8
LEVEL001
 370
30
   6
CONTINUOUS
  62
7
 100
AcDbPolyline
  90
5
  70
0
  10
 2571.6190227161
  20
 782.89155548517
  10
 2560.4190227161
  20
 782.89155548517
  10
 2560.4190227161
  20
 609.89155548517
  10
 2596.6190227161
  20
 609.89155548517
  10
 2596.6190227161
  20
 610.89155548517
   0
LWPOLYLINE
   5
28D
 100
AcDbEntity
   8
LEVEL001
 370
30
   6
CONTINUOUS
  62
7
 100
AcDbPolyline
  90
4
  70
0
  10
 2593.4190227161
  20
 609.89155548517
  10
 2593.4190227161
  20
 531.89155548517
  10
 3253.4190227161
  20
 531.89155548517
  10
 3253.4190227161
  20
 556.89155548517
   0
LWPOLYLINE
   5
28E
 100
AcDbEntity
   8
LEVEL001
 370
30
   6
CONTINUOUS
  62
7
 100
AcDbPolyline
  90
6
  70
0
  10
 3026.8190227161
  20
 686.89155548517
  10
 3026.8190227161
  20
 556.89155548517
  10
 3270.8190227161
  20
 556.89155548517
  10
 3270.8190227161
  20
 1000.8915554852
  10
 3026.8190227161
  20
 1000.8915554852
  10
 3026.8190227161
  20
 756.89155548517
   0
LINE
   5
28F
 100
AcDbEntity
   8
LEVEL001
 370
30
 100
AcDbLine
   6
CONTINUOUS
  62
7
  10
 2593.4190227161
  20
 556.69155548517
  30
0.0
  11
 3026.8190227161
  21
 556.69155548517
  31
0.0
   0
LINE
   5
290
 100
AcDbEntity
   8
LEVEL001
 370
30
 100
AcDbLine
   6
CONTINUOUS
  62
7
  10
 3026.8190227161
  20
 559.89155548517
  30
0.0
  11
 2593.4190227161
  21
 559.89155548517
  31
0.0
   0
LINE
   5
291
 100
AcDbEntity
   8
LEVEL001
 370
30
 100
AcDbLine
   6
CONTINUOUS
  62
7
  10
 3026.8190227161
  20
 563.09155548517
  30
0.0
  11
 2593.4190227161
  21
 563.09155548517
  31
0.0
   0
LINE
   5
292
 100
AcDbEntity
   8
LEVEL001
 370
9
 100
AcDbLine
   6
DASHDOT
  62
1
  10
 3124.9660584270
  20
 961.47074832025
  30
0.0
  11
 3124.9660584270
  21
 784.00006977247
  31
0.0
   0
LWPOLYLINE
   5
293
 100
AcDbEntity
   8
LEVEL001
 370
30
   6
CONTINUOUS
  62
7
 100
AcDbPolyline
  90
4
  70
1
  10
 1051.9190227161
  20
 923.94581262882
  10
 1051.9190227161
  20
 810.94581262882
  10
 1751.9190227161
  20
 810.94581262882
  10
 1751.9190227161
  20
 923.94581262882
   0
LWPOLYLINE
   5
294
 100
AcDbEntity
   8
LEVEL001
 370
30
   6
CONTINUOUS
  62
7
 100
AcDbPolyline
  90
4
  70
1
  10
 1039.4190227161
  20
 859.89155548517
  10
 1039.4190227161
  20
 894.89155548517
  10
 1049.4190227161
  20
 894.89155548517
  10
 1049.4190227161
  20
 859.89155548517
   0
LWPOLYLINE
   5
295
 100
AcDbEntity
   8
LEVEL001
 370
30
   6
CONTINUOUS
  62
7
 100
AcDbPolyline
  90
8
  70
0
  10
 1763.4190227161
  20
 1001.8915554852
  10
 1019.4190227161
  20
 1001.8915554852
  10
 1019.4190227161
  20
 1000.8915554852
  10
 1050.4190227161
  20
 1000.8915554852
  10
 1050.4190227161
  20
 980.89155548517
  10
 1753.4190227161
  20
 980.89155548517
  10
 1753.4190227161
  20
 1000.8915554852
  10
 1763.4190227161
  20
 1000.8915554852
   0
LWPOLYLINE
   5
296
 100
AcDbEntity
   8
LEVEL001
 370
30
   6
CONTINUOUS
  62
7
 100
AcDbPolyline
  90
4
  70
0
  10
 1760.4190227161
  20
 894.89155548517
  10
 1754.4190227161
  20
 894.89155548517
  10
 1754.4190227161
  20
 859.89155548517
  10
 1760.4190227161
  20
 859.89155548517
   0
LINE
   5
297
 100
AcDbEntity
   8
LEVEL001
 370
30
 100
AcDbLine
   6
CONTINUOUS
  62
7
  10
 988.91902271613
  20
 1012.8915554852
  30
0.0
  11
 988.91902271613
  21
 1019.3915554852
  31
0.0
   0
CIRCLE
   5
298
 100
AcDbEntity
   8
LEVEL001
 370
30
 100
AcDbCircle
   6
CONTINUOUS
  62
7
  10
 956.41902271613
  20
 1026.8915554852
  30
0.0
  40
 20.000000000000
   0
LWPOLYLINE
   5
299
 100
AcDbEntity
   8
LEVEL001
 370
30
   6
CONTINUOUS
  62
7
 100
AcDbPolyline
  90
3
  70
0
  10
 1038.4190227161
  20
 790.89155548517
  10
 1038.4190227161
  20
 1000.8915554852
  10
 962.41902271613
  20
 1000.8915554852
   0
LINE
   5
29A
 100
AcDbEntity
   8
LEVEL001
 370
30
 100
AcDbLine
   6
CONTINUOUS
  62
7
  10
 993.41902271613
  20
 1006.8915554852
  30
0.0
  11
 962.41902271613
  21
 1006.8915554852
  31
0.0
   0
LWPOLYLINE
   5
29B
 100
AcDbEntity
   8
LEVEL001
 370
30
   6
CONTINUOUS
  62
7
 100
AcDbPolyline
  90
4
  70
0
  10
 993.41902271613
  20
 1000.8915554852
  10
 993.41902271613
  20
 1006.8915554852
  10
 991.41902271613
  20
 1012.8915554852
  10
 970.59141166449
  20
 1012.8915554852
   0
LWPOLYLINE
   5
29C
 100
AcDbEntity
   8
LEVEL001
 370
30
   6
CONTINUOUS
  62
7
 100
AcDbPolyline
  90
3
  70
0
  10
 974.87563483564
  20
 1019.3915554852
  10
 996.41902271613
  20
 1019.3915554852
  10
 996.41902271613
  20
 1023.3915554852
   0
ARC
   5
29D
 100
AcDbEntity
   8
LEVEL001
 370
30
   6
CONTINUOUS
  62
7
 100
AcDbCircle
  10
 976.41902271613
  20
 924.39155548517
  30
0.0
  40
 101.00000000000
 100
AcDbArc
  50
 78.578813725001
  51
 90.039220683285
   0
ARC
   5
29E
 100
AcDbEntity
   8
LEVEL001
 370
30
   6
CONTINUOUS
  62
7
 100
AcDbCircle
  10
 956.41902271613
  20
 838.89155548517
  30
0.0
  40
 7.0000000000000
 100
AcDbArc
  50
 180.00000000000
  51
 270.00000000000
   0
LINE
   5
29F
 100
AcDbEntity
   8
LEVEL001
 370
30
 100
AcDbLine
   6
CONTINUOUS
  62
7
  10
 956.41902271613
  20
 831.89155548517
  30
0.0
  11
 976.41902271613
  21
 831.89155548517
  31
0.0
   0
ARC
   5
2A0
 100
AcDbEntity
   8
LEVEL001
 370
30
   6
CONTINUOUS
  62
7
 100
AcDbCircle
  10
 976.41902271613
  20
 838.89155548517
  30
0.0
  40
 7.0000000000000
 100
AcDbArc
  50
 270.00000000000
  51
0.0
   0
POINT
   5
2A1
 100
AcDbEntity
   8
LEVEL001
 100
AcDbPoint
  62
6
  10
 976.41902271613
  20
 834.39155548520
  30
0.0
   0
POINT
   5
2A2
 100
AcDbEntity
   8
LEVEL001
 100
AcDbPoint
  62
6
  10
 976.41902271613
  20
 834.39155548520
  30
0.0
   0
ARC
   5
2A3
 100
AcDbEntity
   8
LEVEL001
 370
30
   6
CONTINUOUS
  62
7
 100
AcDbCircle
  10
 956.41902271613
  20
 840.89155548517
  30
0.0
  40
 7.0000000000000
 100
AcDbArc
  50
 45.584691402810
  51
 180.00000000000
   0
LINE
   5
2A4
 100
AcDbEntity
   8
LEVEL001
 370
30
 100
AcDbLine
   6
CONTINUOUS
  62
7
  10
 949.41902271613
  20
 840.89155548517
  30
0.0
  11
 949.41902271613
  21
 838.89155548517
  31
0.0
   0
ARC
   5
2A5
 100
AcDbEntity
   8
LEVEL001
 370
30
   6
CONTINUOUS
  62
7
 100
AcDbCircle
  10
 956.41902271613
  20
 869.89155548517
  30
0.0
  40
 7.0000000000000
 100
AcDbArc
  50
 180.00000000000
  51
 270.00000000000
   0
LWPOLYLINE
   5
2A6
 100
AcDbEntity
   8
LEVEL001
 370
30
   6
CONTINUOUS
  62
7
 100
AcDbPolyline
  90
4
  70
0
  10
 956.41902271613
  20
 862.89155548517
  10
 969.41902271613
  20
 862.89155548517
  10
 969.41902271613
  20
 845.89155548517
  10
 961.31800220170
  20
 845.89155548517
   0
ARC
   5
2A7
 100
AcDbEntity
   8
LEVEL001
 370
30
   6
CONTINUOUS
  62
7
 100
AcDbCircle
  10
 956.41902271613
  20
 871.89155548517
  30
0.0
  40
 7.0000000000000
 100
AcDbArc
  50
 45.584691402810
  51
 180.00000000000
   0
LINE
   5
2A8
 100
AcDbEntity
   8
LEVEL001
 370
30
 100
AcDbLine
   6
CONTINUOUS
  62
7
  10
 949.41902271613
  20
 871.89155548517
  30
0.0
  11
 949.41902271613
  21
 869.89155548517
  31
0.0
   0
ARC
   5
2A9
 100
AcDbEntity
   8
LEVEL001
 370
30
   6
CONTINUOUS
  62
7
 100
AcDbCircle
  10
 956.41902271613
  20
 900.89155548517
  30
0.0
  40
 7.0000000000000
 100
AcDbArc
  50
 180.00000000000
  51
 270.00000000000
   0
ARC
   5
2AA
 100
AcDbEntity
   8
LEVEL001
 370
30
   6
CONTINUOUS
  62
7
 100
AcDbCircle
  10
 956.41902271613
  20
 904.89155548517
  30
0.0
  40
 7.0000000000000
 100
AcDbArc
  50
 45.584691402810
  51
 180.00000000000
   0
LINE
   5
2AB
 100
AcDbEntity
   8
LEVEL001
 370
30
 100
AcDbLine
   6
CONTINUOUS
  62
7
  10
 949.41902271613
  20
 904.89155548517
  30
0.0
  11
 949.41902271613
  21
 900.89155548517
  31
0.0
   0
LINE
   5
2AC
 100
AcDbEntity
   8
LEVEL001
 370
30
 100
AcDbLine
   6
CONTINUOUS
  62
7
  10
 956.41902271613
  20
 893.89155548517
  30
0.0
  11
 969.41902271613
  21
 893.89155548517
  31
0.0
   0
LINE
   5
2AD
 100
AcDbEntity
   8
LEVEL001
 370
30
 100
AcDbLine
   6
CONTINUOUS
  62
7
  10
 969.41902271613
  20
 893.89155548517
  30
0.0
  11
 969.41902271613
  21
 876.89155548517
  31
0.0
   0
LINE
   5
2AE
 100
AcDbEntity
   8
LEVEL001
 370
30
 100
AcDbLine
   6
CONTINUOUS
  62
7
  10
 969.41902271613
  20
 876.89155548517
  30
0.0
  11
 961.31800220170
  21
 876.89155548517
  31
0.0
   0
LINE
   5
2AF
 100
AcDbEntity
   8
LEVEL001
 370
30
 100
AcDbLine
   6
CONTINUOUS
  62
7
  10
 969.41902271613
  20
 909.89155548517
  30
0.0
  11
 961.31800220170
  21
 909.89155548517
  31
0.0
   0
ARC
   5
2B0
 100
AcDbEntity
   8
LEVEL001
 370
30
   6
CONTINUOUS
  62
7
 100
AcDbCircle
  10
 956.41902271613
  20
 933.89155548517
  30
0.0
  40
 7.0000000000000
 100
AcDbArc
  50
 180.00000000000
  51
 270.00000000000
   0
LINE
   5
2B1
 100
AcDbEntity
   8
LEVEL001
 370
30
 100
AcDbLine
   6
CONTINUOUS
  62
7
  10
 956.41902271613
  20
 926.89155548517
  30
0.0
  11
 969.41902271613
  21
 926.89155548517
  31
0.0
   0
ARC
   5
2B2
 100
AcDbEntity
   8
LEVEL001
 370
30
   6
CONTINUOUS
  62
7
 100
AcDbCircle
  10
 956.41902271613
  20
 940.89155548517
  30
0.0
  40
 7.0000000000000
 100
AcDbArc
  50
 45.584691402810
  51
 180.00000000000
   0
LINE
   5
2B3
 100
AcDbEntity
   8
LEVEL001
 370
30
 100
AcDbLine
   6
CONTINUOUS
  62
7
  10
 949.41902271613
  20
 940.89155548517
  30
0.0
  11
 949.41902271613
  21
 933.89155548517
  31
0.0
   0
LINE
   5
2B4
 100
AcDbEntity
   8
LEVEL001
 370
30
 100
AcDbLine
   6
CONTINUOUS
  62
7
  10
 969.41902271613
  20
 945.89155548517
  30
0.0
  11
 961.31800220170
  21
 945.89155548517
  31
0.0
   0
LINE
   5
2B5
 100
AcDbEntity
   8
LEVEL001
 370
30
 100
AcDbLine
   6
CONTINUOUS
  62
7
  10
 969.41902271613
  20
 926.89155548517
  30
0.0
  11
 969.41902271613
  21
 909.89155548517
  31
0.0
   0
LINE
   5
2B6
 100
AcDbEntity
   8
LEVEL001
 370
30
 100
AcDbLine
   6
CONTINUOUS
  62
7
  10
 956.41902271613
  20
 962.89155548517
  30
0.0
  11
 969.41902271613
  21
 962.89155548517
  31
0.0
   0
ARC
   5
2B7
 100
AcDbEntity
   8
LEVEL001
 370
30
   6
CONTINUOUS
  62
7
 100
AcDbCircle
  10
 956.41902271613
  20
 969.89155548517
  30
0.0
  40
 7.0000000000000
 100
AcDbArc
  50
 180.00000000000
  51
 270.00000000000
   0
LWPOLYLINE
   5
2B8
 100
AcDbEntity
   8
LEVEL001
 370
30
   6
CONTINUOUS
  62
7
 100
AcDbPolyline
  90
4
  70
0
  10
 950.41902271613
  20
 966.21413297184
  10
 950.41902271613
  20
 1007.4433891063
  10
 951.41902271613
  20
 1007.4433891063
  10
 951.41902271613
  20
 1007.5266387541
   0
LWPOLYLINE
   5
2B9
 100
AcDbEntity
   8
LEVEL001
 370
30
   6
CONTINUOUS
  62
7
 100
AcDbPolyline
  90
4
  70
0
  10
 961.41902271613
  20
 1007.5266387541
  10
 961.41902271613
  20
 1007.4433891063
  10
 962.41902271613
  20
 1007.4433891063
  10
 962.41902271613
  20
 962.89155548517
   0
LINE
   5
2BA
 100
AcDbEntity
   8
LEVEL001
 370
30
 100
AcDbLine
   6
CONTINUOUS
  62
7
  10
 969.41902271613
  20
 962.89155548517
  30
0.0
  11
 969.41902271613
  21
 945.89155548517
  31
0.0
   0
ARC
   5
2BB
 100
AcDbEntity
   8
LEVEL001
 370
30
   6
CONTINUOUS
  62
7
 100
AcDbCircle
  10
 956.41902271613
  20
 978.89155548517
  30
0.0
  40
 7.0000000000000
 100
AcDbArc
  50
 148.99728086613
  51
 180.00000000000
   0
LINE
   5
2BC
 100
AcDbEntity
   8
LEVEL001
 370
30
 100
AcDbLine
   6
CONTINUOUS
  62
7
  10
 949.41902271613
  20
 978.89155548517
  30
0.0
  11
 949.41902271613
  21
 969.89155548517
  31
0.0
   0
LINE
   5
2BD
 100
AcDbEntity
   8
LEVEL001
 370
30
 100
AcDbLine
   6
CONTINUOUS
  62
7
  10
 996.41902271613
  20
 848.89155548517
  30
0.0
  11
 983.41902271613
  21
 848.89155548517
  31
0.0
   0
ARC
   5
2BE
 100
AcDbEntity
   8
LEVEL001
 370
30
   6
CONTINUOUS
  62
7
 100
AcDbCircle
  10
 996.41902271613
  20
 855.89155548517
  30
0.0
  40
 7.0000000000000
 100
AcDbArc
  50
 270.00000000000
  51
0.0
   0
LINE
   5
2BF
 100
AcDbEntity
   8
LEVEL001
 370
30
 100
AcDbLine
   6
CONTINUOUS
  62
7
  10
 983.41902271613
  20
 838.89155548517
  30
0.0
  11
 983.41902271613
  21
 848.89155548517
  31
0.0
   0
ARC
   5
2C0
 100
AcDbEntity
   8
LEVEL001
 370
30
   6
CONTINUOUS
  62
7
 100
AcDbCircle
  10
 996.41902271613
  20
 857.89155548517
  30
0.0
  40
 7.0000000000000
 100
AcDbArc
  50
 0.18610788536107E-11
  51
 134.41530859719
   0
LINE
   5
2C1
 100
AcDbEntity
   8
LEVEL001
 370
30
 100
AcDbLine
   6
CONTINUOUS
  62
7
  10
 1003.4190227161
  20
 857.89155548517
  30
0.0
  11
 1003.4190227161
  21
 855.89155548517
  31
0.0
   0
LINE
   5
2C2
 100
AcDbEntity
   8
LEVEL001
 370
30
 100
AcDbLine
   6
CONTINUOUS
  62
7
  10
 996.41902271613
  20
 879.89155548517
  30
0.0
  11
 983.41902271613
  21
 879.89155548517
  31
0.0
   0
ARC
   5
2C3
 100
AcDbEntity
   8
LEVEL001
 370
30
   6
CONTINUOUS
  62
7
 100
AcDbCircle
  10
 996.41902271613
  20
 886.89155548517
  30
0.0
  40
 7.0000000000000
 100
AcDbArc
  50
 270.00000000000
  51
0.0
   0
ARC
   5
2C4
 100
AcDbEntity
   8
LEVEL001
 370
30
   6
CONTINUOUS
  62
7
 100
AcDbCircle
  10
 996.41902271613
  20
 889.89155548517
  30
0.0
  40
 7.0000000000000
 100
AcDbArc
  50
 0.18610788536107E-11
  51
 134.41530859719
   0
LINE
   5
2C5
 100
AcDbEntity
   8
LEVEL001
 370
30
 100
AcDbLine
   6
CONTINUOUS
  62
7
  10
 1003.4190227161
  20
 889.89155548517
  30
0.0
  11
 1003.4190227161
  21
 886.89155548517
  31
0.0
   0
LINE
   5
2C6
 100
AcDbEntity
   8
LEVEL001
 370
30
 100
AcDbLine
   6
CONTINUOUS
  62
7
  10
 983.41902271613
  20
 879.89155548517
  30
0.0
  11
 983.41902271613
  21
 862.89155548517
  31
0.0
   0
LINE
   5
2C7
 100
AcDbEntity
   8
LEVEL001
 370
30
 100
AcDbLine
   6
CONTINUOUS
  62
7
  10
 983.41902271613
  20
 862.89155548517
  30
0.0
  11
 991.52004323056
  21
 862.89155548517
  31
0.0
   0
LINE
   5
2C8
 100
AcDbEntity
   8
LEVEL001
 370
30
 100
AcDbLine
   6
CONTINUOUS
  62
7
  10
 983.41902271613
  20
 894.89155548517
  30
0.0
  11
 991.52004323056
  21
 894.89155548517
  31
0.0
   0
LINE
   5
2C9
 100
AcDbEntity
   8
LEVEL001
 370
30
 100
AcDbLine
   6
CONTINUOUS
  62
7
  10
 996.41902271613
  20
 911.89155548517
  30
0.0
  11
 983.41902271613
  21
 911.89155548517
  31
0.0
   0
ARC
   5
2CA
 100
AcDbEntity
   8
LEVEL001
 370
30
   6
CONTINUOUS
  62
7
 100
AcDbCircle
  10
 996.41902271613
  20
 918.89155548517
  30
0.0
  40
 7.0000000000000
 100
AcDbArc
  50
 270.00000000000
  51
0.0
   0
LINE
   5
2CB
 100
AcDbEntity
   8
LEVEL001
 370
30
 100
AcDbLine
   6
CONTINUOUS
  62
7
  10
 996.41902271613
  20
 945.89155548517
  30
0.0
  11
 983.41902271613
  21
 945.89155548517
  31
0.0
   0
ARC
   5
2CC
 100
AcDbEntity
   8
LEVEL001
 370
30
   6
CONTINUOUS
  62
7
 100
AcDbCircle
  10
 996.41902271613
  20
 952.89155548517
  30
0.0
  40
 7.0000000000000
 100
AcDbArc
  50
 270.00000000000
  51
0.0
   0
LINE
   5
2CD
 100
AcDbEntity
   8
LEVEL001
 370
30
 100
AcDbLine
   6
CONTINUOUS
  62
7
  10
 983.41902271613
  20
 911.89155548517
  30
0.0
  11
 983.41902271613
  21
 894.89155548517
  31
0.0
   0
ARC
   5
2CE
 100
AcDbEntity
   8
LEVEL001
 370
30
   6
CONTINUOUS
  62
7
 100
AcDbCircle
  10
 996.41902271613
  20
 923.89155548517
  30
0.0
  40
 7.0000000000000
 100
AcDbArc
  50
 0.18610788536107E-11
  51
 134.41530859719
   0
LINE
   5
2CF
 100
AcDbEntity
   8
LEVEL001
 370
30
 100
AcDbLine
   6
CONTINUOUS
  62
7
  10
 983.41902271613
  20
 928.89155548517
  30
0.0
  11
 991.52004323056
  21
 928.89155548517
  31
0.0
   0
LINE
   5
2D0
 100
AcDbEntity
   8
LEVEL001
 370
30
 100
AcDbLine
   6
CONTINUOUS
  62
7
  10
 983.41902271613
  20
 945.89155548517
  30
0.0
  11
 983.41902271613
  21
 928.89155548517
  31
0.0
   0
LINE
   5
2D1
 100
AcDbEntity
   8
LEVEL001
 370
30
 100
AcDbLine
   6
CONTINUOUS
  62
7
  10
 1003.4190227161
  20
 923.89155548517
  30
0.0
  11
 1003.4190227161
  21
 918.89155548517
  31
0.0
   0
ARC
   5
2D2
 100
AcDbEntity
   8
LEVEL001
 370
30
   6
CONTINUOUS
  62
7
 100
AcDbCircle
  10
 996.41902271613
  20
 961.89155548517
  30
0.0
  40
 7.0000000000000
 100
AcDbArc
  50
 0.18610788536107E-11
  51
 134.41530859719
   0
LINE
   5
2D3
 100
AcDbEntity
   8
LEVEL001
 370
30
 100
AcDbLine
   6
CONTINUOUS
  62
7
  10
 983.41902271613
  20
 966.89155548517
  30
0.0
  11
 991.52004323056
  21
 966.89155548517
  31
0.0
   0
LINE
   5
2D4
 100
AcDbEntity
   8
LEVEL001
 370
30
 100
AcDbLine
   6
CONTINUOUS
  62
7
  10
 1003.4190227161
  20
 961.89155548517
  30
0.0
  11
 1003.4190227161
  21
 952.89155548517
  31
0.0
   0
LINE
   5
2D5
 100
AcDbEntity
   8
LEVEL001
 370
30
 100
AcDbLine
   6
CONTINUOUS
  62
7
  10
 962.41902271613
  20
 985.89155548517
  30
0.0
  11
 976.41902271613
  21
 985.89155548517
  31
0.0
   0
ARC
   5
2D6
 100
AcDbEntity
   8
LEVEL001
 370
30
   6
CONTINUOUS
  62
7
 100
AcDbCircle
  10
 976.41902271613
  20
 978.89155548517
  30
0.0
  40
 7.0000000000000
 100
AcDbArc
  50
0.0
  51
 90.000000000000
   0
POINT
   5
2D7
 100
AcDbEntity
   8
LEVEL001
 100
AcDbPoint
  62
7
  10
 983.41902271613
  20
 985.89155548517
  30
0.0
   0
LINE
   5
2D8
 100
AcDbEntity
   8
LEVEL001
 370
30
 100
AcDbLine
   6
CONTINUOUS
  62
7
  10
 983.41902271613
  20
 978.89155548517
  30
0.0
  11
 983.41902271613
  21
 966.89155548517
  31
0.0
   0
LWPOLYLINE
   5
2D9
 100
AcDbEntity
   8
LEVEL001
 370
30
   6
CONTINUOUS
  62
7
 100
AcDbPolyline
  90
6
  70
1
  10
 1039.9190227161
  20
 661.89155548517
  10
 1039.9190227161
  20
 780.89155548517
  10
 1762.9190227161
  20
 780.89155548517
  10
 1762.9190227161
  20
 724.39155548517
  10
 1437.4190227161
  20
 724.39155548517
  10
 1437.4190227161
  20
 661.89155548517
   0
LWPOLYLINE
   5
2DA
 100
AcDbEntity
   8
LEVEL001
 370
30
   6
CONTINUOUS
  62
7
 100
AcDbPolyline
  90
4
  70
1
  10
 1039.9190227161
  20
 609.89155548517
  10
 2336.9190227161
  20
 609.89155548517
  10
 2336.9190227161
  20
 661.89155548517
  10
 1039.9190227161
  20
 661.89155548517
   0
LWPOLYLINE
   5
2DB
 100
AcDbEntity
   8
LEVEL001
 370
30
   6
CONTINUOUS
  62
7
 100
AcDbPolyline
  90
4
  70
1
  10
 1763.4190227161
  20
 1088.8915554852
  10
 1763.4190227161
  20
 724.39155548517
  10
 2036.4190227161
  20
 724.39155548517
  10
 2036.4190227161
  20
 1088.8915554852
   0
LWPOLYLINE
   5
2DC
 100
AcDbEntity
   8
LEVEL001
 370
30
   6
CONTINUOUS
  62
7
 100
AcDbPolyline
  90
6
  70
0
  10
 1712.9190227161
  20
 686.89155548517
  10
 1709.9190227161
  20
 686.89155548517
  10
 1709.9190227161
  20
 661.89155548517
  10
 2089.9190227161
  20
 661.89155548517
  10
 2089.9190227161
  20
 686.89155548517
  10
 2086.9190227161
  20
 686.89155548517
   0
LWPOLYLINE
   5
2DD
 100
AcDbEntity
   8
LEVEL001
 370
30
   6
CONTINUOUS
  62
7
 100
AcDbPolyline
  90
4
  70
0
  10
 1712.9190227161
  20
 662.89155548517
  10
 1710.9190227161
  20
 662.89155548517
  10
 1710.9190227161
  20
 691.89155548517
  10
 1712.9190227161
  20
 691.89155548517
   0
LWPOLYLINE
   5
2DE
 100
AcDbEntity
   8
LEVEL001
 370
30
   6
CONTINUOUS
  62
7
 100
AcDbPolyline
  90
6
  70
0
  10
 1754.9190227161
  20
 702.89155548517
  10
 1712.9190227161
  20
 702.89155548517
  10
 1712.9190227161
  20
 662.89155548517
  10
 2086.9190227161
  20
 662.89155548517
  10
 2086.9190227161
  20
 702.89155548517
  10
 2044.9190227161
  20
 702.89155548517
   0
LWPOLYLINE
   5
2DF
 100
AcDbEntity
   8
LEVEL001
 370
30
   6
CONTINUOUS
  62
7
 100
AcDbPolyline
  90
4
  70
0
  10
 1732.9190227161
  20
 702.89155548517
  10
 1732.9190227161
  20
 703.89155548517
  10
 2066.9190227161
  20
 703.89155548517
  10
 2066.9190227161
  20
 702.89155548517
   0
LWPOLYLINE
   5
2E0
 100
AcDbEntity
   8
LEVEL001
 370
30
   6
CONTINUOUS
  62
7
 100
AcDbPolyline
  90
4
  70
0
  10
 2044.9190227161
  20
 703.89155548517
  10
 2044.9190227161
  20
 698.89155548517
  10
 1754.9190227161
  20
 698.89155548517
  10
 1754.9190227161
  20
 703.89155548517
   0
LWPOLYLINE
   5
2E1
 100
AcDbEntity
   8
LEVEL001
 370
30
   6
CONTINUOUS
  62
7
 100
AcDbPolyline
  90
4
  70
1
  10
 2036.9190227161
  20
 724.39155548517
  10
 2336.9190227161
  20
 724.39155548517
  10
 2336.9190227161
  20
 782.89155548517
  10
 2036.9190227161
  20
 782.89155548517
   0
LWPOLYLINE
   5
2E2
 100
AcDbEntity
   8
LEVEL001
 370
30
   6
CONTINUOUS
  62
7
 100
AcDbPolyline
  90
4
  70
1
  10
 2337.4190227161
  20
 609.89155548517
  10
 2388.4190227161
  20
 609.89155548517
  10
 2388.4190227161
  20
 782.89155548517
  10
 2337.4190227161
  20
 782.89155548517
   0
LWPOLYLINE
   5
2E3
 100
AcDbEntity
   8
LEVEL001
 370
30
   6
CONTINUOUS
  62
7
 100
AcDbPolyline
  90
4
  70
0
  10
 2041.4190227161
  20
 782.89155548517
  10
 2041.4190227161
  20
 785.89155548517
  10
 2336.4190227161
  20
 785.89155548517
  10
 2336.4190227161
  20
 782.89155548517
   0
LWPOLYLINE
   5
2E4
 100
AcDbEntity
   8
LEVEL001
 370
30
   6
CONTINUOUS
  62
7
 100
AcDbPolyline
  90
5
  70
0
  10
 2337.4190227161
  20
 782.89155548517
  10
 2337.4190227161
  20
 783.89155548517
  10
 2389.4190227161
  20
 783.89155548517
  10
 2389.4190227161
  20
 609.89155548517
  10
 2388.4190227161
  20
 609.89155548517
   0
LINE
   5
2E5
 100
AcDbEntity
   8
LEVEL001
 370
30
 100
AcDbLine
   6
CONTINUOUS
  62
7
  10
 2036.4190227161
  20
 957.15909683213
  30
0.0
  11
 1764.4190227161
  21
 957.15909683213
  31
0.0
   0
POINT
   5
2E6
 100
AcDbEntity
   8
LEVEL001
 100
AcDbPoint
  62
7
  10
 1809.4190227161
  20
 970.90655360227
  30
0.0
   0
POINT
   5
2E7
 100
AcDbEntity
   8
LEVEL001
 100
AcDbPoint
  62
7
  10
 1989.4190227161
  20
 970.90655360227
  30
0.0
   0
POINT
   5
2E8
 100
AcDbEntity
   8
LEVEL001
 100
AcDbPoint
  62
7
  10
 1809.4190227161
  20
 1074.8752391885
  30
0.0
   0
POINT
   5
2E9
 100
AcDbEntity
   8
LEVEL001
 100
AcDbPoint
  62
7
  10
 1989.4190227161
  20
 1074.8752391885
  30
0.0
   0
ELLIPSE
   5
2EA
 100
AcDbEntity
   8
LEVEL001
 370
30
   6
CONTINUOUS
  62
7
 100
AcDbEllipse
  10
 1906.4190227161
  20
 1024.6237078218
  30
0.0
  11
 28.000000000000
  21
-0.88184538071800E-6
  31
0.0
  40
 0.86640571321820
  41
-1.0471975216453
  42
-2.0943950728373
   0
ELLIPSE
   5
2EB
 100
AcDbEntity
   8
LEVEL001
 370
30
   6
CONTINUOUS
  62
7
 100
AcDbEllipse
  10
 1906.4190227161
  20
 1039.1045882794
  30
0.0
  11
 11.250000000000
  21
-0.38693610804330E-6
  31
0.0
  40
 0.86640571321820
  41
0.0
  42
 6.2831853071796
   0
ELLIPSE
   5
2EC
 100
AcDbEntity
   8
LEVEL001
 370
30
   6
CONTINUOUS
  62
7
 100
AcDbEllipse
  10
 1906.4190227161
  20
 1039.1045882794
  30
0.0
  11
 9.0000000000000
  21
-0.83326540334383E-7
  31
0.0
  40
 0.86640571321820
  41
0.0
  42
 6.2831853071796
   0
LINE
   5
2ED
 100
AcDbEntity
   8
LEVEL001
 370
30
 100
AcDbLine
   6
CONTINUOUS
  62
7
  10
 1892.4190227162
  20
 1003.6144858081
  30
0.0
  11
 1897.6690227162
  21
 1011.4929440632
  31
0.0
   0
LINE
   5
2EE
 100
AcDbEntity
   8
LEVEL001
 370
30
 100
AcDbLine
   6
CONTINUOUS
  62
7
  10
 1888.4209696449
  20
 1006.0399599231
  30
0.0
  11
 1891.3135138885
  21
 1009.0266336925
  31
0.0
   0
LINE
   5
2EF
 100
AcDbEntity
   8
LEVEL001
 370
30
 100
AcDbLine
   6
CONTINUOUS
  62
7
  10
 1884.9697783088
  20
 1009.0300918141
  30
0.0
  11
 1888.4169783028
  21
 1011.5362086725
  31
0.0
   0
LINE
   5
2F0
 100
AcDbEntity
   8
LEVEL001
 370
30
 100
AcDbLine
   6
CONTINUOUS
  62
7
  10
 1882.1703114102
  20
 1012.4940278367
  30
0.0
  11
 1889.9645400443
  21
 1016.3928535461
  31
0.0
   0
LINE
   5
2F1
 100
AcDbEntity
   8
LEVEL001
 370
30
 100
AcDbLine
   6
CONTINUOUS
  62
7
  10
 1880.1076293341
  20
 1016.3265180478
  30
0.0
  11
 1884.3362461277
  21
 1017.6599949758
  31
0.0
   0
LINE
   5
2F2
 100
AcDbEntity
   8
LEVEL001
 370
30
 100
AcDbLine
   6
CONTINUOUS
  62
7
  10
 1878.8444056318
  20
 1020.4111141716
  30
0.0
  11
 1883.2760405203
  21
 1021.0881381511
  31
0.0
   0
LINE
   5
2F3
 100
AcDbEntity
   8
LEVEL001
 370
30
 100
AcDbLine
   6
CONTINUOUS
  62
7
  10
 1878.4190227161
  20
 1024.6237078218
  30
0.0
  11
 1887.4190227161
  21
 1024.6237078218
  31
0.0
   0
LINE
   5
2F4
 100
AcDbEntity
   8
LEVEL001
 370
30
 100
AcDbLine
   6
CONTINUOUS
  62
7
  10
 1878.8444056318
  20
 1028.8363014720
  30
0.0
  11
 1883.2760405203
  21
 1028.1592774925
  31
0.0
   0
LINE
   5
2F5
 100
AcDbEntity
   8
LEVEL001
 370
30
 100
AcDbLine
   6
CONTINUOUS
  62
7
  10
 1880.1076293341
  20
 1032.9208975958
  30
0.0
  11
 1884.3362461277
  21
 1031.5874206678
  31
0.0
   0
LINE
   5
2F6
 100
AcDbEntity
   8
LEVEL001
 370
30
 100
AcDbLine
   6
CONTINUOUS
  62
7
  10
 1882.1703114101
  20
 1036.7533878068
  30
0.0
  11
 1889.9645400442
  21
 1032.8545620973
  31
0.0
   0
LINE
   5
2F7
 100
AcDbEntity
   8
LEVEL001
 370
30
 100
AcDbLine
   6
CONTINUOUS
  62
7
  10
 1884.9697783088
  20
 1040.2173238295
  30
0.0
  11
 1888.4169783028
  21
 1037.7112069711
  31
0.0
   0
LINE
   5
2F8
 100
AcDbEntity
   8
LEVEL001
 370
30
 100
AcDbLine
   6
CONTINUOUS
  62
7
  10
 1888.4209696449
  20
 1043.2074557205
  30
0.0
  11
 1891.3135138885
  21
 1040.2207819511
  31
0.0
   0
LINE
   5
2F9
 100
AcDbEntity
   8
LEVEL001
 370
30
 100
AcDbLine
   6
CONTINUOUS
  62
7
  10
 1924.4170757874
  20
 1043.2074557205
  30
0.0
  11
 1921.5245315438
  21
 1040.2207819511
  31
0.0
   0
LINE
   5
2FA
 100
AcDbEntity
   8
LEVEL001
 370
30
 100
AcDbLine
   6
CONTINUOUS
  62
7
  10
 1927.8682671235
  20
 1040.2173238295
  30
0.0
  11
 1924.4210671294
  21
 1037.7112069711
  31
0.0
   0
LINE
   5
2FB
 100
AcDbEntity
   8
LEVEL001
 370
30
 100
AcDbLine
   6
CONTINUOUS
  62
7
  10
 1930.6677340221
  20
 1036.7533878068
  30
0.0
  11
 1922.8735053881
  21
 1032.8545620973
  31
0.0
   0
LINE
   5
2FC
 100
AcDbEntity
   8
LEVEL001
 370
30
 100
AcDbLine
   6
CONTINUOUS
  62
7
  10
 1932.7304160981
  20
 1032.9208975958
  30
0.0
  11
 1928.5017993046
  21
 1031.5874206678
  31
0.0
   0
LINE
   5
2FD
 100
AcDbEntity
   8
LEVEL001
 370
30
 100
AcDbLine
   6
CONTINUOUS
  62
7
  10
 1933.9936398005
  20
 1028.8363014720
  30
0.0
  11
 1929.5620049119
  21
 1028.1592774925
  31
0.0
   0
LINE
   5
2FE
 100
AcDbEntity
   8
LEVEL001
 370
30
 100
AcDbLine
   6
CONTINUOUS
  62
7
  10
 1934.4190227161
  20
 1024.6237078218
  30
0.0
  11
 1925.4190227161
  21
 1024.6237078218
  31
0.0
   0
LINE
   5
2FF
 100
AcDbEntity
   8
LEVEL001
 370
30
 100
AcDbLine
   6
CONTINUOUS
  62
7
  10
 1933.9936398005
  20
 1020.4111141716
  30
0.0
  11
 1929.5620049119
  21
 1021.0881381511
  31
0.0
   0
LINE
   5
300
 100
AcDbEntity
   8
LEVEL001
 370
30
 100
AcDbLine
   6
CONTINUOUS
  62
7
  10
 1932.7304160981
  20
 1016.3265180478
  30
0.0
  11
 1928.5017993046
  21
 1017.6599949758
  31
0.0
   0
LINE
   5
301
 100
AcDbEntity
   8
LEVEL001
 370
30
 100
AcDbLine
   6
CONTINUOUS
  62
7
  10
 1930.6677340221
  20
 1012.4940278367
  30
0.0
  11
 1922.8735053880
  21
 1016.3928535462
  31
0.0
   0
LINE
   5
302
 100
AcDbEntity
   8
LEVEL001
 370
30
 100
AcDbLine
   6
CONTINUOUS
  62
7
  10
 1927.8682671234
  20
 1009.0300918140
  30
0.0
  11
 1924.4210671294
  21
 1011.5362086724
  31
0.0
   0
LINE
   5
303
 100
AcDbEntity
   8
LEVEL001
 370
30
 100
AcDbLine
   6
CONTINUOUS
  62
7
  10
 1924.4170757874
  20
 1006.0399599231
  30
0.0
  11
 1921.5245315438
  21
 1009.0266336925
  31
0.0
   0
LINE
   5
304
 100
AcDbEntity
   8
LEVEL001
 370
30
 100
AcDbLine
   6
CONTINUOUS
  62
7
  10
 1920.4190227161
  20
 1003.6144858081
  30
0.0
  11
 1915.1690227161
  21
 1011.4929440632
  31
0.0
   0
ELLIPSE
   5
305
 100
AcDbEntity
   8
LEVEL001
 370
30
   6
CONTINUOUS
  62
7
 100
AcDbEllipse
  10
 1906.4190227161
  20
 1024.6237078218
  30
0.0
  11
 17.500000000000
  21
-0.27248393053014E-6
  31
0.0
  40
 0.86640571321820
  41
-3.1415926356184
  42
 0.17971391705514E-7
   0
ELLIPSE
   5
306
 100
AcDbEntity
   8
LEVEL001
 370
30
   6
CONTINUOUS
  62
7
 100
AcDbEllipse
  10
 1906.4190227161
  20
 1024.6237078218
  30
0.0
  11
 19.000000000000
  21
-0.27063947527495E-6
  31
0.0
  40
 0.86640571321820
  41
-1.0471975378330
  42
 0.48171258824480
   0
ELLIPSE
   5
307
 100
AcDbEntity
   8
LEVEL001
 370
30
   6
CONTINUOUS
  62
7
 100
AcDbEllipse
  10
 1906.4190227161
  20
 1024.6237078218
  30
0.0
  11
 19.000000000000
  21
-0.27063947527495E-6
  31
0.0
  40
 0.86640571321820
  41
 2.6598800982261
  42
-2.0943950890227
   0
LINE
   5
308
 100
AcDbEntity
   8
LEVEL001
 370
30
 100
AcDbLine
   6
CONTINUOUS
  62
7
  10
 1892.4190227162
  20
 1045.6329298355
  30
0.0
  11
 1895.4159533929
  21
 1041.1355596964
  31
0.0
   0
LINE
   5
309
 100
AcDbEntity
   8
LEVEL001
 370
30
 100
AcDbLine
   6
CONTINUOUS
  62
7
  10
 1896.8424587030
  20
 1047.4200493707
  30
0.0
  11
 1897.7333531594
  21
 1045.2993373613
  31
0.0
   0
LINE
   5
30A
 100
AcDbEntity
   8
LEVEL001
 370
30
 100
AcDbLine
   6
CONTINUOUS
  62
7
  10
 1901.5568737415
  20
 1048.5145136035
  30
0.0
  11
 1901.6733912555
  21
 1047.9419895382
  31
0.0
   0
LINE
   5
30B
 100
AcDbEntity
   8
LEVEL001
 370
30
 100
AcDbLine
   6
CONTINUOUS
  62
7
  10
 1911.2811716908
  20
 1048.5145136035
  30
0.0
  11
 1911.1646541615
  21
 1047.9419894630
  31
0.0
   0
LINE
   5
30C
 100
AcDbEntity
   8
LEVEL001
 370
30
 100
AcDbLine
   6
CONTINUOUS
  62
7
  10
 1915.9955867292
  20
 1047.4200493707
  30
0.0
  11
 1915.1046922294
  21
 1045.2993372580
  31
0.0
   0
LINE
   5
30D
 100
AcDbEntity
   8
LEVEL001
 370
30
 100
AcDbLine
   6
CONTINUOUS
  62
7
  10
 1920.4190227162
  20
 1045.6329298354
  30
0.0
  11
 1917.4220920055
  21
 1041.1355596454
  31
0.0
   0
ELLIPSE
   5
30E
 100
AcDbEntity
   8
LEVEL001
 370
30
   6
CONTINUOUS
  62
7
 100
AcDbEllipse
  10
 1906.4190227161
  20
 1028.1190927598
  30
0.0
  11
 17.500000000000
  21
-0.27248393053014E-6
  31
0.0
  40
 0.86640571321820
  41
 2.2671724721931
  42
 0.87442021733951
   0
LINE
   5
30F
 100
AcDbEntity
   8
LEVEL001
 370
30
 100
AcDbLine
   6
CONTINUOUS
  62
7
  10
 1888.9190227161
  20
 1024.6237078218
  30
0.0
  11
 1888.9190227161
  21
 1028.1190927598
  31
0.0
   0
LINE
   5
310
 100
AcDbEntity
   8
LEVEL001
 370
30
 100
AcDbLine
   6
CONTINUOUS
  62
7
  10
 1923.9190227161
  20
 1024.6237078218
  30
0.0
  11
 1923.9190227161
  21
 1028.1190927598
  31
0.0
   0
ELLIPSE
   5
311
 100
AcDbEntity
   8
LEVEL001
 370
30
   6
CONTINUOUS
  62
7
 100
AcDbEllipse
  10
 1848.4190227161
  20
 1046.1813370398
  30
0.0
  11
 14.250000000000
  21
-0.36700407690660E-6
  31
0.0
  40
 0.86640571321820
  41
 2.4989334751975
  42
 0.64265923784407
   0
ELLIPSE
   5
312
 100
AcDbEntity
   8
LEVEL001
 370
30
   6
CONTINUOUS
  62
7
 100
AcDbEllipse
  10
 1848.4190227161
  20
 1043.6846335126
  30
0.0
  11
 14.250000000000
  21
-0.36700407690660E-6
  31
0.0
  40
 0.86640571321820
  41
-3.1415926238639
  42
 0.29725876327276E-7
   0
LINE
   5
313
 100
AcDbEntity
   8
LEVEL001
 370
30
 100
AcDbLine
   6
CONTINUOUS
  62
7
  10
 1834.1690227161
  20
 1046.1813370398
  30
0.0
  11
 1834.1690227161
  21
 1043.6846335126
  31
0.0
   0
LINE
   5
314
 100
AcDbEntity
   8
LEVEL001
 370
30
 100
AcDbLine
   6
CONTINUOUS
  62
7
  10
 1862.6690227161
  20
 1046.1813370398
  30
0.0
  11
 1862.6690227161
  21
 1043.6846335126
  31
0.0
   0
ELLIPSE
   5
315
 100
AcDbEntity
   8
LEVEL001
 370
30
   6
CONTINUOUS
  62
7
 100
AcDbEllipse
  10
 1848.4190227161
  20
 1048.1786998615
  30
0.0
  11
 13.000000000000
  21
-0.52038762987650E-6
  31
0.0
  40
 0.86640571321820
  41
 2.5903408017490
  42
 0.55125194424512
   0
ELLIPSE
   5
316
 100
AcDbEntity
   8
LEVEL001
 370
30
   6
CONTINUOUS
  62
7
 100
AcDbEllipse
  10
 1848.4190227161
  20
 1048.1786998615
  30
0.0
  11
 11.750000000000
  21
-0.35309153645358E-6
  31
0.0
  40
 0.86640571321820
  41
 3.0186586192794
  42
 0.12293410367819
   0
LWPOLYLINE
   5
317
 100
AcDbEntity
   8
LEVEL001
 370
30
   6
CONTINUOUS
  62
7
 100
AcDbPolyline
  90
4
  70
1
  10
 1843.4190227161
  20
 1046.5715504542
  10
 1853.4190227161
  20
 1046.5715504542
  10
 1853.4190227161
  20
 1064.7660704318
  10
 1843.4190227161
  20
 1064.7660704318
   0
LWPOLYLINE
   5
318
 100
AcDbEntity
   8
LEVEL001
 370
30
   6
CONTINUOUS
  62
7
 100
AcDbPolyline
  90
4
  70
0
  10
 1845.4190227161
  20
 1064.7660704318
  10
 1845.4190227161
  20
 1050.0371733071
  10
 1851.4190227161
  20
 1050.0371733071
  10
 1851.4190227161
  20
 1064.7660704318
   0
LINE
   5
319
 100
AcDbEntity
   8
LEVEL001
 370
30
 100
AcDbLine
   6
CONTINUOUS
  62
7
  10
 1848.4190227161
  20
 1052.6363904467
  30
0.0
  11
 1848.4190227161
  21
 1064.7660704318
  31
0.0
   0
LWPOLYLINE
   5
31A
 100
AcDbEntity
   8
LEVEL001
 370
30
   6
CONTINUOUS
  62
7
 100
AcDbPolyline
  90
4
  70
0
  10
 1843.4190227161
  20
 1046.5715504542
  10
 1843.4190227161
  20
 1041.5781433999
  10
 1853.4190227161
  20
 1041.5781433999
  10
 1853.4190227161
  20
 1046.5715504542
   0
ELLIPSE
   5
31B
 100
AcDbEntity
   8
LEVEL001
 370
30
   6
CONTINUOUS
  62
7
 100
AcDbEllipse
  10
 1848.4190227161
  20
 1050.6754033887
  30
0.0
  11
 11.750000000000
  21
-0.35309153645358E-6
  31
0.0
  40
 0.86640571321820
  41
 2.0103459452789
  42
 1.1312467603825
   0
ARC
   5
31C
 100
AcDbEntity
   8
LEVEL001
 370
30
   6
CONTINUOUS
  62
7
 100
AcDbCircle
  10
 1962.4190227161
  20
 1044.6833149235
  30
0.0
  40
 9.0000000000000
 100
AcDbArc
  50
0.0
  51
 180.00000000000
   0
ELLIPSE
   5
31D
 100
AcDbEntity
   8
LEVEL001
 370
30
   6
CONTINUOUS
  62
7
 100
AcDbEllipse
  10
 1962.4190227161
  20
 1044.6833149235
  30
0.0
  11
 9.0000000000000
  21
-0.83326540334383E-7
  31
0.0
  40
 0.86640571321820
  41
-3.1415926429037
  42
 0.10686109102199E-7
   0
ELLIPSE
   5
31E
 100
AcDbEntity
   8
LEVEL001
 370
30
   6
CONTINUOUS
  62
7
 100
AcDbEllipse
  10
 1962.4190227161
  20
 1030.0139419691
  30
0.0
  11
 7.0000000000000
  21
-0.22046128833608E-6
  31
0.0
  40
 0.86640571321820
  41
0.0
  42
 6.2831853071796
   0
ELLIPSE
   5
31F
 100
AcDbEntity
   8
LEVEL001
 370
30
   6
CONTINUOUS
  62
7
 100
AcDbEllipse
  10
 1962.4190227161
  20
 1022.5238313876
  30
0.0
  11
 9.0000000000000
  21
-0.83326540334383E-7
  31
0.0
  40
 0.86640571321820
  41
 2.9808074908939
  42
 0.16078518406808
   0
ELLIPSE
   5
320
 100
AcDbEntity
   8
LEVEL001
 370
30
   6
CONTINUOUS
  62
7
 100
AcDbEllipse
  10
 1962.4190227161
  20
 1025.0205349147
  30
0.0
  11
 9.0000000000000
  21
-0.83326540334383E-7
  31
0.0
  40
 0.86640571321820
  41
 2.4660944512365
  42
 0.67549821692350
   0
ELLIPSE
   5
321
 100
AcDbEntity
   8
LEVEL001
 370
30
   6
CONTINUOUS
  62
7
 100
AcDbEllipse
  10
 1848.4190227161
  20
 1008.0594856582
  30
0.0
  11
 14.250000000000
  21
-0.36700407690660E-6
  31
0.0
  40
 0.86640571321820
  41
 2.4989334751975
  42
 0.64265923784402
   0
ELLIPSE
   5
322
 100
AcDbEntity
   8
LEVEL001
 370
30
   6
CONTINUOUS
  62
7
 100
AcDbEllipse
  10
 1848.4190227161
  20
 1005.5627821310
  30
0.0
  11
 14.250000000000
  21
-0.36700407690660E-6
  31
0.0
  40
 0.86640571321820
  41
-3.1415926238639
  42
 0.29725876327276E-7
   0
LINE
   5
323
 100
AcDbEntity
   8
LEVEL001
 370
30
 100
AcDbLine
   6
CONTINUOUS
  62
7
  10
 1834.1690227161
  20
 1008.0594856582
  30
0.0
  11
 1834.1690227161
  21
 1005.5627821310
  31
0.0
   0
LINE
   5
324
 100
AcDbEntity
   8
LEVEL001
 370
30
 100
AcDbLine
   6
CONTINUOUS
  62
7
  10
 1862.6690227161
  20
 1008.0594856582
  30
0.0
  11
 1862.6690227161
  21
 1005.5627821310
  31
0.0
   0
ELLIPSE
   5
325
 100
AcDbEntity
   8
LEVEL001
 370
30
   6
CONTINUOUS
  62
7
 100
AcDbEllipse
  10
 1848.4190227161
  20
 1010.0568484799
  30
0.0
  11
 13.000000000000
  21
-0.52038751618966E-6
  31
0.0
  40
 0.86640571321820
  41
 2.5903408017490
  42
 0.55125194424512
   0
ELLIPSE
   5
326
 100
AcDbEntity
   8
LEVEL001
 370
30
   6
CONTINUOUS
  62
7
 100
AcDbEllipse
  10
 1848.4190227161
  20
 1010.0568484799
  30
0.0
  11
 11.750000000000
  21
-0.35309142276674E-6
  31
0.0
  40
 0.86640571321820
  41
 3.0186586192793
  42
 0.12293410367827
   0
LWPOLYLINE
   5
327
 100
AcDbEntity
   8
LEVEL001
 370
30
   6
CONTINUOUS
  62
7
 100
AcDbPolyline
  90
4
  70
1
  10
 1843.4190227161
  20
 1008.4496990726
  10
 1853.4190227161
  20
 1008.4496990726
  10
 1853.4190227161
  20
 1026.6442190502
  10
 1843.4190227161
  20
 1026.6442190502
   0
LWPOLYLINE
   5
328
 100
AcDbEntity
   8
LEVEL001
 370
30
   6
CONTINUOUS
  62
7
 100
AcDbPolyline
  90
4
  70
0
  10
 1845.4190227161
  20
 1026.6442190502
  10
 1845.4190227161
  20
 1011.9153219255
  10
 1851.4190227161
  20
 1011.9153219255
  10
 1851.4190227161
  20
 1026.6442190502
   0
LINE
   5
329
 100
AcDbEntity
   8
LEVEL001
 370
30
 100
AcDbLine
   6
CONTINUOUS
  62
7
  10
 1848.4190227161
  20
 1014.5145390651
  30
0.0
  11
 1848.4190227161
  21
 1026.6442190502
  31
0.0
   0
LWPOLYLINE
   5
32A
 100
AcDbEntity
   8
LEVEL001
 370
30
   6
CONTINUOUS
  62
7
 100
AcDbPolyline
  90
4
  70
0
  10
 1843.4190227161
  20
 1008.4496990726
  10
 1843.4190227161
  20
 1003.4562920183
  10
 1853.4190227161
  20
 1003.4562920183
  10
 1853.4190227161
  20
 1008.4496990726
   0
ELLIPSE
   5
32B
 100
AcDbEntity
   8
LEVEL001
 370
30
   6
CONTINUOUS
  62
7
 100
AcDbEllipse
  10
 1848.4190227161
  20
 1012.5535520071
  30
0.0
  11
 11.750000000000
  21
-0.35309142276674E-6
  31
0.0
  40
 0.86640571321820
  41
 2.0103459452788
  42
 1.1312467603825
   0
ELLIPSE
   5
32C
 100
AcDbEntity
   8
LEVEL001
 370
30
   6
CONTINUOUS
  62
7
 100
AcDbEllipse
  10
 1962.4190227161
  20
 1000.3643478517
  30
0.0
  11
 10.500000000000
  21
-0.22946096578380E-6
  31
0.0
  40
 0.86640571321820
  41
 3.1141446663587
  42
 0.27448037677267E-1
   0
ELLIPSE
   5
32D
 100
AcDbEntity
   8
LEVEL001
 370
30
   6
CONTINUOUS
  62
7
 100
AcDbEllipse
  10
 1962.4190227161
  20
 1008.3537991386
  30
0.0
  11
 7.0000000000000
  21
-0.22046140202292E-6
  31
0.0
  40
 0.86640571321820
  41
0.0
  42
 6.2831853071796
   0
ELLIPSE
   5
32E
 100
AcDbEntity
   8
LEVEL001
 370
30
   6
CONTINUOUS
  62
7
 100
AcDbEllipse
  10
 1962.4190227161
  20
 1000.8636885571
  30
0.0
  11
 10.500000000000
  21
-0.22946096578380E-6
  31
0.0
  40
 0.86640571321820
  41
 2.4721208305600
  42
 0.66947187347600
   0
ELLIPSE
   5
32F
 100
AcDbEntity
   8
LEVEL001
 370
30
   6
CONTINUOUS
  62
7
 100
AcDbEllipse
  10
 1962.4190227161
  20
 1000.8636885571
  30
0.0
  11
 9.0000000000000
  21
-0.83326540334383E-7
  31
0.0
  40
 0.86640571321820
  41
 2.9808074908939
  42
 0.16078518406808
   0
ELLIPSE
   5
330
 100
AcDbEntity
   8
LEVEL001
 370
30
   6
CONTINUOUS
  62
7
 100
AcDbEllipse
  10
 1962.4190227161
  20
 1003.3603920843
  30
0.0
  11
 9.0000000000000
  21
-0.83326540334383E-7
  31
0.0
  40
 0.86640571321820
  41
 2.4660944512366
  42
 0.67549821692341
   0
ELLIPSE
   5
331
 100
AcDbEntity
   8
LEVEL001
 370
30
   6
CONTINUOUS
  62
7
 100
AcDbEllipse
  10
 1962.4190227161
  20
 1022.0244906821
  30
0.0
  11
 10.500000000000
  21
-0.22946096578380E-6
  31
0.0
  40
 0.86640571321820
  41
 3.1141446663587
  42
-1.9298995507623
   0
ELLIPSE
   5
332
 100
AcDbEntity
   8
LEVEL001
 370
30
   6
CONTINUOUS
  62
7
 100
AcDbEllipse
  10
 1962.4190227161
  20
 1022.0244906821
  30
0.0
  11
 10.500000000000
  21
-0.22946096578380E-6
  31
0.0
  40
 0.86640571321820
  41
-1.2116930730206
  42
 0.27448037677267E-1
   0
ELLIPSE
   5
333
 100
AcDbEntity
   8
LEVEL001
 370
30
   6
CONTINUOUS
  62
7
 100
AcDbEllipse
  10
 1962.4190227161
  20
 1022.5238313876
  30
0.0
  11
 10.500000000000
  21
-0.22946096578380E-6
  31
0.0
  40
 0.86640571321820
  41
 2.4721208305599
  42
-1.8646217332565
   0
ELLIPSE
   5
334
 100
AcDbEntity
   8
LEVEL001
 370
30
   6
CONTINUOUS
  62
7
 100
AcDbEllipse
  10
 1962.4190227161
  20
 1022.5238313876
  30
0.0
  11
 10.500000000000
  21
-0.22946096578380E-6
  31
0.0
  40
 0.86640571321820
  41
-1.2769708918289
  42
 0.66947187347608
   0
ELLIPSE
   5
335
 100
AcDbEntity
   8
LEVEL001
 370
30
   6
CONTINUOUS
  62
7
 100
AcDbEllipse
  10
 1962.4190227161
  20
 1043.6846335126
  30
0.0
  11
 10.000000000000
  21
-0.21512664716283E-6
  31
0.0
  40
 0.86640571321820
  41
 2.5419007428255
  42
-1.8866153069989
   0
ELLIPSE
   5
336
 100
AcDbEntity
   8
LEVEL001
 370
30
   6
CONTINUOUS
  62
7
 100
AcDbEllipse
  10
 1962.4190227161
  20
 1043.6846335126
  30
0.0
  11
 10.000000000000
  21
-0.21512664716283E-6
  31
0.0
  40
 0.86640571321820
  41
-1.2549773189283
  42
 0.59969196042384
   0
LINE
   5
337
 100
AcDbEntity
   8
LEVEL001
 370
30
 100
AcDbLine
   6
CONTINUOUS
  62
7
  10
 1955.5251978794
  20
 1031.0662519948
  30
0.0
  11
 1954.5403657597
  21
 1026.2231749590
  31
0.0
   0
LINE
   5
338
 100
AcDbEntity
   8
LEVEL001
 370
30
 100
AcDbLine
   6
CONTINUOUS
  62
7
  10
 1969.3128475542
  20
 1031.0662518801
  30
0.0
  11
 1970.2976796738
  21
 1026.2231747982
  31
0.0
   0
ELLIPSE
   5
339
 100
AcDbEntity
   8
LEVEL001
 370
30
   6
CONTINUOUS
  62
7
 100
AcDbEllipse
  10
 1962.4190227161
  20
 1025.0205349147
  30
0.0
  11
 8.0000000000000
  21
-0.31426861824002E-6
  31
0.0
  40
 0.86640571321820
  41
 2.9672001396088
  42
 0.17439258110710
   0
LINE
   5
33A
 100
AcDbEntity
   8
LEVEL001
 370
30
 100
AcDbLine
   6
CONTINUOUS
  62
7
  10
 1955.5251978794
  20
 1009.4061091643
  30
0.0
  11
 1954.5403657597
  21
 1004.5630321285
  31
0.0
   0
LINE
   5
33B
 100
AcDbEntity
   8
LEVEL001
 370
30
 100
AcDbLine
   6
CONTINUOUS
  62
7
  10
 1969.3128475542
  20
 1009.4061090496
  30
0.0
  11
 1970.2976796738
  21
 1004.5630319677
  31
0.0
   0
ELLIPSE
   5
33C
 100
AcDbEntity
   8
LEVEL001
 370
30
   6
CONTINUOUS
  62
7
 100
AcDbEllipse
  10
 1962.4190227161
  20
 1003.3603920843
  30
0.0
  11
 8.0000000000000
  21
-0.31426873192686E-6
  31
0.0
  40
 0.86640571321820
  41
 2.9672001396088
  42
 0.17439258110710
   0
LINE
   5
33D
 100
AcDbEntity
   8
LEVEL001
 370
30
 100
AcDbLine
   6
CONTINUOUS
  62
7
  10
 1894.6781621675
  20
 1028.5205422671
  30
0.0
  11
 1895.1777732547
  21
 1039.4889548410
  31
0.0
   0
LINE
   5
33E
 100
AcDbEntity
   8
LEVEL001
 370
30
 100
AcDbLine
   6
CONTINUOUS
  62
7
  10
 1917.6602721775
  20
 1039.4889546491
  30
0.0
  11
 1918.1598832647
  21
 1028.5205420920
  31
0.0
   0
ELLIPSE
   5
33F
 100
AcDbEntity
   8
LEVEL001
 370
30
   6
CONTINUOUS
  62
7
 100
AcDbEllipse
  10
 1906.4190227161
  20
 1028.1190927598
  30
0.0
  11
 11.750000000000
  21
-0.35309153645358E-6
  31
0.0
  40
 0.86640571321820
  41
 3.1021483769921
  42
 0.39444328756725E-1
   0
LWPOLYLINE
   5
340
 100
AcDbEntity
   8
LEVEL001
 370
30
   6
CONTINUOUS
  62
7
 100
AcDbPolyline
  90
4
  70
1
  10
 1804.4190227161
  20
 967.32353609433
  10
 1994.4190227161
  20
 967.32353609433
  10
 1994.4190227161
  20
 1079.9562788127
  10
 1804.4190227161
  20
 1079.9562788127
   0
LWPOLYLINE
   5
341
 100
AcDbEntity
   8
LEVEL001
 370
30
   6
CONTINUOUS
  62
7
 100
AcDbPolyline
  90
4
  70
0
  10
 1804.4190227161
  20
 967.32353609433
  10
 1804.4190227161
  20
 966.57452503618
  10
 1994.4190227161
  20
 966.57452503618
  10
 1994.4190227161
  20
 967.32353609433
   0
LWPOLYLINE
   5
342
 100
AcDbEntity
   8
LEVEL001
 370
30
   6
CONTINUOUS
  62
7
 100
AcDbPolyline
  90
4
  70
1
  10
 2036.4190227161
  20
 783.89155548517
  10
 2041.9190227161
  20
 783.89155548517
  10
 2041.9190227161
  20
 927.89155548517
  10
 2036.4190227161
  20
 927.89155548517
   0
LINE
   5
343
 100
AcDbEntity
   8
LEVEL001
 370
30
 100
AcDbLine
   6
CONTINUOUS
  62
7
  10
 2037.4190227161
  20
 927.89155548517
  30
0.0
  11
 2037.4190227161
  21
 783.89155548517
  31
0.0
   0
LWPOLYLINE
   5
344
 100
AcDbEntity
   8
LEVEL001
 370
30
   6
CONTINUOUS
  62
7
 100
AcDbPolyline
  90
4
  70
0
  10
 2036.4190227161
  20
 930.89155548517
  10
 2049.4190227161
  20
 930.89155548517
  10
 2049.4190227161
  20
 927.89155548517
  10
 2041.9190227161
  20
 927.89155548517
   0
LWPOLYLINE
   5
345
 100
AcDbEntity
   8
LEVEL001
 370
30
   6
CONTINUOUS
  62
7
 100
AcDbPolyline
  90
5
  70
0
  10
 1763.4190227161
  20
 853.89155548517
  10
 1760.4190227161
  20
 853.89155548517
  10
 1760.4190227161
  20
 954.89155548517
  10
 1763.4190227161
  20
 954.89155548517
  10
 1763.4190227161
  20
 856.89155548517
   0
LWPOLYLINE
   5
346
 100
AcDbEntity
   8
LEVEL001
 370
30
   6
CONTINUOUS
  62
7
 100
AcDbPolyline
  90
4
  70
1
  10
 1762.9190227161
  20
 782.89155548517
  10
 1762.9190227161
  20
 785.89155548517
  10
 937.41902271613
  20
 785.89155548517
  10
 937.41902271613
  20
 782.89155548517
   0
LWPOLYLINE
   5
347
 100
AcDbEntity
   8
LEVEL001
 370
30
   6
CONTINUOUS
  62
7
 100
AcDbPolyline
  90
4
  70
1
  10
 938.41902271613
  20
 609.89155548517
  10
 1039.4190227161
  20
 609.89155548517
  10
 1039.4190227161
  20
 780.89155548517
  10
 938.41902271613
  20
 780.89155548517
   0
LWPOLYLINE
   5
348
 100
AcDbEntity
   8
LEVEL001
 370
30
   6
CONTINUOUS
  62
7
 100
AcDbPolyline
  90
8
  70
0
  10
 1039.4190227161
  20
 559.89155548517
  10
 1039.4190227161
  20
 531.89155548517
  10
 1019.4190227161
  20
 531.89155548517
  10
 1019.4190227161
  20
 535.09155548517
  10
 1036.2190227161
  20
 535.09155548517
  10
 1036.2190227161
  20
 556.69155548517
  10
 1019.4190227161
  20
 556.69155548517
  10
 1019.4190227161
  20
 559.89155548517
   0
LWPOLYLINE
   5
349
 100
AcDbEntity
   8
LEVEL001
 370
30
   6
CONTINUOUS
  62
7
 100
AcDbPolyline
  90
8
  70
0
  10
 1039.4190227161
  20
 609.89155548517
  10
 1039.4190227161
  20
 559.89155548517
  10
 1019.4190227161
  20
 559.89155548517
  10
 1019.4190227161
  20
 563.09155548517
  10
 1036.2190227161
  20
 563.09155548517
  10
 1036.2190227161
  20
 609.69155548517
  10
 1019.4190227161
  20
 609.69155548517
  10
 1019.4190227161
  20
 609.89155548517
   0
LWPOLYLINE
   5
34A
 100
AcDbEntity
   8
LEVEL001
 370
30
   6
CONTINUOUS
  62
7
 100
AcDbPolyline
  90
8
  70
0
  10
 1764.4190227161
  20
 559.89155548517
  10
 1764.4190227161
  20
 531.89155548517
  10
 1784.4190227161
  20
 531.89155548517
  10
 1784.4190227161
  20
 535.09155548517
  10
 1767.6190227161
  20
 535.09155548517
  10
 1767.6190227161
  20
 556.69155548517
  10
 1784.4190227161
  20
 556.69155548517
  10
 1784.4190227161
  20
 559.89155548517
   0
LWPOLYLINE
   5
34B
 100
AcDbEntity
   8
LEVEL001
 370
30
   6
CONTINUOUS
  62
7
 100
AcDbPolyline
  90
8
  70
0
  10
 1764.4190227161
  20
 609.89155548517
  10
 1764.4190227161
  20
 559.89155548517
  10
 1784.4190227161
  20
 559.89155548517
  10
 1784.4190227161
  20
 563.09155548517
  10
 1767.6190227161
  20
 563.09155548517
  10
 1767.6190227161
  20
 609.69155548517
  10
 1784.4190227161
  20
 609.69155548517
  10
 1784.4190227161
  20
 609.89155548517
   0
LWPOLYLINE
   5
34C
 100
AcDbEntity
   8
LEVEL001
 370
30
   6
CONTINUOUS
  62
7
 100
AcDbPolyline
  90
8
  70
0
  10
 1964.4190227161
  20
 559.89155548517
  10
 1964.4190227161
  20
 531.89155548517
  10
 1984.4190227161
  20
 531.89155548517
  10
 1984.4190227161
  20
 535.09155548517
  10
 1967.6190227161
  20
 535.09155548517
  10
 1967.6190227161
  20
 556.69155548517
  10
 1984.4190227161
  20
 556.69155548517
  10
 1984.4190227161
  20
 559.89155548517
   0
LWPOLYLINE
   5
34D
 100
AcDbEntity
   8
LEVEL001
 370
30
   6
CONTINUOUS
  62
7
 100
AcDbPolyline
  90
8
  70
0
  10
 1964.4190227161
  20
 609.89155548517
  10
 1964.4190227161
  20
 559.89155548517
  10
 1984.4190227161
  20
 559.89155548517
  10
 1984.4190227161
  20
 563.09155548517
  10
 1967.6190227161
  20
 563.09155548517
  10
 1967.6190227161
  20
 609.69155548517
  10
 1984.4190227161
  20
 609.69155548517
  10
 1984.4190227161
  20
 609.89155548517
   0
LWPOLYLINE
   5
34E
 100
AcDbEntity
   8
LEVEL001
 370
30
   6
CONTINUOUS
  62
7
 100
AcDbPolyline
  90
4
  70
0
  10
 950.41902271613
  20
 1000.8915554852
  10
 937.41902271613
  20
 1000.8915554852
  10
 937.41902271613
  20
 609.89155548517
  10
 938.41902271613
  20
 609.89155548517
   0
LWPOLYLINE
   5
34F
 100
AcDbEntity
   8
LEVEL001
 370
30
   6
CONTINUOUS
  62
7
 100
AcDbPolyline
  90
3
  70
0
  10
 950.41902271613
  20
 999.89155548517
  10
 938.41902271613
  20
 999.89155548517
  10
 938.41902271613
  20
 785.89155548517
   0
LWPOLYLINE
   5
350
 100
AcDbEntity
   8
LEVEL001
 370
30
   6
CONTINUOUS
  62
7
 100
AcDbPolyline
  90
3
  70
0
  10
 1038.4190227161
  20
 785.89155548517
  10
 1038.4190227161
  20
 999.89155548517
  10
 962.41902271613
  20
 999.89155548517
   0
LWPOLYLINE
   5
351
 100
AcDbEntity
   8
LEVEL001
 370
30
   6
CONTINUOUS
  62
7
 100
AcDbPolyline
  90
4
  70
0
  10
 1039.4190227161
  20
 785.89155548517
  10
 1039.4190227161
  20
 999.89155548517
  10
 1049.4190227161
  20
 999.89155548517
  10
 1049.4190227161
  20
 785.89155548517
   0
LINE
   5
352
 100
AcDbEntity
   8
LEVEL001
 370
30
 100
AcDbLine
   6
CONTINUOUS
  62
7
  10
 1051.9190227161
  20
 810.94581262882
  30
0.0
  11
 1051.9190227161
  21
 785.89155548517
  31
0.0
   0
LINE
   5
353
 100
AcDbEntity
   8
LEVEL001
 370
30
 100
AcDbLine
   6
CONTINUOUS
  62
7
  10
 1751.9190227161
  20
 785.89155548517
  30
0.0
  11
 1751.9190227161
  21
 810.94581262882
  31
0.0
   0
LWPOLYLINE
   5
354
 100
AcDbEntity
   8
LEVEL001
 370
30
   6
CONTINUOUS
  62
7
 100
AcDbPolyline
  90
3
  70
0
  10
 1763.4190227161
  20
 999.89155548517
  10
 1754.4190227161
  20
 999.89155548517
  10
 1754.4190227161
  20
 785.89155548517
   0
LWPOLYLINE
   5
355
 100
AcDbEntity
   8
LEVEL001
 370
30
   6
CONTINUOUS
  62
7
 100
AcDbPolyline
  90
4
  70
1
  10
 173.01902271613
  20
 556.89155548517
  10
 484.01902271613
  20
 556.89155548517
  10
 484.01902271613
  20
 1000.8915554852
  10
 173.01902271613
  20
 1000.8915554852
   0
ARC
   5
356
 100
AcDbEntity
   8
LEVEL001
 370
30
   6
CONTINUOUS
  62
7
 100
AcDbCircle
  10
 384.01902271613
  20
 924.39155548517
  30
0.0
  40
 101.00000000000
 100
AcDbArc
  50
 78.578813725001
  51
 101.42118627500
   0
LWPOLYLINE
   5
357
 100
AcDbEntity
   8
LEVEL001
 370
30
   6
CONTINUOUS
  62
7
 100
AcDbPolyline
  90
4
  70
0
  10
 364.01902271613
  20
 1023.3915554852
  10
 364.01902271613
  20
 1019.3915554852
  10
 404.01902271613
  20
 1019.3915554852
  10
 404.01902271613
  20
 1023.3915554852
   0
LWPOLYLINE
   5
358
 100
AcDbEntity
   8
LEVEL001
 370
30
   6
CONTINUOUS
  62
7
 100
AcDbPolyline
  90
6
  70
1
  10
 401.01902271613
  20
 1000.8915554852
  10
 401.01902271613
  20
 1006.8915554852
  10
 399.01902271613
  20
 1012.8915554852
  10
 369.01902271613
  20
 1012.8915554852
  10
 367.01902271613
  20
 1006.8915554852
  10
 367.01902271613
  20
 1000.8915554852
   0
LINE
   5
359
 100
AcDbEntity
   8
LEVEL001
 370
30
 100
AcDbLine
   6
CONTINUOUS
  62
7
  10
 401.01902271613
  20
 1006.8915554852
  30
0.0
  11
 367.01902271613
  21
 1006.8915554852
  31
0.0
   0
LINE
   5
35A
 100
AcDbEntity
   8
LEVEL001
 370
30
 100
AcDbLine
   6
CONTINUOUS
  62
7
  10
 396.51902271613
  20
 1012.8915554852
  30
0.0
  11
 396.51902271613
  21
 1019.3915554852
  31
0.0
   0
LINE
   5
35B
 100
AcDbEntity
   8
LEVEL001
 370
30
 100
AcDbLine
   6
CONTINUOUS
  62
7
  10
 371.51902271613
  20
 1012.8915554852
  30
0.0
  11
 371.51902271613
  21
 1019.3915554852
  31
0.0
   0
LWPOLYLINE
   5
35C
 100
AcDbEntity
   8
LEVEL001
 370
30
   6
CONTINUOUS
  62
7
 100
AcDbPolyline
  90
4
  70
0
  10
 484.01902271613
  20
 729.89155548517
  10
 486.01902271613
  20
 729.89155548517
  10
 486.01902271613
  20
 999.89155548517
  10
 484.01902271613
  20
 999.89155548517
   0
CIRCLE
   5
35D
 100
AcDbEntity
   8
LEVEL001
 370
9
 100
AcDbCircle
   6
HIDDEN
  62
1
  10
 254.01902271613
  20
 774.89155548517
  30
0.0
  40
 56.500000000000
   0
CIRCLE
   5
35E
 100
AcDbEntity
   8
LEVEL001
 370
9
 100
AcDbCircle
   6
HIDDEN
  62
1
  10
 318.87198700524
  20
 867.44581262882
  30
0.0
  40
 56.500000000000
   0
LINE
   5
35F
 100
AcDbEntity
   8
LEVEL001
 370
9
 100
AcDbLine
   6
DASHDOT
  62
1
  10
 318.87198700524
  20
 950.89155548517
  30
0.0
  11
 318.87198700524
  21
 784.00006977247
  31
0.0
   0
LINE
   5
360
 100
AcDbEntity
   8
LEVEL001
 370
9
 100
AcDbLine
   6
DASHDOT
  62
1
  10
 401.41902271613
  20
 867.44581262882
  30
0.0
  11
 236.32495129434
  21
 867.44581262882
  31
0.0
   0
LWPOLYLINE
   5
361
 100
AcDbEntity
   8
LEVEL001
 370
30
   6
CONTINUOUS
  62
7
 100
AcDbPolyline
  90
5
  70
0
  10
 173.01902271613
  20
 756.89155548517
  10
 172.01902271613
  20
 756.89155548517
  10
 172.01902271613
  20
 1001.8915554852
  10
 284.01902271613
  20
 1001.8915554852
  10
 284.01902271613
  20
 1000.8915554852
   0
LINE
   5
362
 100
AcDbEntity
   8
LEVEL001
 370
9
 100
AcDbLine
   6
DASHDOT
  62
1
  10
 332.41902271613
  20
 774.89155548517
  30
0.0
  11
 180.41902271613
  21
 774.89155548517
  31
0.0
   0
LINE
   5
363
 100
AcDbEntity
   8
LEVEL001
 370
9
 100
AcDbLine
   6
DASHDOT
  62
1
  10
 254.01902271613
  20
 855.89155548517
  30
0.0
  11
 254.01902271613
  21
 692.89155548517
  31
0.0
   0
POINT
   5
364
 100
AcDbEntity
   8
LEVEL001
 100
AcDbPoint
  62
6
  10
 397.21902271613
  20
 835.79155548517
  30
0.0
   0
POINT
   5
365
 100
AcDbEntity
   8
LEVEL001
 100
AcDbPoint
  62
6
  10
 397.21902271613
  20
 835.79155548517
  30
0.0
   0
LWPOLYLINE
   5
366
 100
AcDbEntity
   8
LEVEL001
 370
30
   6
CONTINUOUS
  62
7
 100
AcDbPolyline
  90
4
  70
0
  10
 486.01902271613
  20
 990.49155548517
  10
 492.87912668622
  20
 1009.9554841105
  10
 493.82226167483
  20
 1009.6230741328
  10
 494.03336969009
  20
 1010.2220433844
   0
LWPOLYLINE
   5
367
 100
AcDbEntity
   8
LEVEL001
 370
30
   6
CONTINUOUS
  62
7
 100
AcDbPolyline
  90
4
  70
0
  10
 503.46471957621
  20
 1006.8979436077
  10
 503.25361156096
  20
 1006.2989743561
  10
 504.19674654957
  20
 1005.9665643784
  10
 486.01902253325
  20
 954.39155554963
   0
CIRCLE
   5
368
 100
AcDbEntity
   8
LEVEL001
 370
30
 100
AcDbCircle
   6
CONTINUOUS
  62
7
  10
 505.18613617128
  20
 1026.8237240167
  30
0.0
  40
 20.000000000000
   0
POINT
   5
369
 100
AcDbEntity
   8
LEVEL001
 100
AcDbPoint
  62
7
  10
 815.57498647262
  20
 1074.8752391885
  30
0.0
   0
POINT
   5
36A
 100
AcDbEntity
   8
LEVEL001
 100
AcDbPoint
  62
7
  10
 875.49587015015
  20
 970.90655360227
  30
0.0
   0
LWPOLYLINE
   5
36B
 100
AcDbEntity
   8
LEVEL001
 370
30
   6
CONTINUOUS
  62
7
 100
AcDbPolyline
  90
4
  70
1
  10
 877.99257364684
  20
 966.57452501861
  10
 879.29218222194
  20
 967.32353606762
  10
 814.37789130805
  20
 1079.9562792427
  10
 813.07828273295
  20
 1079.2072681937
   0
LWPOLYLINE
   5
36C
 100
AcDbEntity
   8
LEVEL001
 370
30
   6
CONTINUOUS
  62
7
 100
AcDbPolyline
  90
6
  70
1
  10
 827.73525501533
  20
 1056.7799263201
  10
 832.06728359899
  20
 1059.2766298168
  10
 836.15708234009
  20
 1060.1909854683
  10
 849.13994052286
  20
 1037.6644368333
  10
 846.29849353011
  20
 1034.5840668900
  10
 841.96646494645
  20
 1032.0873633933
   0
LINE
   5
36D
 100
AcDbEntity
   8
LEVEL001
 370
30
 100
AcDbLine
   6
CONTINUOUS
  62
7
  10
 832.06728359899
  20
 1059.2766298168
  30
0.0
  11
 846.29849353011
  21
 1034.5840668900
  31
0.0
   0
LWPOLYLINE
   5
36E
 100
AcDbEntity
   8
LEVEL001
 370
30
   6
CONTINUOUS
  62
7
 100
AcDbPolyline
  90
9
  70
0
  10
 841.73746267209
  20
 1060.5216746731
  10
 852.84779323235
  20
 1041.2441474759
  10
 848.51576464869
  20
 1038.7474439792
  10
 836.78125821426
  20
 1059.1079783224
  10
 841.11328679792
  20
 1061.6046818190
  10
 841.73746267209
  20
 1060.5216746731
  10
 850.40151983940
  20
 1065.5150816665
  10
 860.88767452549
  20
 1047.3205616151
  10
 852.22361735818
  20
 1042.3271546218
   0
LWPOLYLINE
   5
36F
 100
AcDbEntity
   8
LEVEL001
 370
30
   6
CONTINUOUS
  62
7
 100
AcDbPolyline
  90
6
  70
1
  10
 849.70624578619
  20
 1018.6580747840
  10
 854.03827436984
  20
 1021.1547782807
  10
 858.12807311094
  20
 1022.0691339321
  10
 871.11093129372
  20
 999.54258529707
  10
 868.26948430097
  20
 996.46221535380
  10
 863.93745571731
  20
 993.96551185711
   0
LINE
   5
370
 100
AcDbEntity
   8
LEVEL001
 370
30
 100
AcDbLine
   6
CONTINUOUS
  62
7
  10
 854.03827436984
  20
 1021.1547782807
  30
0.0
  11
 868.26948430097
  21
 996.46221535380
  31
0.0
   0
LWPOLYLINE
   5
371
 100
AcDbEntity
   8
LEVEL001
 370
30
   6
CONTINUOUS
  62
7
 100
AcDbPolyline
  90
9
  70
0
  10
 863.70845344294
  20
 1022.3998231369
  10
 874.81878400321
  20
 1003.1222959397
  10
 870.48675541955
  20
 1000.6255924430
  10
 858.75224898511
  20
 1020.9861267862
  10
 863.08427756877
  20
 1023.4828302829
  10
 863.70845344294
  20
 1022.3998231369
  10
 872.37251061026
  20
 1027.3932301303
  10
 882.85866529635
  20
 1009.1987100790
  10
 874.19460812903
  20
 1004.2053030856
   0
LWPOLYLINE
   5
372
 100
AcDbEntity
   8
LEVEL001
 370
30
   6
CONTINUOUS
  62
7
 100
AcDbPolyline
  90
4
  70
0
  10
 854.57481760473
  20
 1010.2106190458
  10
 865.06097229082
  20
 992.01609899447
  10
 865.92737800755
  20
 992.51543969381
  10
 864.80386143404
  20
 994.46485255645
   0
LINE
   5
373
 100
AcDbEntity
   8
LEVEL001
 370
30
 100
AcDbLine
   6
CONTINUOUS
  62
7
  10
 869.01105484286
  20
 997.17815748232
  30
0.0
  11
 868.97984604915
  21
 997.23230783962
  31
0.0
   0
LWPOLYLINE
   5
374
 100
AcDbEntity
   8
LEVEL001
 370
30
   6
CONTINUOUS
  62
7
 100
AcDbPolyline
  90
6
  70
0
  10
 864.80386143404
  20
 994.46485255645
  10
 865.17836695854
  20
 993.81504826890
  10
 869.51039554220
  20
 996.31175176559
  10
 869.01105484286
  20
 997.17815748232
  10
 877.17577131084
  20
 1003.0379701924
  10
 875.92741956250
  20
 1005.2039844843
   0
LINE
   5
375
 100
AcDbEntity
   8
LEVEL001
 370
30
 100
AcDbLine
   6
CONTINUOUS
  62
7
  10
 837.09789312791
  20
 1040.5348191314
  30
0.0
  11
 854.57481760473
  21
 1010.2106190458
  31
0.0
   0
LINE
   5
376
 100
AcDbEntity
   8
LEVEL001
 370
30
 100
AcDbLine
   6
CONTINUOUS
  62
7
  10
 853.17186865311
  20
 1020.6554375813
  30
0.0
  11
 845.43208781338
  21
 1034.0847261907
  31
0.0
   0
LINE
   5
377
 100
AcDbEntity
   8
LEVEL001
 370
30
 100
AcDbLine
   6
CONTINUOUS
  62
7
  10
 853.17186865311
  20
 1020.6554375813
  30
0.0
  11
 845.43208781338
  21
 1034.0847261907
  31
0.0
   0
LINE
   5
378
 100
AcDbEntity
   8
LEVEL001
 370
30
 100
AcDbLine
   6
CONTINUOUS
  62
7
  10
 847.71921702649
  20
 1036.1242518616
  30
0.0
  11
 856.08317374039
  21
 1021.6119561064
  31
0.0
   0
LWPOLYLINE
   5
379
 100
AcDbEntity
   8
LEVEL001
 370
30
   6
CONTINUOUS
  62
7
 100
AcDbPolyline
  90
4
  70
0
  10
 852.17822274915
  20
 1042.4059187778
  10
 865.34453828399
  20
 1049.6006636827
  10
 876.57970401908
  20
 1030.1065350562
  10
 863.75384805197
  20
 1022.3210589809
   0
LWPOLYLINE
   5
37A
 100
AcDbEntity
   8
LEVEL001
 370
30
   6
CONTINUOUS
  62
7
 100
AcDbPolyline
  90
4
  70
0
  10
 486.01902271613
  20
 828.89155548517
  10
 883.41902271613
  20
 828.89155548517
  10
 883.41902271613
  20
 843.89155548517
  10
 486.01902271613
  20
 843.89155548517
   0
LWPOLYLINE
   5
37B
 100
AcDbEntity
   8
LEVEL001
 370
30
   6
CONTINUOUS
  62
7
 100
AcDbPolyline
  90
3
  70
0
  10
 484.01902271613
  20
 609.89155548517
  10
 883.41902271613
  20
 609.89155548517
  10
 883.41902271613
  20
 828.89155548517
   0
LINE
   5
37C
 100
AcDbEntity
   8
LEVEL001
 370
30
 100
AcDbLine
   6
CONTINUOUS
  62
7
  10
 850.21902271613
  20
 856.89155548517
  30
0.0
  11
 850.21902271613
  21
 843.89155548517
  31
0.0
   0
LWPOLYLINE
   5
37D
 100
AcDbEntity
   8
LEVEL001
 370
30
   6
CONTINUOUS
  62
7
 100
AcDbPolyline
  90
10
  70
0
  10
 486.01902271613
  20
 856.89155548517
  10
 489.21902271613
  20
 856.89155548517
  10
 489.21902271613
  20
 853.89155548517
  10
 845.21902271613
  20
 853.89155548517
  10
 845.21902271613
  20
 856.89155548517
  10
 850.21902271613
  20
 856.89155548517
  10
 850.21902271613
  20
 954.89155548517
  10
 513.01902271613
  20
 954.89155548517
  10
 513.01902271613
  20
 927.29155548517
  10
 486.01902271613
  20
 911.72905548517
   0
ARC
   5
37E
 100
AcDbEntity
   8
LEVEL001
 370
30
   6
CONTINUOUS
  62
7
 100
AcDbCircle
  10
 484.01902271613
  20
 947.89155548517
  30
0.0
  40
 12.000000000000
 100
AcDbArc
  50
 279.59406822686
  51
 80.405931773137
   0
ARC
   5
37F
 100
AcDbEntity
   8
LEVEL001
 370
30
   6
CONTINUOUS
  62
7
 100
AcDbCircle
  10
 484.01902271613
  20
 947.89155548517
  30
0.0
  40
 12.500000000000
 100
AcDbArc
  50
 279.20689622135
  51
 0.52110207901098E-12
   0
LWPOLYLINE
   5
380
 100
AcDbEntity
   8
LEVEL001
 370
30
   6
CONTINUOUS
  62
7
 100
AcDbPolyline
  90
4
  70
0
  10
 486.01902271613
  20
 914.04711104073
  10
 511.01902271613
  20
 928.49155548517
  10
 511.01902271613
  20
 947.89155548517
  10
 496.51902271613
  20
 947.89155548517
   0
ARC
   5
381
 100
AcDbEntity
   8
LEVEL001
 370
30
   6
CONTINUOUS
  62
7
 100
AcDbCircle
  10
 484.01902271613
  20
 947.89155548517
  30
0.0
  40
 17.500000000000
 100
AcDbArc
  50
0.0
  51
 83.437572131366
   0
LWPOLYLINE
   5
382
 100
AcDbEntity
   8
LEVEL001
 370
30
   6
CONTINUOUS
  62
7
 100
AcDbPolyline
  90
4
  70
0
  10
 487.38891072723
  20
 1088.8915554852
  10
 807.49688051535
  20
 1088.8915554852
  10
 883.41902271613
  20
 957.15909683217
  10
 883.41902271613
  20
 843.89155548517
   0
LINE
   5
383
 100
AcDbEntity
   8
LEVEL001
 370
30
 100
AcDbLine
   6
CONTINUOUS
  62
7
  10
 850.41902271613
  20
 559.89155548517
  30
0.0
  11
 484.01902271613
  21
 559.89155548517
  31
0.0
   0
LINE
   5
384
 100
AcDbEntity
   8
LEVEL001
 370
30
 100
AcDbLine
   6
CONTINUOUS
  62
7
  10
 850.41902271613
  20
 563.09155548517
  30
0.0
  11
 484.01902271613
  21
 563.09155548517
  31
0.0
   0
LINE
   5
385
 100
AcDbEntity
   8
LEVEL001
 370
30
 100
AcDbLine
   6
CONTINUOUS
  62
7
  10
 190.41902271613
  20
 556.69155548517
  30
0.0
  11
 850.41902271613
  21
 556.69155548517
  31
0.0
   0
LWPOLYLINE
   5
386
 100
AcDbEntity
   8
LEVEL001
 370
30
   6
CONTINUOUS
  62
7
 100
AcDbPolyline
  90
4
  70
0
  10
 850.41902271613
  20
 609.89155548517
  10
 850.41902271613
  20
 531.89155548517
  10
 190.41902271613
  20
 531.89155548517
  10
 190.41902271613
  20
 556.89155548517
   0
LWPOLYLINE
   5
387
 100
AcDbEntity
   8
LEVEL001
 370
30
   6
CONTINUOUS
  62
7
 100
AcDbPolyline
  90
3
  70
0
  10
 417.91902271613
  20
 1000.8915554852
  10
 417.91902271613
  20
 1088.8915554852
  10
 487.38891072723
  20
 1088.8915554852
   0
LINE
   5
388
 100
AcDbEntity
   8
LEVEL001
 370
30
 100
AcDbLine
   6
CONTINUOUS
  62
7
  10
 850.41902271613
  20
 535.09155548517
  30
0.0
  11
 190.41902271613
  21
 535.09155548517
  31
0.0
   0
LINE
   5
389
 100
AcDbEntity
   8
LEVEL001
 370
30
 100
AcDbLine
   6
CONTINUOUS
  62
7
  10
 927.68512469465
  20
 531.89155548517
  30
0.0
  11
 2439.0414465338
  21
 531.89155548517
  31
0.0
   0
DIMENSION
   5
38A
 100
AcDbEntity
   8
LEVEL001
 370
30
   6
CONTINUOUS
  62
7
 100
AcDbDimension
   2
*D1
  10
 2477.6309652792
  20
 1096.8915554852
  30
0.0
  11
 2477.6309652792
  21
 814.39155548517
  31
0.0
  70
0
   3
GMM001
 100
AcDbAlignedDimension
  13
 2439.0414465338
  23
 531.89155548517
  33
0.0
  14
 2046.7559453554
  24
 1096.8915554852
  34
0.0
  50
 90.000000000000
 100
AcDbRotatedDimension
   0
DIMENSION
   5
38B
 100
AcDbEntity
   8
LEVEL001
 370
30
   6
CONTINUOUS
  62
7
 100
AcDbDimension
   2
*D2
  10
 3273.6190227161
  20
 1188.3946610871
  30
0.0
  11
 2916.1190227161
  21
 1188.3946610871
  31
0.0
  70
0
   3
GMM001
 100
AcDbAlignedDimension
  13
 2558.6190227161
  23
 966.65061386080
  33
0.0
  14
 3273.6190227161
  24
 1007.2869957591
  34
0.0
 100
AcDbRotatedDimension
   0
DIMENSION
   5
38C
 100
AcDbEntity
   8
LEVEL001
 370
30
   6
CONTINUOUS
  62
7
 100
AcDbDimension
   2
*D3
  10
 2393.4190227161
  20
 1188.3946610871
  30
0.0
  11
 1663.4190227161
  21
 1188.3946610871
  31
0.0
  70
0
   3
GMM001
 100
AcDbAlignedDimension
  13
 933.41902271613
  23
 1005.4167480171
  33
0.0
  14
 2393.4190227161
  24
 790.93682748358
  34
0.0
 100
AcDbRotatedDimension
   0
LINE
   5
38D
 100
AcDbEntity
   8
LEVEL001
 370
30
 100
AcDbLine
   6
CONTINUOUS
  62
7
  10
 3026.8190227161
  20
 756.89155548517
  30
0.0
  11
 3026.8190227161
  21
 686.89155548517
  31
0.0
   0
MTEXT
   5
38F
 100
AcDbEntity
   8
LEVEL002
 370
9
  62
1
 100
AcDbMText
  10
 2742.4190227161
  20
 1832.8915554852
  30
0.0
  40
 24.000000000000
  41
0.0
  71
7
  72
1
   1
\T1.000000;２４０Ｗ
   7
GMM001
  44
 0.79999984000003
   0
MTEXT
   5
391
 100
AcDbEntity
   8
LEVEL002
 370
9
  62
1
 100
AcDbMText
  10
 2742.4190227161
  20
 1880.8915554852
  30
0.0
  40
 24.000000000000
  41
0.0
  71
7
  72
1
   1
\T1.000000;単相１００Ｖ　５０／６０Ｈｚ
   7
GMM001
  44
 0.79999984000003
   0
MTEXT
   5
393
 100
AcDbEntity
   8
LEVEL002
 370
9
  62
1
 100
AcDbMText
  10
 2742.4190227161
  20
 1544.8915554852
  30
0.0
  40
 24.000000000000
  41
0.0
  71
7
  72
1
   1
\T1.000000;２Ｐ１５Ａ
   7
GMM001
  44
 0.79999984000003
   0
MTEXT
   5
395
 100
AcDbEntity
   8
LEVEL001
 370
30
  62
7
 100
AcDbMText
  10
 2831.1724137931
  20
 261.10344827586
  30
0.0
  40
 24.000000000000
  41
0.0
  71
7
  72
1
   1
\W1.000000;\T1.000000;更科\W0.500000;\T1.000000;P \W1.000000;\T1.000000;承認図
   7
GMM001
  44
 0.79999984000003
   0
MTEXT
   5
397
 100
AcDbEntity
   8
LEVEL001
 370
30
  62
7
 100
AcDbMText
  10
 3248.1724137931
  20
 261.10344827586
  30
0.0
  40
 24.000000000000
  41
0.0
  71
7
  72
1
   1
\T1.000000;SARASINA-B
   7
GMM002
  44
 0.79999984000003
   0
MTEXT
   5
399
 100
AcDbEntity
   8
LEVEL001
 370
30
  62
7
 100
AcDbMText
  10
 3257.1724137931
  20
 153.10344827586
  30
0.0
  40
 24.000000000000
  41
0.0
  71
7
  72
1
   1
\T1.000000;'22
   7
GMM002
  44
 0.79999984000003
   0
MTEXT
   5
39B
 100
AcDbEntity
   8
LEVEL001
 370
30
  62
7
 100
AcDbMText
  10
 3317.1724137931
  20
 153.10344827586
  30
0.0
  40
 24.000000000000
  41
0.0
  71
7
  72
1
   1
\T1.000000;3
   7
GMM002
  44
 0.79999984000003
   0
MTEXT
   5
39D
 100
AcDbEntity
   8
LEVEL001
 370
30
  62
7
 100
AcDbMText
  10
 3359.1724137931
  20
 153.10344827586
  30
0.0
  40
 24.000000000000
  41
0.0
  71
7
  72
1
   1
\T1.000000;17
   7
GMM002
  44
 0.79999984000003
   0
MTEXT
   5
39F
 100
AcDbEntity
   8
LEVEL001
 370
30
  62
7
 100
AcDbMText
  10
 3416.1724137931
  20
 153.10344827586
  30
0.0
  40
 24.000000000000
  41
0.0
  71
7
  72
1
   1
\T1.000000;宮崎
   7
GMM001
  44
 0.79999984000003
   0
ENDSEC
  0
SECTION
  2
OBJECTS
  0
DICTIONARY
  5
C
100
AcDbDictionary
  3
ACAD_GROUP
350
D
  3
ACAD_MLINESTYLE
350
1B
  3
DWGPROPS
350
1C
  0
DICTIONARY
  5
D
102
{ACAD_REACTORS
330
C
102
}
100
AcDbDictionary
  0
DICTIONARY
  5
1B
102
{ACAD_REACTORS
330
C
102
}
100
AcDbDictionary
  3
STANDARD
350
1D
  0
MLINESTYLE
  5
1D
102
{ACAD_REACTORS
330
1B
102
}
100
AcDbMlineStyle
  2
STANDARD
 70
     0
  3

 62
   256
 51
90.0
 52
90.0
 71
     2
 49
0.5
 62
   256
  6
BYLAYER
 49
-0.5
 62
   256
  6
BYLAYER
   0
XRECORD
   5
1C
 102
{ACAD_REACTORS
 330
C
 102
}
 330
C
 100
AcDbXrecord
 280
1
   1
DWGPROPS COOKIE
   2
 
   3
 
   4
 
   6
 
   7
SARASINA-B
   8
 
   9

 300
 = 
 301
 = 
 302
 = 
 303
 = 
 304
 = 
 305
 = 
 306
 = 
 307
 = 
 308
 = 
 309
 = 
  40
0.0
  41
 2459655.5000000
  42
 2459656.5000000
   1

  90
10
   0
ENDSEC
   0
EOF
