   0
SECTION
   2
HEADER
   9
$ACADVER
   1
AC1015
   9
$DWGCODEPAGE
   3
ANSI_932
   9
$LIMMIN
  10
0.0
  20
0.0
   9
$LIMMAX
  10
 4752.0000000000
  20
 3360.0000000000
   9
$EXTMIN
  10
0.0
  20
0.0
  30
0.0
   9
$EXTMAX
  10
 4752.0000000000
  20
 3360.0000000000
  30
0.0
   9
$LTSCALE
  40
 95.040000000000
   9
$HANDSEED
   5
3AB
   0
ENDSEC
   0
SECTION
   2
TABLES
  0
TABLE
  2
VPORT
  5
8
100
AcDbSymbolTable
 70
     1
  0
VPORT
  5
3AA
100
AcDbSymbolTableRecord
100
AcDbViewportTableRecord
  2
*ACTIVE
 70
     0
 10
0.0
 20
0.0
 11
1.0
 21
1.0
  12
 2376.0000000000
  22
 1680.0000000000
 13
0.0
 23
0.0
 14
1.0
 24
1.0
 15
0.0
 25
0.0
 16
0.0
 26
0.0
 36
1.0
 17
0.0
 27
0.0
 37
0.0
  40
 4752.0000000000
  41
 1.4787878787879
 42
50.0
 43
0.0
 44
0.0
 50
0.0
 51
0.0
 71
     0
 72
   100
 73
     1
 74
     1
 75
     0
 76
     0
 77
     0
 78
     0
  0
ENDTAB
  0
TABLE
  2
LTYPE
  5
5
100
AcDbSymbolTable
 70
    25
  0
LTYPE
  5
12
100
AcDbSymbolTableRecord
100
AcDbLinetypeTableRecord
  2
BYBLOCK
 70
     0
  3

 72
    65
 73
     0
 40
0.0
  0
LTYPE
  5
13
100
AcDbSymbolTableRecord
100
AcDbLinetypeTableRecord
  2
BYLAYER
 70
     0
  3

 72
    65
 73
     0
 40
0.0
  0
LTYPE
  5
14
100
AcDbSymbolTableRecord
100
AcDbLinetypeTableRecord
  2
CONTINUOUS
 70
     0
  3
Solid line
 72
    65
 73
     0
 40
0.0
  0
LTYPE
  5
20
100
AcDbSymbolTableRecord
100
AcDbLinetypeTableRecord
  2
BORDER
 70
     0
  3
__ __ . __ __ . __ __ . __ __ . __ __ . __ __ .
 72
    65
 73
     6
 40
1.75
 49
0.5
 74
     0
 49
-0.25
 74
     0
 49
0.5
 74
     0
 49
-0.25
 74
     0
 49
0.0
 74
     0
 49
-0.25
 74
     0
  0
LTYPE
  5
21
100
AcDbSymbolTableRecord
100
AcDbLinetypeTableRecord
  2
BORDER2
 70
     0
  3
__.__.__.__.__.__.__.__.__.__.__.__.__.__.__.__
 72
    65
 73
     6
 40
0.875
 49
0.25
 74
     0
 49
-0.125
 74
     0
 49
0.25
 74
     0
 49
-0.125
 74
     0
 49
0.0
 74
     0
 49
-0.125
 74
     0
  0
LTYPE
  5
22
100
AcDbSymbolTableRecord
100
AcDbLinetypeTableRecord
  2
BORDERX2
 70
     0
  3
____  ____  .  ____  ____  .  ____  ____  .  __
 72
    65
 73
     6
 40
3.5
 49
1.0
 74
     0
 49
-0.5
 74
     0
 49
1.0
 74
     0
 49
-0.5
 74
     0
 49
0.0
 74
     0
 49
-0.5
 74
     0
  0
LTYPE
  5
23
100
AcDbSymbolTableRecord
100
AcDbLinetypeTableRecord
  2
CENTER
 70
     0
  3
____ _ ____ _ ____ _ ____ _ ____ _ ____ _ ____ 
 72
    65
 73
     4
 40
2.0
 49
1.25
 74
     0
 49
-0.25
 74
     0
 49
0.25
 74
     0
 49
-0.25
 74
     0
  0
LTYPE
  5
24
100
AcDbSymbolTableRecord
100
AcDbLinetypeTableRecord
  2
CENTER2
 70
     0
  3
___ _ ___ _ ___ _ ___ _ ___ _ ___ _ ___ _ ___ _
 72
    65
 73
     4
 40
1.125
 49
0.75
 74
     0
 49
-0.125
 74
     0
 49
0.125
 74
     0
 49
-0.125
 74
     0
  0
LTYPE
  5
25
100
AcDbSymbolTableRecord
100
AcDbLinetypeTableRecord
  2
CENTERX2
 70
     0
  3
________  __  ________  __  ________  __  _____
 72
    65
 73
     4
 40
4.0
 49
2.5
 74
     0
 49
-0.5
 74
     0
 49
0.5
 74
     0
 49
-0.5
 74
     0
  0
LTYPE
  5
26
100
AcDbSymbolTableRecord
100
AcDbLinetypeTableRecord
  2
DASHDOT
 70
     0
  3
__ . __ . __ . __ . __ . __ . __ . __ . __ . __
 72
    65
 73
     4
 40
1.0
 49
0.5
 74
     0
 49
-0.25
 74
     0
 49
0.0
 74
     0
 49
-0.25
 74
     0
  0
LTYPE
  5
27
100
AcDbSymbolTableRecord
100
AcDbLinetypeTableRecord
  2
DASHDOT2
 70
     0
  3
_._._._._._._._._._._._._._._._._._._._._._._._
 72
    65
 73
     4
 40
0.5
 49
0.25
 74
     0
 49
-0.125
 74
     0
 49
0.0
 74
     0
 49
-0.125
 74
     0
  0
LTYPE
  5
28
100
AcDbSymbolTableRecord
100
AcDbLinetypeTableRecord
  2
DASHDOTX2
 70
     0
  3
____  .  ____  .  ____  .  ____  .  ____  .  __
 72
    65
 73
     4
 40
2.0
 49
1.0
 74
     0
 49
-0.5
 74
     0
 49
0.0
 74
     0
 49
-0.5
 74
     0
  0
LTYPE
  5
29
100
AcDbSymbolTableRecord
100
AcDbLinetypeTableRecord
  2
DASHED
 70
     0
  3
__ __ __ __ __ __ __ __ __ __ __ __ __ __ __ __
 72
    65
 73
     2
 40
0.75
 49
0.5
 74
     0
 49
-0.25
 74
     0
  0
LTYPE
  5
2A
100
AcDbSymbolTableRecord
100
AcDbLinetypeTableRecord
  2
DASHED2
 70
     0
  3
_ _ _ _ _ _ _ _ _ _ _ _ _ _ _ _ _ _ _ _ _ _ _ _
 72
    65
 73
     2
 40
0.375
 49
0.25
 74
     0
 49
-0.125
 74
     0
  0
LTYPE
  5
2B
100
AcDbSymbolTableRecord
100
AcDbLinetypeTableRecord
  2
DASHEDX2
 70
     0
  3
____  ____  ____  ____  ____  ____  ____  ____ 
 72
    65
 73
     2
 40
1.5
 49
1.0
 74
     0
 49
-0.5
 74
     0
  0
LTYPE
  5
2C
100
AcDbSymbolTableRecord
100
AcDbLinetypeTableRecord
  2
DIVIDE
 70
     0
  3
____ . . ____ . . ____ . . ____ . . ____ . . __
 72
    65
 73
     6
 40
1.25
 49
0.5
 74
     0
 49
-0.25
 74
     0
 49
0.0
 74
     0
 49
-0.25
 74
     0
 49
0.0
 74
     0
 49
-0.25
 74
     0
  0
LTYPE
  5
2D
100
AcDbSymbolTableRecord
100
AcDbLinetypeTableRecord
  2
DIVIDE2
 70
     0
  3
__..__..__..__..__..__..__..__..__..__..__..__.
 72
    65
 73
     6
 40
0.625
 49
0.25
 74
     0
 49
-0.125
 74
     0
 49
0.0
 74
     0
 49
-0.125
 74
     0
 49
0.0
 74
     0
 49
-0.125
 74
     0
  0
LTYPE
  5
2E
100
AcDbSymbolTableRecord
100
AcDbLinetypeTableRecord
  2
DIVIDEX2
 70
     0
  3
________  .  .  ________  .  .  ________  .  . 
 72
    65
 73
     6
 40
2.5
 49
1.0
 74
     0
 49
-0.5
 74
     0
 49
0.0
 74
     0
 49
-0.5
 74
     0
 49
0.0
 74
     0
 49
-0.5
 74
     0
  0
LTYPE
  5
2F
100
AcDbSymbolTableRecord
100
AcDbLinetypeTableRecord
  2
DOT
 70
     0
  3
. . . . . . . . . . . . . . . . . . . . . . . .
 72
    65
 73
     2
 40
0.25
 49
0.0
 74
     0
 49
-0.25
 74
     0
  0
LTYPE
  5
30
100
AcDbSymbolTableRecord
100
AcDbLinetypeTableRecord
  2
DOT2
 70
     0
  3
...............................................
 72
    65
 73
     2
 40
0.125
 49
0.0
 74
     0
 49
-0.125
 74
     0
  0
LTYPE
  5
31
100
AcDbSymbolTableRecord
100
AcDbLinetypeTableRecord
  2
DOTX2
 70
     0
  3
.  .  .  .  .  .  .  .  .  .  .  .  .  .  .  . 
 72
    65
 73
     2
 40
0.5
 49
0.0
 74
     0
 49
-0.5
 74
     0
  0
LTYPE
  5
32
100
AcDbSymbolTableRecord
100
AcDbLinetypeTableRecord
  2
HIDDEN
 70
     0
  3
__ __ __ __ __ __ __ __ __ __ __ __ __ __ __ __
 72
    65
 73
     2
 40
0.375
 49
0.25
 74
     0
 49
-0.125
 74
     0
  0
LTYPE
  5
33
100
AcDbSymbolTableRecord
100
AcDbLinetypeTableRecord
  2
HIDDEN2
 70
     0
  3
_ _ _ _ _ _ _ _ _ _ _ _ _ _ _ _ _ _ _ _ _ _ _ _
 72
    65
 73
     2
 40
0.1875
 49
0.125
 74
     0
 49
-0.0625
 74
     0
  0
LTYPE
  5
34
100
AcDbSymbolTableRecord
100
AcDbLinetypeTableRecord
  2
HIDDENX2
 70
     0
  3
____ ____ ____ ____ ____ ____ ____ ____ ____ __
 72
    65
 73
     2
 40
0.75
 49
0.5
 74
     0
 49
-0.25
 74
     0
  0
LTYPE
  5
35
100
AcDbSymbolTableRecord
100
AcDbLinetypeTableRecord
  2
PHANTOM
 70
     0
  3
______  __  __  ______  __  __  ______  __  __ 
 72
    65
 73
     6
 40
2.5
 49
1.25
 74
     0
 49
-0.25
 74
     0
 49
0.25
 74
     0
 49
-0.25
 74
     0
 49
0.25
 74
     0
 49
-0.25
 74
     0
  0
LTYPE
  5
36
100
AcDbSymbolTableRecord
100
AcDbLinetypeTableRecord
  2
PHANTOM2
 70
     0
  3
___ _ _ ___ _ _ ___ _ _ ___ _ _ ___ _ _ ___ _ _
 72
    65
 73
     6
 40
1.25
 49
0.625
 74
     0
 49
-0.125
 74
     0
 49
0.125
 74
     0
 49
-0.125
 74
     0
 49
0.125
 74
     0
 49
-0.125
 74
     0
  0
LTYPE
  5
37
100
AcDbSymbolTableRecord
100
AcDbLinetypeTableRecord
  2
PHANTOMX2
 70
     0
  3
____________    ____    ____    ____________   
 72
    65
 73
     6
 40
5.0
 49
2.5
 74
     0
 49
-0.5
 74
     0
 49
0.5
 74
     0
 49
-0.5
 74
     0
 49
0.5
 74
     0
 49
-0.5
 74
     0
  0
ENDTAB
   0
TABLE
   2
LAYER
   5
2
 100
AcDbSymbolTable
  70
5
   0
LAYER
   5
E
 100
AcDbSymbolTableRecord
 100
AcDbLayerTableRecord
   2
0
  70
0
  62
7
   6
CONTINUOUS
 390
30
   0
LAYER
   5
39
 100
AcDbSymbolTableRecord
 100
AcDbLayerTableRecord
   2
LEVEL001
  70
0
  62
7
   6
CONTINUOUS
 390
30
   0
LAYER
   5
3A
 100
AcDbSymbolTableRecord
 100
AcDbLayerTableRecord
   2
内図枠(作図領域)
  70
0
  62
7
   6
CONTINUOUS
 390
30
   0
LAYER
   5
3B
 100
AcDbSymbolTableRecord
 100
AcDbLayerTableRecord
   2
外図枠(出力紙領域)
  70
0
  62
7
   6
CONTINUOUS
 390
30
   0
LAYER
   5
3C
 100
AcDbSymbolTableRecord
 100
AcDbLayerTableRecord
   2
部品表金額表示用
  70
0
  62
7
   6
CONTINUOUS
 390
30
   0
ENDTAB
  0
TABLE
  2
STYLE
  5
3
100
AcDbSymbolTable
  70
6
  0
STYLE
  5
F
100
AcDbSymbolTableRecord
100
AcDbTextStyleTableRecord
  2
STANDARD
 70
     0
 40
0.0
 41
1.0
 50
0.0
 71
     0
 42
0.2
  3
TXT
  4
BIGFONT
  0
STYLE
  5
38
100
AcDbSymbolTableRecord
100
AcDbTextStyleTableRecord
  2
STANDARD1
 70
     4
 40
0.0
 41
1.0
 50
0.0
 71
     0
 42
0.2
  3
TXT
  4
BIGFONT
   0
STYLE
   5
3D
 100
AcDbSymbolTableRecord
 100
AcDbTextStyleTableRecord
   2
GMM001
  70
0
  40
0.0
  41
 1.0000000000000
  50
0.0
  71
     0
  42
1.0
   3
txt.shx
   4
bigfont.shx
   0
STYLE
   5
3E
 100
AcDbSymbolTableRecord
 100
AcDbTextStyleTableRecord
   2
GMM002
  70
4
  40
0.0
  41
 1.0000000000000
  50
0.0
  71
     0
  42
1.0
   3
txt.shx
   4
bigfont.shx
   0
STYLE
   5
3F
 100
AcDbSymbolTableRecord
 100
AcDbTextStyleTableRecord
   2
GMM003
  70
0
  40
0.0
  41
 0.80000001192093
  50
0.0
  71
     0
  42
1.0
   3
txt.shx
   4
bigfont.shx
   0
STYLE
   5
40
 100
AcDbSymbolTableRecord
 100
AcDbTextStyleTableRecord
   2
GMM004
  70
0
  40
0.0
  41
 0.50000000000000
  50
0.0
  71
     0
  42
1.0
   3
txt.shx
   4
bigfont.shx
   0
ENDTAB
  0
TABLE
  2
VIEW
  5
6
100
AcDbSymbolTable
 70
     0
  0
ENDTAB
  0
TABLE
  2
UCS
  5
7
100
AcDbSymbolTable
 70
     0
  0
ENDTAB
  0
TABLE
  2
APPID
  5
9
100
AcDbSymbolTable
 70
     1
  0
APPID
  5
10
100
AcDbSymbolTableRecord
100
AcDbRegAppTableRecord
  2
ACAD
 70
     0
  0
ENDTAB
   0
TABLE
   2
DIMSTYLE
   5
A
 100
AcDbSymbolTable
  70
5
 100
AcDbDimStyleTable
  0
DIMSTYLE
105
1D
100
AcDbSymbolTableRecord
100
AcDbDimStyleTableRecord
  2
STANDARD
 70
     0
  3

  4

  5

  6

  7

 40
1.0
 41
0.18
 42
0.0625
 43
0.38
 44
0.18
 45
0.0
 46
0.0
 47
0.0
 48
0.0
140
0.18
141
0.09
142
0.0
143
25.4
144
1.0
145
0.0
146
1.0
147
0.09
 71
     0
 72
     0
 73
     1
 74
     1
 75
     0
 76
     0
 77
     0
 78
     0
170
     0
171
     2
172
     0
173
     0
174
     0
175
     0
176
     0
177
     0
178
     0
270
     2
271
     4
272
     4
273
     2
274
     2
340
F
275
     0
280
     0
281
     0
282
     0
283
     1
284
     0
285
     0
286
     0
287
     3
288
     0
   0
DIMSTYLE
 105
41
 100
AcDbSymbolTableRecord
 100
AcDbDimStyleTableRecord
   2
GMM001
  70
0
   3

   4

   5

   6
_OPEN30
   7
_OPEN30
  40
 1.0000000000000
  41
 24.000000000000
  42
0.0
  43
 64.000000000000
  44
 16.000000000000
  45
0.0
  46
0.0
  47
0.0
  48
0.0
 140
 32.000000000000
 141
 8.0000000000000
 142
0.0
 143
 0.39400000000000E-1
 144
 1.0000000000000
 145
0.0
 146
 0.62500000000000
 147
 13.714285714286
  71
0
  72
0
  73
0
  74
0
  75
0
  76
0
  77
3
  78
8
 170
0
 171
2
 172
1
 173
1
 174
0
 175
0
 176
1
 177
1
 178
7
 270
2
 271
6
 272
0
 273
2
 274
2
 340
3D
 275
0
 280
0
 281
0
 282
0
 283
1
 284
0
 285
0
 286
0
 287
5
 288
1
   0
DIMSTYLE
 105
42
 100
AcDbSymbolTableRecord
 100
AcDbDimStyleTableRecord
   2
GMM002
  70
0
   3

   4

   5

   6
_OPEN30
   7
_OPEN30
  40
 1.0000000000000
  41
 24.000000000000
  42
0.0
  43
 64.000000000000
  44
 16.000000000000
  45
0.0
  46
0.0
  47
0.0
  48
0.0
 140
 32.000000000000
 141
 8.0000000000000
 142
0.0
 143
 0.39400000000000E-1
 144
 1.0000000000000
 145
0.0
 146
 0.62500000000000
 147
 8.0000000000000
  71
0
  72
0
  73
0
  74
0
  75
0
  76
0
  77
3
  78
8
 170
0
 171
2
 172
1
 173
1
 174
0
 175
0
 176
1
 177
1
 178
7
 270
2
 271
6
 272
0
 273
2
 274
2
 340
3D
 275
1
 280
0
 281
0
 282
0
 283
1
 284
0
 285
0
 286
0
 287
3
 288
0
   0
DIMSTYLE
 105
43
 100
AcDbSymbolTableRecord
 100
AcDbDimStyleTableRecord
   2
GMM003
  70
0
   3

   4

   5

   6
_OPEN30
   7
_OPEN30
  40
 1.0000000000000
  41
 24.000000000000
  42
0.0
  43
 64.000000000000
  44
 16.000000000000
  45
0.0
  46
0.0
  47
0.0
  48
0.0
 140
 32.000000000000
 141
 8.0000000000000
 142
0.0
 143
 0.39400000000000E-1
 144
 1.0000000000000
 145
0.0
 146
 0.62500000000000
 147
 8.0000000000000
  71
0
  72
0
  73
0
  74
0
  75
0
  76
0
  77
3
  78
8
 170
0
 171
2
 172
1
 173
1
 174
0
 175
0
 176
1
 177
1
 178
7
 270
2
 271
6
 272
0
 273
2
 274
2
 340
3D
 275
0
 280
0
 281
0
 282
0
 283
1
 284
0
 285
0
 286
0
 287
5
 288
1
   0
ENDTAB
  0
TABLE
  2
BLOCK_RECORD
  5
1
100
AcDbSymbolTable
 70
     0
  0
BLOCK_RECORD
  5
18
100
AcDbSymbolTableRecord
100
AcDbBlockTableRecord
  2
*MODEL_SPACE
  0
BLOCK_RECORD
  5
15
100
AcDbSymbolTableRecord
100
AcDbBlockTableRecord
  2
*PAPER_SPACE
   0
BLOCK_RECORD
   5
44
 100
AcDbSymbolTableRecord
 100
AcDbBlockTableRecord
   2
BLOCK001
   0
BLOCK_RECORD
   5
45
 100
AcDbSymbolTableRecord
 100
AcDbBlockTableRecord
   2
BLOCK002
   0
BLOCK_RECORD
   5
46
 100
AcDbSymbolTableRecord
 100
AcDbBlockTableRecord
   2
BLOCK003
   0
BLOCK_RECORD
   5
47
 100
AcDbSymbolTableRecord
 100
AcDbBlockTableRecord
   2
GMM001
   0
BLOCK_RECORD
   5
48
 100
AcDbSymbolTableRecord
 100
AcDbBlockTableRecord
   2
*D1
   0
BLOCK_RECORD
   5
49
 100
AcDbSymbolTableRecord
 100
AcDbBlockTableRecord
   2
BLOCK004
   0
BLOCK_RECORD
   5
4A
 100
AcDbSymbolTableRecord
 100
AcDbBlockTableRecord
   2
*D2
   0
BLOCK_RECORD
   5
4B
 100
AcDbSymbolTableRecord
 100
AcDbBlockTableRecord
   2
*D3
   0
BLOCK_RECORD
   5
4C
 100
AcDbSymbolTableRecord
 100
AcDbBlockTableRecord
   2
*D4
   0
BLOCK_RECORD
   5
4D
 100
AcDbSymbolTableRecord
 100
AcDbBlockTableRecord
   2
BLOCK005
   0
BLOCK_RECORD
   5
4E
 100
AcDbSymbolTableRecord
 100
AcDbBlockTableRecord
   2
*D5
   0
BLOCK_RECORD
   5
4F
 100
AcDbSymbolTableRecord
 100
AcDbBlockTableRecord
   2
*D6
   0
BLOCK_RECORD
   5
50
 100
AcDbSymbolTableRecord
 100
AcDbBlockTableRecord
   2
*D7
   0
BLOCK_RECORD
   5
51
 100
AcDbSymbolTableRecord
 100
AcDbBlockTableRecord
   2
*D8
   0
BLOCK_RECORD
   5
52
 100
AcDbSymbolTableRecord
 100
AcDbBlockTableRecord
   2
_ARCHTICK
   0
BLOCK_RECORD
   5
53
 100
AcDbSymbolTableRecord
 100
AcDbBlockTableRecord
   2
_BOXBLANK
   0
BLOCK_RECORD
   5
54
 100
AcDbSymbolTableRecord
 100
AcDbBlockTableRecord
   2
_BOXFILLED
   0
BLOCK_RECORD
   5
55
 100
AcDbSymbolTableRecord
 100
AcDbBlockTableRecord
   2
_CLOSED
   0
BLOCK_RECORD
   5
56
 100
AcDbSymbolTableRecord
 100
AcDbBlockTableRecord
   2
_CLOSEDBLANK
   0
BLOCK_RECORD
   5
57
 100
AcDbSymbolTableRecord
 100
AcDbBlockTableRecord
   2
_DATUMBLANK
   0
BLOCK_RECORD
   5
58
 100
AcDbSymbolTableRecord
 100
AcDbBlockTableRecord
   2
_DATUMFILLED
   0
BLOCK_RECORD
   5
59
 100
AcDbSymbolTableRecord
 100
AcDbBlockTableRecord
   2
_DOT
   0
BLOCK_RECORD
   5
5A
 100
AcDbSymbolTableRecord
 100
AcDbBlockTableRecord
   2
_DOTBLANK
   0
BLOCK_RECORD
   5
5B
 100
AcDbSymbolTableRecord
 100
AcDbBlockTableRecord
   2
_DOTSMALL
   0
BLOCK_RECORD
   5
5C
 100
AcDbSymbolTableRecord
 100
AcDbBlockTableRecord
   2
_INTEGRAL
   0
BLOCK_RECORD
   5
5D
 100
AcDbSymbolTableRecord
 100
AcDbBlockTableRecord
   2
_NONE
   0
BLOCK_RECORD
   5
5E
 100
AcDbSymbolTableRecord
 100
AcDbBlockTableRecord
   2
_OBLIQUE
   0
BLOCK_RECORD
   5
5F
 100
AcDbSymbolTableRecord
 100
AcDbBlockTableRecord
   2
_OPEN
   0
BLOCK_RECORD
   5
60
 100
AcDbSymbolTableRecord
 100
AcDbBlockTableRecord
   2
_OPEN30
   0
BLOCK_RECORD
   5
61
 100
AcDbSymbolTableRecord
 100
AcDbBlockTableRecord
   2
_OPEN90
   0
BLOCK_RECORD
   5
62
 100
AcDbSymbolTableRecord
 100
AcDbBlockTableRecord
   2
_ORIGIN
   0
ENDTAB
   0
ENDSEC
  0
SECTION
  2
BLOCKS
  0
BLOCK
  5
19
100
AcDbEntity
  8
0
100
AcDbBlockBegin
  2
*MODEL_SPACE
 70
     0
 10
0.0
 20
0.0
 30
0.0
  3
*MODEL_SPACE
  1

  0
ENDBLK
  5
1A
100
AcDbEntity
  8
0
100
AcDbBlockEnd
  0
BLOCK
  5
16
100
AcDbEntity
 67
     1
  8
0
100
AcDbBlockBegin
  2
*PAPER_SPACE
 70
     0
 10
0.0
 20
0.0
 30
0.0
  3
*PAPER_SPACE
  1

  0
ENDBLK
  5
17
100
AcDbEntity
 67
     1
  8
0
100
AcDbBlockEnd
   0
BLOCK
   5
63
 100
AcDbEntity
   8
0
 100
AcDbBlockBegin
   2
_ARCHTICK
  70
0
  10
0.0
  20
0.0
  30
0.0
   3
_ARCHTICK
   0
POLYLINE
   5
64
 100
AcDbEntity
   8
0
 370
-2
   6
BYBLOCK
  62
0
 100
AcDb2dPolyline
  66
1
  10
0.0
  20
0.0
  30
0.0
  70
1
  40
 0.15000000000000
  41
 0.15000000000000
   0
VERTEX
   5
65
 100
AcDbEntity
   8
0
   6
BYBLOCK
  62
0
 100
AcDbVertex
 100
AcDb2dVertex
  10
-0.50000000000000
  20
-0.50000000000000
  30
0.0
  40
 0.15000000000000
  41
 0.15000000000000
   0
VERTEX
   5
66
 100
AcDbEntity
   8
0
   6
BYBLOCK
  62
0
 100
AcDbVertex
 100
AcDb2dVertex
  10
 0.50000000000000
  20
 0.50000000000000
  30
0.0
  40
 0.15000000000000
  41
 0.15000000000000
   0
SEQEND
   5
67
 100
AcDbEntity
   8
0
   6
BYBLOCK
  62
0
   0
ENDBLK
   5
68
 100
AcDbEntity
   8
0
 100
AcDbBlockEnd
   0
BLOCK
   5
69
 100
AcDbEntity
   8
0
 100
AcDbBlockBegin
   2
_OBLIQUE
  70
0
  10
0.0
  20
0.0
  30
0.0
   3
_OBLIQUE
   0
LINE
   5
6A
 100
AcDbEntity
   8
0
 370
-2
 100
AcDbLine
   6
BYBLOCK
  62
0
  10
-0.50000000000000
  20
-0.50000000000000
  30
0.0
  11
 0.50000000000000
  21
 0.50000000000000
  31
0.0
   0
ENDBLK
   5
6B
 100
AcDbEntity
   8
0
 100
AcDbBlockEnd
   0
BLOCK
   5
6C
 100
AcDbEntity
   8
0
 100
AcDbBlockBegin
   2
_BOXBLANK
  70
0
  10
0.0
  20
0.0
  30
0.0
   3
_BOXBLANK
   0
LINE
   5
6D
 100
AcDbEntity
   8
0
 370
-2
 100
AcDbLine
   6
BYBLOCK
  62
0
  10
-0.50000000000000
  20
-0.50000000000000
  30
0.0
  11
 0.50000000000000
  21
-0.50000000000000
  31
0.0
   0
LINE
   5
6E
 100
AcDbEntity
   8
0
 370
-2
 100
AcDbLine
   6
BYBLOCK
  62
0
  10
 0.50000000000000
  20
-0.50000000000000
  30
0.0
  11
 0.50000000000000
  21
 0.50000000000000
  31
0.0
   0
LINE
   5
6F
 100
AcDbEntity
   8
0
 370
-2
 100
AcDbLine
   6
BYBLOCK
  62
0
  10
 0.50000000000000
  20
 0.50000000000000
  30
0.0
  11
-0.50000000000000
  21
 0.50000000000000
  31
0.0
   0
LINE
   5
70
 100
AcDbEntity
   8
0
 370
-2
 100
AcDbLine
   6
BYBLOCK
  62
0
  10
-0.50000000000000
  20
 0.50000000000000
  30
0.0
  11
-0.50000000000000
  21
-0.50000000000000
  31
0.0
   0
LINE
   5
71
 100
AcDbEntity
   8
0
 370
-2
 100
AcDbLine
   6
BYBLOCK
  62
0
  10
-0.50000000000000
  20
0.0
  30
0.0
  11
-1.0000000000000
  21
0.0
  31
0.0
   0
ENDBLK
   5
72
 100
AcDbEntity
   8
0
 100
AcDbBlockEnd
   0
BLOCK
   5
73
 100
AcDbEntity
   8
0
 100
AcDbBlockBegin
   2
_BOXFILLED
  70
0
  10
0.0
  20
0.0
  30
0.0
   3
_BOXFILLED
   0
SOLID
   5
74
 100
AcDbEntity
   8
0
 100
AcDbTrace
   6
BYBLOCK
  62
0
  10
-0.50000000000000
  20
 0.50000000000000
  30
0.0
  11
 0.50000000000000
  21
 0.50000000000000
  31
0.0
  12
-0.50000000000000
  22
-0.50000000000000
  32
0.0
  13
 0.50000000000000
  23
-0.50000000000000
  33
0.0
   0
LINE
   5
75
 100
AcDbEntity
   8
0
 370
-2
 100
AcDbLine
   6
BYBLOCK
  62
0
  10
-0.50000000000000
  20
0.0
  30
0.0
  11
-1.0000000000000
  21
0.0
  31
0.0
   0
ENDBLK
   5
76
 100
AcDbEntity
   8
0
 100
AcDbBlockEnd
   0
BLOCK
   5
77
 100
AcDbEntity
   8
0
 100
AcDbBlockBegin
   2
_CLOSED
  70
0
  10
0.0
  20
0.0
  30
0.0
   3
_CLOSED
   0
LINE
   5
78
 100
AcDbEntity
   8
0
 370
-2
 100
AcDbLine
   6
BYBLOCK
  62
0
  10
-1.0000000000000
  20
 0.16666666666667
  30
0.0
  11
0.0
  21
0.0
  31
0.0
   0
LINE
   5
79
 100
AcDbEntity
   8
0
 370
-2
 100
AcDbLine
   6
BYBLOCK
  62
0
  10
0.0
  20
0.0
  30
0.0
  11
-1.0000000000000
  21
-0.16666666666667
  31
0.0
   0
LINE
   5
7A
 100
AcDbEntity
   8
0
 370
-2
 100
AcDbLine
   6
BYBLOCK
  62
0
  10
-1.0000000000000
  20
 0.16666666666667
  30
0.0
  11
-1.0000000000000
  21
-0.16666666666667
  31
0.0
   0
LINE
   5
7B
 100
AcDbEntity
   8
0
 370
-2
 100
AcDbLine
   6
BYBLOCK
  62
0
  10
0.0
  20
0.0
  30
0.0
  11
-1.0000000000000
  21
0.0
  31
0.0
   0
ENDBLK
   5
7C
 100
AcDbEntity
   8
0
 100
AcDbBlockEnd
   0
BLOCK
   5
7D
 100
AcDbEntity
   8
0
 100
AcDbBlockBegin
   2
_OPEN
  70
0
  10
0.0
  20
0.0
  30
0.0
   3
_OPEN
   0
LINE
   5
7E
 100
AcDbEntity
   8
0
 370
-2
 100
AcDbLine
   6
BYBLOCK
  62
0
  10
-1.0000000000000
  20
 0.16666666666667
  30
0.0
  11
0.0
  21
0.0
  31
0.0
   0
LINE
   5
7F
 100
AcDbEntity
   8
0
 370
-2
 100
AcDbLine
   6
BYBLOCK
  62
0
  10
0.0
  20
0.0
  30
0.0
  11
-1.0000000000000
  21
-0.16666666666667
  31
0.0
   0
LINE
   5
80
 100
AcDbEntity
   8
0
 370
-2
 100
AcDbLine
   6
BYBLOCK
  62
0
  10
0.0
  20
0.0
  30
0.0
  11
-1.0000000000000
  21
0.0
  31
0.0
   0
ENDBLK
   5
81
 100
AcDbEntity
   8
0
 100
AcDbBlockEnd
   0
BLOCK
   5
82
 100
AcDbEntity
   8
0
 100
AcDbBlockBegin
   2
_OPEN30
  70
0
  10
0.0
  20
0.0
  30
0.0
   3
_OPEN30
   0
LINE
   5
83
 100
AcDbEntity
   8
0
 370
-2
 100
AcDbLine
   6
BYBLOCK
  62
0
  10
-1.0000000000000
  20
 0.26794919243110
  30
0.0
  11
0.0
  21
0.0
  31
0.0
   0
LINE
   5
84
 100
AcDbEntity
   8
0
 370
-2
 100
AcDbLine
   6
BYBLOCK
  62
0
  10
0.0
  20
0.0
  30
0.0
  11
-1.0000000000000
  21
-0.26794919243110
  31
0.0
   0
LINE
   5
85
 100
AcDbEntity
   8
0
 370
-2
 100
AcDbLine
   6
BYBLOCK
  62
0
  10
0.0
  20
0.0
  30
0.0
  11
-1.0000000000000
  21
0.0
  31
0.0
   0
ENDBLK
   5
86
 100
AcDbEntity
   8
0
 100
AcDbBlockEnd
   0
BLOCK
   5
87
 100
AcDbEntity
   8
0
 100
AcDbBlockBegin
   2
_OPEN90
  70
0
  10
0.0
  20
0.0
  30
0.0
   3
_OPEN90
   0
LINE
   5
88
 100
AcDbEntity
   8
0
 370
-2
 100
AcDbLine
   6
BYBLOCK
  62
0
  10
-0.50000000000000
  20
 0.50000000000000
  30
0.0
  11
0.0
  21
0.0
  31
0.0
   0
LINE
   5
89
 100
AcDbEntity
   8
0
 370
-2
 100
AcDbLine
   6
BYBLOCK
  62
0
  10
0.0
  20
0.0
  30
0.0
  11
-0.50000000000000
  21
-0.50000000000000
  31
0.0
   0
LINE
   5
8A
 100
AcDbEntity
   8
0
 370
-2
 100
AcDbLine
   6
BYBLOCK
  62
0
  10
0.0
  20
0.0
  30
0.0
  11
-1.0000000000000
  21
0.0
  31
0.0
   0
ENDBLK
   5
8B
 100
AcDbEntity
   8
0
 100
AcDbBlockEnd
   0
BLOCK
   5
8C
 100
AcDbEntity
   8
0
 100
AcDbBlockBegin
   2
_CLOSEDBLANK
  70
0
  10
0.0
  20
0.0
  30
0.0
   3
_CLOSEDBLANK
   0
LINE
   5
8D
 100
AcDbEntity
   8
0
 370
-2
 100
AcDbLine
   6
BYBLOCK
  62
0
  10
-1.0000000000000
  20
 0.16666666666667
  30
0.0
  11
0.0
  21
0.0
  31
0.0
   0
LINE
   5
8E
 100
AcDbEntity
   8
0
 370
-2
 100
AcDbLine
   6
BYBLOCK
  62
0
  10
0.0
  20
0.0
  30
0.0
  11
-1.0000000000000
  21
-0.16666666666667
  31
0.0
   0
LINE
   5
8F
 100
AcDbEntity
   8
0
 370
-2
 100
AcDbLine
   6
BYBLOCK
  62
0
  10
-1.0000000000000
  20
 0.16666666666667
  30
0.0
  11
-1.0000000000000
  21
-0.16666666666667
  31
0.0
   0
ENDBLK
   5
90
 100
AcDbEntity
   8
0
 100
AcDbBlockEnd
   0
BLOCK
   5
91
 100
AcDbEntity
   8
0
 100
AcDbBlockBegin
   2
_DOT
  70
0
  10
0.0
  20
0.0
  30
0.0
   3
_DOT
   0
POLYLINE
   5
92
 100
AcDbEntity
   8
0
 370
-2
   6
BYBLOCK
  62
0
 100
AcDb2dPolyline
  66
1
  10
0.0
  20
0.0
  30
0.0
  70
1
  40
 0.50000000000000
  41
 0.50000000000000
   0
VERTEX
   5
93
 100
AcDbEntity
   8
0
   6
BYBLOCK
  62
0
 100
AcDbVertex
 100
AcDb2dVertex
  10
-0.25000000000000
  20
0.0
  30
0.0
  42
 1.0000000000000
  40
 0.50000000000000
  41
 0.50000000000000
   0
VERTEX
   5
94
 100
AcDbEntity
   8
0
   6
BYBLOCK
  62
0
 100
AcDbVertex
 100
AcDb2dVertex
  10
 0.25000000000000
  20
0.0
  30
0.0
  42
 1.0000000000000
  40
 0.50000000000000
  41
 0.50000000000000
   0
SEQEND
   5
95
 100
AcDbEntity
   8
0
   6
BYBLOCK
  62
0
   0
LINE
   5
96
 100
AcDbEntity
   8
0
 370
-2
 100
AcDbLine
   6
BYBLOCK
  62
0
  10
-0.50000000000000
  20
0.0
  30
0.0
  11
-1.0000000000000
  21
0.0
  31
0.0
   0
ENDBLK
   5
97
 100
AcDbEntity
   8
0
 100
AcDbBlockEnd
   0
BLOCK
   5
98
 100
AcDbEntity
   8
0
 100
AcDbBlockBegin
   2
_DOTSMALL
  70
0
  10
0.0
  20
0.0
  30
0.0
   3
_DOTSMALL
   0
POLYLINE
   5
99
 100
AcDbEntity
   8
0
 370
-2
   6
BYBLOCK
  62
0
 100
AcDb2dPolyline
  66
1
  10
0.0
  20
0.0
  30
0.0
  70
1
  40
 0.50000000000000
  41
 0.50000000000000
   0
VERTEX
   5
9A
 100
AcDbEntity
   8
0
   6
BYBLOCK
  62
0
 100
AcDbVertex
 100
AcDb2dVertex
  10
-0.62500000000000E-1
  20
0.0
  30
0.0
  42
 1.0000000000000
  40
 0.50000000000000
  41
 0.50000000000000
   0
VERTEX
   5
9B
 100
AcDbEntity
   8
0
   6
BYBLOCK
  62
0
 100
AcDbVertex
 100
AcDb2dVertex
  10
 0.62500000000000E-1
  20
0.0
  30
0.0
  42
 1.0000000000000
  40
 0.50000000000000
  41
 0.50000000000000
   0
SEQEND
   5
9C
 100
AcDbEntity
   8
0
   6
BYBLOCK
  62
0
   0
ENDBLK
   5
9D
 100
AcDbEntity
   8
0
 100
AcDbBlockEnd
   0
BLOCK
   5
9E
 100
AcDbEntity
   8
0
 100
AcDbBlockBegin
   2
_DATUMBLANK
  70
0
  10
0.0
  20
0.0
  30
0.0
   3
_DATUMBLANK
   0
LINE
   5
9F
 100
AcDbEntity
   8
0
 370
-2
 100
AcDbLine
   6
BYBLOCK
  62
0
  10
0.0
  20
 0.57735027000000
  30
0.0
  11
-1.0000000000000
  21
0.0
  31
0.0
   0
LINE
   5
A0
 100
AcDbEntity
   8
0
 370
-2
 100
AcDbLine
   6
BYBLOCK
  62
0
  10
-1.0000000000000
  20
0.0
  30
0.0
  11
0.0
  21
-0.57735027000000
  31
0.0
   0
LINE
   5
A1
 100
AcDbEntity
   8
0
 370
-2
 100
AcDbLine
   6
BYBLOCK
  62
0
  10
0.0
  20
-0.57735027000000
  30
0.0
  11
0.0
  21
 0.57735027000000
  31
0.0
   0
ENDBLK
   5
A2
 100
AcDbEntity
   8
0
 100
AcDbBlockEnd
   0
BLOCK
   5
A3
 100
AcDbEntity
   8
0
 100
AcDbBlockBegin
   2
_DATUMFILLED
  70
0
  10
0.0
  20
0.0
  30
0.0
   3
_DATUMFILLED
   0
SOLID
   5
A4
 100
AcDbEntity
   8
0
 100
AcDbTrace
   6
BYBLOCK
  62
0
  10
0.0
  20
 0.57735027000000
  30
0.0
  11
-1.0000000000000
  21
0.0
  31
0.0
  12
0.0
  22
-0.57735027000000
  32
0.0
  13
0.0
  23
-0.57735027000000
  33
0.0
   0
ENDBLK
   5
A5
 100
AcDbEntity
   8
0
 100
AcDbBlockEnd
   0
BLOCK
   5
A6
 100
AcDbEntity
   8
0
 100
AcDbBlockBegin
   2
_ORIGIN
  70
0
  10
0.0
  20
0.0
  30
0.0
   3
_ORIGIN
   0
CIRCLE
   5
A7
 100
AcDbEntity
   8
0
 370
-2
 100
AcDbCircle
   6
BYBLOCK
  62
0
  10
0.0
  20
0.0
  30
0.0
  40
 0.50000000000000
   0
LINE
   5
A8
 100
AcDbEntity
   8
0
 370
-2
 100
AcDbLine
   6
BYBLOCK
  62
0
  10
0.0
  20
0.0
  30
0.0
  11
-1.0000000000000
  21
0.0
  31
0.0
   0
ENDBLK
   5
A9
 100
AcDbEntity
   8
0
 100
AcDbBlockEnd
   0
BLOCK
   5
AA
 100
AcDbEntity
   8
0
 100
AcDbBlockBegin
   2
_NONE
  70
0
  10
0.0
  20
0.0
  30
0.0
   3
_NONE
   0
CIRCLE
   5
AB
 100
AcDbEntity
   8
0
 370
-2
 100
AcDbCircle
   6
BYBLOCK
  62
0
  10
0.0
  20
0.0
  30
0.0
  40
 0.25000000000000
   0
ENDBLK
   5
AC
 100
AcDbEntity
   8
0
 100
AcDbBlockEnd
   0
BLOCK
   5
AD
 100
AcDbEntity
   8
0
 100
AcDbBlockBegin
   2
_DOTBLANK
  70
0
  10
0.0
  20
0.0
  30
0.0
   3
_DOTBLANK
   0
CIRCLE
   5
AE
 100
AcDbEntity
   8
0
 370
-2
 100
AcDbCircle
   6
BYBLOCK
  62
0
  10
0.0
  20
0.0
  30
0.0
  40
 0.50000000000000
   0
LINE
   5
AF
 100
AcDbEntity
   8
0
 370
-2
 100
AcDbLine
   6
BYBLOCK
  62
0
  10
-0.50000000000000
  20
0.0
  30
0.0
  11
-1.0000000000000
  21
0.0
  31
0.0
   0
ENDBLK
   5
B0
 100
AcDbEntity
   8
0
 100
AcDbBlockEnd
   0
BLOCK
   5
B1
 100
AcDbEntity
   8
0
 100
AcDbBlockBegin
   2
_INTEGRAL
  70
0
  10
0.0
  20
0.0
  30
0.0
   3
_INTEGRAL
   0
ARC
   5
B2
 100
AcDbEntity
   8
0
 370
-2
   6
BYBLOCK
  62
0
 100
AcDbCircle
  10
 0.44488800000000
  20
-0.91335000000000E-1
  30
0.0
  40
 0.45416700000000
 100
AcDbArc
  50
 102.00000000000
  51
 168.00000000000
   0
ARC
   5
B3
 100
AcDbEntity
   8
0
 370
-2
   6
BYBLOCK
  62
0
 100
AcDbCircle
  10
-0.44488800000000
  20
 0.91335000000000E-1
  30
0.0
  40
 0.45416700000000
 100
AcDbArc
  50
 282.00000000000
  51
 348.00000000000
   0
ENDBLK
   5
B4
 100
AcDbEntity
   8
0
 100
AcDbBlockEnd
   0
BLOCK
   5
B5
 100
AcDbEntity
   8
0
 100
AcDbBlockBegin
   2
BLOCK001
  70
64
  10
0.0
  20
0.0
  30
0.0
   3
BLOCK001
   0
LINE
   5
B6
 100
AcDbEntity
   8
LEVEL001
 370
30
 100
AcDbLine
   6
CONTINUOUS
  62
7
  10
 3558.2151991965
  20
 288.00000000000
  30
0.0
  11
 4646.2151991965
  21
 288.00000000000
  31
0.0
   0
LINE
   5
B7
 100
AcDbEntity
   8
LEVEL001
 370
30
 100
AcDbLine
   6
CONTINUOUS
  62
7
  10
 3558.2151991965
  20
 192.00000000000
  30
0.0
  11
 4646.2151991965
  21
 192.00000000000
  31
0.0
   0
LINE
   5
B8
 100
AcDbEntity
   8
LEVEL001
 370
30
 100
AcDbLine
   6
CONTINUOUS
  62
7
  10
 3558.2151991965
  20
 288.00000000000
  30
0.0
  11
 3558.2151991965
  21
 192.00000000000
  31
0.0
   0
LINE
   5
B9
 100
AcDbEntity
   8
LEVEL001
 370
30
 100
AcDbLine
   6
CONTINUOUS
  62
7
  10
 3622.2151991965
  20
 288.00000000000
  30
0.0
  11
 3622.2151991965
  21
 192.00000000000
  31
0.0
   0
LINE
   5
BA
 100
AcDbEntity
   8
LEVEL001
 370
30
 100
AcDbLine
   6
CONTINUOUS
  62
7
  10
 4102.2151991965
  20
 288.00000000000
  30
0.0
  11
 4102.2151991965
  21
 192.00000000000
  31
0.0
   0
LINE
   5
BB
 100
AcDbEntity
   8
LEVEL001
 370
30
 100
AcDbLine
   6
CONTINUOUS
  62
7
  10
 4166.2151991965
  20
 288.00000000000
  30
0.0
  11
 4166.2151991965
  21
 192.00000000000
  31
0.0
   0
LINE
   5
BC
 100
AcDbEntity
   8
LEVEL001
 370
30
 100
AcDbLine
   6
CONTINUOUS
  62
7
  10
 4646.2151991965
  20
 288.00000000000
  30
0.0
  11
 4646.2151991965
  21
 192.00000000000
  31
0.0
   0
ENDBLK
   5
BD
 100
AcDbEntity
   8
0
 100
AcDbBlockEnd
   0
BLOCK
   5
BE
 100
AcDbEntity
   8
0
 100
AcDbBlockBegin
   2
BLOCK002
  70
64
  10
0.0
  20
0.0
  30
0.0
   3
BLOCK002
   0
LINE
   5
BF
 100
AcDbEntity
   8
LEVEL001
 370
30
 100
AcDbLine
   6
CONTINUOUS
  62
7
  10
 3558.2151991965
  20
 192.00000000000
  30
0.0
  11
 4646.2151991965
  21
 192.00000000000
  31
0.0
   0
LINE
   5
C0
 100
AcDbEntity
   8
LEVEL001
 370
30
 100
AcDbLine
   6
CONTINUOUS
  62
7
  10
 3862.2151991965
  20
 128.00000000000
  30
0.0
  11
 4646.2151991965
  21
 128.00000000000
  31
0.0
   0
LINE
   5
C1
 100
AcDbEntity
   8
LEVEL001
 370
30
 100
AcDbLine
   6
CONTINUOUS
  62
7
  10
 3558.2151991965
  20
 64.000000000000
  30
0.0
  11
 4646.2151991965
  21
 64.000000000000
  31
0.0
   0
LINE
   5
C2
 100
AcDbEntity
   8
LEVEL001
 370
30
 100
AcDbLine
   6
CONTINUOUS
  62
7
  10
 3558.2151991965
  20
0.0
  30
0.0
  11
 4646.2151991965
  21
0.0
  31
0.0
   0
LINE
   5
C3
 100
AcDbEntity
   8
LEVEL001
 370
30
 100
AcDbLine
   6
CONTINUOUS
  62
7
  10
 3558.2151991965
  20
 192.00000000000
  30
0.0
  11
 3558.2151991965
  21
0.0
  31
0.0
   0
LINE
   5
C4
 100
AcDbEntity
   8
LEVEL001
 370
30
 100
AcDbLine
   6
CONTINUOUS
  62
7
  10
 3622.2151991965
  20
 192.00000000000
  30
0.0
  11
 3622.2151991965
  21
 64.000000000000
  31
0.0
   0
LINE
   5
C5
 100
AcDbEntity
   8
LEVEL001
 370
30
 100
AcDbLine
   6
CONTINUOUS
  62
7
  10
 3862.2151991965
  20
 192.00000000000
  30
0.0
  11
 3862.2151991965
  21
 64.000000000000
  31
0.0
   0
LINE
   5
C6
 100
AcDbEntity
   8
LEVEL001
 370
30
 100
AcDbLine
   6
CONTINUOUS
  62
7
  10
 4102.2151991965
  20
 192.00000000000
  30
0.0
  11
 4102.2151991965
  21
 64.000000000000
  31
0.0
   0
LINE
   5
C7
 100
AcDbEntity
   8
LEVEL001
 370
30
 100
AcDbLine
   6
CONTINUOUS
  62
7
  10
 4166.2151991965
  20
 192.00000000000
  30
0.0
  11
 4166.2151991965
  21
 64.000000000000
  31
0.0
   0
LINE
   5
C8
 100
AcDbEntity
   8
LEVEL001
 370
30
 100
AcDbLine
   6
CONTINUOUS
  62
7
  10
 4326.2151991965
  20
 192.00000000000
  30
0.0
  11
 4326.2151991965
  21
 64.000000000000
  31
0.0
   0
LINE
   5
C9
 100
AcDbEntity
   8
LEVEL001
 370
30
 100
AcDbLine
   6
CONTINUOUS
  62
7
  10
 4382.2151991965
  20
 192.00000000000
  30
0.0
  11
 4382.2151991965
  21
 64.000000000000
  31
0.0
   0
LINE
   5
CA
 100
AcDbEntity
   8
LEVEL001
 370
30
 100
AcDbLine
   6
CONTINUOUS
  62
7
  10
 4430.2151991965
  20
 192.00000000000
  30
0.0
  11
 4430.2151991965
  21
 64.000000000000
  31
0.0
   0
LINE
   5
CB
 100
AcDbEntity
   8
LEVEL001
 370
30
 100
AcDbLine
   6
CONTINUOUS
  62
7
  10
 4486.2151991965
  20
 192.00000000000
  30
0.0
  11
 4486.2151991965
  21
 64.000000000000
  31
0.0
   0
LINE
   5
CC
 100
AcDbEntity
   8
LEVEL001
 370
30
 100
AcDbLine
   6
CONTINUOUS
  62
7
  10
 4646.2151991965
  20
 192.00000000000
  30
0.0
  11
 4646.2151991965
  21
0.0
  31
0.0
   0
ENDBLK
   5
CD
 100
AcDbEntity
   8
0
 100
AcDbBlockEnd
   0
BLOCK
   5
CE
 100
AcDbEntity
   8
0
 100
AcDbBlockBegin
   2
BLOCK003
  70
64
  10
0.0
  20
0.0
  30
0.0
   3
BLOCK003
   0
MTEXT
   5
D0
 100
AcDbEntity
   8
LEVEL001
 370
30
  62
7
 100
AcDbMText
  10
 3855.8152358176
  20
 16.000000000000
  30
0.0
  40
 32.000000000000
  41
0.0
  71
7
  72
1
   1
\T1.800000;さぬき麺機株式会社
   7
GMM001
  44
 0.79999984000003
   0
TEXT
   5
D1
 100
AcDbEntity
   8
LEVEL001
 370
30
  62
7
 100
AcDbText
  10
 3576.2151991965
  20
 280.88885498047
  30
0.0
  40
 4.0000000000000
   1
名称
   7
STANDARD1
 100
AcDbText
   0
TEXT
   5
D2
 100
AcDbEntity
   8
LEVEL001
 370
30
  62
7
 100
AcDbText
  10
 4120.2151991965
  20
 280.88879394531
  30
0.0
  40
 4.0000000000000
   1
図番
   7
STANDARD1
 100
AcDbText
   0
TEXT
   5
D3
 100
AcDbEntity
   8
LEVEL001
 370
30
  62
7
 100
AcDbText
  10
 3576.2151991965
  20
 174.22222264608
  30
0.0
  40
 4.0000000000000
   1
画法
   7
STANDARD1
 100
AcDbText
   0
MTEXT
   5
D5
 100
AcDbEntity
   8
LEVEL001
 370
30
  62
7
 100
AcDbMText
  10
 3644.6151997687
  20
 112.00000000000
  30
0.0
  40
 32.000000000000
  41
0.0
  71
7
  72
1
   1
\T1.700000;第三角法
   7
GMM001
  44
 0.79999984000003
   0
MTEXT
   5
D7
 100
AcDbEntity
   8
LEVEL001
 370
30
  62
7
 100
AcDbMText
  10
 3884.6151997687
  20
 144.00000000000
  30
0.0
  40
 32.000000000000
  41
0.0
  71
7
  72
1
   1
\T1.700000;共通機種
   7
GMM001
  44
 0.79999984000003
   0
MTEXT
   5
D9
 100
AcDbEntity
   8
LEVEL001
 370
30
  62
7
 100
AcDbMText
  10
 4108.6151988190
  20
 144.00000000000
  30
0.0
  40
 32.000000000000
  41
0.0
  71
7
  72
1
   1
\T1.000000;個数
   7
GMM003
  44
 0.79999984000003
   0
MTEXT
   5
DB
 100
AcDbEntity
   8
LEVEL001
 370
30
  62
7
 100
AcDbMText
  10
 4198.2151991965
  20
 144.00000000000
  30
0.0
  40
 32.000000000000
  41
0.0
  71
7
  72
1
   1
\T2.000000;尺度
   7
GMM001
  44
 0.79999984000003
   0
MTEXT
   5
DD
 100
AcDbEntity
   8
LEVEL001
 370
30
  62
7
 100
AcDbMText
  10
 4342.2151991965
  20
 144.00000000000
  30
0.0
  40
 32.000000000000
  41
0.0
  71
7
  72
1
   1
\T1.500000;年月日
   7
GMM001
  44
 0.79999984000003
   0
MTEXT
   5
DF
 100
AcDbEntity
   8
LEVEL001
 370
30
  62
7
 100
AcDbMText
  10
 4518.2151991965
  20
 144.00000000000
  30
0.0
  40
 32.000000000000
  41
0.0
  71
7
  72
1
   1
\T2.000000;製図
   7
GMM001
  44
 0.79999984000003
   0
ENDBLK
   5
E0
 100
AcDbEntity
   8
0
 100
AcDbBlockEnd
   0
BLOCK
   5
E1
 100
AcDbEntity
   8
0
 100
AcDbBlockBegin
   2
GMM001
  70
64
  10
0.0
  20
0.0
  30
0.0
   3
GMM001
   0
LWPOLYLINE
   5
E2
 100
AcDbEntity
   8
LEVEL001
 370
30
   6
CONTINUOUS
  62
7
 100
AcDbPolyline
  90
4
  70
1
  10
-568.00000000000
  20
 394.00000000000
  10
-568.00000000000
  20
0.0
  10
0.0
  20
0.0
  10
0.0
  20
 394.00000000000
   0
ENDBLK
   5
E3
 100
AcDbEntity
   8
0
 100
AcDbBlockEnd
   0
BLOCK
   5
E4
 100
AcDbEntity
   8
0
 100
AcDbBlockBegin
   2
*D1
  70
65
  10
0.0
  20
0.0
  30
0.0
   3
*D1
   0
LINE
   5
E5
 100
AcDbEntity
   8
LEVEL001
 370
9
 100
AcDbLine
   6
CONTINUOUS
  62
1
  10
 3472.8364759796
  20
 993.28700651541
  30
0.0
  11
 3472.8364759796
  21
 1643.2911140584
  31
0.0
   0
LINE
   5
E6
 100
AcDbEntity
   8
LEVEL001
 370
9
 100
AcDbLine
   6
CONTINUOUS
  62
1
  10
 2747.8364759796
  20
 896.28700651538
  30
0.0
  11
 2747.8364759796
  21
 1643.2911140584
  31
0.0
   0
LINE
   5
E7
 100
AcDbEntity
   8
LEVEL001
 370
9
 100
AcDbLine
   6
CONTINUOUS
  62
1
  10
 3472.8364759796
  20
 1627.2911140584
  30
0.0
  11
 3110.3364759796
  21
 1627.2911140584
  31
0.0
   0
LINE
   5
E8
 100
AcDbEntity
   8
LEVEL001
 370
9
 100
AcDbLine
   6
CONTINUOUS
  62
1
  10
 2747.8364759796
  20
 1627.2911140584
  30
0.0
  11
 3110.3364759796
  21
 1627.2911140584
  31
0.0
   0
INSERT
   5
E9
 100
AcDbEntity
   8
LEVEL001
   6
CONTINUOUS
  62
1
 100
AcDbBlockReference
   2
_OPEN30
  10
 3472.8364759796
  20
 1627.2911140584
  30
0.0
  41
 24.000000000000
  42
 24.000000000000
  43
 24.000000000000
  50
0.0
   0
INSERT
   5
EA
 100
AcDbEntity
   8
LEVEL001
   6
CONTINUOUS
  62
1
 100
AcDbBlockReference
   2
_OPEN30
  10
 2747.8364759796
  20
 1627.2911140584
  30
0.0
  41
 24.000000000000
  42
 24.000000000000
  43
 24.000000000000
  50
 180.00000000000
   0
MTEXT
   5
EB
 100
AcDbEntity
   8
LEVEL001
 370
30
  62
7
 100
AcDbMText
  10
 3110.3364759796
  20
 1641.0053997726
  30
0.0
  40
 32.000000000000
  41
0.0
  71
8
  72
1
   1
\A1;725
   7
GMM001
   0
ENDBLK
   5
EC
 100
AcDbEntity
   8
0
 100
AcDbBlockEnd
   0
BLOCK
   5
ED
 100
AcDbEntity
   8
0
 100
AcDbBlockBegin
   2
BLOCK004
  70
64
  10
0.0
  20
0.0
  30
0.0
   3
BLOCK004
   0
POINT
   5
EE
 100
AcDbEntity
   8
LEVEL001
 100
AcDbPoint
  62
3
  10
 1315.4962385354
  20
 789.81034482759
  30
0.0
   0
POINT
   5
EF
 100
AcDbEntity
   8
LEVEL001
 100
AcDbPoint
  62
3
  10
 1262.4962385354
  20
 789.81034482759
  30
0.0
   0
LINE
   5
F0
 100
AcDbEntity
   8
LEVEL001
 370
30
 100
AcDbLine
   6
CONTINUOUS
  62
7
  10
 1358.1962385354
  20
 759.92626368404
  30
0.0
  11
 1640.1962385354
  21
 759.92626368404
  31
0.0
   0
LINE
   5
F1
 100
AcDbEntity
   8
LEVEL001
 370
30
 100
AcDbLine
   6
CONTINUOUS
  62
7
  10
 1640.1962385354
  20
 757.80702250045
  30
0.0
  11
 1358.1962385354
  21
 757.80702250045
  31
0.0
   0
LWPOLYLINE
   5
F2
 100
AcDbEntity
   8
LEVEL001
 370
30
   6
CONTINUOUS
  62
7
 100
AcDbPolyline
  90
4
  70
0
  10
 1379.1962385354
  20
 779.81366715472
  10
 1379.1962385354
  20
 782.79677767533
  10
 1619.1962385354
  20
 782.79677767533
  10
 1619.1962385354
  20
 779.81366715472
   0
LINE
   5
F3
 100
AcDbEntity
   8
LEVEL001
 370
30
 100
AcDbLine
   6
CONTINUOUS
  62
7
  10
 1721.3962385354
  20
 838.95525683374
  30
0.0
  11
 1730.3962385354
  21
 838.95525683374
  31
0.0
   0
LINE
   5
F4
 100
AcDbEntity
   8
LEVEL001
 370
30
 100
AcDbLine
   6
CONTINUOUS
  62
7
  10
 1356.5263655545
  20
 848.25670899515
  30
0.0
  11
 1356.5263655545
  21
 818.25670899515
  31
0.0
   0
LINE
   5
F5
 100
AcDbEntity
   8
LEVEL001
 370
30
 100
AcDbLine
   6
CONTINUOUS
  62
7
  10
 1352.1962385354
  20
 845.75670899515
  30
0.0
  11
 1352.1962385354
  21
 820.75670899515
  31
0.0
   0
LINE
   5
F6
 100
AcDbEntity
   8
LEVEL001
 370
30
 100
AcDbLine
   6
CONTINUOUS
  62
7
  10
 1641.8661115164
  20
 848.25670899515
  30
0.0
  11
 1641.8661115164
  21
 818.25670899515
  31
0.0
   0
LINE
   5
F7
 100
AcDbEntity
   8
LEVEL001
 370
30
 100
AcDbLine
   6
CONTINUOUS
  62
7
  10
 1646.1962385354
  20
 845.75670899515
  30
0.0
  11
 1646.1962385354
  21
 820.75670899515
  31
0.0
   0
LINE
   5
F8
 100
AcDbEntity
   8
LEVEL001
 370
30
 100
AcDbLine
   6
CONTINUOUS
  62
7
  10
 1596.3962385354
  20
 864.25670899515
  30
0.0
  11
 1596.3962385354
  21
 802.25670899515
  31
0.0
   0
LINE
   5
F9
 100
AcDbEntity
   8
LEVEL001
 370
30
 100
AcDbLine
   6
CONTINUOUS
  62
7
  10
 1574.7962385354
  20
 864.25670899515
  30
0.0
  11
 1574.7962385354
  21
 802.25670899515
  31
0.0
   0
LINE
   5
FA
 100
AcDbEntity
   8
LEVEL001
 370
30
 100
AcDbLine
   6
CONTINUOUS
  62
7
  10
 1553.1962385354
  20
 864.25670899515
  30
0.0
  11
 1553.1962385354
  21
 802.25670899515
  31
0.0
   0
LINE
   5
FB
 100
AcDbEntity
   8
LEVEL001
 370
30
 100
AcDbLine
   6
CONTINUOUS
  62
7
  10
 1531.5962385354
  20
 864.25670899515
  30
0.0
  11
 1531.5962385354
  21
 802.25670899515
  31
0.0
   0
LINE
   5
FC
 100
AcDbEntity
   8
LEVEL001
 370
30
 100
AcDbLine
   6
CONTINUOUS
  62
7
  10
 1509.9962385354
  20
 864.25670899515
  30
0.0
  11
 1509.9962385354
  21
 802.25670899515
  31
0.0
   0
LINE
   5
FD
 100
AcDbEntity
   8
LEVEL001
 370
30
 100
AcDbLine
   6
CONTINUOUS
  62
7
  10
 1488.3962385354
  20
 864.25670899515
  30
0.0
  11
 1488.3962385354
  21
 802.25670899515
  31
0.0
   0
LINE
   5
FE
 100
AcDbEntity
   8
LEVEL001
 370
30
 100
AcDbLine
   6
CONTINUOUS
  62
7
  10
 1466.7962385354
  20
 864.25670899515
  30
0.0
  11
 1466.7962385354
  21
 802.25670899515
  31
0.0
   0
LINE
   5
FF
 100
AcDbEntity
   8
LEVEL001
 370
30
 100
AcDbLine
   6
CONTINUOUS
  62
7
  10
 1445.1962385354
  20
 864.25670899515
  30
0.0
  11
 1445.1962385354
  21
 802.25670899515
  31
0.0
   0
LINE
   5
100
 100
AcDbEntity
   8
LEVEL001
 370
30
 100
AcDbLine
   6
CONTINUOUS
  62
7
  10
 1423.5962385354
  20
 864.25670899515
  30
0.0
  11
 1423.5962385354
  21
 802.25670899515
  31
0.0
   0
LINE
   5
101
 100
AcDbEntity
   8
LEVEL001
 370
30
 100
AcDbLine
   6
CONTINUOUS
  62
7
  10
 1401.9962385354
  20
 864.25670899515
  30
0.0
  11
 1401.9962385354
  21
 802.25670899515
  31
0.0
   0
LWPOLYLINE
   5
102
 100
AcDbEntity
   8
LEVEL001
 370
30
   6
CONTINUOUS
  62
7
 100
AcDbPolyline
  90
4
  70
1
  10
 1358.6962385354
  20
 318.81034482759
  10
 1639.6962385354
  20
 318.81034482759
  10
 1639.6962385354
  20
 495.81034482759
  10
 1358.6962385354
  20
 495.81034482759
   0
LWPOLYLINE
   5
103
 100
AcDbEntity
   8
LEVEL001
 370
30
   6
CONTINUOUS
  62
7
 100
AcDbPolyline
  90
4
  70
0
  10
 1629.9462385354
  20
 510.81034482759
  10
 1629.9462385354
  20
 525.81034482759
  10
 1368.4462385354
  20
 525.81034482759
  10
 1368.4462385354
  20
 510.81034482759
   0
LWPOLYLINE
   5
104
 100
AcDbEntity
   8
LEVEL001
 370
30
   6
CONTINUOUS
  62
7
 100
AcDbPolyline
  90
4
  70
1
  10
 1640.8962385354
  20
 313.81034482759
  10
 1775.8962385354
  20
 313.81034482759
  10
 1775.8962385354
  20
 789.81034482759
  10
 1640.8962385354
  20
 789.81034482759
   0
LWPOLYLINE
   5
105
 100
AcDbEntity
   8
LEVEL001
 370
30
   6
CONTINUOUS
  62
7
 100
AcDbPolyline
  90
4
  70
1
  10
 1357.4962385354
  20
 313.81034482759
  10
 1222.4962385354
  20
 313.81034482759
  10
 1222.4962385354
  20
 789.81034482759
  10
 1357.4962385354
  20
 789.81034482759
   0
LWPOLYLINE
   5
106
 100
AcDbEntity
   8
LEVEL001
 370
30
   6
CONTINUOUS
  62
7
 100
AcDbPolyline
  90
4
  70
0
  10
 1671.3962385354
  20
 868.25670899515
  10
 1657.3962385354
  20
 868.25670899515
  10
 1657.3962385354
  20
 798.25670899515
  10
 1671.3962385354
  20
 798.25670899515
   0
LINE
   5
107
 100
AcDbEntity
   8
LEVEL001
 370
30
 100
AcDbLine
   6
CONTINUOUS
  62
7
  10
 1358.1962385354
  20
 612.81034482759
  30
0.0
  11
 1640.1962385354
  21
 612.81034482759
  31
0.0
   0
LINE
   5
108
 100
AcDbEntity
   8
LEVEL001
 370
30
 100
AcDbLine
   6
CONTINUOUS
  62
7
  10
 1640.1962385354
  20
 602.81034482759
  30
0.0
  11
 1358.1962385354
  21
 602.81034482759
  31
0.0
   0
LWPOLYLINE
   5
109
 100
AcDbEntity
   8
LEVEL001
 370
30
   6
CONTINUOUS
  62
7
 100
AcDbPolyline
  90
4
  70
0
  10
 1357.4962385354
  20
 318.81034482759
  10
 1358.1962385354
  20
 318.81034482759
  10
 1358.1962385354
  20
 788.81034482759
  10
 1357.4962385354
  20
 788.81034482759
   0
LINE
   5
10A
 100
AcDbEntity
   8
LEVEL001
 370
30
 100
AcDbLine
   6
CONTINUOUS
  62
7
  10
 1357.4962385354
  20
 779.81366715472
  30
0.0
  11
 1640.1962385354
  21
 779.81366715472
  31
0.0
   0
LWPOLYLINE
   5
10B
 100
AcDbEntity
   8
LEVEL001
 370
30
   6
CONTINUOUS
  62
7
 100
AcDbPolyline
  90
3
  70
0
  10
 1307.1962385354
  20
 313.81034482759
  10
 1307.1962385354
  20
 267.81034482759
  10
 1311.1962385354
  20
 267.81034482759
   0
LWPOLYLINE
   5
10C
 100
AcDbEntity
   8
LEVEL001
 370
30
   6
CONTINUOUS
  62
7
 100
AcDbPolyline
  90
3
  70
0
  10
 1339.1962385354
  20
 267.81034482759
  10
 1343.1962385354
  20
 267.81034482759
  10
 1343.1962385354
  20
 313.81034482759
   0
LWPOLYLINE
   5
10D
 100
AcDbEntity
   8
LEVEL001
 370
30
   6
CONTINUOUS
  62
7
 100
AcDbPolyline
  90
23
  70
0
  10
 1379.1962385354
  20
 628.81034482759
  10
 1391.1962385354
  20
 632.81034482759
  10
 1401.9962385354
  20
 628.81034482759
  10
 1412.7962385354
  20
 632.81034482759
  10
 1423.5962385354
  20
 628.81034482759
  10
 1434.3962385354
  20
 632.81034482759
  10
 1445.1962385354
  20
 628.81034482759
  10
 1455.9962385354
  20
 632.81034482759
  10
 1466.7962385354
  20
 628.81034482759
  10
 1477.5962385354
  20
 632.81034482759
  10
 1488.3962385354
  20
 628.81034482759
  10
 1499.1962385354
  20
 632.81034482759
  10
 1509.9962385354
  20
 628.81034482759
  10
 1520.7962385354
  20
 632.81034482759
  10
 1531.5962385354
  20
 628.81034482759
  10
 1542.3962385354
  20
 632.81034482759
  10
 1553.1962385354
  20
 628.81034482759
  10
 1563.9962385354
  20
 632.81034482759
  10
 1574.7962385354
  20
 628.81034482759
  10
 1585.5962385354
  20
 632.81034482759
  10
 1596.3962385354
  20
 628.81034482759
  10
 1607.1962385354
  20
 632.81034482759
  10
 1619.1962385354
  20
 628.81034482759
   0
LINE
   5
10E
 100
AcDbEntity
   8
LEVEL001
 370
30
 100
AcDbLine
   6
CONTINUOUS
  62
7
  10
 1391.1962385354
  20
 729.81034482759
  30
0.0
  11
 1391.1962385354
  21
 667.81034482759
  31
0.0
   0
LINE
   5
10F
 100
AcDbEntity
   8
LEVEL001
 370
30
 100
AcDbLine
   6
CONTINUOUS
  62
7
  10
 1412.7962385354
  20
 729.81034482759
  30
0.0
  11
 1412.7962385354
  21
 667.81034482759
  31
0.0
   0
LINE
   5
110
 100
AcDbEntity
   8
LEVEL001
 370
30
 100
AcDbLine
   6
CONTINUOUS
  62
7
  10
 1434.3962385354
  20
 729.81034482759
  30
0.0
  11
 1434.3962385354
  21
 667.81034482759
  31
0.0
   0
LINE
   5
111
 100
AcDbEntity
   8
LEVEL001
 370
30
 100
AcDbLine
   6
CONTINUOUS
  62
7
  10
 1455.9962385354
  20
 729.81034482759
  30
0.0
  11
 1455.9962385354
  21
 667.81034482759
  31
0.0
   0
LINE
   5
112
 100
AcDbEntity
   8
LEVEL001
 370
30
 100
AcDbLine
   6
CONTINUOUS
  62
7
  10
 1477.5962385354
  20
 729.81034482759
  30
0.0
  11
 1477.5962385354
  21
 667.81034482759
  31
0.0
   0
LINE
   5
113
 100
AcDbEntity
   8
LEVEL001
 370
30
 100
AcDbLine
   6
CONTINUOUS
  62
7
  10
 1499.1962385354
  20
 729.81034482759
  30
0.0
  11
 1499.1962385354
  21
 667.81034482759
  31
0.0
   0
LINE
   5
114
 100
AcDbEntity
   8
LEVEL001
 370
30
 100
AcDbLine
   6
CONTINUOUS
  62
7
  10
 1520.7962385354
  20
 729.81034482759
  30
0.0
  11
 1520.7962385354
  21
 667.81034482759
  31
0.0
   0
LINE
   5
115
 100
AcDbEntity
   8
LEVEL001
 370
30
 100
AcDbLine
   6
CONTINUOUS
  62
7
  10
 1542.3962385354
  20
 729.81034482759
  30
0.0
  11
 1542.3962385354
  21
 667.81034482759
  31
0.0
   0
LINE
   5
116
 100
AcDbEntity
   8
LEVEL001
 370
30
 100
AcDbLine
   6
CONTINUOUS
  62
7
  10
 1563.9962385354
  20
 729.81034482759
  30
0.0
  11
 1563.9962385354
  21
 667.81034482759
  31
0.0
   0
LINE
   5
117
 100
AcDbEntity
   8
LEVEL001
 370
30
 100
AcDbLine
   6
CONTINUOUS
  62
7
  10
 1585.5962385354
  20
 729.81034482759
  30
0.0
  11
 1585.5962385354
  21
 667.81034482759
  31
0.0
   0
LINE
   5
118
 100
AcDbEntity
   8
LEVEL001
 370
30
 100
AcDbLine
   6
CONTINUOUS
  62
7
  10
 1607.1962385354
  20
 729.81034482759
  30
0.0
  11
 1607.1962385354
  21
 667.81034482759
  31
0.0
   0
LWPOLYLINE
   5
119
 100
AcDbEntity
   8
LEVEL001
 370
30
   6
CONTINUOUS
  62
7
 100
AcDbPolyline
  90
4
  70
0
  10
 1640.8962385354
  20
 318.81034482759
  10
 1640.1962385354
  20
 318.81034482759
  10
 1640.1962385354
  20
 788.81034482759
  10
 1640.8962385354
  20
 788.81034482759
   0
LWPOLYLINE
   5
11A
 100
AcDbEntity
   8
LEVEL001
 370
30
   6
CONTINUOUS
  62
7
 100
AcDbPolyline
  90
4
  70
0
  10
 1696.3962385354
  20
 789.81034482759
  10
 1696.3962385354
  20
 903.43985334619
  10
 1684.3962385354
  20
 903.43985334619
  10
 1684.3962385354
  20
 789.81034482759
   0
LWPOLYLINE
   5
11B
 100
AcDbEntity
   8
LEVEL001
 370
30
   6
CONTINUOUS
  62
7
 100
AcDbPolyline
  90
3
  70
0
  10
 1655.1962385354
  20
 313.81034482759
  10
 1655.1962385354
  20
 267.81034482759
  10
 1659.1962385354
  20
 267.81034482759
   0
LWPOLYLINE
   5
11C
 100
AcDbEntity
   8
LEVEL001
 370
30
   6
CONTINUOUS
  62
7
 100
AcDbPolyline
  90
3
  70
0
  10
 1687.1962385354
  20
 267.81034482759
  10
 1691.1962385354
  20
 267.81034482759
  10
 1691.1962385354
  20
 313.81034482759
   0
LWPOLYLINE
   5
11D
 100
AcDbEntity
   8
LEVEL001
 370
30
   6
CONTINUOUS
  62
7
 100
AcDbPolyline
  90
4
  70
0
  10
 1379.1962385354
  20
 848.25670899515
  10
 1356.5263655545
  20
 848.25670899515
  10
 1352.1962385354
  20
 845.75670899515
  10
 1340.9962385354
  20
 845.75670899515
   0
LWPOLYLINE
   5
11E
 100
AcDbEntity
   8
LEVEL001
 370
30
   6
CONTINUOUS
  62
7
 100
AcDbPolyline
  90
4
  70
0
  10
 1340.9962385354
  20
 820.75670899515
  10
 1352.1962385354
  20
 820.75670899515
  10
 1356.5263655545
  20
 818.25670899515
  10
 1379.1962385354
  20
 818.25670899515
   0
LWPOLYLINE
   5
11F
 100
AcDbEntity
   8
LEVEL001
 370
30
   6
CONTINUOUS
  62
7
 100
AcDbPolyline
  90
4
  70
0
  10
 1619.1962385354
  20
 848.25670899515
  10
 1641.8661115164
  20
 848.25670899515
  10
 1646.1962385354
  20
 845.75670899515
  10
 1657.3962385354
  20
 845.75670899515
   0
LWPOLYLINE
   5
120
 100
AcDbEntity
   8
LEVEL001
 370
30
   6
CONTINUOUS
  62
7
 100
AcDbPolyline
  90
4
  70
0
  10
 1657.3962385354
  20
 820.75670899515
  10
 1646.1962385354
  20
 820.75670899515
  10
 1641.8661115164
  20
 818.25670899515
  10
 1619.1962385354
  20
 818.25670899515
   0
LINE
   5
121
 100
AcDbEntity
   8
LEVEL001
 370
30
 100
AcDbLine
   6
CONTINUOUS
  62
7
  10
 1326.9962385354
  20
 891.43985334619
  30
0.0
  11
 1671.3962385354
  21
 891.43985334619
  31
0.0
   0
LINE
   5
122
 100
AcDbEntity
   8
LEVEL001
 370
30
 100
AcDbLine
   6
CONTINUOUS
  62
7
  10
 1671.3962385354
  20
 875.43985334619
  30
0.0
  11
 1326.9962385354
  21
 875.43985334619
  31
0.0
   0
LWPOLYLINE
   5
123
 100
AcDbEntity
   8
LEVEL001
 370
30
   6
CONTINUOUS
  62
7
 100
AcDbPolyline
  90
6
  70
0
  10
 1639.6962385354
  20
 490.81034482759
  10
 1639.9462385354
  20
 490.81034482759
  10
 1639.9462385354
  20
 510.81034482759
  10
 1358.4462385354
  20
 510.81034482759
  10
 1358.4462385354
  20
 490.81034482759
  10
 1358.6962385354
  20
 490.81034482759
   0
LINE
   5
124
 100
AcDbEntity
   8
LEVEL001
 370
30
 100
AcDbLine
   6
CONTINUOUS
  62
7
  10
 1379.1962385354
  20
 875.43985334619
  30
0.0
  11
 1379.1962385354
  21
 833.25670899515
  31
0.0
   0
LINE
   5
125
 100
AcDbEntity
   8
LEVEL001
 370
30
 100
AcDbLine
   6
CONTINUOUS
  62
7
  10
 1619.1962385354
  20
 833.25670899515
  30
0.0
  11
 1619.1962385354
  21
 875.43985334619
  31
0.0
   0
LWPOLYLINE
   5
126
 100
AcDbEntity
   8
LEVEL001
 370
30
   6
CONTINUOUS
  62
7
 100
AcDbPolyline
  90
25
  70
0
  10
 1619.1962385354
  20
 891.43985334619
  10
 1619.1962385354
  20
 899.25670899515
  10
 1607.1962385354
  20
 903.25670899515
  10
 1596.3962385354
  20
 899.25670899515
  10
 1585.5962385354
  20
 903.25670899515
  10
 1574.7962385354
  20
 899.25670899515
  10
 1563.9962385354
  20
 903.25670899515
  10
 1553.1962385354
  20
 899.25670899515
  10
 1542.3962385354
  20
 903.25670899515
  10
 1531.5962385354
  20
 899.25670899515
  10
 1520.7962385354
  20
 903.25670899515
  10
 1509.9962385354
  20
 899.25670899515
  10
 1499.1962385354
  20
 903.25670899515
  10
 1488.3962385354
  20
 899.25670899515
  10
 1477.5962385354
  20
 903.25670899515
  10
 1466.7962385354
  20
 899.25670899515
  10
 1455.9962385354
  20
 903.25670899515
  10
 1445.1962385354
  20
 899.25670899515
  10
 1434.3962385354
  20
 903.25670899515
  10
 1423.5962385354
  20
 899.25670899515
  10
 1412.7962385354
  20
 903.25670899515
  10
 1401.9962385354
  20
 899.25670899515
  10
 1391.1962385354
  20
 903.25670899515
  10
 1379.1962385354
  20
 899.25670899515
  10
 1379.1962385354
  20
 891.43985334619
   0
LWPOLYLINE
   5
127
 100
AcDbEntity
   8
LEVEL001
 370
30
   6
CONTINUOUS
  62
7
 100
AcDbPolyline
  90
4
  70
0
  10
 1378.1962385354
  20
 779.81366715472
  10
 1378.1962385354
  20
 798.81034482759
  10
 1371.6962385354
  20
 798.81034482759
  10
 1371.6962385354
  20
 779.81366715472
   0
LWPOLYLINE
   5
128
 100
AcDbEntity
   8
LEVEL001
 370
30
   6
CONTINUOUS
  62
7
 100
AcDbPolyline
  90
4
  70
0
  10
 1620.1962385354
  20
 779.81366715472
  10
 1620.1962385354
  20
 798.81034482759
  10
 1626.6962385354
  20
 798.81034482759
  10
 1626.6962385354
  20
 779.81366715472
   0
LINE
   5
129
 100
AcDbEntity
   8
LEVEL001
 370
30
 100
AcDbLine
   6
CONTINUOUS
  62
7
  10
 1619.1962385354
  20
 833.25670899515
  30
0.0
  11
 1619.1962385354
  21
 779.81366715472
  31
0.0
   0
LINE
   5
12A
 100
AcDbEntity
   8
LEVEL001
 370
30
 100
AcDbLine
   6
CONTINUOUS
  62
7
  10
 1379.1962385354
  20
 779.81366715472
  30
0.0
  11
 1379.1962385354
  21
 833.25670899515
  31
0.0
   0
LINE
   5
12B
 100
AcDbEntity
   8
LEVEL001
 370
30
 100
AcDbLine
   6
CONTINUOUS
  62
7
  10
 1371.6962385354
  20
 757.80702250045
  30
0.0
  11
 1371.6962385354
  21
 612.81034482759
  31
0.0
   0
LWPOLYLINE
   5
12C
 100
AcDbEntity
   8
LEVEL001
 370
30
   6
CONTINUOUS
  62
7
 100
AcDbPolyline
  90
4
  70
0
  10
 1371.6962385354
  20
 602.81034482759
  10
 1371.6962385354
  20
 598.81034482759
  10
 1378.1962385354
  20
 598.81034482759
  10
 1378.1962385354
  20
 602.81034482759
   0
LWPOLYLINE
   5
12D
 100
AcDbEntity
   8
LEVEL001
 370
30
   6
CONTINUOUS
  62
7
 100
AcDbPolyline
  90
4
  70
0
  10
 1378.1962385354
  20
 612.81034482759
  10
 1378.1962385354
  20
 628.81034482759
  10
 1379.1962385354
  20
 628.81034482759
  10
 1379.1962385354
  20
 757.80702250045
   0
LINE
   5
12E
 100
AcDbEntity
   8
LEVEL001
 370
30
 100
AcDbLine
   6
CONTINUOUS
  62
7
  10
 1379.1962385354
  20
 628.81034482759
  30
0.0
  11
 1379.1962385354
  21
 612.81034482759
  31
0.0
   0
LWPOLYLINE
   5
12F
 100
AcDbEntity
   8
LEVEL001
 370
30
   6
CONTINUOUS
  62
7
 100
AcDbPolyline
  90
25
  70
0
  10
 1379.1962385354
  20
 602.81034482759
  10
 1379.1962385354
  20
 541.81034482759
  10
 1391.1962385354
  20
 537.81034482759
  10
 1401.9962385354
  20
 541.81034482759
  10
 1412.7962385354
  20
 537.81034482759
  10
 1423.5962385354
  20
 541.81034482759
  10
 1434.3962385354
  20
 537.81034482759
  10
 1445.1962385354
  20
 541.81034482759
  10
 1455.9962385354
  20
 537.81034482759
  10
 1466.7962385354
  20
 541.81034482759
  10
 1477.5962385354
  20
 537.81034482759
  10
 1488.3962385354
  20
 541.81034482759
  10
 1499.1962385354
  20
 537.81034482759
  10
 1509.9962385354
  20
 541.81034482759
  10
 1520.7962385354
  20
 537.81034482759
  10
 1531.5962385354
  20
 541.81034482759
  10
 1542.3962385354
  20
 537.81034482759
  10
 1553.1962385354
  20
 541.81034482759
  10
 1563.9962385354
  20
 537.81034482759
  10
 1574.7962385354
  20
 541.81034482759
  10
 1585.5962385354
  20
 537.81034482759
  10
 1596.3962385354
  20
 541.81034482759
  10
 1607.1962385354
  20
 537.81034482759
  10
 1619.1962385354
  20
 541.81034482759
  10
 1619.1962385354
  20
 602.81034482759
   0
LINE
   5
130
 100
AcDbEntity
   8
LEVEL001
 370
30
 100
AcDbLine
   6
CONTINUOUS
  62
7
  10
 1619.1962385354
  20
 612.81034482759
  30
0.0
  11
 1619.1962385354
  21
 628.81034482759
  31
0.0
   0
LINE
   5
131
 100
AcDbEntity
   8
LEVEL001
 370
30
 100
AcDbLine
   6
CONTINUOUS
  62
7
  10
 1401.9962385354
  20
 628.81034482759
  30
0.0
  11
 1401.9962385354
  21
 612.81034482759
  31
0.0
   0
LINE
   5
132
 100
AcDbEntity
   8
LEVEL001
 370
30
 100
AcDbLine
   6
CONTINUOUS
  62
7
  10
 1401.9962385354
  20
 602.81034482759
  30
0.0
  11
 1401.9962385354
  21
 576.81034482759
  31
0.0
   0
LINE
   5
133
 100
AcDbEntity
   8
LEVEL001
 370
30
 100
AcDbLine
   6
CONTINUOUS
  62
7
  10
 1423.5962385354
  20
 628.81034482759
  30
0.0
  11
 1423.5962385354
  21
 612.81034482759
  31
0.0
   0
LINE
   5
134
 100
AcDbEntity
   8
LEVEL001
 370
30
 100
AcDbLine
   6
CONTINUOUS
  62
7
  10
 1423.5962385354
  20
 602.81034482759
  30
0.0
  11
 1423.5962385354
  21
 576.81034482759
  31
0.0
   0
LINE
   5
135
 100
AcDbEntity
   8
LEVEL001
 370
30
 100
AcDbLine
   6
CONTINUOUS
  62
7
  10
 1445.1962385354
  20
 628.81034482759
  30
0.0
  11
 1445.1962385354
  21
 612.81034482759
  31
0.0
   0
LINE
   5
136
 100
AcDbEntity
   8
LEVEL001
 370
30
 100
AcDbLine
   6
CONTINUOUS
  62
7
  10
 1445.1962385354
  20
 602.81034482759
  30
0.0
  11
 1445.1962385354
  21
 576.81034482759
  31
0.0
   0
LINE
   5
137
 100
AcDbEntity
   8
LEVEL001
 370
30
 100
AcDbLine
   6
CONTINUOUS
  62
7
  10
 1466.7962385354
  20
 628.81034482759
  30
0.0
  11
 1466.7962385354
  21
 612.81034482759
  31
0.0
   0
LINE
   5
138
 100
AcDbEntity
   8
LEVEL001
 370
30
 100
AcDbLine
   6
CONTINUOUS
  62
7
  10
 1466.7962385354
  20
 602.81034482759
  30
0.0
  11
 1466.7962385354
  21
 576.81034482759
  31
0.0
   0
LINE
   5
139
 100
AcDbEntity
   8
LEVEL001
 370
30
 100
AcDbLine
   6
CONTINUOUS
  62
7
  10
 1488.3962385354
  20
 628.81034482759
  30
0.0
  11
 1488.3962385354
  21
 612.81034482759
  31
0.0
   0
LINE
   5
13A
 100
AcDbEntity
   8
LEVEL001
 370
30
 100
AcDbLine
   6
CONTINUOUS
  62
7
  10
 1488.3962385354
  20
 602.81034482759
  30
0.0
  11
 1488.3962385354
  21
 576.81034482759
  31
0.0
   0
LINE
   5
13B
 100
AcDbEntity
   8
LEVEL001
 370
30
 100
AcDbLine
   6
CONTINUOUS
  62
7
  10
 1509.9962385354
  20
 628.81034482759
  30
0.0
  11
 1509.9962385354
  21
 612.81034482759
  31
0.0
   0
LINE
   5
13C
 100
AcDbEntity
   8
LEVEL001
 370
30
 100
AcDbLine
   6
CONTINUOUS
  62
7
  10
 1509.9962385354
  20
 602.81034482759
  30
0.0
  11
 1509.9962385354
  21
 576.81034482759
  31
0.0
   0
LINE
   5
13D
 100
AcDbEntity
   8
LEVEL001
 370
30
 100
AcDbLine
   6
CONTINUOUS
  62
7
  10
 1531.5962385354
  20
 628.81034482759
  30
0.0
  11
 1531.5962385354
  21
 612.81034482759
  31
0.0
   0
LINE
   5
13E
 100
AcDbEntity
   8
LEVEL001
 370
30
 100
AcDbLine
   6
CONTINUOUS
  62
7
  10
 1531.5962385354
  20
 602.81034482759
  30
0.0
  11
 1531.5962385354
  21
 576.81034482759
  31
0.0
   0
LINE
   5
13F
 100
AcDbEntity
   8
LEVEL001
 370
30
 100
AcDbLine
   6
CONTINUOUS
  62
7
  10
 1553.1962385354
  20
 628.81034482759
  30
0.0
  11
 1553.1962385354
  21
 612.81034482759
  31
0.0
   0
LINE
   5
140
 100
AcDbEntity
   8
LEVEL001
 370
30
 100
AcDbLine
   6
CONTINUOUS
  62
7
  10
 1553.1962385354
  20
 602.81034482759
  30
0.0
  11
 1553.1962385354
  21
 576.81034482759
  31
0.0
   0
LINE
   5
141
 100
AcDbEntity
   8
LEVEL001
 370
30
 100
AcDbLine
   6
CONTINUOUS
  62
7
  10
 1574.7962385354
  20
 628.81034482759
  30
0.0
  11
 1574.7962385354
  21
 612.81034482759
  31
0.0
   0
LINE
   5
142
 100
AcDbEntity
   8
LEVEL001
 370
30
 100
AcDbLine
   6
CONTINUOUS
  62
7
  10
 1574.7962385354
  20
 602.81034482759
  30
0.0
  11
 1574.7962385354
  21
 576.81034482759
  31
0.0
   0
LINE
   5
143
 100
AcDbEntity
   8
LEVEL001
 370
30
 100
AcDbLine
   6
CONTINUOUS
  62
7
  10
 1596.3962385354
  20
 628.81034482759
  30
0.0
  11
 1596.3962385354
  21
 612.81034482759
  31
0.0
   0
LINE
   5
144
 100
AcDbEntity
   8
LEVEL001
 370
30
 100
AcDbLine
   6
CONTINUOUS
  62
7
  10
 1596.3962385354
  20
 602.81034482759
  30
0.0
  11
 1596.3962385354
  21
 576.81034482759
  31
0.0
   0
LINE
   5
145
 100
AcDbEntity
   8
LEVEL001
 370
30
 100
AcDbLine
   6
CONTINUOUS
  62
7
  10
 1626.6962385354
  20
 757.80702250045
  30
0.0
  11
 1626.6962385354
  21
 612.81034482759
  31
0.0
   0
LWPOLYLINE
   5
146
 100
AcDbEntity
   8
LEVEL001
 370
30
   6
CONTINUOUS
  62
7
 100
AcDbPolyline
  90
4
  70
0
  10
 1626.6962385354
  20
 602.81034482759
  10
 1626.6962385354
  20
 598.81034482759
  10
 1620.1962385354
  20
 598.81034482759
  10
 1620.1962385354
  20
 602.81034482759
   0
LWPOLYLINE
   5
147
 100
AcDbEntity
   8
LEVEL001
 370
30
   6
CONTINUOUS
  62
7
 100
AcDbPolyline
  90
4
  70
0
  10
 1620.1962385354
  20
 612.81034482759
  10
 1620.1962385354
  20
 628.81034482759
  10
 1619.1962385354
  20
 628.81034482759
  10
 1619.1962385354
  20
 757.80702250045
   0
LINE
   5
148
 100
AcDbEntity
   8
LEVEL001
 370
30
 100
AcDbLine
   6
CONTINUOUS
  62
7
  10
 1671.3962385354
  20
 789.81034482759
  30
0.0
  11
 1671.3962385354
  21
 871.93985334619
  31
0.0
   0
LINE
   5
149
 100
AcDbEntity
   8
LEVEL001
 370
30
 100
AcDbLine
   6
CONTINUOUS
  62
7
  10
 1301.9962385354
  20
 837.66839081449
  30
0.0
  11
 1255.9962385354
  21
 837.66839081449
  31
0.0
   0
ARC
   5
14A
 100
AcDbEntity
   8
LEVEL001
 370
30
   6
CONTINUOUS
  62
7
 100
AcDbCircle
  10
 1262.4962385354
  20
 715.81034482759
  30
0.0
  40
 101.00000000000
 100
AcDbArc
  50
 78.578813725001
  51
 101.42118627500
   0
LWPOLYLINE
   5
14B
 100
AcDbEntity
   8
LEVEL001
 370
30
   6
CONTINUOUS
  62
7
 100
AcDbPolyline
  90
4
  70
0
  10
 1242.4962385354
  20
 814.81034482759
  10
 1242.4962385354
  20
 810.81034482759
  10
 1282.4962385354
  20
 810.81034482759
  10
 1282.4962385354
  20
 814.81034482759
   0
LWPOLYLINE
   5
14C
 100
AcDbEntity
   8
LEVEL001
 370
30
   6
CONTINUOUS
  62
7
 100
AcDbPolyline
  90
6
  70
1
  10
 1279.4962385354
  20
 792.31034482759
  10
 1279.4962385354
  20
 798.31034482759
  10
 1277.4962385354
  20
 804.31034482759
  10
 1247.4962385354
  20
 804.31034482759
  10
 1245.4962385354
  20
 798.31034482759
  10
 1245.4962385354
  20
 792.31034482759
   0
LINE
   5
14D
 100
AcDbEntity
   8
LEVEL001
 370
30
 100
AcDbLine
   6
CONTINUOUS
  62
7
  10
 1279.4962385354
  20
 798.31034482759
  30
0.0
  11
 1245.4962385354
  21
 798.31034482759
  31
0.0
   0
LINE
   5
14E
 100
AcDbEntity
   8
LEVEL001
 370
30
 100
AcDbLine
   6
CONTINUOUS
  62
7
  10
 1274.9962385354
  20
 804.31034482759
  30
0.0
  11
 1274.9962385354
  21
 810.81034482759
  31
0.0
   0
LINE
   5
14F
 100
AcDbEntity
   8
LEVEL001
 370
30
 100
AcDbLine
   6
CONTINUOUS
  62
7
  10
 1249.9962385354
  20
 804.31034482759
  30
0.0
  11
 1249.9962385354
  21
 810.81034482759
  31
0.0
   0
LWPOLYLINE
   5
150
 100
AcDbEntity
   8
LEVEL001
 370
30
   6
CONTINUOUS
  62
7
 100
AcDbPolyline
  90
4
  70
1
  10
 1242.4962385354
  20
 789.81034482759
  10
 1282.4962385354
  20
 789.81034482759
  10
 1282.4962385354
  20
 792.31034482759
  10
 1242.4962385354
  20
 792.31034482759
   0
LWPOLYLINE
   5
151
 100
AcDbEntity
   8
LEVEL001
 370
30
   6
CONTINUOUS
  62
7
 100
AcDbPolyline
  90
6
  70
1
  10
 1332.4962385354
  20
 792.31034482759
  10
 1332.4962385354
  20
 798.31034482759
  10
 1330.4962385354
  20
 804.31034482759
  10
 1300.4962385354
  20
 804.31034482759
  10
 1298.4962385354
  20
 798.31034482759
  10
 1298.4962385354
  20
 792.31034482759
   0
LINE
   5
152
 100
AcDbEntity
   8
LEVEL001
 370
30
 100
AcDbLine
   6
CONTINUOUS
  62
7
  10
 1332.4962385354
  20
 798.31034482759
  30
0.0
  11
 1298.4962385354
  21
 798.31034482759
  31
0.0
   0
LWPOLYLINE
   5
153
 100
AcDbEntity
   8
LEVEL001
 370
30
   6
CONTINUOUS
  62
7
 100
AcDbPolyline
  90
9
  70
0
  10
 1320.4962385354
  20
 811.31034482759
  10
 1301.9962385354
  20
 811.31034482759
  10
 1301.9962385354
  20
 804.31034482759
  10
 1328.9962385354
  20
 804.31034482759
  10
 1328.9962385354
  20
 811.31034482759
  10
 1320.4962385354
  20
 811.31034482759
  10
 1320.4962385354
  20
 821.31034482759
  10
 1310.4962385354
  20
 821.31034482759
  10
 1310.4962385354
  20
 811.31034482759
   0
LWPOLYLINE
   5
154
 100
AcDbEntity
   8
LEVEL001
 370
30
   6
CONTINUOUS
  62
7
 100
AcDbPolyline
  90
4
  70
1
  10
 1295.4962385354
  20
 789.81034482759
  10
 1335.4962385354
  20
 789.81034482759
  10
 1335.4962385354
  20
 792.31034482759
  10
 1295.4962385354
  20
 792.31034482759
   0
LWPOLYLINE
   5
155
 100
AcDbEntity
   8
LEVEL001
 370
30
   6
CONTINUOUS
  62
7
 100
AcDbPolyline
  90
4
  70
0
  10
 1301.9962385354
  20
 811.31034482759
  10
 1301.9962385354
  20
 909.65013837906
  10
 1255.9962385354
  20
 909.65013837906
  10
 1255.9962385354
  20
 816.31034482759
   0
LWPOLYLINE
   5
156
 100
AcDbEntity
   8
LEVEL001
 370
30
   6
CONTINUOUS
  62
7
 100
AcDbPolyline
  90
3
  70
0
  10
 1313.9962385354
  20
 821.31034482759
  10
 1313.9962385354
  20
 903.43985334619
  10
 1301.9962385354
  20
 903.43985334619
   0
LINE
   5
157
 100
AcDbEntity
   8
LEVEL001
 370
30
 100
AcDbLine
   6
CONTINUOUS
  62
7
  10
 1326.9962385354
  20
 811.31034482759
  30
0.0
  11
 1326.9962385354
  21
 871.93985334619
  31
0.0
   0
LWPOLYLINE
   5
158
 100
AcDbEntity
   8
LEVEL001
 370
30
   6
CONTINUOUS
  62
7
 100
AcDbPolyline
  90
4
  70
0
  10
 1326.9962385354
  20
 868.25670899515
  10
 1340.9962385354
  20
 868.25670899515
  10
 1340.9962385354
  20
 798.25670899515
  10
 1332.4962385354
  20
 798.25670899515
   0
LINE
   5
159
 100
AcDbEntity
   8
LEVEL001
 370
30
 100
AcDbLine
   6
CONTINUOUS
  62
7
  10
 1640.1962385354
  20
 789.81034482759
  30
0.0
  11
 1626.6962385354
  21
 789.81034482759
  31
0.0
   0
LINE
   5
15A
 100
AcDbEntity
   8
LEVEL001
 370
30
 100
AcDbLine
   6
CONTINUOUS
  62
7
  10
 1358.1962385354
  20
 789.81034482759
  30
0.0
  11
 1371.6962385354
  21
 789.81034482759
  31
0.0
   0
LINE
   5
15B
 100
AcDbEntity
   8
LEVEL001
 370
30
 100
AcDbLine
   6
CONTINUOUS
  62
7
  10
 1358.1962385354
  20
 683.81034482759
  30
0.0
  11
 1371.6962385354
  21
 683.81034482759
  31
0.0
   0
LINE
   5
15C
 100
AcDbEntity
   8
LEVEL001
 370
30
 100
AcDbLine
   6
CONTINUOUS
  62
7
  10
 1371.6962385354
  20
 713.81034482759
  30
0.0
  11
 1358.1962385354
  21
 713.81034482759
  31
0.0
   0
LINE
   5
15D
 100
AcDbEntity
   8
LEVEL001
 370
30
 100
AcDbLine
   6
CONTINUOUS
  62
7
  10
 1626.6962385354
  20
 713.81034482759
  30
0.0
  11
 1640.1962385354
  21
 713.81034482759
  31
0.0
   0
LINE
   5
15E
 100
AcDbEntity
   8
LEVEL001
 370
30
 100
AcDbLine
   6
CONTINUOUS
  62
7
  10
 1640.1962385354
  20
 683.81034482759
  30
0.0
  11
 1626.6962385354
  21
 683.81034482759
  31
0.0
   0
LINE
   5
15F
 100
AcDbEntity
   8
LEVEL001
 370
9
 100
AcDbLine
   6
DASHDOT
  62
1
  10
 1710.1962385354
  20
 833.25670899515
  30
0.0
  11
 1288.1962385354
  21
 833.25670899515
  31
0.0
   0
LINE
   5
160
 100
AcDbEntity
   8
LEVEL001
 370
9
 100
AcDbLine
   6
DASHDOT
  62
1
  10
 1710.1962385354
  20
 698.81034482759
  30
0.0
  11
 1288.1962385354
  21
 698.81034482759
  31
0.0
   0
LINE
   5
161
 100
AcDbEntity
   8
LEVEL001
 370
9
 100
AcDbLine
   6
DASHDOT
  62
1
  10
 1710.1962385354
  20
 607.81034482759
  30
0.0
  11
 1288.1962385354
  21
 607.81034482759
  31
0.0
   0
CIRCLE
   5
162
 100
AcDbEntity
   8
LEVEL001
 370
30
 100
AcDbCircle
   6
CONTINUOUS
  62
7
  10
 1743.9962385354
  20
 869.39850557092
  30
0.0
  40
 17.500000000000
   0
LINE
   5
163
 100
AcDbEntity
   8
LEVEL001
 370
30
 100
AcDbLine
   6
CONTINUOUS
  62
7
  10
 1730.3962385354
  20
 789.81034482759
  30
0.0
  11
 1730.3962385354
  21
 858.38533164148
  31
0.0
   0
LWPOLYLINE
   5
164
 100
AcDbEntity
   8
LEVEL001
 370
30
   6
CONTINUOUS
  62
7
 100
AcDbPolyline
  90
4
  70
0
  10
 1730.3962385354
  20
 880.41167950035
  10
 1730.3962385354
  20
 893.39850557089
  10
 1721.3962385354
  20
 893.39850557089
  10
 1721.3962385354
  20
 789.81034482759
   0
LINE
   5
165
 100
AcDbEntity
   8
LEVEL001
 370
9
 100
AcDbLine
   6
DASHDOT
  62
1
  10
 1499.1962385354
  20
 953.31034482759
  30
0.0
  11
 1499.1962385354
  21
 231.31034482759
  31
0.0
   0
LWPOLYLINE
   5
166
 100
AcDbEntity
   8
LEVEL001
 370
30
   6
CONTINUOUS
  62
7
 100
AcDbPolyline
  90
4
  70
1
  10
 1659.1962385354
  20
 250.81034482759
  10
 1687.1962385354
  20
 250.81034482759
  10
 1687.1962385354
  20
 300.81034482759
  10
 1659.1962385354
  20
 300.81034482759
   0
LWPOLYLINE
   5
167
 100
AcDbEntity
   8
LEVEL001
 370
30
   6
CONTINUOUS
  62
7
 100
AcDbPolyline
  90
4
  70
1
  10
 1311.1962385354
  20
 250.81034482759
  10
 1339.1962385354
  20
 250.81034482759
  10
 1339.1962385354
  20
 300.81034482759
  10
 1311.1962385354
  20
 300.81034482759
   0
ENDBLK
   5
168
 100
AcDbEntity
   8
0
 100
AcDbBlockEnd
   0
BLOCK
   5
169
 100
AcDbEntity
   8
0
 100
AcDbBlockBegin
   2
*D2
  70
65
  10
0.0
  20
0.0
  30
0.0
   3
*D2
   0
LINE
   5
16A
 100
AcDbEntity
   8
LEVEL001
 370
9
 100
AcDbLine
   6
CONTINUOUS
  62
1
  10
 1186.2721088333
  20
 1545.8103448276
  30
0.0
  11
 184.47829353923
  21
 1545.8103448276
  31
0.0
   0
LINE
   5
16B
 100
AcDbEntity
   8
LEVEL001
 370
9
 100
AcDbLine
   6
CONTINUOUS
  62
1
  10
 467.39623853543
  20
 250.81034482759
  30
0.0
  11
 184.47829353923
  21
 250.81034482759
  31
0.0
   0
LINE
   5
16C
 100
AcDbEntity
   8
LEVEL001
 370
9
 100
AcDbLine
   6
CONTINUOUS
  62
1
  10
 200.47829353923
  20
 1545.8103448276
  30
0.0
  11
 200.47829353923
  21
 898.31034482759
  31
0.0
   0
LINE
   5
16D
 100
AcDbEntity
   8
LEVEL001
 370
9
 100
AcDbLine
   6
CONTINUOUS
  62
1
  10
 200.47829353923
  20
 250.81034482759
  30
0.0
  11
 200.47829353923
  21
 898.31034482759
  31
0.0
   0
INSERT
   5
16E
 100
AcDbEntity
   8
LEVEL001
   6
CONTINUOUS
  62
1
 100
AcDbBlockReference
   2
_OPEN30
  10
 200.47829353923
  20
 1545.8103448276
  30
0.0
  41
 24.000000000000
  42
 24.000000000000
  43
 24.000000000000
  50
 90.000000000000
   0
INSERT
   5
16F
 100
AcDbEntity
   8
LEVEL001
   6
CONTINUOUS
  62
1
 100
AcDbBlockReference
   2
_OPEN30
  10
 200.47829353923
  20
 250.81034482759
  30
0.0
  41
 24.000000000000
  42
 24.000000000000
  43
 24.000000000000
  50
 270.00000000000
   0
MTEXT
   5
170
 100
AcDbEntity
   8
LEVEL001
 370
30
  62
7
 100
AcDbMText
  10
 192.47829353923
  20
 898.31034482759
  30
0.0
  40
 32.000000000000
  41
0.0
  71
8
  72
1
   1
\A1;1295
   7
GMM001
  11
0.0
  21
 1.0000000000000
  31
0.0
   0
ENDBLK
   5
171
 100
AcDbEntity
   8
0
 100
AcDbBlockEnd
   0
BLOCK
   5
172
 100
AcDbEntity
   8
0
 100
AcDbBlockBegin
   2
*D3
  70
65
  10
0.0
  20
0.0
  30
0.0
   3
*D3
   0
LINE
   5
173
 100
AcDbEntity
   8
LEVEL001
 370
9
 100
AcDbLine
   6
CONTINUOUS
  62
1
  10
 467.39623853543
  20
 250.81034482759
  30
0.0
  11
 249.98905373072
  21
 250.81034482759
  31
0.0
   0
LINE
   5
174
 100
AcDbEntity
   8
LEVEL001
 370
9
 100
AcDbLine
   6
CONTINUOUS
  62
1
  10
 265.98905373072
  20
 250.81034482759
  30
0.0
  11
 265.98905373072
  21
 615.81034482759
  31
0.0
   0
LINE
   5
175
 100
AcDbEntity
   8
LEVEL001
 370
9
 100
AcDbLine
   6
CONTINUOUS
  62
1
  10
 265.98905373072
  20
 980.81034482759
  30
0.0
  11
 265.98905373072
  21
 615.81034482759
  31
0.0
   0
INSERT
   5
176
 100
AcDbEntity
   8
LEVEL001
   6
CONTINUOUS
  62
1
 100
AcDbBlockReference
   2
_OPEN30
  10
 265.98905373072
  20
 250.81034482759
  30
0.0
  41
 24.000000000000
  42
 24.000000000000
  43
 24.000000000000
  50
 270.00000000000
   0
INSERT
   5
177
 100
AcDbEntity
   8
LEVEL001
   6
CONTINUOUS
  62
1
 100
AcDbBlockReference
   2
_OPEN30
  10
 265.98905373072
  20
 980.81034482759
  30
0.0
  41
 24.000000000000
  42
 24.000000000000
  43
 24.000000000000
  50
 90.000000000000
   0
MTEXT
   5
178
 100
AcDbEntity
   8
LEVEL001
 370
30
  62
7
 100
AcDbMText
  10
 257.98905373072
  20
 615.81034482759
  30
0.0
  40
 32.000000000000
  41
0.0
  71
8
  72
1
   1
\A1;730
   7
GMM001
  11
0.0
  21
 1.0000000000000
  31
0.0
   0
ENDBLK
   5
179
 100
AcDbEntity
   8
0
 100
AcDbBlockEnd
   0
BLOCK
   5
17A
 100
AcDbEntity
   8
0
 100
AcDbBlockBegin
   2
*D4
  70
65
  10
0.0
  20
0.0
  30
0.0
   3
*D4
   0
LINE
   5
17B
 100
AcDbEntity
   8
LEVEL001
 370
9
 100
AcDbLine
   6
CONTINUOUS
  62
1
  10
 379.38400575866
  20
 980.81034482759
  30
0.0
  11
 249.98905373072
  21
 980.81034482759
  31
0.0
   0
LINE
   5
17C
 100
AcDbEntity
   8
LEVEL001
 370
9
 100
AcDbLine
   6
CONTINUOUS
  62
1
  10
 1186.2721088333
  20
 1545.8103448276
  30
0.0
  11
 249.98905373072
  21
 1545.8103448276
  31
0.0
   0
LINE
   5
17D
 100
AcDbEntity
   8
LEVEL001
 370
9
 100
AcDbLine
   6
CONTINUOUS
  62
1
  10
 265.98905373072
  20
 980.81034482759
  30
0.0
  11
 265.98905373072
  21
 1263.3103448276
  31
0.0
   0
LINE
   5
17E
 100
AcDbEntity
   8
LEVEL001
 370
9
 100
AcDbLine
   6
CONTINUOUS
  62
1
  10
 265.98905373072
  20
 1545.8103448276
  30
0.0
  11
 265.98905373072
  21
 1263.3103448276
  31
0.0
   0
INSERT
   5
17F
 100
AcDbEntity
   8
LEVEL001
   6
CONTINUOUS
  62
1
 100
AcDbBlockReference
   2
_OPEN30
  10
 265.98905373072
  20
 980.81034482759
  30
0.0
  41
 24.000000000000
  42
 24.000000000000
  43
 24.000000000000
  50
 270.00000000000
   0
INSERT
   5
180
 100
AcDbEntity
   8
LEVEL001
   6
CONTINUOUS
  62
1
 100
AcDbBlockReference
   2
_OPEN30
  10
 265.98905373072
  20
 1545.8103448276
  30
0.0
  41
 24.000000000000
  42
 24.000000000000
  43
 24.000000000000
  50
 90.000000000000
   0
MTEXT
   5
181
 100
AcDbEntity
   8
LEVEL001
 370
30
  62
7
 100
AcDbMText
  10
 257.98905373072
  20
 1263.3103448276
  30
0.0
  40
 32.000000000000
  41
0.0
  71
8
  72
1
   1
\A1;565
   7
GMM001
  11
0.0
  21
 1.0000000000000
  31
0.0
   0
ENDBLK
   5
182
 100
AcDbEntity
   8
0
 100
AcDbBlockEnd
   0
BLOCK
   5
183
 100
AcDbEntity
   8
0
 100
AcDbBlockBegin
   2
BLOCK005
  70
64
  10
0.0
  20
0.0
  30
0.0
   3
BLOCK005
   0
LWPOLYLINE
   5
184
 100
AcDbEntity
   8
LEVEL001
 370
30
   6
CONTINUOUS
  62
7
 100
AcDbPolyline
  90
4
  70
1
  10
 515.59623853543
  20
 295.81034482759
  10
 515.59623853543
  20
 320.31034482759
  10
 1065.5962385354
  20
 320.31034482759
  10
 1065.5962385354
  20
 295.81034482759
   0
LWPOLYLINE
   5
185
 100
AcDbEntity
   8
LEVEL001
 370
30
   6
CONTINUOUS
  62
7
 100
AcDbPolyline
  90
7
  70
0
  10
 1148.1962385354
  20
 321.31034482759
  10
 1035.1962385354
  20
 321.31034482759
  10
 1035.1962385354
  20
 860.31034482759
  10
 1149.1962385354
  20
 860.31034482759
  10
 1149.1962385354
  20
 320.31034482759
  10
 1062.1962385354
  20
 320.31034482759
  10
 1062.1962385354
  20
 321.31034482759
   0
LWPOLYLINE
   5
186
 100
AcDbEntity
   8
LEVEL001
 370
30
   6
CONTINUOUS
  62
7
 100
AcDbPolyline
  90
7
  70
0
  10
 506.59623853543
  20
 324.31034482759
  10
 602.59623853543
  20
 324.31034482759
  10
 602.59623853543
  20
 831.31034482759
  10
 505.59623853543
  20
 831.31034482759
  10
 505.59623853543
  20
 323.31034482759
  10
 520.59623853543
  20
 323.31034482759
  10
 520.59623853543
  20
 324.31034482759
   0
LWPOLYLINE
   5
187
 100
AcDbEntity
   8
LEVEL001
 370
30
   6
CONTINUOUS
  62
7
 100
AcDbPolyline
  90
4
  70
1
  10
 475.59623853543
  20
 662.81034482759
  10
 505.59623853543
  20
 662.81034482759
  10
 505.59623853543
  20
 687.81034482759
  10
 475.59623853543
  20
 687.81034482759
   0
LWPOLYLINE
   5
188
 100
AcDbEntity
   8
LEVEL001
 370
30
   6
CONTINUOUS
  62
7
 100
AcDbPolyline
  90
4
  70
0
  10
 636.39623853543
  20
 758.81034482759
  10
 633.89623853543
  20
 758.81034482759
  10
 633.89623853543
  20
 733.81034482759
  10
 636.39623853543
  20
 733.81034482759
   0
LINE
   5
189
 100
AcDbEntity
   8
LEVEL001
 370
30
 100
AcDbLine
   6
CONTINUOUS
  62
7
  10
 633.89623853543
  20
 741.31034482759
  30
0.0
  11
 628.59623853543
  21
 741.31034482759
  31
0.0
   0
LINE
   5
18A
 100
AcDbEntity
   8
LEVEL001
 370
30
 100
AcDbLine
   6
CONTINUOUS
  62
7
  10
 628.59623853543
  20
 751.31034482759
  30
0.0
  11
 633.89623853543
  21
 751.31034482759
  31
0.0
   0
LWPOLYLINE
   5
18B
 100
AcDbEntity
   8
LEVEL001
 370
30
   6
CONTINUOUS
  62
7
 100
AcDbPolyline
  90
4
  70
0
  10
 604.59623853543
  20
 758.81034482759
  10
 628.59623853543
  20
 758.81034482759
  10
 628.59623853543
  20
 733.81034482759
  10
 604.59623853543
  20
 733.81034482759
   0
LWPOLYLINE
   5
18C
 100
AcDbEntity
   8
LEVEL001
 370
30
   6
CONTINUOUS
  62
7
 100
AcDbPolyline
  90
4
  70
0
  10
 636.39623853543
  20
 643.86238302794
  10
 631.09623853543
  20
 643.86238302794
  10
 631.09623853543
  20
 618.86238302794
  10
 636.39623853543
  20
 618.86238302794
   0
LWPOLYLINE
   5
18D
 100
AcDbEntity
   8
LEVEL001
 370
30
   6
CONTINUOUS
  62
7
 100
AcDbPolyline
  90
4
  70
0
  10
 636.39623853543
  20
 583.75830662715
  10
 631.09623853543
  20
 583.75830662715
  10
 631.09623853543
  20
 558.75830662715
  10
 636.39623853543
  20
 558.75830662715
   0
LWPOLYLINE
   5
18E
 100
AcDbEntity
   8
LEVEL001
 370
30
   6
CONTINUOUS
  62
7
 100
AcDbPolyline
  90
8
  70
0
  10
 604.59623853543
  20
 631.56034482759
  10
 620.09623853543
  20
 631.56034482759
  10
 620.09623853543
  20
 654.31034482759
  10
 631.09623853543
  20
 654.31034482759
  10
 631.09623853543
  20
 548.31034482759
  10
 620.09623853543
  20
 548.31034482759
  10
 620.09623853543
  20
 571.06034482759
  10
 604.59623853543
  20
 571.06034482759
   0
LWPOLYLINE
   5
18F
 100
AcDbEntity
   8
LEVEL001
 370
30
   6
CONTINUOUS
  62
7
 100
AcDbPolyline
  90
3
  70
0
  10
 1033.1962385354
  20
 320.31034482759
  10
 1033.1962385354
  20
 555.31034482759
  10
 1035.1962385354
  20
 555.31034482759
   0
LWPOLYLINE
   5
190
 100
AcDbEntity
   8
LEVEL001
 370
30
   6
CONTINUOUS
  62
7
 100
AcDbPolyline
  90
3
  70
0
  10
 604.59623853543
  20
 320.31034482759
  10
 604.59623853543
  20
 830.31034482759
  10
 602.59623853543
  20
 830.31034482759
   0
LINE
   5
191
 100
AcDbEntity
   8
LEVEL001
 370
30
 100
AcDbLine
   6
CONTINUOUS
  62
7
  10
 604.59623853543
  20
 380.31034482759
  30
0.0
  11
 1033.1962385354
  21
 380.31034482759
  31
0.0
   0
LINE
   5
192
 100
AcDbEntity
   8
LEVEL001
 370
30
 100
AcDbLine
   6
CONTINUOUS
  62
7
  10
 604.59623853543
  20
 515.88502826220
  30
0.0
  11
 636.39623853543
  21
 515.88502826220
  31
0.0
   0
LINE
   5
193
 100
AcDbEntity
   8
LEVEL001
 370
30
 100
AcDbLine
   6
CONTINUOUS
  62
7
  10
 1001.3962385354
  20
 515.88502826220
  30
0.0
  11
 1033.1962385354
  21
 515.88502826220
  31
0.0
   0
LINE
   5
194
 100
AcDbEntity
   8
LEVEL001
 370
30
 100
AcDbLine
   6
CONTINUOUS
  62
7
  10
 1008.8962385354
  20
 860.31034482759
  30
0.0
  11
 1008.8962385354
  21
 825.31034482759
  31
0.0
   0
LINE
   5
195
 100
AcDbEntity
   8
LEVEL001
 370
30
 100
AcDbLine
   6
CONTINUOUS
  62
7
  10
 937.89623853543
  20
 793.31034482759
  30
0.0
  11
 940.39623853543
  21
 793.31034482759
  31
0.0
   0
LINE
   5
196
 100
AcDbEntity
   8
LEVEL001
 370
30
 100
AcDbLine
   6
CONTINUOUS
  62
7
  10
 940.39623853543
  20
 783.31034482759
  30
0.0
  11
 937.89623853543
  21
 783.31034482759
  31
0.0
   0
LWPOLYLINE
   5
197
 100
AcDbEntity
   8
LEVEL001
 370
30
   6
CONTINUOUS
  62
7
 100
AcDbPolyline
  90
3
  70
0
  10
 937.89623853543
  20
 796.31034482759
  10
 885.89623853543
  20
 796.31034482759
  10
 885.89623853543
  20
 780.31034482759
   0
CIRCLE
   5
198
 100
AcDbEntity
   8
LEVEL001
 370
30
 100
AcDbCircle
   6
CONTINUOUS
  62
7
  10
 873.89623853543
  20
 788.31034482759
  30
0.0
  40
 5.0000000000000
   0
LINE
   5
199
 100
AcDbEntity
   8
LEVEL001
 370
30
 100
AcDbLine
   6
CONTINUOUS
  62
7
  10
 873.89623853543
  20
 793.31034482759
  30
0.0
  11
 885.89623853543
  21
 793.31034482759
  31
0.0
   0
LINE
   5
19A
 100
AcDbEntity
   8
LEVEL001
 370
30
 100
AcDbLine
   6
CONTINUOUS
  62
7
  10
 873.89623853543
  20
 783.31034482759
  30
0.0
  11
 885.89623853543
  21
 783.31034482759
  31
0.0
   0
LINE
   5
19B
 100
AcDbEntity
   8
LEVEL001
 370
30
 100
AcDbLine
   6
CONTINUOUS
  62
7
  10
 699.89623853543
  20
 793.31034482759
  30
0.0
  11
 697.39623853543
  21
 793.31034482759
  31
0.0
   0
LINE
   5
19C
 100
AcDbEntity
   8
LEVEL001
 370
30
 100
AcDbLine
   6
CONTINUOUS
  62
7
  10
 697.39623853543
  20
 783.31034482759
  30
0.0
  11
 699.89623853543
  21
 783.31034482759
  31
0.0
   0
LWPOLYLINE
   5
19D
 100
AcDbEntity
   8
LEVEL001
 370
30
   6
CONTINUOUS
  62
7
 100
AcDbPolyline
  90
3
  70
0
  10
 699.89623853543
  20
 796.31034482759
  10
 751.89623853543
  20
 796.31034482759
  10
 751.89623853543
  20
 780.31034482759
   0
CIRCLE
   5
19E
 100
AcDbEntity
   8
LEVEL001
 370
30
 100
AcDbCircle
   6
CONTINUOUS
  62
7
  10
 763.89623853543
  20
 788.31034482759
  30
0.0
  40
 5.0000000000000
   0
LINE
   5
19F
 100
AcDbEntity
   8
LEVEL001
 370
30
 100
AcDbLine
   6
CONTINUOUS
  62
7
  10
 763.89623853543
  20
 793.31034482759
  30
0.0
  11
 751.89623853543
  21
 793.31034482759
  31
0.0
   0
LINE
   5
1A0
 100
AcDbEntity
   8
LEVEL001
 370
30
 100
AcDbLine
   6
CONTINUOUS
  62
7
  10
 763.89623853543
  20
 783.31034482759
  30
0.0
  11
 751.89623853543
  21
 783.31034482759
  31
0.0
   0
LWPOLYLINE
   5
1A1
 100
AcDbEntity
   8
LEVEL001
 370
30
   6
CONTINUOUS
  62
7
 100
AcDbPolyline
  90
12
  70
1
  10
 636.39623853543
  20
 801.31034482759
  10
 636.39623853543
  20
 803.31034482759
  10
 653.89623853543
  20
 803.31034482759
  10
 653.89623853543
  20
 816.31034482759
  10
 983.89623853543
  20
 816.31034482759
  10
 983.89623853543
  20
 803.31034482759
  10
 1001.3962385354
  20
 803.31034482759
  10
 1001.3962385354
  20
 801.31034482759
  10
 937.89623853543
  20
 801.31034482759
  10
 937.89623853543
  20
 778.31034482759
  10
 699.89623853543
  20
 778.31034482759
  10
 699.89623853543
  20
 801.31034482759
   0
LINE
   5
1A2
 100
AcDbEntity
   8
LEVEL001
 370
30
 100
AcDbLine
   6
CONTINUOUS
  62
7
  10
 699.89623853543
  20
 780.31034482759
  30
0.0
  11
 937.89623853543
  21
 780.31034482759
  31
0.0
   0
LWPOLYLINE
   5
1A3
 100
AcDbEntity
   8
LEVEL001
 370
30
   6
CONTINUOUS
  62
7
 100
AcDbPolyline
  90
4
  70
1
  10
 940.39623853543
  20
 761.31034482759
  10
 980.39623853543
  20
 761.31034482759
  10
 980.39623853543
  20
 799.31034482759
  10
 940.39623853543
  20
 799.31034482759
   0
LWPOLYLINE
   5
1A4
 100
AcDbEntity
   8
LEVEL001
 370
30
   6
CONTINUOUS
  62
7
 100
AcDbPolyline
  90
3
  70
0
  10
 940.39623853543
  20
 773.31034482759
  10
 960.39623853543
  20
 773.31034482759
  10
 960.39623853543
  20
 799.31034482759
   0
LWPOLYLINE
   5
1A5
 100
AcDbEntity
   8
LEVEL001
 370
30
   6
CONTINUOUS
  62
7
 100
AcDbPolyline
  90
4
  70
1
  10
 697.39623853543
  20
 761.31034482759
  10
 657.39623853543
  20
 761.31034482759
  10
 657.39623853543
  20
 799.31034482759
  10
 697.39623853543
  20
 799.31034482759
   0
LWPOLYLINE
   5
1A6
 100
AcDbEntity
   8
LEVEL001
 370
30
   6
CONTINUOUS
  62
7
 100
AcDbPolyline
  90
3
  70
0
  10
 697.39623853543
  20
 773.31034482759
  10
 677.39623853543
  20
 773.31034482759
  10
 677.39623853543
  20
 799.31034482759
   0
POINT
   5
1A7
 100
AcDbEntity
   8
LEVEL001
 100
AcDbPoint
  62
7
  10
 667.39623853543
  20
 789.31034482759
  30
0.0
   0
POINT
   5
1A8
 100
AcDbEntity
   8
LEVEL001
 100
AcDbPoint
  62
7
  10
 667.39623853543
  20
 785.31034482759
  30
0.0
   0
POINT
   5
1A9
 100
AcDbEntity
   8
LEVEL001
 100
AcDbPoint
  62
7
  10
 667.39623853543
  20
 773.31034482759
  30
0.0
   0
POINT
   5
1AA
 100
AcDbEntity
   8
LEVEL001
 100
AcDbPoint
  62
7
  10
 667.39623853543
  20
 769.31034482759
  30
0.0
   0
POINT
   5
1AB
 100
AcDbEntity
   8
LEVEL001
 100
AcDbPoint
  62
7
  10
 970.39623853543
  20
 789.31034482759
  30
0.0
   0
POINT
   5
1AC
 100
AcDbEntity
   8
LEVEL001
 100
AcDbPoint
  62
7
  10
 970.39623853543
  20
 785.31034482759
  30
0.0
   0
POINT
   5
1AD
 100
AcDbEntity
   8
LEVEL001
 100
AcDbPoint
  62
7
  10
 970.39623853543
  20
 773.31034482759
  30
0.0
   0
POINT
   5
1AE
 100
AcDbEntity
   8
LEVEL001
 100
AcDbPoint
  62
7
  10
 970.39623853543
  20
 769.31034482759
  30
0.0
   0
LWPOLYLINE
   5
1AF
 100
AcDbEntity
   8
LEVEL001
 370
30
   6
CONTINUOUS
  62
7
 100
AcDbPolyline
  90
4
  70
0
  10
 636.39623853543
  20
 801.31034482759
  10
 636.39623853543
  20
 479.31034482759
  10
 1001.3962385354
  20
 479.31034482759
  10
 1001.3962385354
  20
 801.31034482759
   0
LINE
   5
1B0
 100
AcDbEntity
   8
LEVEL001
 370
30
 100
AcDbLine
   6
CONTINUOUS
  62
7
  10
 636.39623853543
  20
 763.31034482759
  30
0.0
  11
 657.39623853543
  21
 763.31034482759
  31
0.0
   0
LINE
   5
1B1
 100
AcDbEntity
   8
LEVEL001
 370
30
 100
AcDbLine
   6
CONTINUOUS
  62
7
  10
 697.39623853543
  20
 763.31034482759
  30
0.0
  11
 940.39623853543
  21
 763.31034482759
  31
0.0
   0
LINE
   5
1B2
 100
AcDbEntity
   8
LEVEL001
 370
30
 100
AcDbLine
   6
CONTINUOUS
  62
7
  10
 980.39623853543
  20
 763.31034482759
  30
0.0
  11
 1001.3962385354
  21
 763.31034482759
  31
0.0
   0
LINE
   5
1B3
 100
AcDbEntity
   8
LEVEL001
 370
30
 100
AcDbLine
   6
CONTINUOUS
  62
7
  10
 1001.3962385354
  20
 658.31034482759
  30
0.0
  11
 1035.1962385354
  21
 658.31034482759
  31
0.0
   0
LINE
   5
1B4
 100
AcDbEntity
   8
LEVEL001
 370
30
 100
AcDbLine
   6
CONTINUOUS
  62
7
  10
 1033.1962385354
  20
 555.31034482759
  30
0.0
  11
 1001.3962385354
  21
 555.31034482759
  31
0.0
   0
LWPOLYLINE
   5
1B5
 100
AcDbEntity
   8
LEVEL001
 370
30
   6
CONTINUOUS
  62
7
 100
AcDbPolyline
  90
4
  70
0
  10
 1006.6962385354
  20
 555.31034482759
  10
 1006.6962385354
  20
 548.31034482759
  10
 1017.6962385354
  20
 548.31034482759
  10
 1017.6962385354
  20
 555.31034482759
   0
LWPOLYLINE
   5
1B6
 100
AcDbEntity
   8
LEVEL001
 370
9
   6
HIDDEN
  62
1
 100
AcDbPolyline
  90
4
  70
0
  10
 656.39623853543
  20
 801.31034482759
  10
 656.39623853543
  20
 480.31034482759
  10
 981.39623853543
  20
 480.31034482759
  10
 981.39623853543
  20
 801.31034482759
   0
CIRCLE
   5
1B7
 100
AcDbEntity
   8
LEVEL001
 370
30
 100
AcDbCircle
   6
CONTINUOUS
  62
7
  10
 541.59623853543
  20
 794.31034482759
  30
0.0
  40
 12.500000000000
   0
CIRCLE
   5
1B8
 100
AcDbEntity
   8
LEVEL001
 370
30
 100
AcDbCircle
   6
CONTINUOUS
  62
7
  10
 541.59623853543
  20
 794.31034482759
  30
0.0
  40
 16.250000000000
   0
LWPOLYLINE
   5
1B9
 100
AcDbEntity
   8
LEVEL001
 370
30
   6
CONTINUOUS
  62
7
 100
AcDbPolyline
  90
4
  70
1
  10
 1044.6962385354
  20
 649.81034482759
  10
 1139.6962385354
  20
 649.81034482759
  10
 1139.6962385354
  20
 855.81034482759
  10
 1044.6962385354
  20
 855.81034482759
   0
POINT
   5
1BA
 100
AcDbEntity
   8
LEVEL001
 100
AcDbPoint
  62
7
  10
 1050.1962385354
  20
 850.31034482759
  30
0.0
   0
POINT
   5
1BB
 100
AcDbEntity
   8
LEVEL001
 100
AcDbPoint
  62
7
  10
 1134.1962385354
  20
 850.31034482759
  30
0.0
   0
POINT
   5
1BC
 100
AcDbEntity
   8
LEVEL001
 100
AcDbPoint
  62
7
  10
 1050.1962385354
  20
 655.31034482759
  30
0.0
   0
POINT
   5
1BD
 100
AcDbEntity
   8
LEVEL001
 100
AcDbPoint
  62
7
  10
 1134.1962385354
  20
 655.31034482759
  30
0.0
   0
CIRCLE
   5
1BE
 100
AcDbEntity
   8
LEVEL001
 370
30
 100
AcDbCircle
   6
CONTINUOUS
  62
7
  10
 1072.1962385354
  20
 699.81034482759
  30
0.0
  40
 12.500000000000
   0
CIRCLE
   5
1BF
 100
AcDbEntity
   8
LEVEL001
 370
30
 100
AcDbCircle
   6
CONTINUOUS
  62
7
  10
 1072.1962385354
  20
 699.81034482759
  30
0.0
  40
 16.250000000000
   0
CIRCLE
   5
1C0
 100
AcDbEntity
   8
LEVEL001
 370
30
 100
AcDbCircle
   6
CONTINUOUS
  62
7
  10
 1112.1962385354
  20
 699.81034482759
  30
0.0
  40
 16.250000000000
   0
CIRCLE
   5
1C1
 100
AcDbEntity
   8
LEVEL001
 370
30
 100
AcDbCircle
   6
CONTINUOUS
  62
7
  10
 1112.1962385354
  20
 699.81034482759
  30
0.0
  40
 12.500000000000
   0
LWPOLYLINE
   5
1C2
 100
AcDbEntity
   8
LEVEL001
 370
30
   6
CONTINUOUS
  62
7
 100
AcDbPolyline
  90
7
  70
0
  10
 963.89623853543
  20
 816.31034482759
  10
 963.89623853543
  20
 818.31034482759
  10
 987.89623853543
  20
 818.31034482759
  10
 987.89623853543
  20
 860.31034482759
  10
 989.89623853543
  20
 860.31034482759
  10
 989.89623853543
  20
 816.31034482759
  10
 983.89623853543
  20
 816.31034482759
   0
LWPOLYLINE
   5
1C3
 100
AcDbEntity
   8
LEVEL001
 370
30
   6
CONTINUOUS
  62
7
 100
AcDbPolyline
  90
4
  70
0
  10
 989.89623853543
  20
 860.31034482759
  10
 1014.8962385354
  20
 860.31034482759
  10
 1014.8962385354
  20
 825.31034482759
  10
 989.89623853543
  20
 825.31034482759
   0
ARC
   5
1C4
 100
AcDbEntity
   8
LEVEL001
 370
30
   6
CONTINUOUS
  62
7
 100
AcDbCircle
  10
 541.59623853543
  20
 794.31034482759
  30
0.0
  40
 17.500000000000
 100
AcDbArc
  50
 180.00000000000
  51
0.0
   0
LWPOLYLINE
   5
1C5
 100
AcDbEntity
   8
LEVEL001
 370
30
   6
CONTINUOUS
  62
7
 100
AcDbPolyline
  90
4
  70
0
  10
 524.09623853543
  20
 794.31034482759
  10
 524.09623853543
  20
 821.81034482759
  10
 559.09623853543
  20
 821.81034482759
  10
 559.09623853543
  20
 794.31034482759
   0
LINE
   5
1C6
 100
AcDbEntity
   8
LEVEL001
 370
9
 100
AcDbLine
   6
DASHDOT
  62
1
  10
 1191.8962385354
  20
 601.31034482759
  30
0.0
  11
 478.89623853543
  21
 601.31034482759
  31
0.0
   0
LINE
   5
1C7
 100
AcDbEntity
   8
LEVEL001
 370
9
 100
AcDbLine
   6
DASHDOT
  62
1
  10
 818.89623853543
  20
 907.31034482759
  30
0.0
  11
 818.89623853543
  21
 220.31034482759
  31
0.0
   0
LWPOLYLINE
   5
1C8
 100
AcDbEntity
   8
LEVEL001
 370
9
   6
HIDDEN
  62
1
 100
AcDbPolyline
  90
24
  70
1
  10
 976.39623853543
  20
 713.31034482759
  10
 976.39623853543
  20
 504.31034482759
  10
 973.39623853543
  20
 501.31034482759
  10
 869.39623853543
  20
 501.31034482759
  10
 866.39623853543
  20
 504.31034482759
  10
 866.39623853543
  20
 528.02524636836
  10
 869.39623853543
  20
 531.31034482759
  10
 958.39623853620
  20
 531.31034482759
  10
 961.39623853620
  20
 534.59544328683
  10
 961.39623853543
  20
 666.31034482759
  10
 955.89623853543
  20
 678.31034482759
  10
 933.89623853543
  20
 692.31034482759
  10
 899.89623853543
  20
 696.31034482759
  10
 877.89623853543
  20
 694.31034482759
  10
 860.89623853543
  20
 690.31034482759
  10
 845.89623853543
  20
 684.31034482759
  10
 832.89623853543
  20
 682.31034482759
  10
 831.89623853543
  20
 686.31034482759
  10
 833.89623853543
  20
 692.31034482759
  10
 842.89623853543
  20
 700.31034482759
  10
 862.89623853543
  20
 709.31034482759
  10
 881.89623853543
  20
 714.31034482759
  10
 898.89623853543
  20
 716.31034482759
  10
 973.39623853543
  20
 716.31034482759
   0
LWPOLYLINE
   5
1C9
 100
AcDbEntity
   8
LEVEL001
 370
9
   6
HIDDEN
  62
1
 100
AcDbPolyline
  90
24
  70
1
  10
 661.39623853543
  20
 489.31034482759
  10
 661.39623853543
  20
 698.31034482759
  10
 664.39623853543
  20
 701.31034482759
  10
 768.39623853543
  20
 701.31034482759
  10
 771.39623853543
  20
 698.31034482759
  10
 771.39623853543
  20
 674.59544328682
  10
 768.39623853543
  20
 671.31034482759
  10
 679.39623853465
  20
 671.31034482759
  10
 676.39623853465
  20
 668.02524636834
  10
 676.39623853543
  20
 536.31034482759
  10
 681.89623853543
  20
 524.31034482759
  10
 703.89623853543
  20
 510.31034482759
  10
 737.89623853543
  20
 506.31034482759
  10
 759.89623853543
  20
 508.31034482759
  10
 776.89623853543
  20
 512.31034482759
  10
 791.89623853543
  20
 518.31034482759
  10
 804.89623853543
  20
 520.31034482759
  10
 805.89623853543
  20
 516.31034482759
  10
 803.89623853543
  20
 510.31034482759
  10
 794.89623853543
  20
 502.31034482759
  10
 774.89623853543
  20
 493.31034482759
  10
 755.89623853543
  20
 488.31034482759
  10
 738.89623853543
  20
 486.31034482759
  10
 664.39623853543
  20
 486.31034482759
   0
ARC
   5
1CA
 100
AcDbEntity
   8
LEVEL001
 370
30
   6
CONTINUOUS
  62
7
 100
AcDbCircle
  10
 472.19623853543
  20
 746.31034482759
  30
0.0
  40
 5.0000000000000
 100
AcDbArc
  50
 180.00000000000
  51
 270.00000000000
   0
LINE
   5
1CB
 100
AcDbEntity
   8
LEVEL001
 370
30
 100
AcDbLine
   6
CONTINUOUS
  62
7
  10
 505.59623853543
  20
 741.31034482759
  30
0.0
  11
 472.19623853543
  21
 741.31034482759
  31
0.0
   0
LINE
   5
1CC
 100
AcDbEntity
   8
LEVEL001
 370
30
 100
AcDbLine
   6
CONTINUOUS
  62
7
  10
 477.19623853543
  20
 751.31034482759
  30
0.0
  11
 505.59623853543
  21
 751.31034482759
  31
0.0
   0
ARC
   5
1CD
 100
AcDbEntity
   8
LEVEL001
 370
30
   6
CONTINUOUS
  62
7
 100
AcDbCircle
  10
 472.19623853543
  20
 766.31034482760
  30
0.0
  40
 5.0000000000000
 100
AcDbArc
  50
0.0
  51
 180.00000000000
   0
LINE
   5
1CE
 100
AcDbEntity
   8
LEVEL001
 370
30
 100
AcDbLine
   6
CONTINUOUS
  62
7
  10
 467.19623853543
  20
 746.31034482759
  30
0.0
  11
 467.19623853543
  21
 766.31034482760
  31
0.0
   0
LINE
   5
1CF
 100
AcDbEntity
   8
LEVEL001
 370
30
 100
AcDbLine
   6
CONTINUOUS
  62
7
  10
 477.19623853543
  20
 766.31034482760
  30
0.0
  11
 477.19623853543
  21
 751.31034482759
  31
0.0
   0
LINE
   5
1D0
 100
AcDbEntity
   8
LEVEL001
 370
30
 100
AcDbLine
   6
CONTINUOUS
  62
7
  10
 1060.6962385354
  20
 729.81034482759
  30
0.0
  11
 1123.6962385354
  21
 729.81034482759
  31
0.0
   0
LINE
   5
1D1
 100
AcDbEntity
   8
LEVEL001
 370
30
 100
AcDbLine
   6
CONTINUOUS
  62
7
  10
 1060.6962385354
  20
 850.81034482759
  30
0.0
  11
 1060.6962385354
  21
 729.81034482759
  31
0.0
   0
LINE
   5
1D2
 100
AcDbEntity
   8
LEVEL001
 370
30
 100
AcDbLine
   6
CONTINUOUS
  62
7
  10
 1123.6962385354
  20
 729.81034482759
  30
0.0
  11
 1123.6962385354
  21
 850.81034482759
  31
0.0
   0
LINE
   5
1D3
 100
AcDbEntity
   8
LEVEL001
 370
30
 100
AcDbLine
   6
CONTINUOUS
  62
7
  10
 1123.6962385354
  20
 850.81034482759
  30
0.0
  11
 1060.6962385354
  21
 850.81034482759
  31
0.0
   0
LWPOLYLINE
   5
1D4
 100
AcDbEntity
   8
LEVEL001
 370
30
   6
CONTINUOUS
  62
7
 100
AcDbPolyline
  90
4
  70
0
  10
 1003.1962385354
  20
 295.81034482759
  10
 1003.1962385354
  20
 268.31034482759
  10
 1001.1962385354
  20
 268.31034482759
  10
 1001.1962385354
  20
 295.81034482759
   0
LWPOLYLINE
   5
1D5
 100
AcDbEntity
   8
LEVEL001
 370
30
   6
CONTINUOUS
  62
7
 100
AcDbPolyline
  90
4
  70
0
  10
 1029.1962385354
  20
 295.81034482759
  10
 1029.1962385354
  20
 268.31034482759
  10
 1027.1962385354
  20
 268.31034482759
  10
 1027.1962385354
  20
 295.81034482759
   0
LWPOLYLINE
   5
1D6
 100
AcDbEntity
   8
LEVEL001
 370
30
   6
CONTINUOUS
  62
7
 100
AcDbPolyline
  90
4
  70
0
  10
 1004.6962385354
  20
 295.81034482759
  10
 1004.6962385354
  20
 250.81034482759
  10
 1025.6962385354
  20
 250.81034482759
  10
 1025.6962385354
  20
 295.81034482759
   0
LWPOLYLINE
   5
1D7
 100
AcDbEntity
   8
LEVEL001
 370
30
   6
CONTINUOUS
  62
7
 100
AcDbPolyline
  90
4
  70
0
  10
 546.09623853543
  20
 295.81034482759
  10
 546.09623853543
  20
 268.31034482759
  10
 544.09623853543
  20
 268.31034482759
  10
 544.09623853543
  20
 295.81034482759
   0
LWPOLYLINE
   5
1D8
 100
AcDbEntity
   8
LEVEL001
 370
30
   6
CONTINUOUS
  62
7
 100
AcDbPolyline
  90
4
  70
0
  10
 572.09623853543
  20
 295.81034482759
  10
 572.09623853543
  20
 268.31034482759
  10
 570.09623853543
  20
 268.31034482759
  10
 570.09623853543
  20
 295.81034482759
   0
LWPOLYLINE
   5
1D9
 100
AcDbEntity
   8
LEVEL001
 370
30
   6
CONTINUOUS
  62
7
 100
AcDbPolyline
  90
4
  70
0
  10
 547.59623853543
  20
 295.81034482759
  10
 547.59623853543
  20
 250.81034482759
  10
 568.59623853543
  20
 250.81034482759
  10
 568.59623853543
  20
 295.81034482759
   0
ENDBLK
   5
1DA
 100
AcDbEntity
   8
0
 100
AcDbBlockEnd
   0
BLOCK
   5
1DB
 100
AcDbEntity
   8
0
 100
AcDbBlockBegin
   2
*D5
  70
65
  10
0.0
  20
0.0
  30
0.0
   3
*D5
   0
LINE
   5
1DC
 100
AcDbEntity
   8
LEVEL001
 370
9
 100
AcDbLine
   6
CONTINUOUS
  62
1
  10
 389.19623853543
  20
 263.40196112801
  30
0.0
  11
 389.19623853543
  21
 72.213508504095
  31
0.0
   0
LINE
   5
1DD
 100
AcDbEntity
   8
LEVEL001
 370
9
 100
AcDbLine
   6
CONTINUOUS
  62
1
  10
 1849.1962385354
  20
 263.40196112801
  30
0.0
  11
 1849.1962385354
  21
 72.213508504095
  31
0.0
   0
LINE
   5
1DE
 100
AcDbEntity
   8
LEVEL001
 370
9
 100
AcDbLine
   6
CONTINUOUS
  62
1
  10
 389.19623853543
  20
 88.213508504095
  30
0.0
  11
 1119.1962385354
  21
 88.213508504095
  31
0.0
   0
LINE
   5
1DF
 100
AcDbEntity
   8
LEVEL001
 370
9
 100
AcDbLine
   6
CONTINUOUS
  62
1
  10
 1849.1962385354
  20
 88.213508504095
  30
0.0
  11
 1119.1962385354
  21
 88.213508504095
  31
0.0
   0
INSERT
   5
1E0
 100
AcDbEntity
   8
LEVEL001
   6
CONTINUOUS
  62
1
 100
AcDbBlockReference
   2
_OPEN30
  10
 389.19623853543
  20
 88.213508504095
  30
0.0
  41
 24.000000000000
  42
 24.000000000000
  43
 24.000000000000
  50
 180.00000000000
   0
INSERT
   5
1E1
 100
AcDbEntity
   8
LEVEL001
   6
CONTINUOUS
  62
1
 100
AcDbBlockReference
   2
_OPEN30
  10
 1849.1962385354
  20
 88.213508504095
  30
0.0
  41
 24.000000000000
  42
 24.000000000000
  43
 24.000000000000
  50
0.0
   0
MTEXT
   5
1E2
 100
AcDbEntity
   8
LEVEL001
 370
30
  62
7
 100
AcDbMText
  10
 1119.1962385354
  20
 96.213508504095
  30
0.0
  40
 32.000000000000
  41
0.0
  71
8
  72
1
   1
\A1;1460
   7
GMM001
   0
ENDBLK
   5
1E3
 100
AcDbEntity
   8
0
 100
AcDbBlockEnd
   0
BLOCK
   5
1E4
 100
AcDbEntity
   8
0
 100
AcDbBlockBegin
   2
*D6
  70
65
  10
0.0
  20
0.0
  30
0.0
   3
*D6
   0
LINE
   5
1E5
 100
AcDbEntity
   8
LEVEL001
 370
9
 100
AcDbLine
   6
CONTINUOUS
  62
1
  10
 386.19623853543
  20
 1492.9391664287
  30
0.0
  11
 386.19623853543
  21
 1643.2911140584
  31
0.0
   0
LINE
   5
1E6
 100
AcDbEntity
   8
LEVEL001
 370
9
 100
AcDbLine
   6
CONTINUOUS
  62
1
  10
 1846.1962385354
  20
 1254.3982477115
  30
0.0
  11
 1846.1962385354
  21
 1643.2911140584
  31
0.0
   0
LINE
   5
1E7
 100
AcDbEntity
   8
LEVEL001
 370
9
 100
AcDbLine
   6
CONTINUOUS
  62
1
  10
 386.19623853543
  20
 1627.2911140584
  30
0.0
  11
 1116.1962385354
  21
 1627.2911140584
  31
0.0
   0
LINE
   5
1E8
 100
AcDbEntity
   8
LEVEL001
 370
9
 100
AcDbLine
   6
CONTINUOUS
  62
1
  10
 1846.1962385354
  20
 1627.2911140584
  30
0.0
  11
 1116.1962385354
  21
 1627.2911140584
  31
0.0
   0
INSERT
   5
1E9
 100
AcDbEntity
   8
LEVEL001
   6
CONTINUOUS
  62
1
 100
AcDbBlockReference
   2
_OPEN30
  10
 386.19623853543
  20
 1627.2911140584
  30
0.0
  41
 24.000000000000
  42
 24.000000000000
  43
 24.000000000000
  50
 180.00000000000
   0
INSERT
   5
1EA
 100
AcDbEntity
   8
LEVEL001
   6
CONTINUOUS
  62
1
 100
AcDbBlockReference
   2
_OPEN30
  10
 1846.1962385354
  20
 1627.2911140584
  30
0.0
  41
 24.000000000000
  42
 24.000000000000
  43
 24.000000000000
  50
0.0
   0
MTEXT
   5
1EB
 100
AcDbEntity
   8
LEVEL001
 370
30
  62
7
 100
AcDbMText
  10
 1116.1962385354
  20
 1635.2911140584
  30
0.0
  40
 32.000000000000
  41
0.0
  71
8
  72
1
   1
\A1;1460
   7
GMM001
   0
ENDBLK
   5
1EC
 100
AcDbEntity
   8
0
 100
AcDbBlockEnd
   0
BLOCK
   5
1ED
 100
AcDbEntity
   8
0
 100
AcDbBlockBegin
   2
*D7
  70
65
  10
0.0
  20
0.0
  30
0.0
   3
*D7
   0
LINE
   5
1EE
 100
AcDbEntity
   8
LEVEL001
 370
9
 100
AcDbLine
   6
CONTINUOUS
  62
1
  10
 2117.8364759796
  20
 250.81034482759
  30
0.0
  11
 2117.8364759796
  21
 72.213508504095
  31
0.0
   0
LINE
   5
1EF
 100
AcDbEntity
   8
LEVEL001
 370
9
 100
AcDbLine
   6
CONTINUOUS
  62
1
  10
 3467.8364759796
  20
 250.81034482759
  30
0.0
  11
 3467.8364759796
  21
 72.213508504095
  31
0.0
   0
LINE
   5
1F0
 100
AcDbEntity
   8
LEVEL001
 370
9
 100
AcDbLine
   6
CONTINUOUS
  62
1
  10
 2117.8364759796
  20
 88.213508504095
  30
0.0
  11
 2792.8364759796
  21
 88.213508504095
  31
0.0
   0
LINE
   5
1F1
 100
AcDbEntity
   8
LEVEL001
 370
9
 100
AcDbLine
   6
CONTINUOUS
  62
1
  10
 3467.8364759796
  20
 88.213508504095
  30
0.0
  11
 2792.8364759796
  21
 88.213508504095
  31
0.0
   0
INSERT
   5
1F2
 100
AcDbEntity
   8
LEVEL001
   6
CONTINUOUS
  62
1
 100
AcDbBlockReference
   2
_OPEN30
  10
 2117.8364759796
  20
 88.213508504095
  30
0.0
  41
 24.000000000000
  42
 24.000000000000
  43
 24.000000000000
  50
 180.00000000000
   0
INSERT
   5
1F3
 100
AcDbEntity
   8
LEVEL001
   6
CONTINUOUS
  62
1
 100
AcDbBlockReference
   2
_OPEN30
  10
 3467.8364759796
  20
 88.213508504095
  30
0.0
  41
 24.000000000000
  42
 24.000000000000
  43
 24.000000000000
  50
0.0
   0
MTEXT
   5
1F4
 100
AcDbEntity
   8
LEVEL001
 370
30
  62
7
 100
AcDbMText
  10
 2792.8364759796
  20
 96.213508504095
  30
0.0
  40
 32.000000000000
  41
0.0
  71
8
  72
1
   1
\A1;1350
   7
GMM001
   0
ENDBLK
   5
1F5
 100
AcDbEntity
   8
0
 100
AcDbBlockEnd
   0
BLOCK
   5
1F6
 100
AcDbEntity
   8
0
 100
AcDbBlockBegin
   2
*D8
  70
65
  10
0.0
  20
0.0
  30
0.0
   3
*D8
   0
LINE
   5
1F7
 100
AcDbEntity
   8
LEVEL001
 370
9
 100
AcDbLine
   6
CONTINUOUS
  62
1
  10
 1849.1962385354
  20
 3062.6206896552
  30
0.0
  11
 2048.2758620690
  21
 3062.6206896552
  31
0.0
   0
LINE
   5
1F8
 100
AcDbEntity
   8
LEVEL001
 370
9
 100
AcDbLine
   6
CONTINUOUS
  62
1
  10
 1775.8962385354
  20
 1712.6206896552
  30
0.0
  11
 2048.2758620690
  21
 1712.6206896552
  31
0.0
   0
LINE
   5
1F9
 100
AcDbEntity
   8
LEVEL001
 370
9
 100
AcDbLine
   6
CONTINUOUS
  62
1
  10
 2032.2758620690
  20
 3062.6206896552
  30
0.0
  11
 2032.2758620690
  21
 2387.6206896552
  31
0.0
   0
LINE
   5
1FA
 100
AcDbEntity
   8
LEVEL001
 370
9
 100
AcDbLine
   6
CONTINUOUS
  62
1
  10
 2032.2758620690
  20
 1712.6206896552
  30
0.0
  11
 2032.2758620690
  21
 2387.6206896552
  31
0.0
   0
INSERT
   5
1FB
 100
AcDbEntity
   8
LEVEL001
   6
CONTINUOUS
  62
1
 100
AcDbBlockReference
   2
_OPEN30
  10
 2032.2758620690
  20
 3062.6206896552
  30
0.0
  41
 24.000000000000
  42
 24.000000000000
  43
 24.000000000000
  50
 90.000000000000
   0
INSERT
   5
1FC
 100
AcDbEntity
   8
LEVEL001
   6
CONTINUOUS
  62
1
 100
AcDbBlockReference
   2
_OPEN30
  10
 2032.2758620690
  20
 1712.6206896552
  30
0.0
  41
 24.000000000000
  42
 24.000000000000
  43
 24.000000000000
  50
 270.00000000000
   0
MTEXT
   5
1FD
 100
AcDbEntity
   8
LEVEL001
 370
30
  62
7
 100
AcDbMText
  10
 2024.2758620690
  20
 2387.6206896552
  30
0.0
  40
 32.000000000000
  41
0.0
  71
8
  72
1
   1
\A1;1350
   7
GMM001
  11
0.0
  21
 1.0000000000000
  31
0.0
   0
ENDBLK
   5
1FE
 100
AcDbEntity
   8
0
 100
AcDbBlockEnd
   0
ENDSEC
   0
SECTION
   2
ENTITIES
   0
MTEXT
   5
200
 100
AcDbEntity
   8
LEVEL001
 370
30
  62
7
 100
AcDbMText
  10
 4534.2151991965
  20
 80.000000000000
  30
0.0
  40
 32.000000000000
  41
0.0
  71
7
  72
1
   1
\T1.000000;井上
   7
GMM001
  44
 0.79999984000003
   0
INSERT
   5
201
 100
AcDbEntity
   8
LEVEL001
 100
AcDbBlockReference
   2
BLOCK001
  10
0.0
  20
0.0
  30
0.0
   0
INSERT
   5
202
 100
AcDbEntity
   8
LEVEL001
 100
AcDbBlockReference
   2
BLOCK002
  10
0.0
  20
0.0
  30
0.0
   0
INSERT
   5
203
 100
AcDbEntity
   8
0
 100
AcDbBlockReference
   2
BLOCK003
  10
0.0
  20
0.0
  30
0.0
   0
LINE
   5
204
 100
AcDbEntity
   8
LEVEL001
 370
30
 100
AcDbLine
   6
CONTINUOUS
  62
7
  10
 3282.2151991965
  20
 2775.0000000000
  30
0.0
  11
 4598.2151991965
  21
 2775.0000000000
  31
0.0
   0
LINE
   5
205
 100
AcDbEntity
   8
LEVEL001
 370
30
 100
AcDbLine
   6
CONTINUOUS
  62
7
  10
 3282.2151991965
  20
 2839.0000000000
  30
0.0
  11
 4598.2151991965
  21
 2839.0000000000
  31
0.0
   0
LINE
   5
206
 100
AcDbEntity
   8
LEVEL001
 370
30
 100
AcDbLine
   6
CONTINUOUS
  62
7
  10
 3282.2151991965
  20
 2903.0000000000
  30
0.0
  11
 4598.2151991965
  21
 2903.0000000000
  31
0.0
   0
LINE
   5
207
 100
AcDbEntity
   8
LEVEL001
 370
30
 100
AcDbLine
   6
CONTINUOUS
  62
7
  10
 3282.2151991965
  20
 2967.0000000000
  30
0.0
  11
 4598.2151991965
  21
 2967.0000000000
  31
0.0
   0
LINE
   5
208
 100
AcDbEntity
   8
LEVEL001
 370
30
 100
AcDbLine
   6
CONTINUOUS
  62
7
  10
 3282.2151991965
  20
 2711.0000000000
  30
0.0
  11
 4598.2151991965
  21
 2711.0000000000
  31
0.0
   0
MTEXT
   5
20A
 100
AcDbEntity
   8
LEVEL001
 370
9
  62
1
 100
AcDbMText
  10
 3390.2151991965
  20
 2912.3333333333
  30
0.0
  40
 32.000000000000
  41
0.0
  71
7
  72
1
   1
\T1.000000;製　　品　　名
   7
GMM001
  44
 0.79999984000003
   0
MTEXT
   5
20C
 100
AcDbEntity
   8
LEVEL001
 370
9
  62
1
 100
AcDbMText
  10
 3390.2151991965
  20
 2848.3333333333
  30
0.0
  40
 32.000000000000
  41
0.0
  71
7
  72
1
   1
\T1.000000;型　　　　　式
   7
GMM001
  44
 0.79999984000003
   0
MTEXT
   5
20E
 100
AcDbEntity
   8
LEVEL001
 370
9
  62
1
 100
AcDbMText
  10
 3390.2151991965
  20
 2784.3333333333
  30
0.0
  40
 32.000000000000
  41
0.0
  71
7
  72
1
   1
\W1.000000;\T1.000000;寸法\W0.500000;\T1.000000;(\W1.000000;\T1.000000;Ｗ×Ｄ×Ｈ）
   7
GMM001
  44
 0.79999984000003
   0
MTEXT
   5
210
 100
AcDbEntity
   8
LEVEL001
 370
9
  62
1
 100
AcDbMText
  10
 3390.2151991965
  20
 2720.3333333333
  30
0.0
  40
 32.000000000000
  41
0.0
  71
7
  72
1
   1
\T1.000000;電　　　　　源
   7
GMM001
  44
 0.79999984000003
   0
MTEXT
   5
212
 100
AcDbEntity
   8
LEVEL001
 370
9
  62
1
 100
AcDbMText
  10
 3739.5485325299
  20
 2912.3333333333
  30
0.0
  40
 32.000000000000
  41
0.0
  71
7
  72
1
   1
\T1.000000;手打そば専用機
   7
GMM001
  44
 0.79999984000003
   0
MTEXT
   5
214
 100
AcDbEntity
   8
LEVEL001
 370
9
  62
1
 100
AcDbMText
  10
 3739.5485325299
  20
 2848.3333333333
  30
0.0
  40
 32.000000000000
  41
0.0
  71
7
  72
1
   1
\T1.000000;更科ＡＰ－６型
   7
GMM001
  44
 0.79999984000003
   0
LINE
   5
215
 100
AcDbEntity
   8
LEVEL001
 370
30
 100
AcDbLine
   6
CONTINUOUS
  62
7
  10
 3382.2151991965
  20
 2647.0000000000
  30
0.0
  11
 4598.2151991965
  21
 2647.0000000000
  31
0.0
   0
LINE
   5
216
 100
AcDbEntity
   8
LEVEL001
 370
30
 100
AcDbLine
   6
CONTINUOUS
  62
7
  10
 3391.5485325299
  20
 2583.0000000000
  30
0.0
  11
 4598.2151991965
  21
 2583.0000000000
  31
0.0
   0
LINE
   5
217
 100
AcDbEntity
   8
LEVEL001
 370
30
 100
AcDbLine
   6
CONTINUOUS
  62
7
  10
 3382.2151991965
  20
 2519.0000000000
  30
0.0
  11
 4598.2151991965
  21
 2519.0000000000
  31
0.0
   0
LINE
   5
218
 100
AcDbEntity
   8
LEVEL001
 370
30
 100
AcDbLine
   6
CONTINUOUS
  62
7
  10
 3282.2151991965
  20
 2455.0000000000
  30
0.0
  11
 3382.2151991965
  21
 2711.0000000000
  31
0.0
   0
MTEXT
   5
21A
 100
AcDbEntity
   8
LEVEL001
 370
9
  62
1
 100
AcDbMText
  10
 3340.2151991965
  20
 2536.0000000000
  30
0.0
  40
 32.000000000000
  41
0.0
  71
4
  72
1
   1
{\T1.000000;能}\P{\T1.000000;力}
   7
GMM001
  44
 0.79999984000003
   0
MTEXT
   5
21C
 100
AcDbEntity
   8
LEVEL001
 370
9
  62
1
 100
AcDbMText
  10
 3288.2151991965
  20
 2708.0000000000
  30
0.0
  40
 32.000000000000
  41
0.0
  71
1
  72
1
   1
{\T1.000000;消}\P{\T1.000000;費}\P{\T1.000000;電}\P{\T1.000000;力}
   7
GMM001
  44
 0.79999984000003
   0
MTEXT
   5
21E
 100
AcDbEntity
   8
LEVEL001
 370
9
  62
1
 100
AcDbMText
  10
 3386.8377772851
  20
 2465.6666666667
  30
0.0
  40
 32.000000000000
  41
0.0
  71
7
  72
1
   1
\T1.000000;（合計）
   7
GMM001
  44
 0.79999984000003
   0
MTEXT
   5
220
 100
AcDbEntity
   8
LEVEL001
 370
9
  62
1
 100
AcDbMText
  10
 3739.5485325299
  20
 2656.3333333333
  30
0.0
  40
 32.000000000000
  41
0.0
  71
7
  72
1
   1
\T1.000000;　１００Ｗ　／　３～６ｋｇ／回（ミキシング）
   7
GMM001
  44
 0.79999984000003
   0
MTEXT
   5
222
 100
AcDbEntity
   8
LEVEL001
 370
9
  62
1
 100
AcDbMText
  10
 3391.5485325299
  20
 2657.6666666667
  30
0.0
  40
 32.000000000000
  41
0.0
  71
7
  72
1
   1
\T1.000000;ＳＮ－６Ｐ型
   7
GMM001
  44
 0.79999984000003
   0
MTEXT
   5
224
 100
AcDbEntity
   8
LEVEL001
 370
9
  62
1
 100
AcDbMText
  10
 3391.5485325299
  20
 2593.6666666667
  30
0.0
  40
 32.000000000000
  41
0.0
  71
7
  72
1
   1
\T1.000000;ＲＰ－２００Ｐ型
   7
GMM001
  44
 0.79999984000003
   0
MTEXT
   5
226
 100
AcDbEntity
   8
LEVEL001
 370
9
  62
1
 100
AcDbMText
  10
 3391.5485325299
  20
 2529.6666666667
  30
0.0
  40
 32.000000000000
  41
0.0
  71
7
  72
1
   1
\T1.000000;更科Ｐ型
   7
GMM001
  44
 0.79999984000003
   0
MTEXT
   5
228
 100
AcDbEntity
   8
LEVEL001
 370
9
  62
1
 100
AcDbMText
  10
 3739.5485325299
  20
 2592.3333333333
  30
0.0
  40
 32.000000000000
  41
0.0
  71
7
  72
1
   1
\T1.000000;　２９０Ｗ　／　２ｋｇ／回（プレス）
   7
GMM001
  44
 0.79999984000003
   0
LINE
   5
229
 100
AcDbEntity
   8
LEVEL001
 370
30
 100
AcDbLine
   6
CONTINUOUS
  62
7
  10
 4598.2151991965
  20
 2455.0000000000
  30
0.0
  11
 3282.2151991965
  21
 2455.0000000000
  31
0.0
   0
MTEXT
   5
22B
 100
AcDbEntity
   8
LEVEL001
 370
9
  62
1
 100
AcDbMText
  10
 3739.5485325299
  20
 2784.3333333333
  30
0.0
  40
 32.000000000000
  41
0.0
  71
7
  72
1
   1
\T1.000000;１，４６０×７２５×１，２９５
   7
GMM001
  44
 0.79999984000003
   0
LINE
   5
22C
 100
AcDbEntity
   8
LEVEL001
 370
30
 100
AcDbLine
   6
CONTINUOUS
  62
7
  10
 3382.2151991965
  20
 2391.0000000000
  30
0.0
  11
 4598.2151991965
  21
 2391.0000000000
  31
0.0
   0
LINE
   5
22D
 100
AcDbEntity
   8
LEVEL001
 370
30
 100
AcDbLine
   6
CONTINUOUS
  62
7
  10
 3382.2151991965
  20
 2327.0000000000
  30
0.0
  11
 4598.2151991965
  21
 2327.0000000000
  31
0.0
   0
LINE
   5
22E
 100
AcDbEntity
   8
LEVEL001
 370
30
 100
AcDbLine
   6
CONTINUOUS
  62
7
  10
 3382.2151991965
  20
 2263.0000000000
  30
0.0
  11
 4598.2151991965
  21
 2263.0000000000
  31
0.0
   0
LINE
   5
22F
 100
AcDbEntity
   8
LEVEL001
 370
30
 100
AcDbLine
   6
CONTINUOUS
  62
7
  10
 3382.2151991965
  20
 2199.0000000000
  30
0.0
  11
 4598.2151991965
  21
 2199.0000000000
  31
0.0
   0
LINE
   5
230
 100
AcDbEntity
   8
LEVEL001
 370
30
 100
AcDbLine
   6
CONTINUOUS
  62
7
  10
 3382.2151991965
  20
 2135.0000000000
  30
0.0
  11
 4598.2151991965
  21
 2135.0000000000
  31
0.0
   0
LINE
   5
231
 100
AcDbEntity
   8
LEVEL001
 370
30
 100
AcDbLine
   6
CONTINUOUS
  62
7
  10
 4598.2151991965
  20
 2071.0000000000
  30
0.0
  11
 3391.5485325299
  21
 2071.0000000000
  31
0.0
   0
LINE
   5
232
 100
AcDbEntity
   8
LEVEL001
 370
30
 100
AcDbLine
   6
CONTINUOUS
  62
7
  10
 4598.2151991965
  20
 2007.0000000000
  30
0.0
  11
 3282.2151991965
  21
 2007.0000000000
  31
0.0
   0
MTEXT
   5
234
 100
AcDbEntity
   8
LEVEL001
 370
9
  62
1
 100
AcDbMText
  10
 3739.5485325299
  20
 2208.3333333333
  30
0.0
  40
 32.000000000000
  41
0.0
  71
7
  72
1
   1
\T1.000000;ＳＵＳ　（長さ３６０）
   7
GMM001
  44
 0.79999984000003
   0
MTEXT
   5
236
 100
AcDbEntity
   8
LEVEL001
 370
9
  62
1
 100
AcDbMText
  10
 3739.5485325299
  20
 2080.3333333333
  30
0.0
  40
 32.000000000000
  41
0.0
  71
7
  72
1
   1
\T1.000000;ＳＵＳ４３０　ＳＰＣＣ
   7
GMM001
  44
 0.79999984000003
   0
MTEXT
   5
238
 100
AcDbEntity
   8
LEVEL001
 370
9
  62
1
 100
AcDbMText
  10
 3739.5485325299
  20
 2016.3333333333
  30
0.0
  40
 32.000000000000
  41
0.0
  71
7
  72
1
   1
\T1.000000;ＳＵＳ４３０
   7
GMM001
  44
 0.79999984000003
   0
MTEXT
   5
23A
 100
AcDbEntity
   8
LEVEL001
 370
9
  62
1
 100
AcDbMText
  10
 3739.5485325299
  20
 2336.3333333333
  30
0.0
  40
 32.000000000000
  41
0.0
  71
7
  72
1
   1
\T1.000000;ポリプロピレン
   7
GMM001
  44
 0.79999984000003
   0
MTEXT
   5
23C
 100
AcDbEntity
   8
LEVEL001
 370
9
  62
1
 100
AcDbMText
  10
 3739.5485325299
  20
 2400.3333333333
  30
0.0
  40
 32.000000000000
  41
0.0
  71
7
  72
1
   1
\T1.000000;ポリプロピレン　（長さ７００）
   7
GMM001
  44
 0.79999984000003
   0
MTEXT
   5
23E
 100
AcDbEntity
   8
LEVEL001
 370
9
  62
1
 100
AcDbMText
  10
 3739.5485325299
  20
 2144.3333333333
  30
0.0
  40
 32.000000000000
  41
0.0
  71
7
  72
1
   1
\T1.000000;ＳＵＳ３０４
   7
GMM001
  44
 0.79999984000003
   0
MTEXT
   5
240
 100
AcDbEntity
   8
LEVEL001
 370
9
  62
1
 100
AcDbMText
  10
 3391.5485325299
  20
 2273.6666666667
  30
0.0
  40
 32.000000000000
  41
0.0
  71
7
  72
1
   1
\T1.000000;ベルトコンベア－
   7
GMM001
  44
 0.79999984000003
   0
MTEXT
   5
242
 100
AcDbEntity
   8
LEVEL001
 370
9
  62
1
 100
AcDbMText
  10
 3391.5485325299
  20
 2209.6666666667
  30
0.0
  40
 32.000000000000
  41
0.0
  71
7
  72
1
   1
\T1.000000;包丁刃
   7
GMM001
  44
 0.79999984000003
   0
MTEXT
   5
244
 100
AcDbEntity
   8
LEVEL001
 370
9
  62
1
 100
AcDbMText
  10
 3391.5485325299
  20
 2337.6666666667
  30
0.0
  40
 32.000000000000
  41
0.0
  71
7
  72
1
   1
\T1.000000;凹凸ロ－ル（プレス機）
   7
GMM001
  44
 0.79999984000003
   0
MTEXT
   5
246
 100
AcDbEntity
   8
LEVEL001
 370
9
  62
1
 100
AcDbMText
  10
 3391.5485325299
  20
 2081.6666666667
  30
0.0
  40
 32.000000000000
  41
0.0
  71
7
  72
1
   1
\T1.000000;安全カバ－類
   7
GMM001
  44
 0.79999984000003
   0
MTEXT
   5
248
 100
AcDbEntity
   8
LEVEL001
 370
9
  62
1
 100
AcDbMText
  10
 3391.5485325299
  20
 2017.6666666667
  30
0.0
  40
 32.000000000000
  41
0.0
  71
7
  72
1
   1
\T1.000000;下部台
   7
GMM001
  44
 0.79999984000003
   0
MTEXT
   5
24A
 100
AcDbEntity
   8
LEVEL001
 370
9
  62
1
 100
AcDbMText
  10
 3391.5485325299
  20
 2401.6666666667
  30
0.0
  40
 32.000000000000
  41
0.0
  71
7
  72
1
   1
\T1.000000;平ロ－ル
   7
GMM001
  44
 0.79999984000003
   0
MTEXT
   5
24C
 100
AcDbEntity
   8
LEVEL001
 370
9
  62
1
 100
AcDbMText
  10
 3320.2151991965
  20
 2373.0000000000
  30
0.0
  40
 32.000000000000
  41
0.0
  71
1
  72
1
   1
{\T1.000000;材}\P\P\P\P{\T1.000000;料}
   7
GMM001
  44
 0.79999984000003
   0
LINE
   5
24D
 100
AcDbEntity
   8
LEVEL001
 370
30
 100
AcDbLine
   6
CONTINUOUS
  62
7
  10
 3382.2151991965
  20
 2711.0000000000
  30
0.0
  11
 3382.2151991965
  21
 2007.0000000000
  31
0.0
   0
LINE
   5
24E
 100
AcDbEntity
   8
LEVEL001
 370
30
 100
AcDbLine
   6
CONTINUOUS
  62
7
  10
 3282.2151991965
  20
 2007.0000000000
  30
0.0
  11
 3282.2151991965
  21
 2967.0000000000
  31
0.0
   0
LINE
   5
24F
 100
AcDbEntity
   8
LEVEL001
 370
30
 100
AcDbLine
   6
CONTINUOUS
  62
7
  10
 3731.5485325299
  20
 2967.0000000000
  30
0.0
  11
 3731.5485325299
  21
 2007.0000000000
  31
0.0
   0
LINE
   5
250
 100
AcDbEntity
   8
LEVEL001
 370
30
 100
AcDbLine
   6
CONTINUOUS
  62
7
  10
 4598.2151991965
  20
 2967.0000000000
  30
0.0
  11
 4598.2151991965
  21
 2007.0000000000
  31
0.0
   0
MTEXT
   5
252
 100
AcDbEntity
   8
LEVEL001
 370
9
  62
1
 100
AcDbMText
  10
 3739.5485325299
  20
 2272.3333333333
  30
0.0
  40
 32.000000000000
  41
0.0
  71
7
  72
1
   1
\T1.000000;樹脂ベルト　ＮＰ４００４
   7
GMM001
  44
 0.79999984000003
   0
MTEXT
   5
254
 100
AcDbEntity
   8
LEVEL001
 370
9
  62
1
 100
AcDbMText
  10
 3391.5485325299
  20
 2145.6666666667
  30
0.0
  40
 32.000000000000
  41
0.0
  71
7
  72
1
   1
\T1.000000;羽根
   7
GMM001
  44
 0.79999984000003
   0
MTEXT
   5
256
 100
AcDbEntity
   8
LEVEL001
 370
30
  62
7
 100
AcDbMText
  10
 4342.2151991965
  20
 80.000000000000
  30
0.0
  40
 32.000000000000
  41
0.0
  71
7
  72
1
   1
\T1.000000;27
   7
GMM004
  44
 0.79999984000003
   0
MTEXT
   5
258
 100
AcDbEntity
   8
LEVEL001
 370
30
  62
7
 100
AcDbMText
  10
 4394.8256243073
  20
 80.000000000000
  30
0.0
  40
 32.000000000000
  41
0.0
  71
7
  72
1
   1
\T1.000000; 3
   7
GMM004
  44
 0.79999984000003
   0
MTEXT
   5
25A
 100
AcDbEntity
   8
LEVEL001
 370
30
  62
7
 100
AcDbMText
  10
 4439.0662090595
  20
 80.000000000000
  30
0.0
  40
 32.000000000000
  41
0.0
  71
7
  72
1
   1
\T1.000000;19
   7
GMM004
  44
 0.79999984000003
   0
INSERT
   5
25B
 100
AcDbEntity
   8
0
 100
AcDbBlockReference
   2
GMM001
  10
 4646.2151991965
  20
0.0
  30
0.0
  41
 8.0000000000000
  42
 8.0000000000000
   0
LINE
   5
25C
 100
AcDbEntity
   8
LEVEL001
 370
30
 100
AcDbLine
   6
CONTINUOUS
  62
7
  10
 2747.8364759796
  20
 980.81034482759
  30
0.0
  11
 3467.8364759796
  21
 980.81034482759
  31
0.0
   0
LWPOLYLINE
   5
25D
 100
AcDbEntity
   8
LEVEL001
 370
30
   6
CONTINUOUS
  62
7
 100
AcDbPolyline
  90
5
  70
0
  10
 3458.2364759796
  20
 1205.8103448276
  10
 3459.2364759796
  20
 1205.8103448276
  10
 3459.2364759796
  20
 1450.8103448276
  10
 3347.2364759796
  20
 1450.8103448276
  10
 3347.2364759796
  20
 1449.8103448276
   0
CIRCLE
   5
25E
 100
AcDbEntity
   8
LEVEL001
 370
9
 100
AcDbCircle
   6
HIDDEN
  62
1
  10
 3312.3835116905
  20
 1316.3646019712
  30
0.0
  40
 56.500000000000
   0
CIRCLE
   5
25F
 100
AcDbEntity
   8
LEVEL001
 370
9
 100
AcDbCircle
   6
HIDDEN
  62
1
  10
 3377.2364759796
  20
 1223.8103448276
  30
0.0
  40
 56.500000000000
   0
LINE
   5
260
 100
AcDbEntity
   8
LEVEL001
 370
9
 100
AcDbLine
   6
DASHDOT
  62
1
  10
 3394.9305474014
  20
 1316.3646019712
  30
0.0
  11
 3229.8364759796
  21
 1316.3646019712
  31
0.0
   0
LINE
   5
261
 100
AcDbEntity
   8
LEVEL001
 370
9
 100
AcDbLine
   6
DASHDOT
  62
1
  10
 3377.2364759796
  20
 1305.8103448276
  30
0.0
  11
 3377.2364759796
  21
 1144.8103448276
  31
0.0
   0
LINE
   5
262
 100
AcDbEntity
   8
LEVEL001
 370
9
 100
AcDbLine
   6
DASHDOT
  62
1
  10
 3450.8364759796
  20
 1223.8103448276
  30
0.0
  11
 3296.8364759796
  21
 1223.8103448276
  31
0.0
   0
LINE
   5
263
 100
AcDbEntity
   8
LEVEL001
 370
30
 100
AcDbLine
   6
CONTINUOUS
  62
7
  10
 2780.8364759796
  20
 984.01034482759
  30
0.0
  11
 3440.8364759796
  21
 984.01034482759
  31
0.0
   0
POINT
   5
264
 100
AcDbEntity
   8
LEVEL001
 100
AcDbPoint
  62
7
  10
 2755.7596285456
  20
 1419.8253429447
  30
0.0
   0
POINT
   5
265
 100
AcDbEntity
   8
LEVEL001
 100
AcDbPoint
  62
7
  10
 2815.6805122231
  20
 1523.7940285309
  30
0.0
   0
LWPOLYLINE
   5
266
 100
AcDbEntity
   8
LEVEL001
 370
30
   6
CONTINUOUS
  62
7
 100
AcDbPolyline
  90
5
  70
0
  10
 2747.8364759796
  20
 1231.8103448276
  10
 2747.8364759796
  20
 1406.0778861745
  10
 2823.7586181804
  20
 1537.8103448276
  10
 3213.3364759796
  20
 1537.8103448276
  10
 3213.3364759796
  20
 1231.8103448276
   0
LWPOLYLINE
   5
267
 100
AcDbEntity
   8
LEVEL001
 370
30
   6
CONTINUOUS
  62
7
 100
AcDbPolyline
  90
4
  70
1
  10
 2753.2629250489
  20
 1415.4933143610
  10
 2818.1772159628
  20
 1528.1260575361
  10
 2816.8776073877
  20
 1528.8750685851
  10
 2751.9633164738
  20
 1416.2423254100
   0
ARC
   5
268
 100
AcDbEntity
   8
LEVEL001
 370
30
   6
CONTINUOUS
  62
7
 100
AcDbCircle
  10
 2794.6718272814
  20
 1494.3511155978
  30
0.0
  40
 9.0000000000000
 100
AcDbArc
  50
 60.043609403126
  51
 240.04360940313
   0
LWPOLYLINE
   5
269
 100
AcDbEntity
   8
LEVEL001
 370
30
   6
CONTINUOUS
  62
7
 100
AcDbPolyline
  90
4
  70
1
  10
 2799.1658935754
  20
 1502.1487670484
  10
 2790.1777609874
  20
 1486.5534641472
  10
 2791.4112317215
  20
 1484.6883770318
  10
 2801.3980457082
  20
 1502.0164913665
   0
LWPOLYLINE
   5
26A
 100
AcDbEntity
   8
LEVEL001
 370
30
   6
CONTINUOUS
  62
7
 100
AcDbPolyline
  90
9
  70
0
  10
 2762.2444438529
  20
 1446.0969468247
  10
 2770.7332357416
  20
 1460.8258440092
  10
 2775.0652643253
  20
 1458.3291405125
  10
 2766.0771317372
  20
 1442.7338376113
  10
 2761.7451031536
  20
 1445.2305411080
  10
 2762.2444438529
  20
 1446.0969468247
  10
 2754.0797273849
  20
 1451.9567595348
  10
 2761.0704971757
  20
 1464.0864395691
  10
 2770.2338950423
  20
 1459.9594382924
   0
LWPOLYLINE
   5
26B
 100
AcDbEntity
   8
LEVEL001
 370
30
   6
CONTINUOUS
  62
7
 100
AcDbPolyline
  90
4
  70
1
  10
 2766.1945264049
  20
 1440.9348883369
  10
 2765.3281206882
  20
 1441.4342290362
  10
 2775.8142753743
  20
 1459.6287490876
  10
 2776.6806810910
  20
 1459.1294083882
   0
LWPOLYLINE
   5
26C
 100
AcDbEntity
   8
LEVEL001
 370
30
   6
CONTINUOUS
  62
7
 100
AcDbPolyline
  90
9
  70
0
  10
 2774.7279613363
  20
 1467.7570897430
  10
 2783.2167532251
  20
 1482.4859869275
  10
 2787.5487818087
  20
 1479.9892834308
  10
 2778.5606492207
  20
 1464.3939805296
  10
 2774.2286206370
  20
 1466.8906840263
  10
 2774.7279613363
  20
 1467.7570897430
  10
 2766.5632448684
  20
 1473.6169024531
  10
 2773.5540146591
  20
 1485.7465824874
  10
 2782.7174125257
  20
 1481.6195812107
   0
LWPOLYLINE
   5
26D
 100
AcDbEntity
   8
LEVEL001
 370
30
   6
CONTINUOUS
  62
7
 100
AcDbPolyline
  90
4
  70
1
  10
 2778.6780438884
  20
 1462.5950312552
  10
 2777.8116381717
  20
 1463.0943719545
  10
 2788.2977928577
  20
 1481.2888920059
  10
 2789.1641985745
  20
 1480.7895513065
   0
LINE
   5
26E
 100
AcDbEntity
   8
LEVEL001
 370
30
 100
AcDbLine
   6
CONTINUOUS
  62
7
  10
 2789.5180360237
  20
 1509.4404640155
  30
0.0
  11
 2779.0772759466
  21
 1491.3247081202
  31
0.0
   0
LINE
   5
26F
 100
AcDbEntity
   8
LEVEL001
 370
30
 100
AcDbLine
   6
CONTINUOUS
  62
7
  10
 2799.1882150968
  20
 1508.1954191592
  30
0.0
  11
 2796.3096564667
  21
 1503.2008339865
  31
0.0
   0
LINE
   5
270
 100
AcDbEntity
   8
LEVEL001
 370
30
 100
AcDbLine
   6
CONTINUOUS
  62
7
  10
 2772.3486525074
  20
 1461.6261118849
  30
0.0
  11
 2771.5996414584
  21
 1460.3265033098
  31
0.0
   0
LINE
   5
271
 100
AcDbEntity
   8
LEVEL001
 370
30
 100
AcDbLine
   6
CONTINUOUS
  62
7
  10
 2767.5470452528
  20
 1471.3186124794
  30
0.0
  11
 2762.9031767490
  21
 1463.2610393138
  31
0.0
   0
LINE
   5
272
 100
AcDbEntity
   8
LEVEL001
 370
30
 100
AcDbLine
   6
CONTINUOUS
  62
7
  10
 2767.4848756823
  20
 1461.1975386754
  30
0.0
  11
 2771.7769359662
  21
 1468.6446896315
  31
0.0
   0
LWPOLYLINE
   5
273
 100
AcDbEntity
   8
LEVEL001
 370
30
   6
CONTINUOUS
  62
7
 100
AcDbPolyline
  90
4
  70
0
  10
 2764.0814223859
  20
 1473.3159752767
  10
 2758.8829880855
  20
 1476.3120194727
  10
 2748.3968333994
  20
 1458.1174994214
  10
 2755.3280791333
  20
 1454.1227738267
   0
LWPOLYLINE
   5
274
 100
AcDbEntity
   8
LEVEL001
 370
30
   6
CONTINUOUS
  62
7
 100
AcDbPolyline
  90
4
  70
0
  10
 2803.5202436804
  20
 1505.6987156626
  10
 2799.1882150968
  20
 1508.1954191592
  10
 2795.0984163557
  20
 1509.1097748107
  10
 2791.4316848213
  20
 1502.7476313537
   0
LINE
   5
275
 100
AcDbEntity
   8
LEVEL001
 370
30
 100
AcDbLine
   6
CONTINUOUS
  62
7
  10
 2785.7822897073
  20
 1492.9453696327
  30
0.0
  11
 2783.4660477916
  21
 1488.9264598186
  31
0.0
   0
LINE
   5
276
 100
AcDbEntity
   8
LEVEL001
 370
30
 100
AcDbLine
   6
CONTINUOUS
  62
7
  10
 2785.2215565295
  20
 1487.9671604980
  30
0.0
  11
 2781.8010727391
  21
 1482.0322813384
  31
0.0
   0
LINE
   5
277
 100
AcDbEntity
   8
LEVEL001
 370
30
 100
AcDbLine
   6
CONTINUOUS
  62
7
  10
 2773.9114896895
  20
 1468.3430710140
  30
0.0
  11
 2773.4870500951
  21
 1467.6066261548
  31
0.0
   0
LWPOLYLINE
   5
278
 100
AcDbEntity
   8
LEVEL001
 370
30
   6
CONTINUOUS
  62
7
 100
AcDbPolyline
  90
3
  70
0
  10
 2776.6806810910
  20
 1459.1294083882
  10
 2773.2150582241
  20
 1461.1267711856
  10
 2775.9614320705
  20
 1465.8920026276
   0
LINE
   5
279
 100
AcDbEntity
   8
LEVEL001
 370
30
 100
AcDbLine
   6
CONTINUOUS
  62
7
  10
 2784.9495646585
  20
 1481.4873055288
  30
0.0
  11
 2788.5573189941
  21
 1487.7471176871
  31
0.0
   0
LINE
   5
27A
 100
AcDbEntity
   8
LEVEL001
 370
30
 100
AcDbLine
   6
CONTINUOUS
  62
7
  10
 2783.4660477916
  20
 1488.9264598186
  30
0.0
  11
 2785.7822897073
  21
 1492.9453696327
  31
0.0
   0
LWPOLYLINE
   5
27B
 100
AcDbEntity
   8
LEVEL001
 370
30
   6
CONTINUOUS
  62
7
 100
AcDbPolyline
  90
7
  70
0
  10
 2791.4316848213
  20
 1502.7476313537
  10
 2794.4742404815
  20
 1508.0267676648
  10
 2790.1422118978
  20
 1510.5234711615
  10
 2789.5180360237
  20
 1509.4404640155
  10
 2780.8539788564
  20
 1514.4338710089
  10
 2770.3678241703
  20
 1496.2393509576
  10
 2779.0318813376
  20
 1491.2459439642
   0
LWPOLYLINE
   5
27C
 100
AcDbEntity
   8
LEVEL001
 370
30
   6
CONTINUOUS
  62
7
 100
AcDbPolyline
  90
8
  70
0
  10
 2786.6030750654
  20
 1490.3642323946
  10
 2785.2215565295
  20
 1487.9671604980
  10
 2765.9109604118
  20
 1498.5194530251
  10
 2754.6757946767
  20
 1479.0253243986
  10
 2773.4870500951
  20
 1467.6066261548
  10
 2770.6158410739
  20
 1462.6247932836
  10
 2773.2150582241
  20
 1461.1267711856
  10
 2775.9614320705
  20
 1465.8920026276
   0
LINE
   5
27D
 100
AcDbEntity
   8
LEVEL001
 370
30
 100
AcDbLine
   6
CONTINUOUS
  62
7
  10
 2784.9495646585
  20
 1481.4873055288
  30
0.0
  11
 2788.5573189941
  21
 1487.7471176871
  31
0.0
   0
LINE
   5
27E
 100
AcDbEntity
   8
LEVEL001
 370
30
 100
AcDbLine
   6
CONTINUOUS
  62
7
  10
 2780.8364759796
  20
 1376.8103448276
  30
0.0
  11
 3147.2364759796
  21
 1376.8103448276
  31
0.0
   0
LWPOLYLINE
   5
27F
 100
AcDbEntity
   8
LEVEL001
 370
30
   6
CONTINUOUS
  62
7
 100
AcDbPolyline
  90
4
  70
0
  10
 3154.0364759796
  20
 1376.8103448276
  10
 3154.0364759796
  20
 1379.8103448276
  10
 2774.0364759796
  20
 1379.8103448276
  10
 2774.0364759796
  20
 1376.8103448276
   0
LWPOLYLINE
   5
280
 100
AcDbEntity
   8
LEVEL001
 370
30
   6
CONTINUOUS
  62
7
 100
AcDbPolyline
  90
4
  70
0
  10
 2780.8364759796
  20
 1376.8103448276
  10
 2758.8364759796
  20
 1376.8103448276
  10
 2758.8364759796
  20
 1232.8103448276
  10
 2759.0364759796
  20
 1232.8103448276
   0
LINE
   5
281
 100
AcDbEntity
   8
LEVEL001
 370
30
 100
AcDbLine
   6
CONTINUOUS
  62
7
  10
 2768.8364759796
  20
 1234.8103448276
  30
0.0
  11
 2768.8364759796
  21
 1376.8103448276
  31
0.0
   0
LINE
   5
282
 100
AcDbEntity
   8
LEVEL001
 370
30
 100
AcDbLine
   6
CONTINUOUS
  62
7
  10
 2780.8364759796
  20
 1234.8103448276
  30
0.0
  11
 2780.8364759796
  21
 1376.8103448276
  31
0.0
   0
LWPOLYLINE
   5
283
 100
AcDbEntity
   8
LEVEL001
 370
30
   6
CONTINUOUS
  62
7
 100
AcDbPolyline
  90
8
  70
1
  10
 2759.0364759796
  20
 1059.8103448276
  10
 2784.5364759796
  20
 1059.8103448276
  10
 2784.5364759796
  20
 1058.8103448276
  10
 3143.5364759796
  20
 1058.8103448276
  10
 3143.5364759796
  20
 1059.8103448276
  10
 3169.0364759796
  20
 1059.8103448276
  10
 3169.0364759796
  20
 1232.8103448276
  10
 2759.0364759796
  20
 1232.8103448276
   0
LWPOLYLINE
   5
284
 100
AcDbEntity
   8
LEVEL001
 370
30
   6
CONTINUOUS
  62
7
 100
AcDbPolyline
  90
5
  70
0
  10
 3149.2364759796
  20
 1059.8103448276
  10
 3149.2364759796
  20
 1058.8103448276
  10
 3213.3364759796
  20
 1058.8103448276
  10
 3213.3364759796
  20
 1231.8103448276
  10
 3169.0364759796
  20
 1231.8103448276
   0
LWPOLYLINE
   5
285
 100
AcDbEntity
   8
LEVEL001
 370
30
   6
CONTINUOUS
  62
7
 100
AcDbPolyline
  90
4
  70
0
  10
 3147.2364759796
  20
 1376.8103448276
  10
 3169.2364759796
  20
 1376.8103448276
  10
 3169.2364759796
  20
 1232.8103448276
  10
 3169.0364759796
  20
 1232.8103448276
   0
LINE
   5
286
 100
AcDbEntity
   8
LEVEL001
 370
30
 100
AcDbLine
   6
CONTINUOUS
  62
7
  10
 3147.2364759796
  20
 1234.8103448276
  30
0.0
  11
 3147.2364759796
  21
 1376.8103448276
  31
0.0
   0
LINE
   5
287
 100
AcDbEntity
   8
LEVEL001
 370
30
 100
AcDbLine
   6
CONTINUOUS
  62
7
  10
 3159.2364759796
  20
 1376.8103448276
  30
0.0
  11
 3159.2364759796
  21
 1234.8103448276
  31
0.0
   0
LWPOLYLINE
   5
288
 100
AcDbEntity
   8
LEVEL001
 370
30
   6
CONTINUOUS
  62
7
 100
AcDbPolyline
  90
5
  70
0
  10
 2759.0364759796
  20
 1231.8103448276
  10
 2747.8364759796
  20
 1231.8103448276
  10
 2747.8364759796
  20
 1058.8103448276
  10
 2784.0364759796
  20
 1058.8103448276
  10
 2784.0364759796
  20
 1059.8103448276
   0
LWPOLYLINE
   5
289
 100
AcDbEntity
   8
LEVEL001
 370
30
   6
CONTINUOUS
  62
7
 100
AcDbPolyline
  90
4
  70
0
  10
 2780.8364759796
  20
 1058.8103448276
  10
 2780.8364759796
  20
 980.81034482759
  10
 3440.8364759796
  20
 980.81034482759
  10
 3440.8364759796
  20
 1005.8103448276
   0
LWPOLYLINE
   5
28A
 100
AcDbEntity
   8
LEVEL001
 370
30
   6
CONTINUOUS
  62
7
 100
AcDbPolyline
  90
6
  70
0
  10
 3214.2364759796
  20
 1135.8103448276
  10
 3214.2364759796
  20
 1005.8103448276
  10
 3458.2364759796
  20
 1005.8103448276
  10
 3458.2364759796
  20
 1449.8103448276
  10
 3214.2364759796
  20
 1449.8103448276
  10
 3214.2364759796
  20
 1205.8103448276
   0
LINE
   5
28B
 100
AcDbEntity
   8
LEVEL001
 370
30
 100
AcDbLine
   6
CONTINUOUS
  62
7
  10
 2780.8364759796
  20
 1005.6103448276
  30
0.0
  11
 3214.2364759796
  21
 1005.6103448276
  31
0.0
   0
LINE
   5
28C
 100
AcDbEntity
   8
LEVEL001
 370
30
 100
AcDbLine
   6
CONTINUOUS
  62
7
  10
 3214.2364759796
  20
 1008.8103448276
  30
0.0
  11
 2780.8364759796
  21
 1008.8103448276
  31
0.0
   0
LINE
   5
28D
 100
AcDbEntity
   8
LEVEL001
 370
30
 100
AcDbLine
   6
CONTINUOUS
  62
7
  10
 3214.2364759796
  20
 1012.0103448276
  30
0.0
  11
 2780.8364759796
  21
 1012.0103448276
  31
0.0
   0
LINE
   5
28E
 100
AcDbEntity
   8
LEVEL001
 370
9
 100
AcDbLine
   6
DASHDOT
  62
1
  10
 3312.3835116905
  20
 1410.3895376627
  30
0.0
  11
 3312.3835116905
  21
 1232.9188591149
  31
0.0
   0
LINE
   5
28F
 100
AcDbEntity
   8
LEVEL001
 370
30
 100
AcDbLine
   6
CONTINUOUS
  62
7
  10
 2747.8364759796
  20
 950.81034482759
  30
0.0
  11
 3467.8364759796
  21
 950.81034482759
  31
0.0
   0
DIMENSION
   5
290
 100
AcDbEntity
   8
LEVEL001
 370
30
   6
CONTINUOUS
  62
7
 100
AcDbDimension
   2
*D1
  10
 2747.8364759796
  20
 1627.2911140584
  30
0.0
  11
 3110.3364759796
  21
 1641.0053997726
  31
0.0
  70
128
   3
GMM001
 100
AcDbAlignedDimension
  13
 3472.8364759796
  23
 993.28700651541
  33
0.0
  14
 2747.8364759796
  24
 896.28700651538
  34
0.0
  50
 180.00000000000
 100
AcDbRotatedDimension
   0
LINE
   5
291
 100
AcDbEntity
   8
LEVEL001
 370
30
 100
AcDbLine
   6
CONTINUOUS
  62
7
  10
 3467.8364759796
  20
 980.81034482759
  30
0.0
  11
 3467.8364759796
  21
 250.81034482759
  31
0.0
   0
LINE
   5
292
 100
AcDbEntity
   8
LEVEL001
 370
30
 100
AcDbLine
   6
CONTINUOUS
  62
7
  10
 2747.8364759796
  20
 250.81034482759
  30
0.0
  11
 2747.8364759796
  21
 980.81034482759
  31
0.0
   0
LINE
   5
293
 100
AcDbEntity
   8
LEVEL001
 370
30
 100
AcDbLine
   6
CONTINUOUS
  62
7
  10
 3505.2358877664
  20
 250.81034482759
  30
0.0
  11
 2747.8364759796
  21
 250.81034482759
  31
0.0
   0
MTEXT
   5
295
 100
AcDbEntity
   8
LEVEL001
 370
9
  62
1
 100
AcDbMText
  10
 693.39623853543
  20
 429.81034482759
  30
0.0
  40
 32.000000000000
  41
0.0
  71
4
  72
1
   1
{\T1.000000;ス－パ－ニ－ダ－}\P{\T1.000000;　ＳＮ－６Ｐ}
   7
GMM001
  44
 0.79999984000003
   0
MTEXT
   5
297
 100
AcDbEntity
   8
LEVEL001
 370
9
  62
1
 100
AcDbMText
  10
 1372.6962385354
  20
 429.81034482759
  30
0.0
  40
 32.000000000000
  41
0.0
  71
4
  72
1
   1
{\T1.000000;ロ－リングプレス}\P{\T1.000000;ＲＰ－２００Ｐ}
   7
GMM001
  44
 0.79999984000003
   0
INSERT
   5
298
 100
AcDbEntity
   8
0
 100
AcDbBlockReference
   2
BLOCK004
  10
0.0
  20
0.0
  30
0.0
   0
DIMENSION
   5
299
 100
AcDbEntity
   8
LEVEL001
 370
30
   6
CONTINUOUS
  62
7
 100
AcDbDimension
   2
*D2
  10
 200.47829353923
  20
 250.81034482759
  30
0.0
  11
 200.47829353923
  21
 898.31034482759
  31
0.0
  70
0
   3
GMM002
 100
AcDbAlignedDimension
  13
 1186.2721088333
  23
 1545.8103448276
  33
0.0
  14
 467.39623853543
  24
 250.81034482759
  34
0.0
  50
 270.00000000000
 100
AcDbRotatedDimension
   0
DIMENSION
   5
29A
 100
AcDbEntity
   8
LEVEL001
 370
30
   6
CONTINUOUS
  62
7
 100
AcDbDimension
   2
*D3
  10
 265.98905373072
  20
 980.81034482759
  30
0.0
  11
 265.98905373072
  21
 615.81034482759
  31
0.0
  70
0
   3
GMM002
 100
AcDbAlignedDimension
  13
 467.39623853543
  23
 250.81034482759
  33
0.0
  14
 379.38400575866
  24
 980.81034482759
  34
0.0
  50
 90.000000000000
 100
AcDbRotatedDimension
   0
DIMENSION
   5
29B
 100
AcDbEntity
   8
LEVEL001
 370
30
   6
CONTINUOUS
  62
7
 100
AcDbDimension
   2
*D4
  10
 265.98905373072
  20
 1545.8103448276
  30
0.0
  11
 265.98905373072
  21
 1263.3103448276
  31
0.0
  70
0
   3
GMM002
 100
AcDbAlignedDimension
  13
 379.38400575866
  23
 980.81034482759
  33
0.0
  14
 1186.2721088333
  24
 1545.8103448276
  34
0.0
  50
 90.000000000000
 100
AcDbRotatedDimension
   0
INSERT
   5
29C
 100
AcDbEntity
   8
0
 100
AcDbBlockReference
   2
BLOCK005
  10
0.0
  20
0.0
  30
0.0
   0
LWPOLYLINE
   5
29D
 100
AcDbEntity
   8
LEVEL001
 370
30
   6
CONTINUOUS
  62
7
 100
AcDbPolyline
  90
4
  70
1
  10
 503.69623853543
  20
 1372.8646019712
  10
 503.69623853543
  20
 1259.8646019712
  10
 1203.6962385354
  20
 1259.8646019712
  10
 1203.6962385354
  20
 1372.8646019712
   0
LWPOLYLINE
   5
29E
 100
AcDbEntity
   8
LEVEL001
 370
30
   6
CONTINUOUS
  62
7
 100
AcDbPolyline
  90
4
  70
1
  10
 491.19623853543
  20
 1308.8103448276
  10
 491.19623853543
  20
 1343.8103448276
  10
 501.19623853543
  20
 1343.8103448276
  10
 501.19623853543
  20
 1308.8103448276
   0
LWPOLYLINE
   5
29F
 100
AcDbEntity
   8
LEVEL001
 370
30
   6
CONTINUOUS
  62
7
 100
AcDbPolyline
  90
8
  70
0
  10
 1215.1962385354
  20
 1450.8103448276
  10
 471.19623853543
  20
 1450.8103448276
  10
 471.19623853543
  20
 1449.8103448276
  10
 502.19623853543
  20
 1449.8103448276
  10
 502.19623853543
  20
 1429.8103448276
  10
 1205.1962385354
  20
 1429.8103448276
  10
 1205.1962385354
  20
 1449.8103448276
  10
 1215.1962385354
  20
 1449.8103448276
   0
LWPOLYLINE
   5
2A0
 100
AcDbEntity
   8
LEVEL001
 370
30
   6
CONTINUOUS
  62
7
 100
AcDbPolyline
  90
4
  70
0
  10
 1212.1962385354
  20
 1343.8103448276
  10
 1206.1962385354
  20
 1343.8103448276
  10
 1206.1962385354
  20
 1308.8103448276
  10
 1212.1962385354
  20
 1308.8103448276
   0
LINE
   5
2A1
 100
AcDbEntity
   8
LEVEL001
 370
30
 100
AcDbLine
   6
CONTINUOUS
  62
7
  10
 440.69623853543
  20
 1461.8103448276
  30
0.0
  11
 440.69623853543
  21
 1468.3103448276
  31
0.0
   0
CIRCLE
   5
2A2
 100
AcDbEntity
   8
LEVEL001
 370
30
 100
AcDbCircle
   6
CONTINUOUS
  62
7
  10
 408.19623853543
  20
 1475.8103448276
  30
0.0
  40
 20.000000000000
   0
LWPOLYLINE
   5
2A3
 100
AcDbEntity
   8
LEVEL001
 370
30
   6
CONTINUOUS
  62
7
 100
AcDbPolyline
  90
3
  70
0
  10
 490.19623853543
  20
 1239.8103448276
  10
 490.19623853543
  20
 1449.8103448276
  10
 414.19623853543
  20
 1449.8103448276
   0
LINE
   5
2A4
 100
AcDbEntity
   8
LEVEL001
 370
30
 100
AcDbLine
   6
CONTINUOUS
  62
7
  10
 445.19623853543
  20
 1455.8103448276
  30
0.0
  11
 414.19623853543
  21
 1455.8103448276
  31
0.0
   0
LWPOLYLINE
   5
2A5
 100
AcDbEntity
   8
LEVEL001
 370
30
   6
CONTINUOUS
  62
7
 100
AcDbPolyline
  90
4
  70
0
  10
 445.19623853543
  20
 1449.8103448276
  10
 445.19623853543
  20
 1455.8103448276
  10
 443.19623853543
  20
 1461.8103448276
  10
 422.36862748378
  20
 1461.8103448276
   0
LWPOLYLINE
   5
2A6
 100
AcDbEntity
   8
LEVEL001
 370
30
   6
CONTINUOUS
  62
7
 100
AcDbPolyline
  90
3
  70
0
  10
 426.65285065494
  20
 1468.3103448276
  10
 448.19623853543
  20
 1468.3103448276
  10
 448.19623853543
  20
 1472.3103448276
   0
ARC
   5
2A7
 100
AcDbEntity
   8
LEVEL001
 370
30
   6
CONTINUOUS
  62
7
 100
AcDbCircle
  10
 428.19623853543
  20
 1373.3103448276
  30
0.0
  40
 101.00000000000
 100
AcDbArc
  50
 78.578813725001
  51
 90.039220683285
   0
ARC
   5
2A8
 100
AcDbEntity
   8
LEVEL001
 370
30
   6
CONTINUOUS
  62
7
 100
AcDbCircle
  10
 408.19623853543
  20
 1287.8103448276
  30
0.0
  40
 7.0000000000000
 100
AcDbArc
  50
 180.00000000000
  51
 270.00000000000
   0
LINE
   5
2A9
 100
AcDbEntity
   8
LEVEL001
 370
30
 100
AcDbLine
   6
CONTINUOUS
  62
7
  10
 408.19623853543
  20
 1280.8103448276
  30
0.0
  11
 428.19623853543
  21
 1280.8103448276
  31
0.0
   0
ARC
   5
2AA
 100
AcDbEntity
   8
LEVEL001
 370
30
   6
CONTINUOUS
  62
7
 100
AcDbCircle
  10
 428.19623853543
  20
 1287.8103448276
  30
0.0
  40
 7.0000000000000
 100
AcDbArc
  50
 270.00000000000
  51
0.0
   0
POINT
   5
2AB
 100
AcDbEntity
   8
LEVEL001
 100
AcDbPoint
  62
6
  10
 428.19623853543
  20
 1283.3103448276
  30
0.0
   0
POINT
   5
2AC
 100
AcDbEntity
   8
LEVEL001
 100
AcDbPoint
  62
6
  10
 428.19623853543
  20
 1283.3103448276
  30
0.0
   0
ARC
   5
2AD
 100
AcDbEntity
   8
LEVEL001
 370
30
   6
CONTINUOUS
  62
7
 100
AcDbCircle
  10
 408.19623853543
  20
 1289.8103448276
  30
0.0
  40
 7.0000000000000
 100
AcDbArc
  50
 45.584691402810
  51
 180.00000000000
   0
LINE
   5
2AE
 100
AcDbEntity
   8
LEVEL001
 370
30
 100
AcDbLine
   6
CONTINUOUS
  62
7
  10
 401.19623853543
  20
 1289.8103448276
  30
0.0
  11
 401.19623853543
  21
 1287.8103448276
  31
0.0
   0
ARC
   5
2AF
 100
AcDbEntity
   8
LEVEL001
 370
30
   6
CONTINUOUS
  62
7
 100
AcDbCircle
  10
 408.19623853543
  20
 1318.8103448276
  30
0.0
  40
 7.0000000000000
 100
AcDbArc
  50
 180.00000000000
  51
 270.00000000000
   0
LWPOLYLINE
   5
2B0
 100
AcDbEntity
   8
LEVEL001
 370
30
   6
CONTINUOUS
  62
7
 100
AcDbPolyline
  90
4
  70
0
  10
 408.19623853543
  20
 1311.8103448276
  10
 421.19623853543
  20
 1311.8103448276
  10
 421.19623853543
  20
 1294.8103448276
  10
 413.09521802099
  20
 1294.8103448276
   0
ARC
   5
2B1
 100
AcDbEntity
   8
LEVEL001
 370
30
   6
CONTINUOUS
  62
7
 100
AcDbCircle
  10
 408.19623853543
  20
 1320.8103448276
  30
0.0
  40
 7.0000000000000
 100
AcDbArc
  50
 45.584691402810
  51
 180.00000000000
   0
LINE
   5
2B2
 100
AcDbEntity
   8
LEVEL001
 370
30
 100
AcDbLine
   6
CONTINUOUS
  62
7
  10
 401.19623853543
  20
 1320.8103448276
  30
0.0
  11
 401.19623853543
  21
 1318.8103448276
  31
0.0
   0
ARC
   5
2B3
 100
AcDbEntity
   8
LEVEL001
 370
30
   6
CONTINUOUS
  62
7
 100
AcDbCircle
  10
 408.19623853543
  20
 1349.8103448276
  30
0.0
  40
 7.0000000000000
 100
AcDbArc
  50
 180.00000000000
  51
 270.00000000000
   0
ARC
   5
2B4
 100
AcDbEntity
   8
LEVEL001
 370
30
   6
CONTINUOUS
  62
7
 100
AcDbCircle
  10
 408.19623853543
  20
 1353.8103448276
  30
0.0
  40
 7.0000000000000
 100
AcDbArc
  50
 45.584691402810
  51
 180.00000000000
   0
LINE
   5
2B5
 100
AcDbEntity
   8
LEVEL001
 370
30
 100
AcDbLine
   6
CONTINUOUS
  62
7
  10
 401.19623853543
  20
 1353.8103448276
  30
0.0
  11
 401.19623853543
  21
 1349.8103448276
  31
0.0
   0
LINE
   5
2B6
 100
AcDbEntity
   8
LEVEL001
 370
30
 100
AcDbLine
   6
CONTINUOUS
  62
7
  10
 408.19623853543
  20
 1342.8103448276
  30
0.0
  11
 421.19623853543
  21
 1342.8103448276
  31
0.0
   0
LINE
   5
2B7
 100
AcDbEntity
   8
LEVEL001
 370
30
 100
AcDbLine
   6
CONTINUOUS
  62
7
  10
 421.19623853543
  20
 1342.8103448276
  30
0.0
  11
 421.19623853543
  21
 1325.8103448276
  31
0.0
   0
LINE
   5
2B8
 100
AcDbEntity
   8
LEVEL001
 370
30
 100
AcDbLine
   6
CONTINUOUS
  62
7
  10
 421.19623853543
  20
 1325.8103448276
  30
0.0
  11
 413.09521802099
  21
 1325.8103448276
  31
0.0
   0
LINE
   5
2B9
 100
AcDbEntity
   8
LEVEL001
 370
30
 100
AcDbLine
   6
CONTINUOUS
  62
7
  10
 421.19623853543
  20
 1358.8103448276
  30
0.0
  11
 413.09521802099
  21
 1358.8103448276
  31
0.0
   0
ARC
   5
2BA
 100
AcDbEntity
   8
LEVEL001
 370
30
   6
CONTINUOUS
  62
7
 100
AcDbCircle
  10
 408.19623853543
  20
 1382.8103448276
  30
0.0
  40
 7.0000000000000
 100
AcDbArc
  50
 180.00000000000
  51
 270.00000000000
   0
LINE
   5
2BB
 100
AcDbEntity
   8
LEVEL001
 370
30
 100
AcDbLine
   6
CONTINUOUS
  62
7
  10
 408.19623853543
  20
 1375.8103448276
  30
0.0
  11
 421.19623853543
  21
 1375.8103448276
  31
0.0
   0
ARC
   5
2BC
 100
AcDbEntity
   8
LEVEL001
 370
30
   6
CONTINUOUS
  62
7
 100
AcDbCircle
  10
 408.19623853543
  20
 1389.8103448276
  30
0.0
  40
 7.0000000000000
 100
AcDbArc
  50
 45.584691402810
  51
 180.00000000000
   0
LINE
   5
2BD
 100
AcDbEntity
   8
LEVEL001
 370
30
 100
AcDbLine
   6
CONTINUOUS
  62
7
  10
 401.19623853543
  20
 1389.8103448276
  30
0.0
  11
 401.19623853543
  21
 1382.8103448276
  31
0.0
   0
LINE
   5
2BE
 100
AcDbEntity
   8
LEVEL001
 370
30
 100
AcDbLine
   6
CONTINUOUS
  62
7
  10
 421.19623853543
  20
 1394.8103448276
  30
0.0
  11
 413.09521802099
  21
 1394.8103448276
  31
0.0
   0
LINE
   5
2BF
 100
AcDbEntity
   8
LEVEL001
 370
30
 100
AcDbLine
   6
CONTINUOUS
  62
7
  10
 421.19623853543
  20
 1375.8103448276
  30
0.0
  11
 421.19623853543
  21
 1358.8103448276
  31
0.0
   0
LINE
   5
2C0
 100
AcDbEntity
   8
LEVEL001
 370
30
 100
AcDbLine
   6
CONTINUOUS
  62
7
  10
 408.19623853543
  20
 1411.8103448276
  30
0.0
  11
 421.19623853543
  21
 1411.8103448276
  31
0.0
   0
ARC
   5
2C1
 100
AcDbEntity
   8
LEVEL001
 370
30
   6
CONTINUOUS
  62
7
 100
AcDbCircle
  10
 408.19623853543
  20
 1418.8103448276
  30
0.0
  40
 7.0000000000000
 100
AcDbArc
  50
 180.00000000000
  51
 270.00000000000
   0
LWPOLYLINE
   5
2C2
 100
AcDbEntity
   8
LEVEL001
 370
30
   6
CONTINUOUS
  62
7
 100
AcDbPolyline
  90
4
  70
0
  10
 402.19623853543
  20
 1415.1329223143
  10
 402.19623853543
  20
 1456.3621784488
  10
 403.19623853543
  20
 1456.3621784488
  10
 403.19623853543
  20
 1456.4454280965
   0
LWPOLYLINE
   5
2C3
 100
AcDbEntity
   8
LEVEL001
 370
30
   6
CONTINUOUS
  62
7
 100
AcDbPolyline
  90
4
  70
0
  10
 413.19623853543
  20
 1456.4454280965
  10
 413.19623853543
  20
 1456.3621784488
  10
 414.19623853543
  20
 1456.3621784488
  10
 414.19623853543
  20
 1411.8103448276
   0
LINE
   5
2C4
 100
AcDbEntity
   8
LEVEL001
 370
30
 100
AcDbLine
   6
CONTINUOUS
  62
7
  10
 421.19623853543
  20
 1411.8103448276
  30
0.0
  11
 421.19623853543
  21
 1394.8103448276
  31
0.0
   0
ARC
   5
2C5
 100
AcDbEntity
   8
LEVEL001
 370
30
   6
CONTINUOUS
  62
7
 100
AcDbCircle
  10
 408.19623853543
  20
 1427.8103448276
  30
0.0
  40
 7.0000000000000
 100
AcDbArc
  50
 148.99728086613
  51
 180.00000000000
   0
LINE
   5
2C6
 100
AcDbEntity
   8
LEVEL001
 370
30
 100
AcDbLine
   6
CONTINUOUS
  62
7
  10
 401.19623853543
  20
 1427.8103448276
  30
0.0
  11
 401.19623853543
  21
 1418.8103448276
  31
0.0
   0
LINE
   5
2C7
 100
AcDbEntity
   8
LEVEL001
 370
30
 100
AcDbLine
   6
CONTINUOUS
  62
7
  10
 448.19623853543
  20
 1297.8103448276
  30
0.0
  11
 435.19623853543
  21
 1297.8103448276
  31
0.0
   0
ARC
   5
2C8
 100
AcDbEntity
   8
LEVEL001
 370
30
   6
CONTINUOUS
  62
7
 100
AcDbCircle
  10
 448.19623853543
  20
 1304.8103448276
  30
0.0
  40
 7.0000000000000
 100
AcDbArc
  50
 270.00000000000
  51
0.0
   0
LINE
   5
2C9
 100
AcDbEntity
   8
LEVEL001
 370
30
 100
AcDbLine
   6
CONTINUOUS
  62
7
  10
 435.19623853543
  20
 1287.8103448276
  30
0.0
  11
 435.19623853543
  21
 1297.8103448276
  31
0.0
   0
ARC
   5
2CA
 100
AcDbEntity
   8
LEVEL001
 370
30
   6
CONTINUOUS
  62
7
 100
AcDbCircle
  10
 448.19623853543
  20
 1306.8103448276
  30
0.0
  40
 7.0000000000000
 100
AcDbArc
  50
 0.18610788536107E-11
  51
 134.41530859719
   0
LINE
   5
2CB
 100
AcDbEntity
   8
LEVEL001
 370
30
 100
AcDbLine
   6
CONTINUOUS
  62
7
  10
 455.19623853543
  20
 1306.8103448276
  30
0.0
  11
 455.19623853543
  21
 1304.8103448276
  31
0.0
   0
LINE
   5
2CC
 100
AcDbEntity
   8
LEVEL001
 370
30
 100
AcDbLine
   6
CONTINUOUS
  62
7
  10
 448.19623853543
  20
 1328.8103448276
  30
0.0
  11
 435.19623853543
  21
 1328.8103448276
  31
0.0
   0
ARC
   5
2CD
 100
AcDbEntity
   8
LEVEL001
 370
30
   6
CONTINUOUS
  62
7
 100
AcDbCircle
  10
 448.19623853543
  20
 1335.8103448276
  30
0.0
  40
 7.0000000000000
 100
AcDbArc
  50
 270.00000000000
  51
0.0
   0
ARC
   5
2CE
 100
AcDbEntity
   8
LEVEL001
 370
30
   6
CONTINUOUS
  62
7
 100
AcDbCircle
  10
 448.19623853543
  20
 1338.8103448276
  30
0.0
  40
 7.0000000000000
 100
AcDbArc
  50
 0.18610788536107E-11
  51
 134.41530859719
   0
LINE
   5
2CF
 100
AcDbEntity
   8
LEVEL001
 370
30
 100
AcDbLine
   6
CONTINUOUS
  62
7
  10
 455.19623853543
  20
 1338.8103448276
  30
0.0
  11
 455.19623853543
  21
 1335.8103448276
  31
0.0
   0
LINE
   5
2D0
 100
AcDbEntity
   8
LEVEL001
 370
30
 100
AcDbLine
   6
CONTINUOUS
  62
7
  10
 435.19623853543
  20
 1328.8103448276
  30
0.0
  11
 435.19623853543
  21
 1311.8103448276
  31
0.0
   0
LINE
   5
2D1
 100
AcDbEntity
   8
LEVEL001
 370
30
 100
AcDbLine
   6
CONTINUOUS
  62
7
  10
 435.19623853543
  20
 1311.8103448276
  30
0.0
  11
 443.29725904986
  21
 1311.8103448276
  31
0.0
   0
LINE
   5
2D2
 100
AcDbEntity
   8
LEVEL001
 370
30
 100
AcDbLine
   6
CONTINUOUS
  62
7
  10
 435.19623853543
  20
 1343.8103448276
  30
0.0
  11
 443.29725904986
  21
 1343.8103448276
  31
0.0
   0
LINE
   5
2D3
 100
AcDbEntity
   8
LEVEL001
 370
30
 100
AcDbLine
   6
CONTINUOUS
  62
7
  10
 448.19623853543
  20
 1360.8103448276
  30
0.0
  11
 435.19623853543
  21
 1360.8103448276
  31
0.0
   0
ARC
   5
2D4
 100
AcDbEntity
   8
LEVEL001
 370
30
   6
CONTINUOUS
  62
7
 100
AcDbCircle
  10
 448.19623853543
  20
 1367.8103448276
  30
0.0
  40
 7.0000000000000
 100
AcDbArc
  50
 270.00000000000
  51
0.0
   0
LINE
   5
2D5
 100
AcDbEntity
   8
LEVEL001
 370
30
 100
AcDbLine
   6
CONTINUOUS
  62
7
  10
 448.19623853543
  20
 1394.8103448276
  30
0.0
  11
 435.19623853543
  21
 1394.8103448276
  31
0.0
   0
ARC
   5
2D6
 100
AcDbEntity
   8
LEVEL001
 370
30
   6
CONTINUOUS
  62
7
 100
AcDbCircle
  10
 448.19623853543
  20
 1401.8103448276
  30
0.0
  40
 7.0000000000000
 100
AcDbArc
  50
 270.00000000000
  51
0.0
   0
LINE
   5
2D7
 100
AcDbEntity
   8
LEVEL001
 370
30
 100
AcDbLine
   6
CONTINUOUS
  62
7
  10
 435.19623853543
  20
 1360.8103448276
  30
0.0
  11
 435.19623853543
  21
 1343.8103448276
  31
0.0
   0
ARC
   5
2D8
 100
AcDbEntity
   8
LEVEL001
 370
30
   6
CONTINUOUS
  62
7
 100
AcDbCircle
  10
 448.19623853543
  20
 1372.8103448276
  30
0.0
  40
 7.0000000000000
 100
AcDbArc
  50
 0.18610788536107E-11
  51
 134.41530859719
   0
LINE
   5
2D9
 100
AcDbEntity
   8
LEVEL001
 370
30
 100
AcDbLine
   6
CONTINUOUS
  62
7
  10
 435.19623853543
  20
 1377.8103448276
  30
0.0
  11
 443.29725904986
  21
 1377.8103448276
  31
0.0
   0
LINE
   5
2DA
 100
AcDbEntity
   8
LEVEL001
 370
30
 100
AcDbLine
   6
CONTINUOUS
  62
7
  10
 435.19623853543
  20
 1394.8103448276
  30
0.0
  11
 435.19623853543
  21
 1377.8103448276
  31
0.0
   0
LINE
   5
2DB
 100
AcDbEntity
   8
LEVEL001
 370
30
 100
AcDbLine
   6
CONTINUOUS
  62
7
  10
 455.19623853543
  20
 1372.8103448276
  30
0.0
  11
 455.19623853543
  21
 1367.8103448276
  31
0.0
   0
ARC
   5
2DC
 100
AcDbEntity
   8
LEVEL001
 370
30
   6
CONTINUOUS
  62
7
 100
AcDbCircle
  10
 448.19623853543
  20
 1410.8103448276
  30
0.0
  40
 7.0000000000000
 100
AcDbArc
  50
 0.18610788536107E-11
  51
 134.41530859719
   0
LINE
   5
2DD
 100
AcDbEntity
   8
LEVEL001
 370
30
 100
AcDbLine
   6
CONTINUOUS
  62
7
  10
 435.19623853543
  20
 1415.8103448276
  30
0.0
  11
 443.29725904986
  21
 1415.8103448276
  31
0.0
   0
LINE
   5
2DE
 100
AcDbEntity
   8
LEVEL001
 370
30
 100
AcDbLine
   6
CONTINUOUS
  62
7
  10
 455.19623853543
  20
 1410.8103448276
  30
0.0
  11
 455.19623853543
  21
 1401.8103448276
  31
0.0
   0
LINE
   5
2DF
 100
AcDbEntity
   8
LEVEL001
 370
30
 100
AcDbLine
   6
CONTINUOUS
  62
7
  10
 414.19623853543
  20
 1434.8103448276
  30
0.0
  11
 428.19623853543
  21
 1434.8103448276
  31
0.0
   0
ARC
   5
2E0
 100
AcDbEntity
   8
LEVEL001
 370
30
   6
CONTINUOUS
  62
7
 100
AcDbCircle
  10
 428.19623853543
  20
 1427.8103448276
  30
0.0
  40
 7.0000000000000
 100
AcDbArc
  50
0.0
  51
 90.000000000000
   0
POINT
   5
2E1
 100
AcDbEntity
   8
LEVEL001
 100
AcDbPoint
  62
7
  10
 435.19623853543
  20
 1434.8103448276
  30
0.0
   0
LINE
   5
2E2
 100
AcDbEntity
   8
LEVEL001
 370
30
 100
AcDbLine
   6
CONTINUOUS
  62
7
  10
 435.19623853543
  20
 1427.8103448276
  30
0.0
  11
 435.19623853543
  21
 1415.8103448276
  31
0.0
   0
LWPOLYLINE
   5
2E3
 100
AcDbEntity
   8
LEVEL001
 370
30
   6
CONTINUOUS
  62
7
 100
AcDbPolyline
  90
6
  70
1
  10
 491.69623853543
  20
 1110.8103448276
  10
 491.69623853543
  20
 1229.8103448276
  10
 1214.6962385354
  20
 1229.8103448276
  10
 1214.6962385354
  20
 1173.3103448276
  10
 889.19623853543
  20
 1173.3103448276
  10
 889.19623853543
  20
 1110.8103448276
   0
LWPOLYLINE
   5
2E4
 100
AcDbEntity
   8
LEVEL001
 370
30
   6
CONTINUOUS
  62
7
 100
AcDbPolyline
  90
4
  70
1
  10
 491.69623853543
  20
 1058.8103448276
  10
 1788.6962385354
  20
 1058.8103448276
  10
 1788.6962385354
  20
 1110.8103448276
  10
 491.69623853543
  20
 1110.8103448276
   0
LWPOLYLINE
   5
2E5
 100
AcDbEntity
   8
LEVEL001
 370
30
   6
CONTINUOUS
  62
7
 100
AcDbPolyline
  90
4
  70
1
  10
 1215.1962385354
  20
 1537.8103448276
  10
 1215.1962385354
  20
 1173.3103448276
  10
 1488.1962385354
  20
 1173.3103448276
  10
 1488.1962385354
  20
 1537.8103448276
   0
LWPOLYLINE
   5
2E6
 100
AcDbEntity
   8
LEVEL001
 370
30
   6
CONTINUOUS
  62
7
 100
AcDbPolyline
  90
6
  70
0
  10
 1164.6962385354
  20
 1135.8103448276
  10
 1161.6962385354
  20
 1135.8103448276
  10
 1161.6962385354
  20
 1110.8103448276
  10
 1541.6962385354
  20
 1110.8103448276
  10
 1541.6962385354
  20
 1135.8103448276
  10
 1538.6962385354
  20
 1135.8103448276
   0
LWPOLYLINE
   5
2E7
 100
AcDbEntity
   8
LEVEL001
 370
30
   6
CONTINUOUS
  62
7
 100
AcDbPolyline
  90
4
  70
0
  10
 1164.6962385354
  20
 1111.8103448276
  10
 1162.6962385354
  20
 1111.8103448276
  10
 1162.6962385354
  20
 1140.8103448276
  10
 1164.6962385354
  20
 1140.8103448276
   0
LWPOLYLINE
   5
2E8
 100
AcDbEntity
   8
LEVEL001
 370
30
   6
CONTINUOUS
  62
7
 100
AcDbPolyline
  90
6
  70
0
  10
 1206.6962385354
  20
 1151.8103448276
  10
 1164.6962385354
  20
 1151.8103448276
  10
 1164.6962385354
  20
 1111.8103448276
  10
 1538.6962385354
  20
 1111.8103448276
  10
 1538.6962385354
  20
 1151.8103448276
  10
 1496.6962385354
  20
 1151.8103448276
   0
LWPOLYLINE
   5
2E9
 100
AcDbEntity
   8
LEVEL001
 370
30
   6
CONTINUOUS
  62
7
 100
AcDbPolyline
  90
4
  70
0
  10
 1184.6962385354
  20
 1151.8103448276
  10
 1184.6962385354
  20
 1152.8103448276
  10
 1518.6962385354
  20
 1152.8103448276
  10
 1518.6962385354
  20
 1151.8103448276
   0
LWPOLYLINE
   5
2EA
 100
AcDbEntity
   8
LEVEL001
 370
30
   6
CONTINUOUS
  62
7
 100
AcDbPolyline
  90
4
  70
0
  10
 1496.6962385354
  20
 1152.8103448276
  10
 1496.6962385354
  20
 1147.8103448276
  10
 1206.6962385354
  20
 1147.8103448276
  10
 1206.6962385354
  20
 1152.8103448276
   0
LWPOLYLINE
   5
2EB
 100
AcDbEntity
   8
LEVEL001
 370
30
   6
CONTINUOUS
  62
7
 100
AcDbPolyline
  90
4
  70
1
  10
 1488.6962385354
  20
 1173.3103448276
  10
 1788.6962385354
  20
 1173.3103448276
  10
 1788.6962385354
  20
 1231.8103448276
  10
 1488.6962385354
  20
 1231.8103448276
   0
LWPOLYLINE
   5
2EC
 100
AcDbEntity
   8
LEVEL001
 370
30
   6
CONTINUOUS
  62
7
 100
AcDbPolyline
  90
4
  70
1
  10
 1789.1962385354
  20
 1058.8103448276
  10
 1840.1962385354
  20
 1058.8103448276
  10
 1840.1962385354
  20
 1231.8103448276
  10
 1789.1962385354
  20
 1231.8103448276
   0
LWPOLYLINE
   5
2ED
 100
AcDbEntity
   8
LEVEL001
 370
30
   6
CONTINUOUS
  62
7
 100
AcDbPolyline
  90
4
  70
0
  10
 1493.1962385354
  20
 1231.8103448276
  10
 1493.1962385354
  20
 1234.8103448276
  10
 1788.1962385354
  20
 1234.8103448276
  10
 1788.1962385354
  20
 1231.8103448276
   0
LWPOLYLINE
   5
2EE
 100
AcDbEntity
   8
LEVEL001
 370
30
   6
CONTINUOUS
  62
7
 100
AcDbPolyline
  90
5
  70
0
  10
 1789.1962385354
  20
 1231.8103448276
  10
 1789.1962385354
  20
 1232.8103448276
  10
 1841.1962385354
  20
 1232.8103448276
  10
 1841.1962385354
  20
 1058.8103448276
  10
 1840.1962385354
  20
 1058.8103448276
   0
LINE
   5
2EF
 100
AcDbEntity
   8
LEVEL001
 370
30
 100
AcDbLine
   6
CONTINUOUS
  62
7
  10
 1488.1962385354
  20
 1406.0778861745
  30
0.0
  11
 1216.1962385354
  21
 1406.0778861745
  31
0.0
   0
POINT
   5
2F0
 100
AcDbEntity
   8
LEVEL001
 100
AcDbPoint
  62
7
  10
 1261.1962385354
  20
 1419.8253429447
  30
0.0
   0
POINT
   5
2F1
 100
AcDbEntity
   8
LEVEL001
 100
AcDbPoint
  62
7
  10
 1441.1962385354
  20
 1419.8253429447
  30
0.0
   0
POINT
   5
2F2
 100
AcDbEntity
   8
LEVEL001
 100
AcDbPoint
  62
7
  10
 1261.1962385354
  20
 1523.7940285309
  30
0.0
   0
POINT
   5
2F3
 100
AcDbEntity
   8
LEVEL001
 100
AcDbPoint
  62
7
  10
 1441.1962385354
  20
 1523.7940285309
  30
0.0
   0
ELLIPSE
   5
2F4
 100
AcDbEntity
   8
LEVEL001
 370
30
   6
CONTINUOUS
  62
7
 100
AcDbEllipse
  10
 1358.1962385354
  20
 1473.5424971642
  30
0.0
  11
 28.000000000000
  21
-0.88184538071800E-6
  31
0.0
  40
 0.86640571321820
  41
-1.0471975216453
  42
-2.0943950728373
   0
ELLIPSE
   5
2F5
 100
AcDbEntity
   8
LEVEL001
 370
30
   6
CONTINUOUS
  62
7
 100
AcDbEllipse
  10
 1358.1962385354
  20
 1488.0233776218
  30
0.0
  11
 11.250000000000
  21
-0.38693610804330E-6
  31
0.0
  40
 0.86640571321820
  41
0.0
  42
 6.2831853071796
   0
ELLIPSE
   5
2F6
 100
AcDbEntity
   8
LEVEL001
 370
30
   6
CONTINUOUS
  62
7
 100
AcDbEllipse
  10
 1358.1962385354
  20
 1488.0233776218
  30
0.0
  11
 9.0000000000000
  21
-0.83326540334383E-7
  31
0.0
  40
 0.86640571321820
  41
0.0
  42
 6.2831853071796
   0
LINE
   5
2F7
 100
AcDbEntity
   8
LEVEL001
 370
30
 100
AcDbLine
   6
CONTINUOUS
  62
7
  10
 1344.1962385355
  20
 1452.5332751505
  30
0.0
  11
 1349.4462385355
  21
 1460.4117334056
  31
0.0
   0
LINE
   5
2F8
 100
AcDbEntity
   8
LEVEL001
 370
30
 100
AcDbLine
   6
CONTINUOUS
  62
7
  10
 1340.1981854642
  20
 1454.9587492655
  30
0.0
  11
 1343.0907297078
  21
 1457.9454230349
  31
0.0
   0
LINE
   5
2F9
 100
AcDbEntity
   8
LEVEL001
 370
30
 100
AcDbLine
   6
CONTINUOUS
  62
7
  10
 1336.7469941281
  20
 1457.9488811565
  30
0.0
  11
 1340.1941941221
  21
 1460.4549980149
  31
0.0
   0
LINE
   5
2FA
 100
AcDbEntity
   8
LEVEL001
 370
30
 100
AcDbLine
   6
CONTINUOUS
  62
7
  10
 1333.9475272295
  20
 1461.4128171791
  30
0.0
  11
 1341.7417558636
  21
 1465.3116428886
  31
0.0
   0
LINE
   5
2FB
 100
AcDbEntity
   8
LEVEL001
 370
30
 100
AcDbLine
   6
CONTINUOUS
  62
7
  10
 1331.8848451534
  20
 1465.2453073902
  30
0.0
  11
 1336.1134619470
  21
 1466.5787843182
  31
0.0
   0
LINE
   5
2FC
 100
AcDbEntity
   8
LEVEL001
 370
30
 100
AcDbLine
   6
CONTINUOUS
  62
7
  10
 1330.6216214511
  20
 1469.3299035140
  30
0.0
  11
 1335.0532563396
  21
 1470.0069274935
  31
0.0
   0
LINE
   5
2FD
 100
AcDbEntity
   8
LEVEL001
 370
30
 100
AcDbLine
   6
CONTINUOUS
  62
7
  10
 1330.1962385354
  20
 1473.5424971642
  30
0.0
  11
 1339.1962385354
  21
 1473.5424971642
  31
0.0
   0
LINE
   5
2FE
 100
AcDbEntity
   8
LEVEL001
 370
30
 100
AcDbLine
   6
CONTINUOUS
  62
7
  10
 1330.6216214511
  20
 1477.7550908144
  30
0.0
  11
 1335.0532563396
  21
 1477.0780668349
  31
0.0
   0
LINE
   5
2FF
 100
AcDbEntity
   8
LEVEL001
 370
30
 100
AcDbLine
   6
CONTINUOUS
  62
7
  10
 1331.8848451534
  20
 1481.8396869382
  30
0.0
  11
 1336.1134619470
  21
 1480.5062100102
  31
0.0
   0
LINE
   5
300
 100
AcDbEntity
   8
LEVEL001
 370
30
 100
AcDbLine
   6
CONTINUOUS
  62
7
  10
 1333.9475272294
  20
 1485.6721771492
  30
0.0
  11
 1341.7417558635
  21
 1481.7733514398
  31
0.0
   0
LINE
   5
301
 100
AcDbEntity
   8
LEVEL001
 370
30
 100
AcDbLine
   6
CONTINUOUS
  62
7
  10
 1336.7469941281
  20
 1489.1361131719
  30
0.0
  11
 1340.1941941221
  21
 1486.6299963135
  31
0.0
   0
LINE
   5
302
 100
AcDbEntity
   8
LEVEL001
 370
30
 100
AcDbLine
   6
CONTINUOUS
  62
7
  10
 1340.1981854642
  20
 1492.1262450630
  30
0.0
  11
 1343.0907297078
  21
 1489.1395712935
  31
0.0
   0
LINE
   5
303
 100
AcDbEntity
   8
LEVEL001
 370
30
 100
AcDbLine
   6
CONTINUOUS
  62
7
  10
 1376.1942916067
  20
 1492.1262450629
  30
0.0
  11
 1373.3017473631
  21
 1489.1395712935
  31
0.0
   0
LINE
   5
304
 100
AcDbEntity
   8
LEVEL001
 370
30
 100
AcDbLine
   6
CONTINUOUS
  62
7
  10
 1379.6454829427
  20
 1489.1361131719
  30
0.0
  11
 1376.1982829487
  21
 1486.6299963136
  31
0.0
   0
LINE
   5
305
 100
AcDbEntity
   8
LEVEL001
 370
30
 100
AcDbLine
   6
CONTINUOUS
  62
7
  10
 1382.4449498414
  20
 1485.6721771492
  30
0.0
  11
 1374.6507212074
  21
 1481.7733514397
  31
0.0
   0
LINE
   5
306
 100
AcDbEntity
   8
LEVEL001
 370
30
 100
AcDbLine
   6
CONTINUOUS
  62
7
  10
 1384.5076319174
  20
 1481.8396869382
  30
0.0
  11
 1380.2790151239
  21
 1480.5062100102
  31
0.0
   0
LINE
   5
307
 100
AcDbEntity
   8
LEVEL001
 370
30
 100
AcDbLine
   6
CONTINUOUS
  62
7
  10
 1385.7708556198
  20
 1477.7550908144
  30
0.0
  11
 1381.3392207312
  21
 1477.0780668349
  31
0.0
   0
LINE
   5
308
 100
AcDbEntity
   8
LEVEL001
 370
30
 100
AcDbLine
   6
CONTINUOUS
  62
7
  10
 1386.1962385354
  20
 1473.5424971642
  30
0.0
  11
 1377.1962385354
  21
 1473.5424971642
  31
0.0
   0
LINE
   5
309
 100
AcDbEntity
   8
LEVEL001
 370
30
 100
AcDbLine
   6
CONTINUOUS
  62
7
  10
 1385.7708556198
  20
 1469.3299035140
  30
0.0
  11
 1381.3392207312
  21
 1470.0069274935
  31
0.0
   0
LINE
   5
30A
 100
AcDbEntity
   8
LEVEL001
 370
30
 100
AcDbLine
   6
CONTINUOUS
  62
7
  10
 1384.5076319174
  20
 1465.2453073903
  30
0.0
  11
 1380.2790151239
  21
 1466.5787843182
  31
0.0
   0
LINE
   5
30B
 100
AcDbEntity
   8
LEVEL001
 370
30
 100
AcDbLine
   6
CONTINUOUS
  62
7
  10
 1382.4449498414
  20
 1461.4128171791
  30
0.0
  11
 1374.6507212073
  21
 1465.3116428886
  31
0.0
   0
LINE
   5
30C
 100
AcDbEntity
   8
LEVEL001
 370
30
 100
AcDbLine
   6
CONTINUOUS
  62
7
  10
 1379.6454829427
  20
 1457.9488811565
  30
0.0
  11
 1376.1982829487
  21
 1460.4549980148
  31
0.0
   0
LINE
   5
30D
 100
AcDbEntity
   8
LEVEL001
 370
30
 100
AcDbLine
   6
CONTINUOUS
  62
7
  10
 1376.1942916067
  20
 1454.9587492655
  30
0.0
  11
 1373.3017473631
  21
 1457.9454230349
  31
0.0
   0
LINE
   5
30E
 100
AcDbEntity
   8
LEVEL001
 370
30
 100
AcDbLine
   6
CONTINUOUS
  62
7
  10
 1372.1962385354
  20
 1452.5332751505
  30
0.0
  11
 1366.9462385354
  21
 1460.4117334057
  31
0.0
   0
ELLIPSE
   5
30F
 100
AcDbEntity
   8
LEVEL001
 370
30
   6
CONTINUOUS
  62
7
 100
AcDbEllipse
  10
 1358.1962385354
  20
 1473.5424971642
  30
0.0
  11
 17.500000000000
  21
-0.27248393053014E-6
  31
0.0
  40
 0.86640571321820
  41
-3.1415926356184
  42
 0.17971391705514E-7
   0
ELLIPSE
   5
310
 100
AcDbEntity
   8
LEVEL001
 370
30
   6
CONTINUOUS
  62
7
 100
AcDbEllipse
  10
 1358.1962385354
  20
 1473.5424971642
  30
0.0
  11
 19.000000000000
  21
-0.27063947527495E-6
  31
0.0
  40
 0.86640571321820
  41
-1.0471975378330
  42
 0.48171258824479
   0
ELLIPSE
   5
311
 100
AcDbEntity
   8
LEVEL001
 370
30
   6
CONTINUOUS
  62
7
 100
AcDbEllipse
  10
 1358.1962385354
  20
 1473.5424971642
  30
0.0
  11
 19.000000000000
  21
-0.27063947527495E-6
  31
0.0
  40
 0.86640571321820
  41
 2.6598800982261
  42
-2.0943950890227
   0
LINE
   5
312
 100
AcDbEntity
   8
LEVEL001
 370
30
 100
AcDbLine
   6
CONTINUOUS
  62
7
  10
 1344.1962385355
  20
 1494.5517191779
  30
0.0
  11
 1347.1931692122
  21
 1490.0543490388
  31
0.0
   0
LINE
   5
313
 100
AcDbEntity
   8
LEVEL001
 370
30
 100
AcDbLine
   6
CONTINUOUS
  62
7
  10
 1348.6196745223
  20
 1496.3388387131
  30
0.0
  11
 1349.5105689787
  21
 1494.2181267037
  31
0.0
   0
LINE
   5
314
 100
AcDbEntity
   8
LEVEL001
 370
30
 100
AcDbLine
   6
CONTINUOUS
  62
7
  10
 1353.3340895608
  20
 1497.4333029459
  30
0.0
  11
 1353.4506070748
  21
 1496.8607788806
  31
0.0
   0
LINE
   5
315
 100
AcDbEntity
   8
LEVEL001
 370
30
 100
AcDbLine
   6
CONTINUOUS
  62
7
  10
 1363.0583875101
  20
 1497.4333029459
  30
0.0
  11
 1362.9418699808
  21
 1496.8607788054
  31
0.0
   0
LINE
   5
316
 100
AcDbEntity
   8
LEVEL001
 370
30
 100
AcDbLine
   6
CONTINUOUS
  62
7
  10
 1367.7728025485
  20
 1496.3388387131
  30
0.0
  11
 1366.8819080487
  21
 1494.2181266004
  31
0.0
   0
LINE
   5
317
 100
AcDbEntity
   8
LEVEL001
 370
30
 100
AcDbLine
   6
CONTINUOUS
  62
7
  10
 1372.1962385355
  20
 1494.5517191778
  30
0.0
  11
 1369.1993078248
  21
 1490.0543489878
  31
0.0
   0
ELLIPSE
   5
318
 100
AcDbEntity
   8
LEVEL001
 370
30
   6
CONTINUOUS
  62
7
 100
AcDbEllipse
  10
 1358.1962385354
  20
 1477.0378821022
  30
0.0
  11
 17.500000000000
  21
-0.27248393053014E-6
  31
0.0
  40
 0.86640571321820
  41
 2.2671724721931
  42
 0.87442021733953
   0
LINE
   5
319
 100
AcDbEntity
   8
LEVEL001
 370
30
 100
AcDbLine
   6
CONTINUOUS
  62
7
  10
 1340.6962385354
  20
 1473.5424971642
  30
0.0
  11
 1340.6962385354
  21
 1477.0378821022
  31
0.0
   0
LINE
   5
31A
 100
AcDbEntity
   8
LEVEL001
 370
30
 100
AcDbLine
   6
CONTINUOUS
  62
7
  10
 1375.6962385354
  20
 1473.5424971642
  30
0.0
  11
 1375.6962385354
  21
 1477.0378821022
  31
0.0
   0
ELLIPSE
   5
31B
 100
AcDbEntity
   8
LEVEL001
 370
30
   6
CONTINUOUS
  62
7
 100
AcDbEllipse
  10
 1300.1962385354
  20
 1495.1001263822
  30
0.0
  11
 14.250000000000
  21
-0.36700407690660E-6
  31
0.0
  40
 0.86640571321820
  41
 2.4989334751975
  42
 0.64265923784406
   0
ELLIPSE
   5
31C
 100
AcDbEntity
   8
LEVEL001
 370
30
   6
CONTINUOUS
  62
7
 100
AcDbEllipse
  10
 1300.1962385354
  20
 1492.6034228550
  30
0.0
  11
 14.250000000000
  21
-0.36700407690660E-6
  31
0.0
  40
 0.86640571321820
  41
-3.1415926238639
  42
 0.29725876327276E-7
   0
LINE
   5
31D
 100
AcDbEntity
   8
LEVEL001
 370
30
 100
AcDbLine
   6
CONTINUOUS
  62
7
  10
 1285.9462385354
  20
 1495.1001263822
  30
0.0
  11
 1285.9462385354
  21
 1492.6034228550
  31
0.0
   0
LINE
   5
31E
 100
AcDbEntity
   8
LEVEL001
 370
30
 100
AcDbLine
   6
CONTINUOUS
  62
7
  10
 1314.4462385354
  20
 1495.1001263822
  30
0.0
  11
 1314.4462385354
  21
 1492.6034228550
  31
0.0
   0
ELLIPSE
   5
31F
 100
AcDbEntity
   8
LEVEL001
 370
30
   6
CONTINUOUS
  62
7
 100
AcDbEllipse
  10
 1300.1962385354
  20
 1497.0974892039
  30
0.0
  11
 13.000000000000
  21
-0.52038762987650E-6
  31
0.0
  40
 0.86640571321820
  41
 2.5903408017490
  42
 0.55125194424512
   0
ELLIPSE
   5
320
 100
AcDbEntity
   8
LEVEL001
 370
30
   6
CONTINUOUS
  62
7
 100
AcDbEllipse
  10
 1300.1962385354
  20
 1497.0974892039
  30
0.0
  11
 11.750000000000
  21
-0.35309153645358E-6
  31
0.0
  40
 0.86640571321820
  41
 3.0186586192794
  42
 0.12293410367819
   0
LWPOLYLINE
   5
321
 100
AcDbEntity
   8
LEVEL001
 370
30
   6
CONTINUOUS
  62
7
 100
AcDbPolyline
  90
4
  70
1
  10
 1295.1962385354
  20
 1495.4903397966
  10
 1305.1962385354
  20
 1495.4903397966
  10
 1305.1962385354
  20
 1513.6848597742
  10
 1295.1962385354
  20
 1513.6848597742
   0
LWPOLYLINE
   5
322
 100
AcDbEntity
   8
LEVEL001
 370
30
   6
CONTINUOUS
  62
7
 100
AcDbPolyline
  90
4
  70
0
  10
 1297.1962385354
  20
 1513.6848597742
  10
 1297.1962385354
  20
 1498.9559626495
  10
 1303.1962385354
  20
 1498.9559626495
  10
 1303.1962385354
  20
 1513.6848597742
   0
LINE
   5
323
 100
AcDbEntity
   8
LEVEL001
 370
30
 100
AcDbLine
   6
CONTINUOUS
  62
7
  10
 1300.1962385354
  20
 1501.5551797892
  30
0.0
  11
 1300.1962385354
  21
 1513.6848597742
  31
0.0
   0
LWPOLYLINE
   5
324
 100
AcDbEntity
   8
LEVEL001
 370
30
   6
CONTINUOUS
  62
7
 100
AcDbPolyline
  90
4
  70
0
  10
 1295.1962385354
  20
 1495.4903397966
  10
 1295.1962385354
  20
 1490.4969327423
  10
 1305.1962385354
  20
 1490.4969327423
  10
 1305.1962385354
  20
 1495.4903397966
   0
ELLIPSE
   5
325
 100
AcDbEntity
   8
LEVEL001
 370
30
   6
CONTINUOUS
  62
7
 100
AcDbEllipse
  10
 1300.1962385354
  20
 1499.5941927311
  30
0.0
  11
 11.750000000000
  21
-0.35309153645358E-6
  31
0.0
  40
 0.86640571321820
  41
 2.0103459452789
  42
 1.1312467603825
   0
ARC
   5
326
 100
AcDbEntity
   8
LEVEL001
 370
30
   6
CONTINUOUS
  62
7
 100
AcDbCircle
  10
 1414.1962385354
  20
 1493.6021042659
  30
0.0
  40
 9.0000000000000
 100
AcDbArc
  50
0.0
  51
 180.00000000000
   0
ELLIPSE
   5
327
 100
AcDbEntity
   8
LEVEL001
 370
30
   6
CONTINUOUS
  62
7
 100
AcDbEllipse
  10
 1414.1962385354
  20
 1493.6021042659
  30
0.0
  11
 9.0000000000000
  21
-0.83326540334383E-7
  31
0.0
  40
 0.86640571321820
  41
-3.1415926429037
  42
 0.10686109102199E-7
   0
ELLIPSE
   5
328
 100
AcDbEntity
   8
LEVEL001
 370
30
   6
CONTINUOUS
  62
7
 100
AcDbEllipse
  10
 1414.1962385354
  20
 1478.9327313115
  30
0.0
  11
 7.0000000000000
  21
-0.22046128833608E-6
  31
0.0
  40
 0.86640571321820
  41
0.0
  42
 6.2831853071796
   0
ELLIPSE
   5
329
 100
AcDbEntity
   8
LEVEL001
 370
30
   6
CONTINUOUS
  62
7
 100
AcDbEllipse
  10
 1414.1962385354
  20
 1471.4426207300
  30
0.0
  11
 9.0000000000000
  21
-0.83326540334383E-7
  31
0.0
  40
 0.86640571321820
  41
 2.9808074908939
  42
 0.16078518406808
   0
ELLIPSE
   5
32A
 100
AcDbEntity
   8
LEVEL001
 370
30
   6
CONTINUOUS
  62
7
 100
AcDbEllipse
  10
 1414.1962385354
  20
 1473.9393242572
  30
0.0
  11
 9.0000000000000
  21
-0.83326540334383E-7
  31
0.0
  40
 0.86640571321820
  41
 2.4660944512365
  42
 0.67549821692350
   0
ELLIPSE
   5
32B
 100
AcDbEntity
   8
LEVEL001
 370
30
   6
CONTINUOUS
  62
7
 100
AcDbEllipse
  10
 1300.1962385354
  20
 1456.9782750006
  30
0.0
  11
 14.250000000000
  21
-0.36700407690660E-6
  31
0.0
  40
 0.86640571321820
  41
 2.4989334751975
  42
 0.64265923784400
   0
ELLIPSE
   5
32C
 100
AcDbEntity
   8
LEVEL001
 370
30
   6
CONTINUOUS
  62
7
 100
AcDbEllipse
  10
 1300.1962385354
  20
 1454.4815714734
  30
0.0
  11
 14.250000000000
  21
-0.36700407690660E-6
  31
0.0
  40
 0.86640571321820
  41
-3.1415926238639
  42
 0.29725876327276E-7
   0
LINE
   5
32D
 100
AcDbEntity
   8
LEVEL001
 370
30
 100
AcDbLine
   6
CONTINUOUS
  62
7
  10
 1285.9462385354
  20
 1456.9782750006
  30
0.0
  11
 1285.9462385354
  21
 1454.4815714734
  31
0.0
   0
LINE
   5
32E
 100
AcDbEntity
   8
LEVEL001
 370
30
 100
AcDbLine
   6
CONTINUOUS
  62
7
  10
 1314.4462385354
  20
 1456.9782750006
  30
0.0
  11
 1314.4462385354
  21
 1454.4815714734
  31
0.0
   0
ELLIPSE
   5
32F
 100
AcDbEntity
   8
LEVEL001
 370
30
   6
CONTINUOUS
  62
7
 100
AcDbEllipse
  10
 1300.1962385354
  20
 1458.9756378223
  30
0.0
  11
 13.000000000000
  21
-0.52038762987650E-6
  31
0.0
  40
 0.86640571321820
  41
 2.5903408017490
  42
 0.55125194424512
   0
ELLIPSE
   5
330
 100
AcDbEntity
   8
LEVEL001
 370
30
   6
CONTINUOUS
  62
7
 100
AcDbEllipse
  10
 1300.1962385354
  20
 1458.9756378223
  30
0.0
  11
 11.750000000000
  21
-0.35309153645358E-6
  31
0.0
  40
 0.86640571321820
  41
 3.0186586192793
  42
 0.12293410367827
   0
LWPOLYLINE
   5
331
 100
AcDbEntity
   8
LEVEL001
 370
30
   6
CONTINUOUS
  62
7
 100
AcDbPolyline
  90
4
  70
1
  10
 1295.1962385354
  20
 1457.3684884150
  10
 1305.1962385354
  20
 1457.3684884150
  10
 1305.1962385354
  20
 1475.5630083926
  10
 1295.1962385354
  20
 1475.5630083926
   0
LWPOLYLINE
   5
332
 100
AcDbEntity
   8
LEVEL001
 370
30
   6
CONTINUOUS
  62
7
 100
AcDbPolyline
  90
4
  70
0
  10
 1297.1962385354
  20
 1475.5630083926
  10
 1297.1962385354
  20
 1460.8341112679
  10
 1303.1962385354
  20
 1460.8341112679
  10
 1303.1962385354
  20
 1475.5630083926
   0
LINE
   5
333
 100
AcDbEntity
   8
LEVEL001
 370
30
 100
AcDbLine
   6
CONTINUOUS
  62
7
  10
 1300.1962385354
  20
 1463.4333284076
  30
0.0
  11
 1300.1962385354
  21
 1475.5630083926
  31
0.0
   0
LWPOLYLINE
   5
334
 100
AcDbEntity
   8
LEVEL001
 370
30
   6
CONTINUOUS
  62
7
 100
AcDbPolyline
  90
4
  70
0
  10
 1295.1962385354
  20
 1457.3684884150
  10
 1295.1962385354
  20
 1452.3750813607
  10
 1305.1962385354
  20
 1452.3750813607
  10
 1305.1962385354
  20
 1457.3684884150
   0
ELLIPSE
   5
335
 100
AcDbEntity
   8
LEVEL001
 370
30
   6
CONTINUOUS
  62
7
 100
AcDbEllipse
  10
 1300.1962385354
  20
 1461.4723413495
  30
0.0
  11
 11.750000000000
  21
-0.35309153645358E-6
  31
0.0
  40
 0.86640571321820
  41
 2.0103459452788
  42
 1.1312467603825
   0
ELLIPSE
   5
336
 100
AcDbEntity
   8
LEVEL001
 370
30
   6
CONTINUOUS
  62
7
 100
AcDbEllipse
  10
 1414.1962385354
  20
 1449.2831371941
  30
0.0
  11
 10.500000000000
  21
-0.22946096578380E-6
  31
0.0
  40
 0.86640571321820
  41
 3.1141446663587
  42
 0.27448037677265E-1
   0
ELLIPSE
   5
337
 100
AcDbEntity
   8
LEVEL001
 370
30
   6
CONTINUOUS
  62
7
 100
AcDbEllipse
  10
 1414.1962385354
  20
 1457.2725884810
  30
0.0
  11
 7.0000000000000
  21
-0.22046128833608E-6
  31
0.0
  40
 0.86640571321820
  41
0.0
  42
 6.2831853071796
   0
ELLIPSE
   5
338
 100
AcDbEntity
   8
LEVEL001
 370
30
   6
CONTINUOUS
  62
7
 100
AcDbEllipse
  10
 1414.1962385354
  20
 1449.7824778995
  30
0.0
  11
 10.500000000000
  21
-0.22946096578380E-6
  31
0.0
  40
 0.86640571321820
  41
 2.4721208305600
  42
 0.66947187347597
   0
ELLIPSE
   5
339
 100
AcDbEntity
   8
LEVEL001
 370
30
   6
CONTINUOUS
  62
7
 100
AcDbEllipse
  10
 1414.1962385354
  20
 1449.7824778995
  30
0.0
  11
 9.0000000000000
  21
-0.83326540334383E-7
  31
0.0
  40
 0.86640571321820
  41
 2.9808074908939
  42
 0.16078518406808
   0
ELLIPSE
   5
33A
 100
AcDbEntity
   8
LEVEL001
 370
30
   6
CONTINUOUS
  62
7
 100
AcDbEllipse
  10
 1414.1962385354
  20
 1452.2791814267
  30
0.0
  11
 9.0000000000000
  21
-0.83326540334383E-7
  31
0.0
  40
 0.86640571321820
  41
 2.4660944512366
  42
 0.67549821692341
   0
ELLIPSE
   5
33B
 100
AcDbEntity
   8
LEVEL001
 370
30
   6
CONTINUOUS
  62
7
 100
AcDbEllipse
  10
 1414.1962385354
  20
 1470.9432800246
  30
0.0
  11
 10.500000000000
  21
-0.22946096578380E-6
  31
0.0
  40
 0.86640571321820
  41
 3.1141446663587
  42
-1.9298995507623
   0
ELLIPSE
   5
33C
 100
AcDbEntity
   8
LEVEL001
 370
30
   6
CONTINUOUS
  62
7
 100
AcDbEllipse
  10
 1414.1962385354
  20
 1470.9432800246
  30
0.0
  11
 10.500000000000
  21
-0.22946096578380E-6
  31
0.0
  40
 0.86640571321820
  41
-1.2116930730206
  42
 0.27448037677265E-1
   0
ELLIPSE
   5
33D
 100
AcDbEntity
   8
LEVEL001
 370
30
   6
CONTINUOUS
  62
7
 100
AcDbEllipse
  10
 1414.1962385354
  20
 1471.4426207300
  30
0.0
  11
 10.500000000000
  21
-0.22946096578380E-6
  31
0.0
  40
 0.86640571321820
  41
 2.4721208305599
  42
-1.8646217332565
   0
ELLIPSE
   5
33E
 100
AcDbEntity
   8
LEVEL001
 370
30
   6
CONTINUOUS
  62
7
 100
AcDbEllipse
  10
 1414.1962385354
  20
 1471.4426207300
  30
0.0
  11
 10.500000000000
  21
-0.22946096578380E-6
  31
0.0
  40
 0.86640571321820
  41
-1.2769708918289
  42
 0.66947187347605
   0
ELLIPSE
   5
33F
 100
AcDbEntity
   8
LEVEL001
 370
30
   6
CONTINUOUS
  62
7
 100
AcDbEllipse
  10
 1414.1962385354
  20
 1492.6034228550
  30
0.0
  11
 10.000000000000
  21
-0.21512664716283E-6
  31
0.0
  40
 0.86640571321820
  41
 2.5419007428255
  42
-1.8866153069989
   0
ELLIPSE
   5
340
 100
AcDbEntity
   8
LEVEL001
 370
30
   6
CONTINUOUS
  62
7
 100
AcDbEllipse
  10
 1414.1962385354
  20
 1492.6034228550
  30
0.0
  11
 10.000000000000
  21
-0.21512664716283E-6
  31
0.0
  40
 0.86640571321820
  41
-1.2549773189284
  42
 0.59969196042387
   0
LINE
   5
341
 100
AcDbEntity
   8
LEVEL001
 370
30
 100
AcDbLine
   6
CONTINUOUS
  62
7
  10
 1407.3024136987
  20
 1479.9850413372
  30
0.0
  11
 1406.3175815790
  21
 1475.1419643014
  31
0.0
   0
LINE
   5
342
 100
AcDbEntity
   8
LEVEL001
 370
30
 100
AcDbLine
   6
CONTINUOUS
  62
7
  10
 1421.0900633735
  20
 1479.9850412225
  30
0.0
  11
 1422.0748954931
  21
 1475.1419641406
  31
0.0
   0
ELLIPSE
   5
343
 100
AcDbEntity
   8
LEVEL001
 370
30
   6
CONTINUOUS
  62
7
 100
AcDbEllipse
  10
 1414.1962385354
  20
 1473.9393242572
  30
0.0
  11
 8.0000000000000
  21
-0.31426861824002E-6
  31
0.0
  40
 0.86640571321820
  41
 2.9672001396088
  42
 0.17439258110711
   0
LINE
   5
344
 100
AcDbEntity
   8
LEVEL001
 370
30
 100
AcDbLine
   6
CONTINUOUS
  62
7
  10
 1407.3024136987
  20
 1458.3248985067
  30
0.0
  11
 1406.3175815790
  21
 1453.4818214709
  31
0.0
   0
LINE
   5
345
 100
AcDbEntity
   8
LEVEL001
 370
30
 100
AcDbLine
   6
CONTINUOUS
  62
7
  10
 1421.0900633735
  20
 1458.3248983920
  30
0.0
  11
 1422.0748954931
  21
 1453.4818213101
  31
0.0
   0
ELLIPSE
   5
346
 100
AcDbEntity
   8
LEVEL001
 370
30
   6
CONTINUOUS
  62
7
 100
AcDbEllipse
  10
 1414.1962385354
  20
 1452.2791814267
  30
0.0
  11
 8.0000000000000
  21
-0.31426861824002E-6
  31
0.0
  40
 0.86640571321820
  41
 2.9672001396088
  42
 0.17439258110711
   0
LINE
   5
347
 100
AcDbEntity
   8
LEVEL001
 370
30
 100
AcDbLine
   6
CONTINUOUS
  62
7
  10
 1346.4553779868
  20
 1477.4393316095
  30
0.0
  11
 1346.9549890740
  21
 1488.4077441835
  31
0.0
   0
LINE
   5
348
 100
AcDbEntity
   8
LEVEL001
 370
30
 100
AcDbLine
   6
CONTINUOUS
  62
7
  10
 1369.4374879968
  20
 1488.4077439915
  30
0.0
  11
 1369.9370990840
  21
 1477.4393314345
  31
0.0
   0
ELLIPSE
   5
349
 100
AcDbEntity
   8
LEVEL001
 370
30
   6
CONTINUOUS
  62
7
 100
AcDbEllipse
  10
 1358.1962385354
  20
 1477.0378821022
  30
0.0
  11
 11.750000000000
  21
-0.35309153645358E-6
  31
0.0
  40
 0.86640571321820
  41
 3.1021483769921
  42
 0.39444328756725E-1
   0
LWPOLYLINE
   5
34A
 100
AcDbEntity
   8
LEVEL001
 370
30
   6
CONTINUOUS
  62
7
 100
AcDbPolyline
  90
4
  70
1
  10
 1256.1962385354
  20
 1416.2423254367
  10
 1446.1962385354
  20
 1416.2423254367
  10
 1446.1962385354
  20
 1528.8750681551
  10
 1256.1962385354
  20
 1528.8750681551
   0
LWPOLYLINE
   5
34B
 100
AcDbEntity
   8
LEVEL001
 370
30
   6
CONTINUOUS
  62
7
 100
AcDbPolyline
  90
4
  70
0
  10
 1256.1962385354
  20
 1416.2423254367
  10
 1256.1962385354
  20
 1415.4933143786
  10
 1446.1962385354
  20
 1415.4933143786
  10
 1446.1962385354
  20
 1416.2423254367
   0
LWPOLYLINE
   5
34C
 100
AcDbEntity
   8
LEVEL001
 370
30
   6
CONTINUOUS
  62
7
 100
AcDbPolyline
  90
4
  70
1
  10
 1488.1962385354
  20
 1232.8103448276
  10
 1493.6962385354
  20
 1232.8103448276
  10
 1493.6962385354
  20
 1376.8103448276
  10
 1488.1962385354
  20
 1376.8103448276
   0
LINE
   5
34D
 100
AcDbEntity
   8
LEVEL001
 370
30
 100
AcDbLine
   6
CONTINUOUS
  62
7
  10
 1489.1962385354
  20
 1376.8103448276
  30
0.0
  11
 1489.1962385354
  21
 1232.8103448276
  31
0.0
   0
LWPOLYLINE
   5
34E
 100
AcDbEntity
   8
LEVEL001
 370
30
   6
CONTINUOUS
  62
7
 100
AcDbPolyline
  90
4
  70
0
  10
 1488.1962385354
  20
 1379.8103448276
  10
 1501.1962385354
  20
 1379.8103448276
  10
 1501.1962385354
  20
 1376.8103448276
  10
 1493.6962385354
  20
 1376.8103448276
   0
LWPOLYLINE
   5
34F
 100
AcDbEntity
   8
LEVEL001
 370
30
   6
CONTINUOUS
  62
7
 100
AcDbPolyline
  90
5
  70
0
  10
 1215.1962385354
  20
 1302.8103448276
  10
 1212.1962385354
  20
 1302.8103448276
  10
 1212.1962385354
  20
 1403.8103448276
  10
 1215.1962385354
  20
 1403.8103448276
  10
 1215.1962385354
  20
 1305.8103448276
   0
LWPOLYLINE
   5
350
 100
AcDbEntity
   8
LEVEL001
 370
30
   6
CONTINUOUS
  62
7
 100
AcDbPolyline
  90
4
  70
1
  10
 1214.6962385354
  20
 1231.8103448276
  10
 1214.6962385354
  20
 1234.8103448276
  10
 389.19623853543
  20
 1234.8103448276
  10
 389.19623853543
  20
 1231.8103448276
   0
LWPOLYLINE
   5
351
 100
AcDbEntity
   8
LEVEL001
 370
30
   6
CONTINUOUS
  62
7
 100
AcDbPolyline
  90
4
  70
1
  10
 390.19623853543
  20
 1058.8103448276
  10
 491.19623853543
  20
 1058.8103448276
  10
 491.19623853543
  20
 1229.8103448276
  10
 390.19623853543
  20
 1229.8103448276
   0
LWPOLYLINE
   5
352
 100
AcDbEntity
   8
LEVEL001
 370
30
   6
CONTINUOUS
  62
7
 100
AcDbPolyline
  90
8
  70
0
  10
 491.19623853543
  20
 1008.8103448276
  10
 491.19623853543
  20
 980.81034482759
  10
 471.19623853543
  20
 980.81034482759
  10
 471.19623853543
  20
 984.01034482759
  10
 487.99623853543
  20
 984.01034482759
  10
 487.99623853543
  20
 1005.6103448276
  10
 471.19623853543
  20
 1005.6103448276
  10
 471.19623853543
  20
 1008.8103448276
   0
LWPOLYLINE
   5
353
 100
AcDbEntity
   8
LEVEL001
 370
30
   6
CONTINUOUS
  62
7
 100
AcDbPolyline
  90
8
  70
0
  10
 491.19623853543
  20
 1058.8103448276
  10
 491.19623853543
  20
 1008.8103448276
  10
 471.19623853543
  20
 1008.8103448276
  10
 471.19623853543
  20
 1012.0103448276
  10
 487.99623853543
  20
 1012.0103448276
  10
 487.99623853543
  20
 1058.6103448276
  10
 471.19623853543
  20
 1058.6103448276
  10
 471.19623853543
  20
 1058.8103448276
   0
LWPOLYLINE
   5
354
 100
AcDbEntity
   8
LEVEL001
 370
30
   6
CONTINUOUS
  62
7
 100
AcDbPolyline
  90
8
  70
0
  10
 1216.1962385354
  20
 1008.8103448276
  10
 1216.1962385354
  20
 980.81034482759
  10
 1236.1962385354
  20
 980.81034482759
  10
 1236.1962385354
  20
 984.01034482759
  10
 1219.3962385354
  20
 984.01034482759
  10
 1219.3962385354
  20
 1005.6103448276
  10
 1236.1962385354
  20
 1005.6103448276
  10
 1236.1962385354
  20
 1008.8103448276
   0
LWPOLYLINE
   5
355
 100
AcDbEntity
   8
LEVEL001
 370
30
   6
CONTINUOUS
  62
7
 100
AcDbPolyline
  90
8
  70
0
  10
 1216.1962385354
  20
 1058.8103448276
  10
 1216.1962385354
  20
 1008.8103448276
  10
 1236.1962385354
  20
 1008.8103448276
  10
 1236.1962385354
  20
 1012.0103448276
  10
 1219.3962385354
  20
 1012.0103448276
  10
 1219.3962385354
  20
 1058.6103448276
  10
 1236.1962385354
  20
 1058.6103448276
  10
 1236.1962385354
  20
 1058.8103448276
   0
LWPOLYLINE
   5
356
 100
AcDbEntity
   8
LEVEL001
 370
30
   6
CONTINUOUS
  62
7
 100
AcDbPolyline
  90
8
  70
0
  10
 1416.1962385354
  20
 1008.8103448276
  10
 1416.1962385354
  20
 980.81034482759
  10
 1436.1962385354
  20
 980.81034482759
  10
 1436.1962385354
  20
 984.01034482759
  10
 1419.3962385354
  20
 984.01034482759
  10
 1419.3962385354
  20
 1005.6103448276
  10
 1436.1962385354
  20
 1005.6103448276
  10
 1436.1962385354
  20
 1008.8103448276
   0
LWPOLYLINE
   5
357
 100
AcDbEntity
   8
LEVEL001
 370
30
   6
CONTINUOUS
  62
7
 100
AcDbPolyline
  90
8
  70
0
  10
 1416.1962385354
  20
 1058.8103448276
  10
 1416.1962385354
  20
 1008.8103448276
  10
 1436.1962385354
  20
 1008.8103448276
  10
 1436.1962385354
  20
 1012.0103448276
  10
 1419.3962385354
  20
 1012.0103448276
  10
 1419.3962385354
  20
 1058.6103448276
  10
 1436.1962385354
  20
 1058.6103448276
  10
 1436.1962385354
  20
 1058.8103448276
   0
LWPOLYLINE
   5
358
 100
AcDbEntity
   8
LEVEL001
 370
30
   6
CONTINUOUS
  62
7
 100
AcDbPolyline
  90
4
  70
0
  10
 402.19623853543
  20
 1449.8103448276
  10
 389.19623853543
  20
 1449.8103448276
  10
 389.19623853543
  20
 1058.8103448276
  10
 390.19623853543
  20
 1058.8103448276
   0
LWPOLYLINE
   5
359
 100
AcDbEntity
   8
LEVEL001
 370
30
   6
CONTINUOUS
  62
7
 100
AcDbPolyline
  90
3
  70
0
  10
 402.19623853543
  20
 1448.8103448276
  10
 390.19623853543
  20
 1448.8103448276
  10
 390.19623853543
  20
 1234.8103448276
   0
LWPOLYLINE
   5
35A
 100
AcDbEntity
   8
LEVEL001
 370
30
   6
CONTINUOUS
  62
7
 100
AcDbPolyline
  90
3
  70
0
  10
 490.19623853543
  20
 1234.8103448276
  10
 490.19623853543
  20
 1448.8103448276
  10
 414.19623853543
  20
 1448.8103448276
   0
LWPOLYLINE
   5
35B
 100
AcDbEntity
   8
LEVEL001
 370
30
   6
CONTINUOUS
  62
7
 100
AcDbPolyline
  90
4
  70
0
  10
 491.19623853543
  20
 1234.8103448276
  10
 491.19623853543
  20
 1448.8103448276
  10
 501.19623853543
  20
 1448.8103448276
  10
 501.19623853543
  20
 1234.8103448276
   0
LINE
   5
35C
 100
AcDbEntity
   8
LEVEL001
 370
30
 100
AcDbLine
   6
CONTINUOUS
  62
7
  10
 503.69623853543
  20
 1259.8646019712
  30
0.0
  11
 503.69623853543
  21
 1234.8103448276
  31
0.0
   0
LINE
   5
35D
 100
AcDbEntity
   8
LEVEL001
 370
30
 100
AcDbLine
   6
CONTINUOUS
  62
7
  10
 1203.6962385354
  20
 1234.8103448276
  30
0.0
  11
 1203.6962385354
  21
 1259.8646019712
  31
0.0
   0
LWPOLYLINE
   5
35E
 100
AcDbEntity
   8
LEVEL001
 370
30
   6
CONTINUOUS
  62
7
 100
AcDbPolyline
  90
3
  70
0
  10
 1215.1962385354
  20
 1448.8103448276
  10
 1206.1962385354
  20
 1448.8103448276
  10
 1206.1962385354
  20
 1234.8103448276
   0
MTEXT
   5
360
 100
AcDbEntity
   8
LEVEL001
 370
9
  62
1
 100
AcDbMText
  10
 1289.5095320380
  20
 1259.0097473668
  30
0.0
  40
 32.000000000000
  41
0.0
  71
7
  72
1
   1
\T1.000000;更科Ｐ
   7
GMM001
  44
 0.79999984000003
   0
LINE
   5
361
 100
AcDbEntity
   8
LEVEL001
 370
30
 100
AcDbLine
   6
CONTINUOUS
  62
7
  10
 389.19623853543
  20
 980.81034482759
  30
0.0
  11
 389.19623853543
  21
 250.81034482759
  31
0.0
   0
LINE
   5
362
 100
AcDbEntity
   8
LEVEL001
 370
30
 100
AcDbLine
   6
CONTINUOUS
  62
7
  10
 419.19623853543
  20
 950.81034482759
  30
0.0
  11
 419.19623853543
  21
 250.81034482759
  31
0.0
   0
LINE
   5
363
 100
AcDbEntity
   8
LEVEL001
 370
30
 100
AcDbLine
   6
CONTINUOUS
  62
7
  10
 389.19623853543
  20
 250.81034482759
  30
0.0
  11
 419.19623853543
  21
 250.81034482759
  31
0.0
   0
DIMENSION
   5
364
 100
AcDbEntity
   8
LEVEL001
 370
30
   6
CONTINUOUS
  62
7
 100
AcDbDimension
   2
*D5
  10
 1849.1962385354
  20
 88.213508504095
  30
0.0
  11
 1119.1962385354
  21
 96.213508504095
  31
0.0
  70
128
   3
GMM003
 100
AcDbAlignedDimension
  13
 389.19623853543
  23
 263.40196112801
  33
0.0
  14
 1849.1962385354
  24
 263.40196112801
  34
0.0
 100
AcDbRotatedDimension
   0
LINE
   5
365
 100
AcDbEntity
   8
LEVEL001
 370
30
 100
AcDbLine
   6
CONTINUOUS
  62
7
  10
 389.19623853543
  20
 950.81034482759
  30
0.0
  11
 1849.1962385354
  21
 950.81034482759
  31
0.0
   0
LINE
   5
366
 100
AcDbEntity
   8
LEVEL001
 370
30
 100
AcDbLine
   6
CONTINUOUS
  62
7
  10
 389.19623853543
  20
 980.81034482759
  30
0.0
  11
 1849.1962385354
  21
 980.81034482759
  31
0.0
   0
LINE
   5
367
 100
AcDbEntity
   8
LEVEL001
 370
30
 100
AcDbLine
   6
CONTINUOUS
  62
7
  10
 389.69623853543
  20
 250.81034482759
  30
0.0
  11
 1849.1962385354
  21
 250.81034482759
  31
0.0
   0
LINE
   5
368
 100
AcDbEntity
   8
LEVEL001
 370
30
 100
AcDbLine
   6
CONTINUOUS
  62
7
  10
 1849.1962385354
  20
 980.81034482759
  30
0.0
  11
 1849.1962385354
  21
 250.81034482759
  31
0.0
   0
LINE
   5
369
 100
AcDbEntity
   8
LEVEL001
 370
30
 100
AcDbLine
   6
CONTINUOUS
  62
7
  10
 1819.1962385354
  20
 950.81034482759
  30
0.0
  11
 1819.1962385354
  21
 250.81034482759
  31
0.0
   0
LINE
   5
36A
 100
AcDbEntity
   8
LEVEL001
 370
30
 100
AcDbLine
   6
CONTINUOUS
  62
7
  10
 1819.1962385354
  20
 250.81034482759
  30
0.0
  11
 1849.1962385354
  21
 250.81034482759
  31
0.0
   0
DIMENSION
   5
36B
 100
AcDbEntity
   8
LEVEL001
 370
30
   6
CONTINUOUS
  62
7
 100
AcDbDimension
   2
*D6
  10
 1846.1962385354
  20
 1627.2911140584
  30
0.0
  11
 1116.1962385354
  21
 1627.2911140584
  31
0.0
  70
0
   3
GMM002
 100
AcDbAlignedDimension
  13
 386.19623853543
  23
 1492.9391664287
  33
0.0
  14
 1846.1962385354
  24
 1254.3982477115
  34
0.0
 100
AcDbRotatedDimension
   0
LINE
   5
36C
 100
AcDbEntity
   8
LEVEL001
 370
30
 100
AcDbLine
   6
CONTINUOUS
  62
7
  10
 2082.3070639438
  20
 250.81034482759
  30
0.0
  11
 3467.8364759796
  21
 250.81034482759
  31
0.0
   0
LWPOLYLINE
   5
36D
 100
AcDbEntity
   8
LEVEL001
 370
9
   6
DIVIDE
  62
1
 100
AcDbPolyline
  90
3
  70
0
  10
 2747.8364759796
  20
 909.65013837906
  10
 2117.8364759796
  20
 909.65013837906
  10
 2117.8364759796
  20
 250.81034482759
   0
DIMENSION
   5
36E
 100
AcDbEntity
   8
LEVEL001
 370
30
   6
CONTINUOUS
  62
7
 100
AcDbDimension
   2
*D7
  10
 3467.8364759796
  20
 88.213508504095
  30
0.0
  11
 2792.8364759796
  21
 88.213508504095
  31
0.0
  70
0
   3
GMM002
 100
AcDbAlignedDimension
  13
 2117.8364759796
  23
 250.81034482759
  33
0.0
  14
 3467.8364759796
  24
 250.81034482759
  34
0.0
 100
AcDbRotatedDimension
   0
LINE
   5
36F
 100
AcDbEntity
   8
LEVEL001
 370
30
 100
AcDbLine
   6
CONTINUOUS
  62
7
  10
 1488.1962385354
  20
 2413.5428318560
  30
0.0
  11
 1216.1962385354
  21
 2413.5428318560
  31
0.0
   0
POINT
   5
370
 100
AcDbEntity
   8
LEVEL001
 100
AcDbPoint
  62
7
  10
 1261.1962385354
  20
 2345.5438419782
  30
0.0
   0
POINT
   5
371
 100
AcDbEntity
   8
LEVEL001
 100
AcDbPoint
  62
7
  10
 1441.1962385354
  20
 2345.5438419782
  30
0.0
   0
POINT
   5
372
 100
AcDbEntity
   8
LEVEL001
 100
AcDbPoint
  62
7
  10
 1261.1962385354
  20
 2405.4647266302
  30
0.0
   0
POINT
   5
373
 100
AcDbEntity
   8
LEVEL001
 100
AcDbPoint
  62
7
  10
 1441.1962385354
  20
 2405.4647266302
  30
0.0
   0
LINE
   5
374
 100
AcDbEntity
   8
LEVEL001
 370
30
 100
AcDbLine
   6
CONTINUOUS
  62
7
  10
 1501.1962385354
  20
 2363.8206896552
  30
0.0
  11
 1501.1962385354
  21
 2743.8206896552
  31
0.0
   0
LINE
   5
375
 100
AcDbEntity
   8
LEVEL001
 370
30
 100
AcDbLine
   6
CONTINUOUS
  62
7
  10
 1501.1962385354
  20
 2743.8206896552
  30
0.0
  11
 1488.1962385354
  21
 2743.8206896552
  31
0.0
   0
LINE
   5
376
 100
AcDbEntity
   8
LEVEL001
 370
30
 100
AcDbLine
   6
CONTINUOUS
  62
7
  10
 1488.1962385354
  20
 2743.8206896552
  30
0.0
  11
 1488.1962385354
  21
 2363.8206896552
  31
0.0
   0
LINE
   5
377
 100
AcDbEntity
   8
LEVEL001
 370
30
 100
AcDbLine
   6
CONTINUOUS
  62
7
  10
 1488.1962385354
  20
 2363.8206896552
  30
0.0
  11
 1501.1962385354
  21
 2363.8206896552
  31
0.0
   0
LINE
   5
378
 100
AcDbEntity
   8
LEVEL001
 370
30
 100
AcDbLine
   6
CONTINUOUS
  62
7
  10
 1215.1962385354
  20
 2337.6206896552
  30
0.0
  11
 1488.1962385354
  21
 2337.6206896552
  31
0.0
   0
LINE
   5
379
 100
AcDbEntity
   8
LEVEL001
 370
30
 100
AcDbLine
   6
CONTINUOUS
  62
7
  10
 1488.1962385354
  20
 2337.6206896552
  30
0.0
  11
 1488.1962385354
  21
 2803.1206896552
  31
0.0
   0
LINE
   5
37A
 100
AcDbEntity
   8
LEVEL001
 370
30
 100
AcDbLine
   6
CONTINUOUS
  62
7
  10
 1488.1962385354
  20
 2803.1206896552
  30
0.0
  11
 1215.1962385354
  21
 2803.1206896552
  31
0.0
   0
LINE
   5
37B
 100
AcDbEntity
   8
LEVEL001
 370
30
 100
AcDbLine
   6
CONTINUOUS
  62
7
  10
 1488.6962385354
  20
 2348.6206896552
  30
0.0
  11
 1488.6962385354
  21
 2337.6206896552
  31
0.0
   0
LINE
   5
37C
 100
AcDbEntity
   8
LEVEL001
 370
30
 100
AcDbLine
   6
CONTINUOUS
  62
7
  10
 1488.6962385354
  20
 2337.6206896552
  30
0.0
  11
 1788.6962385354
  21
 2337.6206896552
  31
0.0
   0
LINE
   5
37D
 100
AcDbEntity
   8
LEVEL001
 370
30
 100
AcDbLine
   6
CONTINUOUS
  62
7
  10
 1488.1962385354
  20
 2359.6206896552
  30
0.0
  11
 1488.1962385354
  21
 2348.6206896552
  31
0.0
   0
LINE
   5
37E
 100
AcDbEntity
   8
LEVEL001
 370
30
 100
AcDbLine
   6
CONTINUOUS
  62
7
  10
 1488.1962385354
  20
 2348.6206896552
  30
0.0
  11
 1489.1962385354
  21
 2348.6206896552
  31
0.0
   0
LINE
   5
37F
 100
AcDbEntity
   8
LEVEL001
 370
30
 100
AcDbLine
   6
CONTINUOUS
  62
7
  10
 1489.1962385354
  20
 2348.6206896552
  30
0.0
  11
 1489.1962385354
  21
 2358.6206896552
  31
0.0
   0
LINE
   5
380
 100
AcDbEntity
   8
LEVEL001
 370
30
 100
AcDbLine
   6
CONTINUOUS
  62
7
  10
 1446.1962385354
  20
 2341.7475298812
  30
0.0
  11
 1446.1962385354
  21
 2406.6618215875
  31
0.0
   0
LINE
   5
381
 100
AcDbEntity
   8
LEVEL001
 370
30
 100
AcDbLine
   6
CONTINUOUS
  62
7
  10
 1446.1962385354
  20
 2406.6618215875
  30
0.0
  11
 1256.1962385354
  21
 2406.6618215875
  31
0.0
   0
LINE
   5
382
 100
AcDbEntity
   8
LEVEL001
 370
30
 100
AcDbLine
   6
CONTINUOUS
  62
7
  10
 1256.1962385354
  20
 2406.6618215875
  30
0.0
  11
 1256.1962385354
  21
 2341.7475298812
  31
0.0
   0
LINE
   5
383
 100
AcDbEntity
   8
LEVEL001
 370
30
 100
AcDbLine
   6
CONTINUOUS
  62
7
  10
 1446.1962385354
  20
 2406.6618215875
  30
0.0
  11
 1446.1962385354
  21
 2407.9614301574
  31
0.0
   0
LINE
   5
384
 100
AcDbEntity
   8
LEVEL001
 370
30
 100
AcDbLine
   6
CONTINUOUS
  62
7
  10
 1446.1962385354
  20
 2407.9614301574
  30
0.0
  11
 1256.1962385354
  21
 2407.9614301574
  31
0.0
   0
LINE
   5
385
 100
AcDbEntity
   8
LEVEL001
 370
30
 100
AcDbLine
   6
CONTINUOUS
  62
7
  10
 1256.1962385354
  20
 2407.9614301574
  30
0.0
  11
 1256.1962385354
  21
 2406.6618215875
  31
0.0
   0
LINE
   5
386
 100
AcDbEntity
   8
LEVEL001
 370
30
 100
AcDbLine
   6
CONTINUOUS
  62
7
  10
 1488.1962385354
  20
 2748.0206896552
  30
0.0
  11
 1488.1962385354
  21
 2759.0206896552
  31
0.0
   0
LINE
   5
387
 100
AcDbEntity
   8
LEVEL001
 370
30
 100
AcDbLine
   6
CONTINUOUS
  62
7
  10
 1488.1962385354
  20
 2759.0206896552
  30
0.0
  11
 1489.1962385354
  21
 2759.0206896552
  31
0.0
   0
LINE
   5
388
 100
AcDbEntity
   8
LEVEL001
 370
30
 100
AcDbLine
   6
CONTINUOUS
  62
7
  10
 1489.1962385354
  20
 2759.0206896552
  30
0.0
  11
 1489.1962385354
  21
 2749.0206896552
  31
0.0
   0
LINE
   5
389
 100
AcDbEntity
   8
LEVEL001
 370
30
 100
AcDbLine
   6
CONTINUOUS
  62
7
  10
 1457.1962385354
  20
 2804.0206896552
  30
0.0
  11
 1457.1962385354
  21
 3048.0206896552
  31
0.0
   0
LINE
   5
38A
 100
AcDbEntity
   8
LEVEL001
 370
30
 100
AcDbLine
   6
CONTINUOUS
  62
7
  10
 1488.6962385354
  20
 2803.1206896552
  30
0.0
  11
 1488.6962385354
  21
 2759.0206896552
  31
0.0
   0
LINE
   5
38B
 100
AcDbEntity
   8
LEVEL001
 370
30
 100
AcDbLine
   6
CONTINUOUS
  62
7
  10
 490.19623853543
  20
 2735.0206896552
  30
0.0
  11
 490.19623853543
  21
 2737.0206896552
  31
0.0
   0
LINE
   5
38C
 100
AcDbEntity
   8
LEVEL001
 370
30
 100
AcDbLine
   6
CONTINUOUS
  62
7
  10
 1215.1962385354
  20
 2337.6206896552
  30
0.0
  11
 390.19623853543
  21
 2337.6206896552
  31
0.0
   0
LINE
   5
38D
 100
AcDbEntity
   8
LEVEL001
 370
30
 100
AcDbLine
   6
CONTINUOUS
  62
7
  10
 389.19623853543
  20
 2337.6206896552
  30
0.0
  11
 389.19623853543
  21
 3048.0206896552
  31
0.0
   0
LINE
   5
38E
 100
AcDbEntity
   8
LEVEL001
 370
30
 100
AcDbLine
   6
CONTINUOUS
  62
7
  10
 389.19623853543
  20
 3048.0206896552
  30
0.0
  11
 1457.1962385354
  21
 3048.0206896552
  31
0.0
   0
LINE
   5
38F
 100
AcDbEntity
   8
LEVEL001
 370
30
 100
AcDbLine
   6
CONTINUOUS
  62
7
  10
 1215.1962385354
  20
 3048.0206896552
  30
0.0
  11
 1215.1962385354
  21
 2337.6206896552
  31
0.0
   0
LINE
   5
390
 100
AcDbEntity
   8
LEVEL001
 370
30
 100
AcDbLine
   6
CONTINUOUS
  62
7
  10
 490.19623853543
  20
 3048.0206896552
  30
0.0
  11
 490.19623853543
  21
 2737.0206896552
  31
0.0
   0
LINE
   5
391
 100
AcDbEntity
   8
LEVEL001
 370
30
 100
AcDbLine
   6
CONTINUOUS
  62
7
  10
 1841.1962385354
  20
 2803.1206896552
  30
0.0
  11
 1841.1962385354
  21
 2337.6206896552
  31
0.0
   0
LINE
   5
392
 100
AcDbEntity
   8
LEVEL001
 370
30
 100
AcDbLine
   6
CONTINUOUS
  62
7
  10
 1256.1962385354
  20
 2341.7475298812
  30
0.0
  11
 1446.1962385354
  21
 2341.7475298812
  31
0.0
   0
LINE
   5
393
 100
AcDbEntity
   8
LEVEL001
 370
30
 100
AcDbLine
   6
CONTINUOUS
  62
7
  10
 389.19623853543
  20
 2734.0206896552
  30
0.0
  11
 1215.1962385354
  21
 2734.0206896552
  31
0.0
   0
LINE
   5
394
 100
AcDbEntity
   8
LEVEL001
 370
30
 100
AcDbLine
   6
CONTINUOUS
  62
7
  10
 389.19623853543
  20
 2337.6206896552
  30
0.0
  11
 390.19623853543
  21
 2337.6206896552
  31
0.0
   0
LINE
   5
395
 100
AcDbEntity
   8
LEVEL001
 370
30
 100
AcDbLine
   6
CONTINUOUS
  62
7
  10
 389.19623853543
  20
 3062.6206896552
  30
0.0
  11
 389.19623853543
  21
 2337.6206896552
  31
0.0
   0
LINE
   5
396
 100
AcDbEntity
   8
LEVEL001
 370
30
 100
AcDbLine
   6
CONTINUOUS
  62
7
  10
 1839.1962385354
  20
 2337.6206896552
  30
0.0
  11
 1841.1962385354
  21
 2337.6206896552
  31
0.0
   0
LINE
   5
397
 100
AcDbEntity
   8
LEVEL001
 370
30
 100
AcDbLine
   6
CONTINUOUS
  62
7
  10
 1841.1962385354
  20
 2803.1206896552
  30
0.0
  11
 1488.6962385354
  21
 2803.1206896552
  31
0.0
   0
LINE
   5
398
 100
AcDbEntity
   8
LEVEL001
 370
30
 100
AcDbLine
   6
CONTINUOUS
  62
7
  10
 389.19623853543
  20
 3062.6206896552
  30
0.0
  11
 1849.1962385354
  21
 3062.6206896552
  31
0.0
   0
LINE
   5
399
 100
AcDbEntity
   8
LEVEL001
 370
30
 100
AcDbLine
   6
CONTINUOUS
  62
7
  10
 1849.1962385354
  20
 3062.6206896552
  30
0.0
  11
 1849.1962385354
  21
 2337.6206896552
  31
0.0
   0
LINE
   5
39A
 100
AcDbEntity
   8
LEVEL001
 370
30
 100
AcDbLine
   6
CONTINUOUS
  62
7
  10
 1789.1962385354
  20
 2337.6206896552
  30
0.0
  11
 1849.1962385354
  21
 2337.6206896552
  31
0.0
   0
LWPOLYLINE
   5
39B
 100
AcDbEntity
   8
LEVEL001
 370
9
   6
DIVIDE
  62
1
 100
AcDbPolyline
  90
4
  70
0
  10
 505.59623853543
  20
 2337.6206896552
  10
 505.59623853543
  20
 1712.6206896552
  10
 1775.8962385354
  20
 1712.6206896552
  10
 1775.8962385354
  20
 2337.6206896552
   0
DIMENSION
   5
39C
 100
AcDbEntity
   8
LEVEL001
 370
30
   6
CONTINUOUS
  62
7
 100
AcDbDimension
   2
*D8
  10
 2032.2758620690
  20
 1712.6206896552
  30
0.0
  11
 2032.2758620690
  21
 2387.6206896552
  31
0.0
  70
0
   3
GMM002
 100
AcDbAlignedDimension
  13
 1849.1962385354
  23
 3062.6206896552
  33
0.0
  14
 1775.8962385354
  24
 1712.6206896552
  34
0.0
  50
 270.00000000000
 100
AcDbRotatedDimension
   0
MTEXT
   5
39E
 100
AcDbEntity
   8
LEVEL001
 370
9
  62
1
 100
AcDbMText
  10
 3739.5485325299
  20
 2720.3333333333
  30
0.0
  40
 32.000000000000
  41
0.0
  71
7
  72
1
   1
\T1.000000;単相１００Ｖ　５０／６０Ｈｚ
   7
GMM001
  44
 0.79999984000003
   0
MTEXT
   5
3A0
 100
AcDbEntity
   8
LEVEL001
 370
9
  62
1
 100
AcDbMText
  10
 3739.5485325299
  20
 2528.3333333333
  30
0.0
  40
 32.000000000000
  41
0.0
  71
7
  72
1
   1
\T1.000000;　２４０Ｗ　／　２５０～３００食／時（製麺）
   7
GMM001
  44
 0.79999984000003
   0
LINE
   5
3A1
 100
AcDbEntity
   8
LEVEL001
 370
30
 100
AcDbLine
   6
CONTINUOUS
  62
7
  10
 3214.2364759796
  20
 1205.8103448276
  30
0.0
  11
 3214.2364759796
  21
 1135.8103448276
  31
0.0
   0
MTEXT
   5
3A3
 100
AcDbEntity
   8
LEVEL001
 370
9
  62
1
 100
AcDbMText
  10
 3734.8377772851
  20
 2464.3333333333
  30
0.0
  40
 32.000000000000
  41
0.0
  71
7
  72
1
   1
\T1.000000;（６３０Ｗ）
   7
GMM001
  44
 0.79999984000003
   0
MTEXT
   5
3A5
 100
AcDbEntity
   8
LEVEL001
 370
30
  62
7
 100
AcDbMText
  10
 3222.8446106945
  20
 5.6316355153196
  30
0.0
  40
 32.000000000000
  41
0.0
  71
7
  72
1
   1
\W0.500000;\T1.000000;'22.03.17\W1.000000;\T1.000000;　変更　\W0.500000;\T1.000000;H.M
   7
GMM001
  44
 0.79999984000003
   0
MTEXT
   5
3A7
 100
AcDbEntity
   8
LEVEL001
 370
30
  62
7
 100
AcDbMText
  10
 3790.2151991965
  20
 224.00000000000
  30
0.0
  40
 32.000000000000
  41
0.0
  71
7
  72
1
   1
\W1.000000;\T1.000000;更科\W0.500000;\T1.000000; AP-6
   7
GMM001
  44
 0.79999984000003
   0
MTEXT
   5
3A9
 100
AcDbEntity
   8
LEVEL001
 370
30
  62
7
 100
AcDbMText
  10
 4342.2151991965
  20
 224.00000000000
  30
0.0
  40
 32.000000000000
  41
0.0
  71
7
  72
1
   1
\T1.000000;SA-AP6-A
   7
GMM004
  44
 0.79999984000003
   0
ENDSEC
  0
SECTION
  2
OBJECTS
  0
DICTIONARY
  5
C
100
AcDbDictionary
  3
ACAD_GROUP
350
D
  3
ACAD_MLINESTYLE
350
1B
  3
DWGPROPS
350
1C
  0
DICTIONARY
  5
D
102
{ACAD_REACTORS
330
C
102
}
100
AcDbDictionary
  0
DICTIONARY
  5
1B
102
{ACAD_REACTORS
330
C
102
}
100
AcDbDictionary
  3
STANDARD
350
1D
  0
MLINESTYLE
  5
1D
102
{ACAD_REACTORS
330
1B
102
}
100
AcDbMlineStyle
  2
STANDARD
 70
     0
  3

 62
   256
 51
90.0
 52
90.0
 71
     2
 49
0.5
 62
   256
  6
BYLAYER
 49
-0.5
 62
   256
  6
BYLAYER
   0
XRECORD
   5
1C
 102
{ACAD_REACTORS
 330
C
 102
}
 330
C
 100
AcDbXrecord
 280
1
   1
DWGPROPS COOKIE
   2
 
   3
更科AP-6
   4
 
   6
 
   7
SA-AP6-A
   8
 
   9

 300
 = 
 301
 = 
 302
 = 
 303
 = 
 304
 = 
 305
 = 
 306
 = 
 307
 = 
 308
 = 
 309
 = 
  40
0.0
  41
 2456933.5000000
  42
 2459656.5000000
   1

  90
10
   0
ENDSEC
   0
EOF
