   0
SECTION
   2
HEADER
   9
$ACADVER
   1
AC1015
   9
$DWGCODEPAGE
   3
ANSI_932
   9
$LIMMIN
  10
0.0
  20
0.0
   9
$LIMMAX
  10
 4752.0000000000
  20
 3360.0000000000
   9
$EXTMIN
  10
0.0
  20
0.0
  30
0.0
   9
$EXTMAX
  10
 4752.0000000000
  20
 3360.0000000000
  30
0.0
   9
$LTSCALE
  40
 95.040000000000
   9
$HANDSEED
   5
69E
   0
ENDSEC
   0
SECTION
   2
TABLES
  0
TABLE
  2
VPORT
  5
8
100
AcDbSymbolTable
 70
     1
  0
VPORT
  5
69D
100
AcDbSymbolTableRecord
100
AcDbViewportTableRecord
  2
*ACTIVE
 70
     0
 10
0.0
 20
0.0
 11
1.0
 21
1.0
  12
 2376.0000000000
  22
 1680.0000000000
 13
0.0
 23
0.0
 14
1.0
 24
1.0
 15
0.0
 25
0.0
 16
0.0
 26
0.0
 36
1.0
 17
0.0
 27
0.0
 37
0.0
  40
 4752.0000000000
  41
 1.4787878787879
 42
50.0
 43
0.0
 44
0.0
 50
0.0
 51
0.0
 71
     0
 72
   100
 73
     1
 74
     1
 75
     0
 76
     0
 77
     0
 78
     0
  0
ENDTAB
  0
TABLE
  2
LTYPE
  5
5
100
AcDbSymbolTable
 70
    25
  0
LTYPE
  5
12
100
AcDbSymbolTableRecord
100
AcDbLinetypeTableRecord
  2
BYBLOCK
 70
     0
  3

 72
    65
 73
     0
 40
0.0
  0
LTYPE
  5
13
100
AcDbSymbolTableRecord
100
AcDbLinetypeTableRecord
  2
BYLAYER
 70
     0
  3

 72
    65
 73
     0
 40
0.0
  0
LTYPE
  5
14
100
AcDbSymbolTableRecord
100
AcDbLinetypeTableRecord
  2
CONTINUOUS
 70
     0
  3
Solid line
 72
    65
 73
     0
 40
0.0
  0
LTYPE
  5
20
100
AcDbSymbolTableRecord
100
AcDbLinetypeTableRecord
  2
BORDER
 70
     0
  3
__ __ . __ __ . __ __ . __ __ . __ __ . __ __ .
 72
    65
 73
     6
 40
1.75
 49
0.5
 74
     0
 49
-0.25
 74
     0
 49
0.5
 74
     0
 49
-0.25
 74
     0
 49
0.0
 74
     0
 49
-0.25
 74
     0
  0
LTYPE
  5
21
100
AcDbSymbolTableRecord
100
AcDbLinetypeTableRecord
  2
BORDER2
 70
     0
  3
__.__.__.__.__.__.__.__.__.__.__.__.__.__.__.__
 72
    65
 73
     6
 40
0.875
 49
0.25
 74
     0
 49
-0.125
 74
     0
 49
0.25
 74
     0
 49
-0.125
 74
     0
 49
0.0
 74
     0
 49
-0.125
 74
     0
  0
LTYPE
  5
22
100
AcDbSymbolTableRecord
100
AcDbLinetypeTableRecord
  2
BORDERX2
 70
     0
  3
____  ____  .  ____  ____  .  ____  ____  .  __
 72
    65
 73
     6
 40
3.5
 49
1.0
 74
     0
 49
-0.5
 74
     0
 49
1.0
 74
     0
 49
-0.5
 74
     0
 49
0.0
 74
     0
 49
-0.5
 74
     0
  0
LTYPE
  5
23
100
AcDbSymbolTableRecord
100
AcDbLinetypeTableRecord
  2
CENTER
 70
     0
  3
____ _ ____ _ ____ _ ____ _ ____ _ ____ _ ____ 
 72
    65
 73
     4
 40
2.0
 49
1.25
 74
     0
 49
-0.25
 74
     0
 49
0.25
 74
     0
 49
-0.25
 74
     0
  0
LTYPE
  5
24
100
AcDbSymbolTableRecord
100
AcDbLinetypeTableRecord
  2
CENTER2
 70
     0
  3
___ _ ___ _ ___ _ ___ _ ___ _ ___ _ ___ _ ___ _
 72
    65
 73
     4
 40
1.125
 49
0.75
 74
     0
 49
-0.125
 74
     0
 49
0.125
 74
     0
 49
-0.125
 74
     0
  0
LTYPE
  5
25
100
AcDbSymbolTableRecord
100
AcDbLinetypeTableRecord
  2
CENTERX2
 70
     0
  3
________  __  ________  __  ________  __  _____
 72
    65
 73
     4
 40
4.0
 49
2.5
 74
     0
 49
-0.5
 74
     0
 49
0.5
 74
     0
 49
-0.5
 74
     0
  0
LTYPE
  5
26
100
AcDbSymbolTableRecord
100
AcDbLinetypeTableRecord
  2
DASHDOT
 70
     0
  3
__ . __ . __ . __ . __ . __ . __ . __ . __ . __
 72
    65
 73
     4
 40
1.0
 49
0.5
 74
     0
 49
-0.25
 74
     0
 49
0.0
 74
     0
 49
-0.25
 74
     0
  0
LTYPE
  5
27
100
AcDbSymbolTableRecord
100
AcDbLinetypeTableRecord
  2
DASHDOT2
 70
     0
  3
_._._._._._._._._._._._._._._._._._._._._._._._
 72
    65
 73
     4
 40
0.5
 49
0.25
 74
     0
 49
-0.125
 74
     0
 49
0.0
 74
     0
 49
-0.125
 74
     0
  0
LTYPE
  5
28
100
AcDbSymbolTableRecord
100
AcDbLinetypeTableRecord
  2
DASHDOTX2
 70
     0
  3
____  .  ____  .  ____  .  ____  .  ____  .  __
 72
    65
 73
     4
 40
2.0
 49
1.0
 74
     0
 49
-0.5
 74
     0
 49
0.0
 74
     0
 49
-0.5
 74
     0
  0
LTYPE
  5
29
100
AcDbSymbolTableRecord
100
AcDbLinetypeTableRecord
  2
DASHED
 70
     0
  3
__ __ __ __ __ __ __ __ __ __ __ __ __ __ __ __
 72
    65
 73
     2
 40
0.75
 49
0.5
 74
     0
 49
-0.25
 74
     0
  0
LTYPE
  5
2A
100
AcDbSymbolTableRecord
100
AcDbLinetypeTableRecord
  2
DASHED2
 70
     0
  3
_ _ _ _ _ _ _ _ _ _ _ _ _ _ _ _ _ _ _ _ _ _ _ _
 72
    65
 73
     2
 40
0.375
 49
0.25
 74
     0
 49
-0.125
 74
     0
  0
LTYPE
  5
2B
100
AcDbSymbolTableRecord
100
AcDbLinetypeTableRecord
  2
DASHEDX2
 70
     0
  3
____  ____  ____  ____  ____  ____  ____  ____ 
 72
    65
 73
     2
 40
1.5
 49
1.0
 74
     0
 49
-0.5
 74
     0
  0
LTYPE
  5
2C
100
AcDbSymbolTableRecord
100
AcDbLinetypeTableRecord
  2
DIVIDE
 70
     0
  3
____ . . ____ . . ____ . . ____ . . ____ . . __
 72
    65
 73
     6
 40
1.25
 49
0.5
 74
     0
 49
-0.25
 74
     0
 49
0.0
 74
     0
 49
-0.25
 74
     0
 49
0.0
 74
     0
 49
-0.25
 74
     0
  0
LTYPE
  5
2D
100
AcDbSymbolTableRecord
100
AcDbLinetypeTableRecord
  2
DIVIDE2
 70
     0
  3
__..__..__..__..__..__..__..__..__..__..__..__.
 72
    65
 73
     6
 40
0.625
 49
0.25
 74
     0
 49
-0.125
 74
     0
 49
0.0
 74
     0
 49
-0.125
 74
     0
 49
0.0
 74
     0
 49
-0.125
 74
     0
  0
LTYPE
  5
2E
100
AcDbSymbolTableRecord
100
AcDbLinetypeTableRecord
  2
DIVIDEX2
 70
     0
  3
________  .  .  ________  .  .  ________  .  . 
 72
    65
 73
     6
 40
2.5
 49
1.0
 74
     0
 49
-0.5
 74
     0
 49
0.0
 74
     0
 49
-0.5
 74
     0
 49
0.0
 74
     0
 49
-0.5
 74
     0
  0
LTYPE
  5
2F
100
AcDbSymbolTableRecord
100
AcDbLinetypeTableRecord
  2
DOT
 70
     0
  3
. . . . . . . . . . . . . . . . . . . . . . . .
 72
    65
 73
     2
 40
0.25
 49
0.0
 74
     0
 49
-0.25
 74
     0
  0
LTYPE
  5
30
100
AcDbSymbolTableRecord
100
AcDbLinetypeTableRecord
  2
DOT2
 70
     0
  3
...............................................
 72
    65
 73
     2
 40
0.125
 49
0.0
 74
     0
 49
-0.125
 74
     0
  0
LTYPE
  5
31
100
AcDbSymbolTableRecord
100
AcDbLinetypeTableRecord
  2
DOTX2
 70
     0
  3
.  .  .  .  .  .  .  .  .  .  .  .  .  .  .  . 
 72
    65
 73
     2
 40
0.5
 49
0.0
 74
     0
 49
-0.5
 74
     0
  0
LTYPE
  5
32
100
AcDbSymbolTableRecord
100
AcDbLinetypeTableRecord
  2
HIDDEN
 70
     0
  3
__ __ __ __ __ __ __ __ __ __ __ __ __ __ __ __
 72
    65
 73
     2
 40
0.375
 49
0.25
 74
     0
 49
-0.125
 74
     0
  0
LTYPE
  5
33
100
AcDbSymbolTableRecord
100
AcDbLinetypeTableRecord
  2
HIDDEN2
 70
     0
  3
_ _ _ _ _ _ _ _ _ _ _ _ _ _ _ _ _ _ _ _ _ _ _ _
 72
    65
 73
     2
 40
0.1875
 49
0.125
 74
     0
 49
-0.0625
 74
     0
  0
LTYPE
  5
34
100
AcDbSymbolTableRecord
100
AcDbLinetypeTableRecord
  2
HIDDENX2
 70
     0
  3
____ ____ ____ ____ ____ ____ ____ ____ ____ __
 72
    65
 73
     2
 40
0.75
 49
0.5
 74
     0
 49
-0.25
 74
     0
  0
LTYPE
  5
35
100
AcDbSymbolTableRecord
100
AcDbLinetypeTableRecord
  2
PHANTOM
 70
     0
  3
______  __  __  ______  __  __  ______  __  __ 
 72
    65
 73
     6
 40
2.5
 49
1.25
 74
     0
 49
-0.25
 74
     0
 49
0.25
 74
     0
 49
-0.25
 74
     0
 49
0.25
 74
     0
 49
-0.25
 74
     0
  0
LTYPE
  5
36
100
AcDbSymbolTableRecord
100
AcDbLinetypeTableRecord
  2
PHANTOM2
 70
     0
  3
___ _ _ ___ _ _ ___ _ _ ___ _ _ ___ _ _ ___ _ _
 72
    65
 73
     6
 40
1.25
 49
0.625
 74
     0
 49
-0.125
 74
     0
 49
0.125
 74
     0
 49
-0.125
 74
     0
 49
0.125
 74
     0
 49
-0.125
 74
     0
  0
LTYPE
  5
37
100
AcDbSymbolTableRecord
100
AcDbLinetypeTableRecord
  2
PHANTOMX2
 70
     0
  3
____________    ____    ____    ____________   
 72
    65
 73
     6
 40
5.0
 49
2.5
 74
     0
 49
-0.5
 74
     0
 49
0.5
 74
     0
 49
-0.5
 74
     0
 49
0.5
 74
     0
 49
-0.5
 74
     0
  0
ENDTAB
   0
TABLE
   2
LAYER
   5
2
 100
AcDbSymbolTable
  70
5
   0
LAYER
   5
E
 100
AcDbSymbolTableRecord
 100
AcDbLayerTableRecord
   2
0
  70
0
  62
7
   6
CONTINUOUS
 390
30
   0
LAYER
   5
39
 100
AcDbSymbolTableRecord
 100
AcDbLayerTableRecord
   2
LEVEL001
  70
0
  62
7
   6
CONTINUOUS
 390
30
   0
LAYER
   5
3A
 100
AcDbSymbolTableRecord
 100
AcDbLayerTableRecord
   2
内図枠(作図領域)
  70
0
  62
7
   6
CONTINUOUS
 390
30
   0
LAYER
   5
3B
 100
AcDbSymbolTableRecord
 100
AcDbLayerTableRecord
   2
外図枠(出力紙領域)
  70
0
  62
7
   6
CONTINUOUS
 390
30
   0
LAYER
   5
3C
 100
AcDbSymbolTableRecord
 100
AcDbLayerTableRecord
   2
部品表金額表示用
  70
0
  62
7
   6
CONTINUOUS
 390
30
   0
ENDTAB
  0
TABLE
  2
STYLE
  5
3
100
AcDbSymbolTable
  70
6
  0
STYLE
  5
F
100
AcDbSymbolTableRecord
100
AcDbTextStyleTableRecord
  2
STANDARD
 70
     0
 40
0.0
 41
1.0
 50
0.0
 71
     0
 42
0.2
  3
TXT
  4
BIGFONT
  0
STYLE
  5
38
100
AcDbSymbolTableRecord
100
AcDbTextStyleTableRecord
  2
STANDARD1
 70
     4
 40
0.0
 41
1.0
 50
0.0
 71
     0
 42
0.2
  3
TXT
  4
BIGFONT
   0
STYLE
   5
3D
 100
AcDbSymbolTableRecord
 100
AcDbTextStyleTableRecord
   2
GMM001
  70
0
  40
0.0
  41
 1.0000000000000
  50
0.0
  71
     0
  42
1.0
   3
txt.shx
   4
bigfont.shx
   0
STYLE
   5
3E
 100
AcDbSymbolTableRecord
 100
AcDbTextStyleTableRecord
   2
GMM002
  70
4
  40
0.0
  41
 1.0000000000000
  50
0.0
  71
     0
  42
1.0
   3
txt.shx
   4
bigfont.shx
   0
STYLE
   5
3F
 100
AcDbSymbolTableRecord
 100
AcDbTextStyleTableRecord
   2
GMM003
  70
0
  40
0.0
  41
 0.80000001192093
  50
0.0
  71
     0
  42
1.0
   3
txt.shx
   4
bigfont.shx
   0
STYLE
   5
40
 100
AcDbSymbolTableRecord
 100
AcDbTextStyleTableRecord
   2
GMM004
  70
0
  40
0.0
  41
 0.50000000000000
  50
0.0
  71
     0
  42
1.0
   3
txt.shx
   4
bigfont.shx
   0
ENDTAB
  0
TABLE
  2
VIEW
  5
6
100
AcDbSymbolTable
 70
     0
  0
ENDTAB
  0
TABLE
  2
UCS
  5
7
100
AcDbSymbolTable
 70
     0
  0
ENDTAB
  0
TABLE
  2
APPID
  5
9
100
AcDbSymbolTable
 70
     1
  0
APPID
  5
10
100
AcDbSymbolTableRecord
100
AcDbRegAppTableRecord
  2
ACAD
 70
     0
  0
ENDTAB
   0
TABLE
   2
DIMSTYLE
   5
A
 100
AcDbSymbolTable
  70
5
 100
AcDbDimStyleTable
  0
DIMSTYLE
105
1D
100
AcDbSymbolTableRecord
100
AcDbDimStyleTableRecord
  2
STANDARD
 70
     0
  3

  4

  5

  6

  7

 40
1.0
 41
0.18
 42
0.0625
 43
0.38
 44
0.18
 45
0.0
 46
0.0
 47
0.0
 48
0.0
140
0.18
141
0.09
142
0.0
143
25.4
144
1.0
145
0.0
146
1.0
147
0.09
 71
     0
 72
     0
 73
     1
 74
     1
 75
     0
 76
     0
 77
     0
 78
     0
170
     0
171
     2
172
     0
173
     0
174
     0
175
     0
176
     0
177
     0
178
     0
270
     2
271
     4
272
     4
273
     2
274
     2
340
F
275
     0
280
     0
281
     0
282
     0
283
     1
284
     0
285
     0
286
     0
287
     3
288
     0
   0
DIMSTYLE
 105
41
 100
AcDbSymbolTableRecord
 100
AcDbDimStyleTableRecord
   2
GMM001
  70
0
   3

   4

   5

   6
_OPEN30
   7
_OPEN30
  40
 1.0000000000000
  41
 24.000000000000
  42
0.0
  43
 64.000000000000
  44
 16.000000000000
  45
0.0
  46
0.0
  47
0.0
  48
0.0
 140
 32.000000000000
 141
 8.0000000000000
 142
0.0
 143
 0.39400000000000E-1
 144
 1.0000000000000
 145
0.0
 146
 0.62500000000000
 147
 8.0000000000000
  71
0
  72
0
  73
0
  74
0
  75
0
  76
0
  77
3
  78
8
 170
0
 171
2
 172
1
 173
1
 174
0
 175
0
 176
1
 177
1
 178
7
 270
2
 271
6
 272
0
 273
2
 274
2
 340
3D
 275
1
 280
0
 281
0
 282
0
 283
1
 284
0
 285
0
 286
0
 287
3
 288
0
   0
DIMSTYLE
 105
42
 100
AcDbSymbolTableRecord
 100
AcDbDimStyleTableRecord
   2
GMM002
  70
0
   3

   4

   5

   6
_OPEN30
   7
_OPEN30
  40
 1.0000000000000
  41
 24.000000000000
  42
0.0
  43
 64.000000000000
  44
 16.000000000000
  45
0.0
  46
0.0
  47
0.0
  48
0.0
 140
 32.000000000000
 141
 8.0000000000000
 142
0.0
 143
 0.39400000000000E-1
 144
 1.0000000000000
 145
0.0
 146
 0.62500000000000
 147
 13.714285714286
  71
0
  72
0
  73
0
  74
0
  75
0
  76
0
  77
3
  78
8
 170
0
 171
2
 172
1
 173
1
 174
0
 175
0
 176
1
 177
1
 178
7
 270
2
 271
6
 272
0
 273
2
 274
2
 340
3D
 275
0
 280
0
 281
0
 282
0
 283
1
 284
0
 285
0
 286
0
 287
5
 288
1
   0
DIMSTYLE
 105
43
 100
AcDbSymbolTableRecord
 100
AcDbDimStyleTableRecord
   2
GMM003
  70
0
   3

   4

   5

   6
_OPEN30
   7
_OPEN30
  40
 1.0000000000000
  41
 24.000000000000
  42
0.0
  43
 64.000000000000
  44
 16.000000000000
  45
0.0
  46
0.0
  47
0.0
  48
0.0
 140
 32.000000000000
 141
 8.0000000000000
 142
0.0
 143
 0.39400000000000E-1
 144
 1.0000000000000
 145
0.0
 146
 0.62500000000000
 147
 8.0000000000000
  71
0
  72
0
  73
0
  74
0
  75
0
  76
0
  77
3
  78
8
 170
0
 171
2
 172
1
 173
1
 174
0
 175
0
 176
1
 177
1
 178
7
 270
2
 271
6
 272
0
 273
2
 274
2
 340
3D
 275
0
 280
0
 281
0
 282
0
 283
1
 284
0
 285
0
 286
0
 287
5
 288
1
   0
ENDTAB
  0
TABLE
  2
BLOCK_RECORD
  5
1
100
AcDbSymbolTable
 70
     0
  0
BLOCK_RECORD
  5
18
100
AcDbSymbolTableRecord
100
AcDbBlockTableRecord
  2
*MODEL_SPACE
  0
BLOCK_RECORD
  5
15
100
AcDbSymbolTableRecord
100
AcDbBlockTableRecord
  2
*PAPER_SPACE
   0
BLOCK_RECORD
   5
44
 100
AcDbSymbolTableRecord
 100
AcDbBlockTableRecord
   2
BLOCK001
   0
BLOCK_RECORD
   5
45
 100
AcDbSymbolTableRecord
 100
AcDbBlockTableRecord
   2
BLOCK002
   0
BLOCK_RECORD
   5
46
 100
AcDbSymbolTableRecord
 100
AcDbBlockTableRecord
   2
BLOCK003
   0
BLOCK_RECORD
   5
47
 100
AcDbSymbolTableRecord
 100
AcDbBlockTableRecord
   2
GMM001
   0
BLOCK_RECORD
   5
48
 100
AcDbSymbolTableRecord
 100
AcDbBlockTableRecord
   2
*D1
   0
BLOCK_RECORD
   5
49
 100
AcDbSymbolTableRecord
 100
AcDbBlockTableRecord
   2
*D2
   0
BLOCK_RECORD
   5
4A
 100
AcDbSymbolTableRecord
 100
AcDbBlockTableRecord
   2
*D3
   0
BLOCK_RECORD
   5
4B
 100
AcDbSymbolTableRecord
 100
AcDbBlockTableRecord
   2
BLOCK004
   0
BLOCK_RECORD
   5
4C
 100
AcDbSymbolTableRecord
 100
AcDbBlockTableRecord
   2
BLOCK005
   0
BLOCK_RECORD
   5
4D
 100
AcDbSymbolTableRecord
 100
AcDbBlockTableRecord
   2
*D4
   0
BLOCK_RECORD
   5
4E
 100
AcDbSymbolTableRecord
 100
AcDbBlockTableRecord
   2
*D5
   0
BLOCK_RECORD
   5
4F
 100
AcDbSymbolTableRecord
 100
AcDbBlockTableRecord
   2
*D6
   0
BLOCK_RECORD
   5
50
 100
AcDbSymbolTableRecord
 100
AcDbBlockTableRecord
   2
*D7
   0
BLOCK_RECORD
   5
51
 100
AcDbSymbolTableRecord
 100
AcDbBlockTableRecord
   2
*D8
   0
BLOCK_RECORD
   5
52
 100
AcDbSymbolTableRecord
 100
AcDbBlockTableRecord
   2
_ARCHTICK
   0
BLOCK_RECORD
   5
53
 100
AcDbSymbolTableRecord
 100
AcDbBlockTableRecord
   2
_BOXBLANK
   0
BLOCK_RECORD
   5
54
 100
AcDbSymbolTableRecord
 100
AcDbBlockTableRecord
   2
_BOXFILLED
   0
BLOCK_RECORD
   5
55
 100
AcDbSymbolTableRecord
 100
AcDbBlockTableRecord
   2
_CLOSED
   0
BLOCK_RECORD
   5
56
 100
AcDbSymbolTableRecord
 100
AcDbBlockTableRecord
   2
_CLOSEDBLANK
   0
BLOCK_RECORD
   5
57
 100
AcDbSymbolTableRecord
 100
AcDbBlockTableRecord
   2
_DATUMBLANK
   0
BLOCK_RECORD
   5
58
 100
AcDbSymbolTableRecord
 100
AcDbBlockTableRecord
   2
_DATUMFILLED
   0
BLOCK_RECORD
   5
59
 100
AcDbSymbolTableRecord
 100
AcDbBlockTableRecord
   2
_DOT
   0
BLOCK_RECORD
   5
5A
 100
AcDbSymbolTableRecord
 100
AcDbBlockTableRecord
   2
_DOTBLANK
   0
BLOCK_RECORD
   5
5B
 100
AcDbSymbolTableRecord
 100
AcDbBlockTableRecord
   2
_DOTSMALL
   0
BLOCK_RECORD
   5
5C
 100
AcDbSymbolTableRecord
 100
AcDbBlockTableRecord
   2
_INTEGRAL
   0
BLOCK_RECORD
   5
5D
 100
AcDbSymbolTableRecord
 100
AcDbBlockTableRecord
   2
_NONE
   0
BLOCK_RECORD
   5
5E
 100
AcDbSymbolTableRecord
 100
AcDbBlockTableRecord
   2
_OBLIQUE
   0
BLOCK_RECORD
   5
5F
 100
AcDbSymbolTableRecord
 100
AcDbBlockTableRecord
   2
_OPEN
   0
BLOCK_RECORD
   5
60
 100
AcDbSymbolTableRecord
 100
AcDbBlockTableRecord
   2
_OPEN30
   0
BLOCK_RECORD
   5
61
 100
AcDbSymbolTableRecord
 100
AcDbBlockTableRecord
   2
_OPEN90
   0
BLOCK_RECORD
   5
62
 100
AcDbSymbolTableRecord
 100
AcDbBlockTableRecord
   2
_ORIGIN
   0
ENDTAB
   0
ENDSEC
  0
SECTION
  2
BLOCKS
  0
BLOCK
  5
19
100
AcDbEntity
  8
0
100
AcDbBlockBegin
  2
*MODEL_SPACE
 70
     0
 10
0.0
 20
0.0
 30
0.0
  3
*MODEL_SPACE
  1

  0
ENDBLK
  5
1A
100
AcDbEntity
  8
0
100
AcDbBlockEnd
  0
BLOCK
  5
16
100
AcDbEntity
 67
     1
  8
0
100
AcDbBlockBegin
  2
*PAPER_SPACE
 70
     0
 10
0.0
 20
0.0
 30
0.0
  3
*PAPER_SPACE
  1

  0
ENDBLK
  5
17
100
AcDbEntity
 67
     1
  8
0
100
AcDbBlockEnd
   0
BLOCK
   5
63
 100
AcDbEntity
   8
0
 100
AcDbBlockBegin
   2
_ARCHTICK
  70
0
  10
0.0
  20
0.0
  30
0.0
   3
_ARCHTICK
   0
POLYLINE
   5
64
 100
AcDbEntity
   8
0
 370
-2
   6
BYBLOCK
  62
0
 100
AcDb2dPolyline
  66
1
  10
0.0
  20
0.0
  30
0.0
  70
1
  40
 0.15000000000000
  41
 0.15000000000000
   0
VERTEX
   5
65
 100
AcDbEntity
   8
0
   6
BYBLOCK
  62
0
 100
AcDbVertex
 100
AcDb2dVertex
  10
-0.50000000000000
  20
-0.50000000000000
  30
0.0
  40
 0.15000000000000
  41
 0.15000000000000
   0
VERTEX
   5
66
 100
AcDbEntity
   8
0
   6
BYBLOCK
  62
0
 100
AcDbVertex
 100
AcDb2dVertex
  10
 0.50000000000000
  20
 0.50000000000000
  30
0.0
  40
 0.15000000000000
  41
 0.15000000000000
   0
SEQEND
   5
67
 100
AcDbEntity
   8
0
   6
BYBLOCK
  62
0
   0
ENDBLK
   5
68
 100
AcDbEntity
   8
0
 100
AcDbBlockEnd
   0
BLOCK
   5
69
 100
AcDbEntity
   8
0
 100
AcDbBlockBegin
   2
_OBLIQUE
  70
0
  10
0.0
  20
0.0
  30
0.0
   3
_OBLIQUE
   0
LINE
   5
6A
 100
AcDbEntity
   8
0
 370
-2
 100
AcDbLine
   6
BYBLOCK
  62
0
  10
-0.50000000000000
  20
-0.50000000000000
  30
0.0
  11
 0.50000000000000
  21
 0.50000000000000
  31
0.0
   0
ENDBLK
   5
6B
 100
AcDbEntity
   8
0
 100
AcDbBlockEnd
   0
BLOCK
   5
6C
 100
AcDbEntity
   8
0
 100
AcDbBlockBegin
   2
_BOXBLANK
  70
0
  10
0.0
  20
0.0
  30
0.0
   3
_BOXBLANK
   0
LINE
   5
6D
 100
AcDbEntity
   8
0
 370
-2
 100
AcDbLine
   6
BYBLOCK
  62
0
  10
-0.50000000000000
  20
-0.50000000000000
  30
0.0
  11
 0.50000000000000
  21
-0.50000000000000
  31
0.0
   0
LINE
   5
6E
 100
AcDbEntity
   8
0
 370
-2
 100
AcDbLine
   6
BYBLOCK
  62
0
  10
 0.50000000000000
  20
-0.50000000000000
  30
0.0
  11
 0.50000000000000
  21
 0.50000000000000
  31
0.0
   0
LINE
   5
6F
 100
AcDbEntity
   8
0
 370
-2
 100
AcDbLine
   6
BYBLOCK
  62
0
  10
 0.50000000000000
  20
 0.50000000000000
  30
0.0
  11
-0.50000000000000
  21
 0.50000000000000
  31
0.0
   0
LINE
   5
70
 100
AcDbEntity
   8
0
 370
-2
 100
AcDbLine
   6
BYBLOCK
  62
0
  10
-0.50000000000000
  20
 0.50000000000000
  30
0.0
  11
-0.50000000000000
  21
-0.50000000000000
  31
0.0
   0
LINE
   5
71
 100
AcDbEntity
   8
0
 370
-2
 100
AcDbLine
   6
BYBLOCK
  62
0
  10
-0.50000000000000
  20
0.0
  30
0.0
  11
-1.0000000000000
  21
0.0
  31
0.0
   0
ENDBLK
   5
72
 100
AcDbEntity
   8
0
 100
AcDbBlockEnd
   0
BLOCK
   5
73
 100
AcDbEntity
   8
0
 100
AcDbBlockBegin
   2
_BOXFILLED
  70
0
  10
0.0
  20
0.0
  30
0.0
   3
_BOXFILLED
   0
SOLID
   5
74
 100
AcDbEntity
   8
0
 100
AcDbTrace
   6
BYBLOCK
  62
0
  10
-0.50000000000000
  20
 0.50000000000000
  30
0.0
  11
 0.50000000000000
  21
 0.50000000000000
  31
0.0
  12
-0.50000000000000
  22
-0.50000000000000
  32
0.0
  13
 0.50000000000000
  23
-0.50000000000000
  33
0.0
   0
LINE
   5
75
 100
AcDbEntity
   8
0
 370
-2
 100
AcDbLine
   6
BYBLOCK
  62
0
  10
-0.50000000000000
  20
0.0
  30
0.0
  11
-1.0000000000000
  21
0.0
  31
0.0
   0
ENDBLK
   5
76
 100
AcDbEntity
   8
0
 100
AcDbBlockEnd
   0
BLOCK
   5
77
 100
AcDbEntity
   8
0
 100
AcDbBlockBegin
   2
_CLOSED
  70
0
  10
0.0
  20
0.0
  30
0.0
   3
_CLOSED
   0
LINE
   5
78
 100
AcDbEntity
   8
0
 370
-2
 100
AcDbLine
   6
BYBLOCK
  62
0
  10
-1.0000000000000
  20
 0.16666666666667
  30
0.0
  11
0.0
  21
0.0
  31
0.0
   0
LINE
   5
79
 100
AcDbEntity
   8
0
 370
-2
 100
AcDbLine
   6
BYBLOCK
  62
0
  10
0.0
  20
0.0
  30
0.0
  11
-1.0000000000000
  21
-0.16666666666667
  31
0.0
   0
LINE
   5
7A
 100
AcDbEntity
   8
0
 370
-2
 100
AcDbLine
   6
BYBLOCK
  62
0
  10
-1.0000000000000
  20
 0.16666666666667
  30
0.0
  11
-1.0000000000000
  21
-0.16666666666667
  31
0.0
   0
LINE
   5
7B
 100
AcDbEntity
   8
0
 370
-2
 100
AcDbLine
   6
BYBLOCK
  62
0
  10
0.0
  20
0.0
  30
0.0
  11
-1.0000000000000
  21
0.0
  31
0.0
   0
ENDBLK
   5
7C
 100
AcDbEntity
   8
0
 100
AcDbBlockEnd
   0
BLOCK
   5
7D
 100
AcDbEntity
   8
0
 100
AcDbBlockBegin
   2
_OPEN
  70
0
  10
0.0
  20
0.0
  30
0.0
   3
_OPEN
   0
LINE
   5
7E
 100
AcDbEntity
   8
0
 370
-2
 100
AcDbLine
   6
BYBLOCK
  62
0
  10
-1.0000000000000
  20
 0.16666666666667
  30
0.0
  11
0.0
  21
0.0
  31
0.0
   0
LINE
   5
7F
 100
AcDbEntity
   8
0
 370
-2
 100
AcDbLine
   6
BYBLOCK
  62
0
  10
0.0
  20
0.0
  30
0.0
  11
-1.0000000000000
  21
-0.16666666666667
  31
0.0
   0
LINE
   5
80
 100
AcDbEntity
   8
0
 370
-2
 100
AcDbLine
   6
BYBLOCK
  62
0
  10
0.0
  20
0.0
  30
0.0
  11
-1.0000000000000
  21
0.0
  31
0.0
   0
ENDBLK
   5
81
 100
AcDbEntity
   8
0
 100
AcDbBlockEnd
   0
BLOCK
   5
82
 100
AcDbEntity
   8
0
 100
AcDbBlockBegin
   2
_OPEN30
  70
0
  10
0.0
  20
0.0
  30
0.0
   3
_OPEN30
   0
LINE
   5
83
 100
AcDbEntity
   8
0
 370
-2
 100
AcDbLine
   6
BYBLOCK
  62
0
  10
-1.0000000000000
  20
 0.26794919243110
  30
0.0
  11
0.0
  21
0.0
  31
0.0
   0
LINE
   5
84
 100
AcDbEntity
   8
0
 370
-2
 100
AcDbLine
   6
BYBLOCK
  62
0
  10
0.0
  20
0.0
  30
0.0
  11
-1.0000000000000
  21
-0.26794919243110
  31
0.0
   0
LINE
   5
85
 100
AcDbEntity
   8
0
 370
-2
 100
AcDbLine
   6
BYBLOCK
  62
0
  10
0.0
  20
0.0
  30
0.0
  11
-1.0000000000000
  21
0.0
  31
0.0
   0
ENDBLK
   5
86
 100
AcDbEntity
   8
0
 100
AcDbBlockEnd
   0
BLOCK
   5
87
 100
AcDbEntity
   8
0
 100
AcDbBlockBegin
   2
_OPEN90
  70
0
  10
0.0
  20
0.0
  30
0.0
   3
_OPEN90
   0
LINE
   5
88
 100
AcDbEntity
   8
0
 370
-2
 100
AcDbLine
   6
BYBLOCK
  62
0
  10
-0.50000000000000
  20
 0.50000000000000
  30
0.0
  11
0.0
  21
0.0
  31
0.0
   0
LINE
   5
89
 100
AcDbEntity
   8
0
 370
-2
 100
AcDbLine
   6
BYBLOCK
  62
0
  10
0.0
  20
0.0
  30
0.0
  11
-0.50000000000000
  21
-0.50000000000000
  31
0.0
   0
LINE
   5
8A
 100
AcDbEntity
   8
0
 370
-2
 100
AcDbLine
   6
BYBLOCK
  62
0
  10
0.0
  20
0.0
  30
0.0
  11
-1.0000000000000
  21
0.0
  31
0.0
   0
ENDBLK
   5
8B
 100
AcDbEntity
   8
0
 100
AcDbBlockEnd
   0
BLOCK
   5
8C
 100
AcDbEntity
   8
0
 100
AcDbBlockBegin
   2
_CLOSEDBLANK
  70
0
  10
0.0
  20
0.0
  30
0.0
   3
_CLOSEDBLANK
   0
LINE
   5
8D
 100
AcDbEntity
   8
0
 370
-2
 100
AcDbLine
   6
BYBLOCK
  62
0
  10
-1.0000000000000
  20
 0.16666666666667
  30
0.0
  11
0.0
  21
0.0
  31
0.0
   0
LINE
   5
8E
 100
AcDbEntity
   8
0
 370
-2
 100
AcDbLine
   6
BYBLOCK
  62
0
  10
0.0
  20
0.0
  30
0.0
  11
-1.0000000000000
  21
-0.16666666666667
  31
0.0
   0
LINE
   5
8F
 100
AcDbEntity
   8
0
 370
-2
 100
AcDbLine
   6
BYBLOCK
  62
0
  10
-1.0000000000000
  20
 0.16666666666667
  30
0.0
  11
-1.0000000000000
  21
-0.16666666666667
  31
0.0
   0
ENDBLK
   5
90
 100
AcDbEntity
   8
0
 100
AcDbBlockEnd
   0
BLOCK
   5
91
 100
AcDbEntity
   8
0
 100
AcDbBlockBegin
   2
_DOT
  70
0
  10
0.0
  20
0.0
  30
0.0
   3
_DOT
   0
POLYLINE
   5
92
 100
AcDbEntity
   8
0
 370
-2
   6
BYBLOCK
  62
0
 100
AcDb2dPolyline
  66
1
  10
0.0
  20
0.0
  30
0.0
  70
1
  40
 0.50000000000000
  41
 0.50000000000000
   0
VERTEX
   5
93
 100
AcDbEntity
   8
0
   6
BYBLOCK
  62
0
 100
AcDbVertex
 100
AcDb2dVertex
  10
-0.25000000000000
  20
0.0
  30
0.0
  42
 1.0000000000000
  40
 0.50000000000000
  41
 0.50000000000000
   0
VERTEX
   5
94
 100
AcDbEntity
   8
0
   6
BYBLOCK
  62
0
 100
AcDbVertex
 100
AcDb2dVertex
  10
 0.25000000000000
  20
0.0
  30
0.0
  42
 1.0000000000000
  40
 0.50000000000000
  41
 0.50000000000000
   0
SEQEND
   5
95
 100
AcDbEntity
   8
0
   6
BYBLOCK
  62
0
   0
LINE
   5
96
 100
AcDbEntity
   8
0
 370
-2
 100
AcDbLine
   6
BYBLOCK
  62
0
  10
-0.50000000000000
  20
0.0
  30
0.0
  11
-1.0000000000000
  21
0.0
  31
0.0
   0
ENDBLK
   5
97
 100
AcDbEntity
   8
0
 100
AcDbBlockEnd
   0
BLOCK
   5
98
 100
AcDbEntity
   8
0
 100
AcDbBlockBegin
   2
_DOTSMALL
  70
0
  10
0.0
  20
0.0
  30
0.0
   3
_DOTSMALL
   0
POLYLINE
   5
99
 100
AcDbEntity
   8
0
 370
-2
   6
BYBLOCK
  62
0
 100
AcDb2dPolyline
  66
1
  10
0.0
  20
0.0
  30
0.0
  70
1
  40
 0.50000000000000
  41
 0.50000000000000
   0
VERTEX
   5
9A
 100
AcDbEntity
   8
0
   6
BYBLOCK
  62
0
 100
AcDbVertex
 100
AcDb2dVertex
  10
-0.62500000000000E-1
  20
0.0
  30
0.0
  42
 1.0000000000000
  40
 0.50000000000000
  41
 0.50000000000000
   0
VERTEX
   5
9B
 100
AcDbEntity
   8
0
   6
BYBLOCK
  62
0
 100
AcDbVertex
 100
AcDb2dVertex
  10
 0.62500000000000E-1
  20
0.0
  30
0.0
  42
 1.0000000000000
  40
 0.50000000000000
  41
 0.50000000000000
   0
SEQEND
   5
9C
 100
AcDbEntity
   8
0
   6
BYBLOCK
  62
0
   0
ENDBLK
   5
9D
 100
AcDbEntity
   8
0
 100
AcDbBlockEnd
   0
BLOCK
   5
9E
 100
AcDbEntity
   8
0
 100
AcDbBlockBegin
   2
_DATUMBLANK
  70
0
  10
0.0
  20
0.0
  30
0.0
   3
_DATUMBLANK
   0
LINE
   5
9F
 100
AcDbEntity
   8
0
 370
-2
 100
AcDbLine
   6
BYBLOCK
  62
0
  10
0.0
  20
 0.57735027000000
  30
0.0
  11
-1.0000000000000
  21
0.0
  31
0.0
   0
LINE
   5
A0
 100
AcDbEntity
   8
0
 370
-2
 100
AcDbLine
   6
BYBLOCK
  62
0
  10
-1.0000000000000
  20
0.0
  30
0.0
  11
0.0
  21
-0.57735027000000
  31
0.0
   0
LINE
   5
A1
 100
AcDbEntity
   8
0
 370
-2
 100
AcDbLine
   6
BYBLOCK
  62
0
  10
0.0
  20
-0.57735027000000
  30
0.0
  11
0.0
  21
 0.57735027000000
  31
0.0
   0
ENDBLK
   5
A2
 100
AcDbEntity
   8
0
 100
AcDbBlockEnd
   0
BLOCK
   5
A3
 100
AcDbEntity
   8
0
 100
AcDbBlockBegin
   2
_DATUMFILLED
  70
0
  10
0.0
  20
0.0
  30
0.0
   3
_DATUMFILLED
   0
SOLID
   5
A4
 100
AcDbEntity
   8
0
 100
AcDbTrace
   6
BYBLOCK
  62
0
  10
0.0
  20
 0.57735027000000
  30
0.0
  11
-1.0000000000000
  21
0.0
  31
0.0
  12
0.0
  22
-0.57735027000000
  32
0.0
  13
0.0
  23
-0.57735027000000
  33
0.0
   0
ENDBLK
   5
A5
 100
AcDbEntity
   8
0
 100
AcDbBlockEnd
   0
BLOCK
   5
A6
 100
AcDbEntity
   8
0
 100
AcDbBlockBegin
   2
_ORIGIN
  70
0
  10
0.0
  20
0.0
  30
0.0
   3
_ORIGIN
   0
CIRCLE
   5
A7
 100
AcDbEntity
   8
0
 370
-2
 100
AcDbCircle
   6
BYBLOCK
  62
0
  10
0.0
  20
0.0
  30
0.0
  40
 0.50000000000000
   0
LINE
   5
A8
 100
AcDbEntity
   8
0
 370
-2
 100
AcDbLine
   6
BYBLOCK
  62
0
  10
0.0
  20
0.0
  30
0.0
  11
-1.0000000000000
  21
0.0
  31
0.0
   0
ENDBLK
   5
A9
 100
AcDbEntity
   8
0
 100
AcDbBlockEnd
   0
BLOCK
   5
AA
 100
AcDbEntity
   8
0
 100
AcDbBlockBegin
   2
_NONE
  70
0
  10
0.0
  20
0.0
  30
0.0
   3
_NONE
   0
CIRCLE
   5
AB
 100
AcDbEntity
   8
0
 370
-2
 100
AcDbCircle
   6
BYBLOCK
  62
0
  10
0.0
  20
0.0
  30
0.0
  40
 0.25000000000000
   0
ENDBLK
   5
AC
 100
AcDbEntity
   8
0
 100
AcDbBlockEnd
   0
BLOCK
   5
AD
 100
AcDbEntity
   8
0
 100
AcDbBlockBegin
   2
_DOTBLANK
  70
0
  10
0.0
  20
0.0
  30
0.0
   3
_DOTBLANK
   0
CIRCLE
   5
AE
 100
AcDbEntity
   8
0
 370
-2
 100
AcDbCircle
   6
BYBLOCK
  62
0
  10
0.0
  20
0.0
  30
0.0
  40
 0.50000000000000
   0
LINE
   5
AF
 100
AcDbEntity
   8
0
 370
-2
 100
AcDbLine
   6
BYBLOCK
  62
0
  10
-0.50000000000000
  20
0.0
  30
0.0
  11
-1.0000000000000
  21
0.0
  31
0.0
   0
ENDBLK
   5
B0
 100
AcDbEntity
   8
0
 100
AcDbBlockEnd
   0
BLOCK
   5
B1
 100
AcDbEntity
   8
0
 100
AcDbBlockBegin
   2
_INTEGRAL
  70
0
  10
0.0
  20
0.0
  30
0.0
   3
_INTEGRAL
   0
ARC
   5
B2
 100
AcDbEntity
   8
0
 370
-2
   6
BYBLOCK
  62
0
 100
AcDbCircle
  10
 0.44488800000000
  20
-0.91335000000000E-1
  30
0.0
  40
 0.45416700000000
 100
AcDbArc
  50
 102.00000000000
  51
 168.00000000000
   0
ARC
   5
B3
 100
AcDbEntity
   8
0
 370
-2
   6
BYBLOCK
  62
0
 100
AcDbCircle
  10
-0.44488800000000
  20
 0.91335000000000E-1
  30
0.0
  40
 0.45416700000000
 100
AcDbArc
  50
 282.00000000000
  51
 348.00000000000
   0
ENDBLK
   5
B4
 100
AcDbEntity
   8
0
 100
AcDbBlockEnd
   0
BLOCK
   5
B5
 100
AcDbEntity
   8
0
 100
AcDbBlockBegin
   2
BLOCK001
  70
64
  10
0.0
  20
0.0
  30
0.0
   3
BLOCK001
   0
LINE
   5
B6
 100
AcDbEntity
   8
LEVEL001
 370
30
 100
AcDbLine
   6
CONTINUOUS
  62
7
  10
 3550.1932373619
  20
 288.00000000000
  30
0.0
  11
 4638.1932373619
  21
 288.00000000000
  31
0.0
   0
LINE
   5
B7
 100
AcDbEntity
   8
LEVEL001
 370
30
 100
AcDbLine
   6
CONTINUOUS
  62
7
  10
 3550.1932373619
  20
 192.00000000000
  30
0.0
  11
 4638.1932373619
  21
 192.00000000000
  31
0.0
   0
LINE
   5
B8
 100
AcDbEntity
   8
LEVEL001
 370
30
 100
AcDbLine
   6
CONTINUOUS
  62
7
  10
 3550.1932373619
  20
 288.00000000000
  30
0.0
  11
 3550.1932373619
  21
 192.00000000000
  31
0.0
   0
LINE
   5
B9
 100
AcDbEntity
   8
LEVEL001
 370
30
 100
AcDbLine
   6
CONTINUOUS
  62
7
  10
 3614.1932373619
  20
 288.00000000000
  30
0.0
  11
 3614.1932373619
  21
 192.00000000000
  31
0.0
   0
LINE
   5
BA
 100
AcDbEntity
   8
LEVEL001
 370
30
 100
AcDbLine
   6
CONTINUOUS
  62
7
  10
 4094.1932373619
  20
 288.00000000000
  30
0.0
  11
 4094.1932373619
  21
 192.00000000000
  31
0.0
   0
LINE
   5
BB
 100
AcDbEntity
   8
LEVEL001
 370
30
 100
AcDbLine
   6
CONTINUOUS
  62
7
  10
 4158.1932373619
  20
 288.00000000000
  30
0.0
  11
 4158.1932373619
  21
 192.00000000000
  31
0.0
   0
LINE
   5
BC
 100
AcDbEntity
   8
LEVEL001
 370
30
 100
AcDbLine
   6
CONTINUOUS
  62
7
  10
 4638.1932373619
  20
 288.00000000000
  30
0.0
  11
 4638.1932373619
  21
 192.00000000000
  31
0.0
   0
ENDBLK
   5
BD
 100
AcDbEntity
   8
0
 100
AcDbBlockEnd
   0
BLOCK
   5
BE
 100
AcDbEntity
   8
0
 100
AcDbBlockBegin
   2
BLOCK002
  70
64
  10
0.0
  20
0.0
  30
0.0
   3
BLOCK002
   0
LINE
   5
BF
 100
AcDbEntity
   8
LEVEL001
 370
30
 100
AcDbLine
   6
CONTINUOUS
  62
7
  10
 3550.1932373619
  20
 192.00000000000
  30
0.0
  11
 4638.1932373619
  21
 192.00000000000
  31
0.0
   0
LINE
   5
C0
 100
AcDbEntity
   8
LEVEL001
 370
30
 100
AcDbLine
   6
CONTINUOUS
  62
7
  10
 3854.1932373619
  20
 128.00000000000
  30
0.0
  11
 4638.1932373619
  21
 128.00000000000
  31
0.0
   0
LINE
   5
C1
 100
AcDbEntity
   8
LEVEL001
 370
30
 100
AcDbLine
   6
CONTINUOUS
  62
7
  10
 3550.1932373619
  20
 64.000000000000
  30
0.0
  11
 4638.1932373619
  21
 64.000000000000
  31
0.0
   0
LINE
   5
C2
 100
AcDbEntity
   8
LEVEL001
 370
30
 100
AcDbLine
   6
CONTINUOUS
  62
7
  10
 3550.1932373619
  20
0.0
  30
0.0
  11
 4638.1932373619
  21
0.0
  31
0.0
   0
LINE
   5
C3
 100
AcDbEntity
   8
LEVEL001
 370
30
 100
AcDbLine
   6
CONTINUOUS
  62
7
  10
 3550.1932373619
  20
 192.00000000000
  30
0.0
  11
 3550.1932373619
  21
0.0
  31
0.0
   0
LINE
   5
C4
 100
AcDbEntity
   8
LEVEL001
 370
30
 100
AcDbLine
   6
CONTINUOUS
  62
7
  10
 3614.1932373619
  20
 192.00000000000
  30
0.0
  11
 3614.1932373619
  21
 64.000000000000
  31
0.0
   0
LINE
   5
C5
 100
AcDbEntity
   8
LEVEL001
 370
30
 100
AcDbLine
   6
CONTINUOUS
  62
7
  10
 3854.1932373619
  20
 192.00000000000
  30
0.0
  11
 3854.1932373619
  21
 64.000000000000
  31
0.0
   0
LINE
   5
C6
 100
AcDbEntity
   8
LEVEL001
 370
30
 100
AcDbLine
   6
CONTINUOUS
  62
7
  10
 4094.1932373619
  20
 192.00000000000
  30
0.0
  11
 4094.1932373619
  21
 64.000000000000
  31
0.0
   0
LINE
   5
C7
 100
AcDbEntity
   8
LEVEL001
 370
30
 100
AcDbLine
   6
CONTINUOUS
  62
7
  10
 4158.1932373619
  20
 192.00000000000
  30
0.0
  11
 4158.1932373619
  21
 64.000000000000
  31
0.0
   0
LINE
   5
C8
 100
AcDbEntity
   8
LEVEL001
 370
30
 100
AcDbLine
   6
CONTINUOUS
  62
7
  10
 4318.1932373619
  20
 192.00000000000
  30
0.0
  11
 4318.1932373619
  21
 64.000000000000
  31
0.0
   0
LINE
   5
C9
 100
AcDbEntity
   8
LEVEL001
 370
30
 100
AcDbLine
   6
CONTINUOUS
  62
7
  10
 4374.1932373619
  20
 192.00000000000
  30
0.0
  11
 4374.1932373619
  21
 64.000000000000
  31
0.0
   0
LINE
   5
CA
 100
AcDbEntity
   8
LEVEL001
 370
30
 100
AcDbLine
   6
CONTINUOUS
  62
7
  10
 4422.1932373619
  20
 192.00000000000
  30
0.0
  11
 4422.1932373619
  21
 64.000000000000
  31
0.0
   0
LINE
   5
CB
 100
AcDbEntity
   8
LEVEL001
 370
30
 100
AcDbLine
   6
CONTINUOUS
  62
7
  10
 4478.1932373619
  20
 192.00000000000
  30
0.0
  11
 4478.1932373619
  21
 64.000000000000
  31
0.0
   0
LINE
   5
CC
 100
AcDbEntity
   8
LEVEL001
 370
30
 100
AcDbLine
   6
CONTINUOUS
  62
7
  10
 4638.1932373619
  20
 192.00000000000
  30
0.0
  11
 4638.1932373619
  21
0.0
  31
0.0
   0
ENDBLK
   5
CD
 100
AcDbEntity
   8
0
 100
AcDbBlockEnd
   0
BLOCK
   5
CE
 100
AcDbEntity
   8
0
 100
AcDbBlockBegin
   2
BLOCK003
  70
64
  10
0.0
  20
0.0
  30
0.0
   3
BLOCK003
   0
MTEXT
   5
D0
 100
AcDbEntity
   8
LEVEL001
 370
30
  62
7
 100
AcDbMText
  10
 3847.7932739830
  20
 16.000000000000
  30
0.0
  40
 32.000000000000
  41
0.0
  71
7
  72
1
   1
\T1.800000;さぬき麺機株式会社
   7
GMM001
  44
 0.79999984000003
   0
TEXT
   5
D1
 100
AcDbEntity
   8
LEVEL001
 370
30
  62
7
 100
AcDbText
  10
 3568.1932373619
  20
 280.88885498047
  30
0.0
  40
 4.0000000000000
   1
名称
   7
STANDARD1
 100
AcDbText
   0
TEXT
   5
D2
 100
AcDbEntity
   8
LEVEL001
 370
30
  62
7
 100
AcDbText
  10
 4112.1932373619
  20
 280.88879394531
  30
0.0
  40
 4.0000000000000
   1
図番
   7
STANDARD1
 100
AcDbText
   0
TEXT
   5
D3
 100
AcDbEntity
   8
LEVEL001
 370
30
  62
7
 100
AcDbText
  10
 3568.1932373619
  20
 174.22222264608
  30
0.0
  40
 4.0000000000000
   1
画法
   7
STANDARD1
 100
AcDbText
   0
MTEXT
   5
D5
 100
AcDbEntity
   8
LEVEL001
 370
30
  62
7
 100
AcDbMText
  10
 3636.5932379341
  20
 112.00000000000
  30
0.0
  40
 32.000000000000
  41
0.0
  71
7
  72
1
   1
\T1.700000;第三角法
   7
GMM001
  44
 0.79999984000003
   0
MTEXT
   5
D7
 100
AcDbEntity
   8
LEVEL001
 370
30
  62
7
 100
AcDbMText
  10
 3876.5932379341
  20
 144.00000000000
  30
0.0
  40
 32.000000000000
  41
0.0
  71
7
  72
1
   1
\T1.700000;共通機種
   7
GMM001
  44
 0.79999984000003
   0
MTEXT
   5
D9
 100
AcDbEntity
   8
LEVEL001
 370
30
  62
7
 100
AcDbMText
  10
 4100.5932369843
  20
 144.00000000000
  30
0.0
  40
 32.000000000000
  41
0.0
  71
7
  72
1
   1
\T1.000000;個数
   7
GMM003
  44
 0.79999984000003
   0
MTEXT
   5
DB
 100
AcDbEntity
   8
LEVEL001
 370
30
  62
7
 100
AcDbMText
  10
 4190.1932373619
  20
 144.00000000000
  30
0.0
  40
 32.000000000000
  41
0.0
  71
7
  72
1
   1
\T2.000000;尺度
   7
GMM001
  44
 0.79999984000003
   0
MTEXT
   5
DD
 100
AcDbEntity
   8
LEVEL001
 370
30
  62
7
 100
AcDbMText
  10
 4334.1932373619
  20
 144.00000000000
  30
0.0
  40
 32.000000000000
  41
0.0
  71
7
  72
1
   1
\T1.500000;年月日
   7
GMM001
  44
 0.79999984000003
   0
MTEXT
   5
DF
 100
AcDbEntity
   8
LEVEL001
 370
30
  62
7
 100
AcDbMText
  10
 4510.1932373619
  20
 144.00000000000
  30
0.0
  40
 32.000000000000
  41
0.0
  71
7
  72
1
   1
\T2.000000;製図
   7
GMM001
  44
 0.79999984000003
   0
ENDBLK
   5
E0
 100
AcDbEntity
   8
0
 100
AcDbBlockEnd
   0
BLOCK
   5
E1
 100
AcDbEntity
   8
0
 100
AcDbBlockBegin
   2
GMM001
  70
64
  10
0.0
  20
0.0
  30
0.0
   3
GMM001
   0
LWPOLYLINE
   5
E2
 100
AcDbEntity
   8
LEVEL001
 370
30
   6
CONTINUOUS
  62
7
 100
AcDbPolyline
  90
4
  70
1
  10
-568.00000000000
  20
 394.00000000000
  10
-568.00000000000
  20
0.0
  10
0.0
  20
0.0
  10
0.0
  20
 394.00000000000
   0
ENDBLK
   5
E3
 100
AcDbEntity
   8
0
 100
AcDbBlockEnd
   0
BLOCK
   5
E4
 100
AcDbEntity
   8
0
 100
AcDbBlockBegin
   2
*D1
  70
65
  10
0.0
  20
0.0
  30
0.0
   3
*D1
   0
LINE
   5
E5
 100
AcDbEntity
   8
LEVEL001
 370
9
 100
AcDbLine
   6
CONTINUOUS
  62
1
  10
 1544.2161031785
  20
 1627.9772707017
  30
0.0
  11
 1838.6787734164
  21
 1627.9772707017
  31
0.0
   0
LINE
   5
E6
 100
AcDbEntity
   8
LEVEL001
 370
9
 100
AcDbLine
   6
CONTINUOUS
  62
1
  10
 1632.7136986582
  20
 3077.9772707017
  30
0.0
  11
 1838.6787734164
  21
 3077.9772707017
  31
0.0
   0
LINE
   5
E7
 100
AcDbEntity
   8
LEVEL001
 370
9
 100
AcDbLine
   6
CONTINUOUS
  62
1
  10
 1822.6787734164
  20
 1627.9772707017
  30
0.0
  11
 1822.6787734164
  21
 2352.9772707017
  31
0.0
   0
LINE
   5
E8
 100
AcDbEntity
   8
LEVEL001
 370
9
 100
AcDbLine
   6
CONTINUOUS
  62
1
  10
 1822.6787734164
  20
 3077.9772707017
  30
0.0
  11
 1822.6787734164
  21
 2352.9772707017
  31
0.0
   0
INSERT
   5
E9
 100
AcDbEntity
   8
LEVEL001
   6
CONTINUOUS
  62
1
 100
AcDbBlockReference
   2
_OPEN30
  10
 1822.6787734164
  20
 1627.9772707017
  30
0.0
  41
 24.000000000000
  42
 24.000000000000
  43
 24.000000000000
  50
 270.00000000000
   0
INSERT
   5
EA
 100
AcDbEntity
   8
LEVEL001
   6
CONTINUOUS
  62
1
 100
AcDbBlockReference
   2
_OPEN30
  10
 1822.6787734164
  20
 3077.9772707017
  30
0.0
  41
 24.000000000000
  42
 24.000000000000
  43
 24.000000000000
  50
 90.000000000000
   0
MTEXT
   5
EB
 100
AcDbEntity
   8
LEVEL001
 370
30
  62
7
 100
AcDbMText
  10
 1814.6787734164
  20
 2352.9772707017
  30
0.0
  40
 32.000000000000
  41
0.0
  71
8
  72
1
   1
\A1;1450
   7
GMM001
  11
0.0
  21
 1.0000000000000
  31
0.0
   0
ENDBLK
   5
EC
 100
AcDbEntity
   8
0
 100
AcDbBlockEnd
   0
BLOCK
   5
ED
 100
AcDbEntity
   8
0
 100
AcDbBlockBegin
   2
*D2
  70
65
  10
0.0
  20
0.0
  30
0.0
   3
*D2
   0
LINE
   5
EE
 100
AcDbEntity
   8
LEVEL001
 370
9
 100
AcDbLine
   6
CONTINUOUS
  62
1
  10
 3421.9868095079
  20
 851.79522323518
  30
0.0
  11
 3421.9868095079
  21
 1543.9779343454
  31
0.0
   0
LINE
   5
EF
 100
AcDbEntity
   8
LEVEL001
 370
9
 100
AcDbLine
   6
CONTINUOUS
  62
1
  10
 2696.9868095079
  20
 824.79522323514
  30
0.0
  11
 2696.9868095079
  21
 1543.9779343454
  31
0.0
   0
LINE
   5
F0
 100
AcDbEntity
   8
LEVEL001
 370
9
 100
AcDbLine
   6
CONTINUOUS
  62
1
  10
 3421.9868095079
  20
 1527.9779343454
  30
0.0
  11
 3059.4868095079
  21
 1527.9779343454
  31
0.0
   0
LINE
   5
F1
 100
AcDbEntity
   8
LEVEL001
 370
9
 100
AcDbLine
   6
CONTINUOUS
  62
1
  10
 2696.9868095079
  20
 1527.9779343454
  30
0.0
  11
 3059.4868095079
  21
 1527.9779343454
  31
0.0
   0
INSERT
   5
F2
 100
AcDbEntity
   8
LEVEL001
   6
CONTINUOUS
  62
1
 100
AcDbBlockReference
   2
_OPEN30
  10
 3421.9868095079
  20
 1527.9779343454
  30
0.0
  41
 24.000000000000
  42
 24.000000000000
  43
 24.000000000000
  50
0.0
   0
INSERT
   5
F3
 100
AcDbEntity
   8
LEVEL001
   6
CONTINUOUS
  62
1
 100
AcDbBlockReference
   2
_OPEN30
  10
 2696.9868095079
  20
 1527.9779343454
  30
0.0
  41
 24.000000000000
  42
 24.000000000000
  43
 24.000000000000
  50
 180.00000000000
   0
MTEXT
   5
F4
 100
AcDbEntity
   8
LEVEL001
 370
30
  62
7
 100
AcDbMText
  10
 3059.4868095079
  20
 1541.6922200597
  30
0.0
  40
 32.000000000000
  41
0.0
  71
8
  72
1
   1
\A1;725
   7
GMM001
   0
ENDBLK
   5
F5
 100
AcDbEntity
   8
0
 100
AcDbBlockEnd
   0
BLOCK
   5
F6
 100
AcDbEntity
   8
0
 100
AcDbBlockBegin
   2
*D3
  70
65
  10
0.0
  20
0.0
  30
0.0
   3
*D3
   0
LINE
   5
F7
 100
AcDbEntity
   8
LEVEL001
 370
9
 100
AcDbLine
   6
CONTINUOUS
  62
1
  10
 523.60410587131
  20
 1409.7821785604
  30
0.0
  11
 523.60410587131
  21
 1543.9779343454
  31
0.0
   0
LINE
   5
F8
 100
AcDbEntity
   8
LEVEL001
 370
9
 100
AcDbLine
   6
CONTINUOUS
  62
1
  10
 1633.6041058713
  20
 1260.7952232352
  30
0.0
  11
 1633.6041058713
  21
 1543.9779343454
  31
0.0
   0
LINE
   5
F9
 100
AcDbEntity
   8
LEVEL001
 370
9
 100
AcDbLine
   6
CONTINUOUS
  62
1
  10
 523.60410587131
  20
 1527.9779343454
  30
0.0
  11
 1078.6041058713
  21
 1527.9779343454
  31
0.0
   0
LINE
   5
FA
 100
AcDbEntity
   8
LEVEL001
 370
9
 100
AcDbLine
   6
CONTINUOUS
  62
1
  10
 1633.6041058713
  20
 1527.9779343454
  30
0.0
  11
 1078.6041058713
  21
 1527.9779343454
  31
0.0
   0
INSERT
   5
FB
 100
AcDbEntity
   8
LEVEL001
   6
CONTINUOUS
  62
1
 100
AcDbBlockReference
   2
_OPEN30
  10
 523.60410587131
  20
 1527.9779343454
  30
0.0
  41
 24.000000000000
  42
 24.000000000000
  43
 24.000000000000
  50
 180.00000000000
   0
INSERT
   5
FC
 100
AcDbEntity
   8
LEVEL001
   6
CONTINUOUS
  62
1
 100
AcDbBlockReference
   2
_OPEN30
  10
 1633.6041058713
  20
 1527.9779343454
  30
0.0
  41
 24.000000000000
  42
 24.000000000000
  43
 24.000000000000
  50
0.0
   0
MTEXT
   5
FD
 100
AcDbEntity
   8
LEVEL001
 370
30
  62
7
 100
AcDbMText
  10
 1078.6041058713
  20
 1535.9779343454
  30
0.0
  40
 32.000000000000
  41
0.0
  71
8
  72
1
   1
\A1;1110
   7
GMM001
   0
ENDBLK
   5
FE
 100
AcDbEntity
   8
0
 100
AcDbBlockEnd
   0
BLOCK
   5
FF
 100
AcDbEntity
   8
0
 100
AcDbBlockBegin
   2
BLOCK004
  70
64
  10
0.0
  20
0.0
  30
0.0
   3
BLOCK004
   0
LINE
   5
100
 100
AcDbEntity
   8
LEVEL001
 370
20
 100
AcDbLine
   6
DASHDOT
  62
6
  10
 1077.6041058713
  20
 609.98074068596
  30
0.0
  11
 1077.6041058713
  21
 592.98820210324
  31
0.0
   0
LINE
   5
101
 100
AcDbEntity
   8
LEVEL001
 370
20
 100
AcDbLine
   6
DASHDOT
  62
6
  10
 1048.1582832685
  20
 582.36052217225
  30
0.0
  11
 1066.6006029154
  21
 582.36052217225
  31
0.0
   0
LINE
   5
102
 100
AcDbEntity
   8
LEVEL001
 370
20
 100
AcDbLine
   6
CONTINUOUS
  62
6
  10
 1121.2107075891
  20
 593.75392045445
  30
0.0
  11
 1120.5036008079
  21
 593.04681367326
  31
0.0
   0
LINE
   5
103
 100
AcDbEntity
   8
LEVEL001
 370
20
 100
AcDbLine
   6
CONTINUOUS
  62
6
  10
 1110.1898923089
  20
 603.36052217225
  30
0.0
  11
 1120.5036008079
  21
 593.04681367326
  31
0.0
   0
LINE
   5
104
 100
AcDbEntity
   8
LEVEL001
 370
20
 100
AcDbLine
   6
CONTINUOUS
  62
6
  10
 1110.6041058713
  20
 604.36052217225
  30
0.0
  11
 1121.2107075891
  21
 593.75392045445
  31
0.0
   0
LINE
   5
105
 100
AcDbEntity
   8
LEVEL001
 370
20
 100
AcDbLine
   6
CONTINUOUS
  62
6
  10
 1110.1898923089
  20
 603.36052217225
  30
0.0
  11
 1057.6041058713
  21
 603.36052217225
  31
0.0
   0
LINE
   5
106
 100
AcDbEntity
   8
LEVEL001
 370
20
 100
AcDbLine
   6
CONTINUOUS
  62
6
  10
 1110.6041058713
  20
 604.36052217225
  30
0.0
  11
 1057.6041058713
  21
 604.36052217225
  31
0.0
   0
ARC
   5
107
 100
AcDbEntity
   8
LEVEL001
 370
20
   6
CONTINUOUS
  62
6
 100
AcDbCircle
  10
 1057.6041058713
  20
 602.36052217225
  30
0.0
  40
 1.0000000000000
 100
AcDbArc
  50
 90.000000000000
  51
 180.00000000000
   0
POINT
   5
108
 100
AcDbEntity
   8
LEVEL001
 100
AcDbPoint
  62
6
  10
 1056.6041058713
  20
 603.36052217225
  30
0.0
   0
ARC
   5
109
 100
AcDbEntity
   8
LEVEL001
 370
20
   6
CONTINUOUS
  62
6
 100
AcDbCircle
  10
 1057.6041058713
  20
 602.36052217225
  30
0.0
  40
 2.0000000000000
 100
AcDbArc
  50
 90.000000000000
  51
 180.00000000000
   0
POINT
   5
10A
 100
AcDbEntity
   8
LEVEL001
 100
AcDbPoint
  62
6
  10
 1055.6041058713
  20
 604.36052217225
  30
0.0
   0
LINE
   5
10B
 100
AcDbEntity
   8
LEVEL001
 370
20
 100
AcDbLine
   6
DASHDOT
  62
6
  10
 1049.5769232413
  20
 339.36052217225
  30
0.0
  11
 1067.5463628973
  21
 339.36052217225
  31
0.0
   0
LINE
   5
10C
 100
AcDbEntity
   8
LEVEL001
 370
20
 100
AcDbLine
   6
CONTINUOUS
  62
6
  10
 1056.6041058713
  20
 329.77473573462
  30
0.0
  11
 1056.6041058713
  21
 602.36052217225
  31
0.0
   0
LINE
   5
10D
 100
AcDbEntity
   8
LEVEL001
 370
20
 100
AcDbLine
   6
CONTINUOUS
  62
6
  10
 1055.6041058713
  20
 329.36052217225
  30
0.0
  11
 1055.6041058713
  21
 602.36052217225
  31
0.0
   0
LINE
   5
10E
 100
AcDbEntity
   8
LEVEL001
 370
20
 100
AcDbLine
   6
CONTINUOUS
  62
6
  10
 1069.7462414950
  20
 315.21838654852
  30
0.0
  11
 1070.4533482762
  21
 315.92549332970
  31
0.0
   0
LINE
   5
10F
 100
AcDbEntity
   8
LEVEL001
 370
20
 100
AcDbLine
   6
CONTINUOUS
  62
6
  10
 1056.6041058713
  20
 329.77473573462
  30
0.0
  11
 1070.4533482762
  21
 315.92549332970
  31
0.0
   0
LINE
   5
110
 100
AcDbEntity
   8
LEVEL001
 370
20
 100
AcDbLine
   6
CONTINUOUS
  62
6
  10
 1055.6041058713
  20
 329.36052217225
  30
0.0
  11
 1069.7462414950
  21
 315.21838654852
  31
0.0
   0
POINT
   5
111
 100
AcDbEntity
   8
LEVEL001
 100
AcDbPoint
  62
1
  10
 1544.2161031785
  20
 522.10126291299
  30
0.0
   0
LINE
   5
112
 100
AcDbEntity
   8
LEVEL001
 370
9
 100
AcDbLine
   6
DASHDOT
  62
1
  10
 1426.1264063273
  20
 522.10126291299
  30
0.0
  11
 1549.9651906113
  21
 522.10126291299
  31
0.0
   0
ARC
   5
113
 100
AcDbEntity
   8
LEVEL001
 370
9
   6
DASHDOT
  62
1
 100
AcDbCircle
  10
 1364.2161031785
  20
 522.10126291299
  30
0.0
  40
 180.00000000000
 100
AcDbArc
  50
 335.58607598615
  51
 21.270234275656
   0
POINT
   5
114
 100
AcDbEntity
   8
LEVEL001
 100
AcDbPoint
  62
7
  10
 1055.6041058713
  20
 239.36052217225
  30
0.0
   0
POINT
   5
115
 100
AcDbEntity
   8
LEVEL001
 100
AcDbPoint
  62
7
  10
 1107.1584413247
  20
 712.14501238995
  30
0.0
   0
LINE
   5
116
 100
AcDbEntity
   8
LEVEL001
 370
30
 100
AcDbLine
   6
CONTINUOUS
  62
7
  10
 1504.9041058713
  20
 307.36052217225
  30
0.0
  11
 1502.6041058713
  21
 307.36052217225
  31
0.0
   0
ARC
   5
117
 100
AcDbEntity
   8
LEVEL001
 370
30
   6
CONTINUOUS
  62
7
 100
AcDbCircle
  10
 1500.3041058713
  20
 292.96052217225
  30
0.0
  40
 2.3000000000000
 100
AcDbArc
  50
 270.00000000002
  51
0.0
   0
POINT
   5
118
 100
AcDbEntity
   8
LEVEL001
 100
AcDbPoint
  62
7
  10
 1502.6041058713
  20
 290.66052217225
  30
0.0
   0
ARC
   5
119
 100
AcDbEntity
   8
LEVEL001
 370
30
   6
CONTINUOUS
  62
7
 100
AcDbCircle
  10
 1500.3041058713
  20
 292.96052217225
  30
0.0
  40
 4.6000000000000
 100
AcDbArc
  50
 269.99999999999
  51
 0.42481147745461E-11
   0
POINT
   5
11A
 100
AcDbEntity
   8
LEVEL001
 100
AcDbPoint
  62
7
  10
 1504.9041058713
  20
 288.36052217225
  30
0.0
   0
LINE
   5
11B
 100
AcDbEntity
   8
LEVEL001
 370
30
 100
AcDbLine
   6
CONTINUOUS
  62
7
  10
 1484.9041058713
  20
 290.66052217225
  30
0.0
  11
 1500.3041058713
  21
 290.66052217225
  31
0.0
   0
LINE
   5
11C
 100
AcDbEntity
   8
LEVEL001
 370
30
 100
AcDbLine
   6
CONTINUOUS
  62
7
  10
 1484.9041058713
  20
 288.36052217225
  30
0.0
  11
 1500.3041058713
  21
 288.36052217225
  31
0.0
   0
LINE
   5
11D
 100
AcDbEntity
   8
LEVEL001
 370
30
 100
AcDbLine
   6
CONTINUOUS
  62
7
  10
 1484.9041058713
  20
 290.66052217225
  30
0.0
  11
 1484.9041058713
  21
 288.36052217225
  31
0.0
   0
LINE
   5
11E
 100
AcDbEntity
   8
LEVEL001
 370
30
 100
AcDbLine
   6
CONTINUOUS
  62
7
  10
 1504.9041058713
  20
 292.96052217225
  30
0.0
  11
 1502.6041058713
  21
 292.96052217225
  31
0.0
   0
LINE
   5
11F
 100
AcDbEntity
   8
LEVEL001
 370
9
 100
AcDbLine
   6
DASHDOT
  62
1
  10
 1504.9041058713
  20
 449.36052217225
  30
0.0
  11
 1492.6131593437
  21
 449.36052217225
  31
0.0
   0
LINE
   5
120
 100
AcDbEntity
   8
LEVEL001
 370
9
 100
AcDbLine
   6
DASHDOT
  62
1
  10
 1504.9041058713
  20
 329.36052217225
  30
0.0
  11
 1492.6131593437
  21
 329.36052217225
  31
0.0
   0
LINE
   5
121
 100
AcDbEntity
   8
LEVEL001
 370
9
 100
AcDbLine
   6
DASHDOT
  62
1
  10
 1504.9041058713
  20
 314.36052217225
  30
0.0
  11
 1492.6131593437
  21
 314.36052217225
  31
0.0
   0
LINE
   5
122
 100
AcDbEntity
   8
LEVEL001
 370
9
 100
AcDbLine
   6
DASHDOT
  62
1
  10
 1497.8906339316
  20
 322.36052217225
  30
0.0
  11
 1510.7333478088
  21
 322.36052217225
  31
0.0
   0
LINE
   5
123
 100
AcDbEntity
   8
LEVEL001
 370
9
 100
AcDbLine
   6
DASHDOT
  62
1
  10
 1498.5760001346
  20
 462.36052217225
  30
0.0
  11
 1510.7333478088
  21
 462.36052217225
  31
0.0
   0
ARC
   5
124
 100
AcDbEntity
   8
LEVEL001
 370
30
   6
CONTINUOUS
  62
7
 100
AcDbCircle
  10
 1500.3041058713
  20
 477.76052217225
  30
0.0
  40
 2.3000000000000
 100
AcDbArc
  50
 0.18408497356367E-10
  51
 89.999999999983
   0
POINT
   5
125
 100
AcDbEntity
   8
LEVEL001
 100
AcDbPoint
  62
7
  10
 1502.6041058713
  20
 480.06052217225
  30
0.0
   0
LINE
   5
126
 100
AcDbEntity
   8
LEVEL001
 370
30
 100
AcDbLine
   6
CONTINUOUS
  62
7
  10
 1502.6041058713
  20
 477.76052217225
  30
0.0
  11
 1502.6041058713
  21
 292.96052217225
  31
0.0
   0
ARC
   5
127
 100
AcDbEntity
   8
LEVEL001
 370
30
   6
CONTINUOUS
  62
7
 100
AcDbCircle
  10
 1500.3041058713
  20
 477.76052217225
  30
0.0
  40
 4.6000000000000
 100
AcDbArc
  50
 0.18408497356367E-10
  51
 90.000000000006
   0
POINT
   5
128
 100
AcDbEntity
   8
LEVEL001
 100
AcDbPoint
  62
7
  10
 1504.9041058713
  20
 482.36052217225
  30
0.0
   0
LINE
   5
129
 100
AcDbEntity
   8
LEVEL001
 370
30
 100
AcDbLine
   6
CONTINUOUS
  62
7
  10
 1504.9041058713
  20
 477.76052217225
  30
0.0
  11
 1504.9041058713
  21
 292.96052217225
  31
0.0
   0
LINE
   5
12A
 100
AcDbEntity
   8
LEVEL001
 370
30
 100
AcDbLine
   6
CONTINUOUS
  62
7
  10
 1484.9041058713
  20
 482.36052217225
  30
0.0
  11
 1500.3041058713
  21
 482.36052217225
  31
0.0
   0
LINE
   5
12B
 100
AcDbEntity
   8
LEVEL001
 370
30
 100
AcDbLine
   6
CONTINUOUS
  62
7
  10
 1484.9041058713
  20
 480.06052217225
  30
0.0
  11
 1500.3041058713
  21
 480.06052217225
  31
0.0
   0
LINE
   5
12C
 100
AcDbEntity
   8
LEVEL001
 370
30
 100
AcDbLine
   6
CONTINUOUS
  62
7
  10
 1484.9041058713
  20
 482.36052217225
  30
0.0
  11
 1484.9041058713
  21
 480.06052217225
  31
0.0
   0
LINE
   5
12D
 100
AcDbEntity
   8
LEVEL001
 370
30
 100
AcDbLine
   6
CONTINUOUS
  62
7
  10
 1504.9041058713
  20
 477.76052217225
  30
0.0
  11
 1502.6041058713
  21
 477.76052217225
  31
0.0
   0
CIRCLE
   5
12E
 100
AcDbEntity
   8
LEVEL001
 370
30
 100
AcDbCircle
   6
CONTINUOUS
  62
7
  10
 1516.4041058713
  20
 296.36052217225
  30
0.0
  40
 1.5000000000000
   0
LINE
   5
12F
 100
AcDbEntity
   8
LEVEL001
 370
9
 100
AcDbLine
   6
DASHDOT
  62
1
  10
 1516.4041058713
  20
 299.16052217224
  30
0.0
  11
 1516.4041058713
  21
 293.56052217225
  31
0.0
   0
LINE
   5
130
 100
AcDbEntity
   8
LEVEL001
 370
9
 100
AcDbLine
   6
DASHDOT
  62
1
  10
 1523.5729393460
  20
 296.36052217225
  30
0.0
  11
 1489.8141058713
  21
 296.36052217225
  31
0.0
   0
LINE
   5
131
 100
AcDbEntity
   8
LEVEL001
 370
30
 100
AcDbLine
   6
CONTINUOUS
  62
7
  10
 1511.4041058713
  20
 299.48302117144
  30
0.0
  11
 1511.4041058713
  21
 293.23802317305
  31
0.0
   0
LINE
   5
132
 100
AcDbEntity
   8
LEVEL001
 370
30
 100
AcDbLine
   6
CONTINUOUS
  62
7
  10
 1521.4041058713
  20
 299.36052217225
  30
0.0
  11
 1520.4041058713
  21
 300.36052217225
  31
0.0
   0
POINT
   5
133
 100
AcDbEntity
   8
LEVEL001
 100
AcDbPoint
  62
7
  10
 1521.4041058713
  20
 300.36052217225
  30
0.0
   0
LINE
   5
134
 100
AcDbEntity
   8
LEVEL001
 370
30
 100
AcDbLine
   6
CONTINUOUS
  62
7
  10
 1521.4041058713
  20
 299.36052217225
  30
0.0
  11
 1521.4041058713
  21
 293.36052217225
  31
0.0
   0
LINE
   5
135
 100
AcDbEntity
   8
LEVEL001
 370
30
 100
AcDbLine
   6
CONTINUOUS
  62
7
  10
 1521.4041058713
  20
 293.36052217225
  30
0.0
  11
 1520.4041058713
  21
 292.36052217225
  31
0.0
   0
POINT
   5
136
 100
AcDbEntity
   8
LEVEL001
 100
AcDbPoint
  62
7
  10
 1521.4041058713
  20
 292.36052217225
  30
0.0
   0
LINE
   5
137
 100
AcDbEntity
   8
LEVEL001
 370
30
 100
AcDbLine
   6
CONTINUOUS
  62
7
  10
 1520.4041058713
  20
 292.36052217225
  30
0.0
  11
 1492.4041058713
  21
 292.36052217225
  31
0.0
   0
LINE
   5
138
 100
AcDbEntity
   8
LEVEL001
 370
30
 100
AcDbLine
   6
CONTINUOUS
  62
7
  10
 1492.4041058713
  20
 292.36052217225
  30
0.0
  11
 1491.4041058713
  21
 293.36052217225
  31
0.0
   0
POINT
   5
139
 100
AcDbEntity
   8
LEVEL001
 100
AcDbPoint
  62
7
  10
 1491.4041058713
  20
 292.36052217225
  30
0.0
   0
LINE
   5
13A
 100
AcDbEntity
   8
LEVEL001
 370
30
 100
AcDbLine
   6
CONTINUOUS
  62
7
  10
 1491.4041058713
  20
 299.36052217225
  30
0.0
  11
 1491.4041058713
  21
 293.36052217225
  31
0.0
   0
LINE
   5
13B
 100
AcDbEntity
   8
LEVEL001
 370
30
 100
AcDbLine
   6
CONTINUOUS
  62
7
  10
 1491.4041058713
  20
 299.36052217225
  30
0.0
  11
 1492.4041058713
  21
 300.36052217225
  31
0.0
   0
POINT
   5
13C
 100
AcDbEntity
   8
LEVEL001
 100
AcDbPoint
  62
7
  10
 1491.4041058713
  20
 300.36052217225
  30
0.0
   0
LINE
   5
13D
 100
AcDbEntity
   8
LEVEL001
 370
30
 100
AcDbLine
   6
CONTINUOUS
  62
7
  10
 1520.4041058713
  20
 300.36052217225
  30
0.0
  11
 1492.4041058713
  21
 300.36052217225
  31
0.0
   0
LINE
   5
13E
 100
AcDbEntity
   8
LEVEL001
 370
20
 100
AcDbLine
   6
CONTINUOUS
  62
3
  10
 1521.0806058713
  20
 299.68402217225
  30
0.0
  11
 1491.7276058713
  21
 299.68402217225
  31
0.0
   0
LINE
   5
13F
 100
AcDbEntity
   8
LEVEL001
 370
30
 100
AcDbLine
   6
CONTINUOUS
  62
7
  10
 1521.2816068721
  20
 299.48302117144
  30
0.0
  11
 1511.4041058713
  21
 299.48302117144
  31
0.0
   0
LINE
   5
140
 100
AcDbEntity
   8
LEVEL001
 370
30
 100
AcDbLine
   6
CONTINUOUS
  62
7
  10
 1521.2816068721
  20
 293.23802317305
  30
0.0
  11
 1511.4041058713
  21
 293.23802317305
  31
0.0
   0
LINE
   5
141
 100
AcDbEntity
   8
LEVEL001
 370
20
 100
AcDbLine
   6
CONTINUOUS
  62
3
  10
 1521.0806058713
  20
 293.03702217224
  30
0.0
  11
 1491.7276058713
  21
 293.03702217224
  31
0.0
   0
LINE
   5
142
 100
AcDbEntity
   8
LEVEL001
 370
30
 100
AcDbLine
   6
CONTINUOUS
  62
7
  10
 1492.4041058713
  20
 292.36052217225
  30
0.0
  11
 1492.4041058713
  21
 300.36052217225
  31
0.0
   0
LINE
   5
143
 100
AcDbEntity
   8
LEVEL001
 370
30
 100
AcDbLine
   6
CONTINUOUS
  62
7
  10
 1520.4041058713
  20
 300.36052217225
  30
0.0
  11
 1520.4041058713
  21
 299.48302117144
  31
0.0
   0
LINE
   5
144
 100
AcDbEntity
   8
LEVEL001
 370
30
 100
AcDbLine
   6
CONTINUOUS
  62
7
  10
 1520.4041058713
  20
 293.23802317305
  30
0.0
  11
 1520.4041058713
  21
 292.36052217225
  31
0.0
   0
LINE
   5
145
 100
AcDbEntity
   8
LEVEL001
 370
30
 100
AcDbLine
   6
CONTINUOUS
  62
7
  10
 1493.6290000222
  20
 303.86607567171
  30
0.0
  11
 1499.4041058713
  21
 303.86607567171
  31
0.0
   0
LINE
   5
146
 100
AcDbEntity
   8
LEVEL001
 370
30
 100
AcDbLine
   6
CONTINUOUS
  62
7
  10
 1499.4041058713
  20
 303.86607567171
  30
0.0
  11
 1499.4041058713
  21
 288.85496867278
  31
0.0
   0
LINE
   5
147
 100
AcDbEntity
   8
LEVEL001
 370
30
 100
AcDbLine
   6
CONTINUOUS
  62
7
  10
 1499.4041058713
  20
 288.85496867278
  30
0.0
  11
 1493.6290000222
  21
 288.85496867278
  31
0.0
   0
LINE
   5
148
 100
AcDbEntity
   8
LEVEL001
 370
30
 100
AcDbLine
   6
CONTINUOUS
  62
7
  10
 1492.9041058713
  20
 290.73135704765
  30
0.0
  11
 1492.9041058713
  21
 301.98968729684
  31
0.0
   0
ARC
   5
149
 100
AcDbEntity
   8
LEVEL001
 370
30
   6
CONTINUOUS
  62
7
 100
AcDbCircle
  10
 1502.9806148659
  20
 296.36052217225
  30
0.0
  40
 10.076508994616
 100
AcDbArc
  50
 158.13454724162
  51
 201.86545275838
   0
LINE
   5
14A
 100
AcDbEntity
   8
LEVEL001
 370
30
 100
AcDbLine
   6
CONTINUOUS
  62
7
  10
 1499.4041058713
  20
 292.60774542251
  30
0.0
  11
 1493.6290000222
  21
 292.60774542251
  31
0.0
   0
ARC
   5
14B
 100
AcDbEntity
   8
LEVEL001
 370
30
   6
CONTINUOUS
  62
7
 100
AcDbCircle
  10
 1495.6950684265
  20
 290.73135704765
  30
0.0
  40
 2.7909625552408
 100
AcDbArc
  50
 137.75449848086
  51
 222.24550151914
   0
LINE
   5
14C
 100
AcDbEntity
   8
LEVEL001
 370
30
 100
AcDbLine
   6
CONTINUOUS
  62
7
  10
 1499.4041058713
  20
 300.11329892198
  30
0.0
  11
 1493.6290000222
  21
 300.11329892198
  31
0.0
   0
ARC
   5
14D
 100
AcDbEntity
   8
LEVEL001
 370
30
   6
CONTINUOUS
  62
7
 100
AcDbCircle
  10
 1495.6950684266
  20
 301.98968729684
  30
0.0
  40
 2.7909625552408
 100
AcDbArc
  50
 137.75449848089
  51
 222.24550151911
   0
LINE
   5
14E
 100
AcDbEntity
   8
LEVEL001
 370
9
 100
AcDbLine
   6
DASHDOT
  62
1
  10
 1489.6541058713
  20
 296.36052217225
  30
0.0
  11
 1502.6541058713
  21
 296.36052217225
  31
0.0
   0
LINE
   5
14F
 100
AcDbEntity
   8
LEVEL001
 370
30
 100
AcDbLine
   6
CONTINUOUS
  62
7
  10
 1508.3792117204
  20
 303.86607567171
  30
0.0
  11
 1502.6041058713
  21
 303.86607567171
  31
0.0
   0
LINE
   5
150
 100
AcDbEntity
   8
LEVEL001
 370
30
 100
AcDbLine
   6
CONTINUOUS
  62
7
  10
 1502.6041058713
  20
 303.86607567171
  30
0.0
  11
 1502.6041058713
  21
 288.85496867278
  31
0.0
   0
LINE
   5
151
 100
AcDbEntity
   8
LEVEL001
 370
30
 100
AcDbLine
   6
CONTINUOUS
  62
7
  10
 1502.6041058713
  20
 288.85496867278
  30
0.0
  11
 1508.3792117204
  21
 288.85496867278
  31
0.0
   0
LINE
   5
152
 100
AcDbEntity
   8
LEVEL001
 370
30
 100
AcDbLine
   6
CONTINUOUS
  62
7
  10
 1509.1041058713
  20
 290.73135704765
  30
0.0
  11
 1509.1041058713
  21
 301.98968729684
  31
0.0
   0
ARC
   5
153
 100
AcDbEntity
   8
LEVEL001
 370
30
   6
CONTINUOUS
  62
7
 100
AcDbCircle
  10
 1499.0275968767
  20
 296.36052217225
  30
0.0
  40
 10.076508994616
 100
AcDbArc
  50
 338.13454724162
  51
 21.865452758381
   0
LINE
   5
154
 100
AcDbEntity
   8
LEVEL001
 370
30
 100
AcDbLine
   6
CONTINUOUS
  62
7
  10
 1502.6041058713
  20
 292.60774542251
  30
0.0
  11
 1508.3792117204
  21
 292.60774542251
  31
0.0
   0
ARC
   5
155
 100
AcDbEntity
   8
LEVEL001
 370
30
   6
CONTINUOUS
  62
7
 100
AcDbCircle
  10
 1506.3131433161
  20
 290.73135704765
  30
0.0
  40
 2.7909625552408
 100
AcDbArc
  50
 317.75449848086
  51
 42.245501519137
   0
LINE
   5
156
 100
AcDbEntity
   8
LEVEL001
 370
30
 100
AcDbLine
   6
CONTINUOUS
  62
7
  10
 1502.6041058713
  20
 300.11329892198
  30
0.0
  11
 1508.3792117204
  21
 300.11329892198
  31
0.0
   0
ARC
   5
157
 100
AcDbEntity
   8
LEVEL001
 370
30
   6
CONTINUOUS
  62
7
 100
AcDbCircle
  10
 1506.3131433161
  20
 301.98968729684
  30
0.0
  40
 2.7909625552408
 100
AcDbArc
  50
 317.75449848089
  51
 42.245501519110
   0
LINE
   5
158
 100
AcDbEntity
   8
LEVEL001
 370
9
 100
AcDbLine
   6
DASHDOT
  62
1
  10
 1512.3541058713
  20
 296.36052217225
  30
0.0
  11
 1499.3541058713
  21
 296.36052217225
  31
0.0
   0
LINE
   5
159
 100
AcDbEntity
   8
LEVEL001
 370
30
 100
AcDbLine
   6
CONTINUOUS
  62
7
  10
 1528.2639463144
  20
 566.69167850249
  30
0.0
  11
 1528.2639463144
  21
 512.66784727779
  31
0.0
   0
LINE
   5
15A
 100
AcDbEntity
   8
LEVEL001
 370
9
 100
AcDbLine
   6
DASHDOT
  62
1
  10
 1087.6041058713
  20
 265.03217991278
  30
0.0
  11
 1087.6041058713
  21
 292.57719528389
  31
0.0
   0
LINE
   5
15B
 100
AcDbEntity
   8
LEVEL001
 370
30
 100
AcDbLine
   6
CONTINUOUS
  62
7
  10
 1057.6041058713
  20
 279.36052217225
  30
0.0
  11
 1057.6041058713
  21
 239.36052217225
  31
0.0
   0
POINT
   5
15C
 100
AcDbEntity
   8
LEVEL001
 100
AcDbPoint
  62
7
  10
 1077.6041058713
  20
 259.36052217225
  30
0.0
   0
LINE
   5
15D
 100
AcDbEntity
   8
LEVEL001
 370
30
 100
AcDbLine
   6
CONTINUOUS
  62
7
  10
 1057.6041058713
  20
 239.36052217225
  30
0.0
  11
 1058.6041058713
  21
 239.36052217225
  31
0.0
   0
ARC
   5
15E
 100
AcDbEntity
   8
LEVEL001
 370
30
   6
CONTINUOUS
  62
7
 100
AcDbCircle
  10
 1058.6041058713
  20
 241.36052217225
  30
0.0
  40
 2.0000000000000
 100
AcDbArc
  50
 270.00000000000
  51
0.0
   0
LINE
   5
15F
 100
AcDbEntity
   8
LEVEL001
 370
30
 100
AcDbLine
   6
CONTINUOUS
  62
7
  10
 1060.6041058713
  20
 241.36052217225
  30
0.0
  11
 1060.6041058713
  21
 271.86052217225
  31
0.0
   0
ARC
   5
160
 100
AcDbEntity
   8
LEVEL001
 370
30
   6
CONTINUOUS
  62
7
 100
AcDbCircle
  10
 1065.1041058713
  20
 271.86052217225
  30
0.0
  40
 4.5000000000000
 100
AcDbArc
  50
 90.000000000000
  51
 180.00000000000
   0
LINE
   5
161
 100
AcDbEntity
   8
LEVEL001
 370
30
 100
AcDbLine
   6
CONTINUOUS
  62
7
  10
 1065.1041058713
  20
 276.36052217225
  30
0.0
  11
 1095.6041058713
  21
 276.36052217225
  31
0.0
   0
ARC
   5
162
 100
AcDbEntity
   8
LEVEL001
 370
30
   6
CONTINUOUS
  62
7
 100
AcDbCircle
  10
 1095.6041058713
  20
 278.36052217225
  30
0.0
  40
 2.0000000000000
 100
AcDbArc
  50
 270.00000000000
  51
0.0
   0
LWPOLYLINE
   5
163
 100
AcDbEntity
   8
LEVEL001
 370
30
   6
CONTINUOUS
  62
7
 100
AcDbPolyline
  90
4
  70
0
  10
 1097.6041058713
  20
 278.36052217225
  10
 1097.6041058713
  20
 279.36052217225
  10
 1057.6041058713
  20
 279.36052217225
  10
 1057.6041058713
  20
 239.36052217225
   0
POINT
   5
164
 100
AcDbEntity
   8
LEVEL001
 100
AcDbPoint
  62
5
  10
 1060.6041058713
  20
 276.36052217225
  30
0.0
   0
LINE
   5
165
 100
AcDbEntity
   8
LEVEL001
 370
30
 100
AcDbLine
   6
CONTINUOUS
  62
7
  10
 1060.6041058713
  20
 270.36052217225
  30
0.0
  11
 1066.6041058713
  21
 276.36052217225
  31
0.0
   0
POINT
   5
166
 100
AcDbEntity
   8
LEVEL001
 100
AcDbPoint
  62
7
  10
 1060.6041058713
  20
 276.36052217225
  30
0.0
   0
LINE
   5
167
 100
AcDbEntity
   8
LEVEL001
 370
30
 100
AcDbLine
   6
CONTINUOUS
  62
7
  10
 1057.6041058713
  20
 279.36052217225
  30
0.0
  11
 1502.6041058713
  21
 279.36052217225
  31
0.0
   0
LINE
   5
168
 100
AcDbEntity
   8
LEVEL001
 370
30
 100
AcDbLine
   6
CONTINUOUS
  62
7
  10
 1057.6041058713
  20
 239.36052217225
  30
0.0
  11
 1502.6041058713
  21
 239.36052217225
  31
0.0
   0
POINT
   5
169
 100
AcDbEntity
   8
LEVEL001
 100
AcDbPoint
  62
7
  10
 1482.6041058713
  20
 259.36052217225
  30
0.0
   0
LINE
   5
16A
 100
AcDbEntity
   8
LEVEL001
 370
30
 100
AcDbLine
   6
CONTINUOUS
  62
7
  10
 1502.6041058713
  20
 239.36052217225
  30
0.0
  11
 1501.6041058713
  21
 239.36052217225
  31
0.0
   0
ARC
   5
16B
 100
AcDbEntity
   8
LEVEL001
 370
30
   6
CONTINUOUS
  62
7
 100
AcDbCircle
  10
 1501.6041058713
  20
 241.36052217225
  30
0.0
  40
 2.0000000000000
 100
AcDbArc
  50
 180.00000000000
  51
 270.00000000000
   0
LINE
   5
16C
 100
AcDbEntity
   8
LEVEL001
 370
30
 100
AcDbLine
   6
CONTINUOUS
  62
7
  10
 1499.6041058713
  20
 241.36052217225
  30
0.0
  11
 1499.6041058713
  21
 271.86052217225
  31
0.0
   0
ARC
   5
16D
 100
AcDbEntity
   8
LEVEL001
 370
30
   6
CONTINUOUS
  62
7
 100
AcDbCircle
  10
 1495.1041058713
  20
 271.86052217225
  30
0.0
  40
 4.5000000000000
 100
AcDbArc
  50
0.0
  51
 90.000000000000
   0
LINE
   5
16E
 100
AcDbEntity
   8
LEVEL001
 370
30
 100
AcDbLine
   6
CONTINUOUS
  62
7
  10
 1495.1041058713
  20
 276.36052217225
  30
0.0
  11
 1464.6041058713
  21
 276.36052217225
  31
0.0
   0
ARC
   5
16F
 100
AcDbEntity
   8
LEVEL001
 370
30
   6
CONTINUOUS
  62
7
 100
AcDbCircle
  10
 1464.6041058713
  20
 278.36052217225
  30
0.0
  40
 2.0000000000000
 100
AcDbArc
  50
 180.00000000000
  51
 270.00000000000
   0
LWPOLYLINE
   5
170
 100
AcDbEntity
   8
LEVEL001
 370
30
   6
CONTINUOUS
  62
7
 100
AcDbPolyline
  90
4
  70
0
  10
 1462.6041058713
  20
 278.36052217225
  10
 1462.6041058713
  20
 279.36052217225
  10
 1502.6041058713
  20
 279.36052217225
  10
 1502.6041058713
  20
 239.36052217225
   0
LINE
   5
171
 100
AcDbEntity
   8
LEVEL001
 370
30
 100
AcDbLine
   6
CONTINUOUS
  62
7
  10
 1502.6041058713
  20
 279.36052217225
  30
0.0
  11
 1502.6041058713
  21
 239.36052217225
  31
0.0
   0
LINE
   5
172
 100
AcDbEntity
   8
LEVEL001
 370
30
 100
AcDbLine
   6
CONTINUOUS
  62
7
  10
 1499.6041058713
  20
 270.36052217225
  30
0.0
  11
 1493.6041058713
  21
 276.36052217225
  31
0.0
   0
POINT
   5
173
 100
AcDbEntity
   8
LEVEL001
 100
AcDbPoint
  62
7
  10
 1499.6041058713
  20
 276.36052217225
  30
0.0
   0
LINE
   5
174
 100
AcDbEntity
   8
LEVEL001
 370
20
 100
AcDbLine
   6
HIDDEN
  62
5
  10
 1066.6041058713
  20
 276.36052217225
  30
0.0
  11
 1493.6041058713
  21
 276.36052217225
  31
0.0
   0
LINE
   5
175
 100
AcDbEntity
   8
LEVEL001
 370
9
 100
AcDbLine
   6
DASHDOT
  62
1
  10
 1427.6041058713
  20
 265.03217991278
  30
0.0
  11
 1427.6041058713
  21
 292.57719528389
  31
0.0
   0
LINE
   5
176
 100
AcDbEntity
   8
LEVEL001
 370
30
 100
AcDbLine
   6
CONTINUOUS
  62
7
  10
 1502.6041058713
  20
 239.36052217225
  30
0.0
  11
 1427.6041058713
  21
 239.36052217225
  31
0.0
   0
LINE
   5
177
 100
AcDbEntity
   8
LEVEL001
 370
30
 100
AcDbLine
   6
CONTINUOUS
  62
7
  10
 1427.6041058713
  20
 239.36052217225
  30
0.0
  11
 1427.6041058713
  21
 233.36052217225
  31
0.0
   0
LINE
   5
178
 100
AcDbEntity
   8
LEVEL001
 370
30
 100
AcDbLine
   6
CONTINUOUS
  62
7
  10
 1502.6041058713
  20
 233.36052217225
  30
0.0
  11
 1427.6041058713
  21
 233.36052217225
  31
0.0
   0
LINE
   5
179
 100
AcDbEntity
   8
LEVEL001
 370
30
 100
AcDbLine
   6
CONTINUOUS
  62
7
  10
 1502.6041058713
  20
 239.36052217225
  30
0.0
  11
 1502.6041058713
  21
 233.36052217225
  31
0.0
   0
LINE
   5
17A
 100
AcDbEntity
   8
LEVEL001
 370
9
 100
AcDbLine
   6
DASHDOT
  62
1
  10
 1493.7419305094
  20
 245.14366615858
  30
0.0
  11
 1493.7419305094
  21
 228.53027070692
  31
0.0
   0
LINE
   5
17B
 100
AcDbEntity
   8
LEVEL001
 370
9
 100
AcDbLine
   6
DASHDOT
  62
1
  10
 1487.6041058713
  20
 245.14366615858
  30
0.0
  11
 1487.6041058713
  21
 228.53027070692
  31
0.0
   0
LINE
   5
17C
 100
AcDbEntity
   8
LEVEL001
 370
9
 100
AcDbLine
   6
DASHDOT
  62
1
  10
 1477.6041058713
  20
 245.14366615858
  30
0.0
  11
 1477.6041058713
  21
 228.53027070692
  31
0.0
   0
LINE
   5
17D
 100
AcDbEntity
   8
LEVEL001
 370
9
 100
AcDbLine
   6
DASHDOT
  62
1
  10
 1468.9931931678
  20
 245.14366615858
  30
0.0
  11
 1468.9931931678
  21
 228.53027070692
  31
0.0
   0
LINE
   5
17E
 100
AcDbEntity
   8
LEVEL001
 370
9
 100
AcDbLine
   6
DASHDOT
  62
1
  10
 1461.2150185748
  20
 245.14366615858
  30
0.0
  11
 1461.2150185748
  21
 228.53027070692
  31
0.0
   0
LINE
   5
17F
 100
AcDbEntity
   8
LEVEL001
 370
9
 100
AcDbLine
   6
DASHDOT
  62
1
  10
 1452.6041058713
  20
 245.14366615858
  30
0.0
  11
 1452.6041058713
  21
 228.53027070692
  31
0.0
   0
LINE
   5
180
 100
AcDbEntity
   8
LEVEL001
 370
9
 100
AcDbLine
   6
DASHDOT
  62
1
  10
 1442.6041058713
  20
 245.14366615858
  30
0.0
  11
 1442.6041058713
  21
 228.53027070692
  31
0.0
   0
LINE
   5
181
 100
AcDbEntity
   8
LEVEL001
 370
9
 100
AcDbLine
   6
DASHDOT
  62
1
  10
 1436.4662812333
  20
 245.14366615858
  30
0.0
  11
 1436.4662812333
  21
 228.53027070692
  31
0.0
   0
LINE
   5
182
 100
AcDbEntity
   8
LEVEL001
 370
30
 100
AcDbLine
   6
CONTINUOUS
  62
7
  10
 1132.6041058713
  20
 239.36052217225
  30
0.0
  11
 1057.6041058713
  21
 239.36052217225
  31
0.0
   0
LINE
   5
183
 100
AcDbEntity
   8
LEVEL001
 370
30
 100
AcDbLine
   6
CONTINUOUS
  62
7
  10
 1057.6041058713
  20
 239.36052217225
  30
0.0
  11
 1057.6041058713
  21
 233.36052217225
  31
0.0
   0
LINE
   5
184
 100
AcDbEntity
   8
LEVEL001
 370
30
 100
AcDbLine
   6
CONTINUOUS
  62
7
  10
 1132.6041058713
  20
 233.36052217225
  30
0.0
  11
 1057.6041058713
  21
 233.36052217225
  31
0.0
   0
LINE
   5
185
 100
AcDbEntity
   8
LEVEL001
 370
30
 100
AcDbLine
   6
CONTINUOUS
  62
7
  10
 1132.6041058713
  20
 239.36052217225
  30
0.0
  11
 1132.6041058713
  21
 233.36052217225
  31
0.0
   0
LINE
   5
186
 100
AcDbEntity
   8
LEVEL001
 370
9
 100
AcDbLine
   6
DASHDOT
  62
1
  10
 1123.7419305094
  20
 245.14366615858
  30
0.0
  11
 1123.7419305094
  21
 228.53027070692
  31
0.0
   0
LINE
   5
187
 100
AcDbEntity
   8
LEVEL001
 370
9
 100
AcDbLine
   6
DASHDOT
  62
1
  10
 1117.6041058713
  20
 245.14366615858
  30
0.0
  11
 1117.6041058713
  21
 228.53027070692
  31
0.0
   0
LINE
   5
188
 100
AcDbEntity
   8
LEVEL001
 370
9
 100
AcDbLine
   6
DASHDOT
  62
1
  10
 1107.6041058713
  20
 245.14366615858
  30
0.0
  11
 1107.6041058713
  21
 228.53027070692
  31
0.0
   0
LINE
   5
189
 100
AcDbEntity
   8
LEVEL001
 370
9
 100
AcDbLine
   6
DASHDOT
  62
1
  10
 1098.9931931678
  20
 245.14366615858
  30
0.0
  11
 1098.9931931678
  21
 228.53027070692
  31
0.0
   0
LINE
   5
18A
 100
AcDbEntity
   8
LEVEL001
 370
9
 100
AcDbLine
   6
DASHDOT
  62
1
  10
 1091.2150185748
  20
 245.14366615858
  30
0.0
  11
 1091.2150185748
  21
 228.53027070692
  31
0.0
   0
LINE
   5
18B
 100
AcDbEntity
   8
LEVEL001
 370
9
 100
AcDbLine
   6
DASHDOT
  62
1
  10
 1082.6041058713
  20
 245.14366615858
  30
0.0
  11
 1082.6041058713
  21
 228.53027070692
  31
0.0
   0
LINE
   5
18C
 100
AcDbEntity
   8
LEVEL001
 370
9
 100
AcDbLine
   6
DASHDOT
  62
1
  10
 1072.6041058713
  20
 245.14366615858
  30
0.0
  11
 1072.6041058713
  21
 228.53027070692
  31
0.0
   0
LINE
   5
18D
 100
AcDbEntity
   8
LEVEL001
 370
9
 100
AcDbLine
   6
DASHDOT
  62
1
  10
 1066.4662812333
  20
 245.14366615858
  30
0.0
  11
 1066.4662812333
  21
 228.53027070692
  31
0.0
   0
CIRCLE
   5
18E
 100
AcDbEntity
   8
LEVEL001
 370
20
 100
AcDbCircle
   6
DIVIDE
  62
9
  10
 1291.6789966430
  20
 641.84418828005
  30
0.0
  40
 70.000000000000
   0
CIRCLE
   5
18F
 100
AcDbEntity
   8
LEVEL001
 370
20
 100
AcDbCircle
   6
DIVIDE
  62
9
  10
 1291.6789966430
  20
 641.84418828005
  30
0.0
  40
 66.000000000000
   0
LINE
   5
190
 100
AcDbEntity
   8
LEVEL001
 370
20
 100
AcDbLine
   6
CONTINUOUS
  62
2
  10
 1126.8040875608
  20
 603.86052217225
  30
0.0
  11
 1126.8040875608
  21
 603.36052217225
  31
0.0
   0
LINE
   5
191
 100
AcDbEntity
   8
LEVEL001
 370
20
 100
AcDbLine
   6
CONTINUOUS
  62
2
  10
 1098.4040936643
  20
 603.86052217225
  30
0.0
  11
 1098.4040936643
  21
 603.36052217225
  31
0.0
   0
LINE
   5
192
 100
AcDbEntity
   8
LEVEL001
 370
20
 100
AcDbLine
   6
CONTINUOUS
  62
2
  10
 1126.8040875608
  20
 603.36052217225
  30
0.0
  11
 1098.4041089231
  21
 603.36052217225
  31
0.0
   0
LINE
   5
193
 100
AcDbEntity
   8
LEVEL001
 370
20
 100
AcDbLine
   6
CONTINUOUS
  62
2
  10
 1140.0041058713
  20
 603.96052217225
  30
0.0
  11
 1085.2041058713
  21
 603.96052217225
  31
0.0
   0
LINE
   5
194
 100
AcDbEntity
   8
LEVEL001
 370
20
 100
AcDbLine
   6
CONTINUOUS
  62
2
  10
 1086.5041058713
  20
 603.96052217225
  30
0.0
  11
 1086.5041058713
  21
 603.86052217225
  31
0.0
   0
LINE
   5
195
 100
AcDbEntity
   8
LEVEL001
 370
20
 100
AcDbLine
   6
CONTINUOUS
  62
2
  10
 1138.7041058713
  20
 603.96052217225
  30
0.0
  11
 1138.7041058713
  21
 603.86052217225
  31
0.0
   0
LINE
   5
196
 100
AcDbEntity
   8
LEVEL001
 370
20
 100
AcDbLine
   6
CONTINUOUS
  62
2
  10
 1086.5041058713
  20
 603.86052217225
  30
0.0
  11
 1138.7041058713
  21
 603.86052217225
  31
0.0
   0
LINE
   5
197
 100
AcDbEntity
   8
LEVEL001
 370
20
 100
AcDbLine
   6
CONTINUOUS
  62
2
  10
 1139.6041058713
  20
 611.16052217225
  30
0.0
  11
 1139.5041058713
  21
 617.56052217225
  31
0.0
   0
LINE
   5
198
 100
AcDbEntity
   8
LEVEL001
 370
20
 100
AcDbLine
   6
CONTINUOUS
  62
2
  10
 1140.0041058713
  20
 603.96052217225
  30
0.0
  11
 1139.9041058713
  21
 610.86052217225
  31
0.0
   0
LINE
   5
199
 100
AcDbEntity
   8
LEVEL001
 370
20
 100
AcDbLine
   6
CONTINUOUS
  62
2
  10
 1085.3041058713
  20
 610.86052217225
  30
0.0
  11
 1085.2041058713
  21
 603.96052217225
  31
0.0
   0
LINE
   5
19A
 100
AcDbEntity
   8
LEVEL001
 370
20
 100
AcDbLine
   6
CONTINUOUS
  62
2
  10
 1085.7041058713
  20
 617.56052217225
  30
0.0
  11
 1085.6041058713
  21
 611.16052217225
  31
0.0
   0
LINE
   5
19B
 100
AcDbEntity
   8
LEVEL001
 370
20
 100
AcDbLine
   6
CONTINUOUS
  62
2
  10
 1139.6041058713
  20
 611.16052217225
  30
0.0
  11
 1085.6041058713
  21
 611.16052217225
  31
0.0
   0
LINE
   5
19C
 100
AcDbEntity
   8
LEVEL001
 370
20
 100
AcDbLine
   6
CONTINUOUS
  62
2
  10
 1139.9041058713
  20
 610.86052217225
  30
0.0
  11
 1085.3041058713
  21
 610.86052217225
  31
0.0
   0
LINE
   5
19D
 100
AcDbEntity
   8
LEVEL001
 370
20
 100
AcDbLine
   6
CONTINUOUS
  62
2
  10
 1085.7041058713
  20
 617.56052217225
  30
0.0
  11
 1139.5041058713
  21
 617.56052217225
  31
0.0
   0
LINE
   5
19E
 100
AcDbEntity
   8
LEVEL001
 370
20
 100
AcDbLine
   6
CONTINUOUS
  62
2
  10
 1086.0041058713
  20
 617.86052217225
  30
0.0
  11
 1139.2041058713
  21
 617.86052217225
  31
0.0
   0
LINE
   5
19F
 100
AcDbEntity
   8
LEVEL001
 370
20
 100
AcDbLine
   6
CONTINUOUS
  62
2
  10
 1086.0041058713
  20
 617.86052217225
  30
0.0
  11
 1085.7041058713
  21
 617.56052217225
  31
0.0
   0
LINE
   5
1A0
 100
AcDbEntity
   8
LEVEL001
 370
20
 100
AcDbLine
   6
CONTINUOUS
  62
2
  10
 1085.6041058713
  20
 611.16052217225
  30
0.0
  11
 1085.3041058713
  21
 610.86052217225
  31
0.0
   0
LINE
   5
1A1
 100
AcDbEntity
   8
LEVEL001
 370
20
 100
AcDbLine
   6
CONTINUOUS
  62
2
  10
 1139.6041058713
  20
 611.16052217225
  30
0.0
  11
 1139.9041058713
  21
 610.86052217225
  31
0.0
   0
LINE
   5
1A2
 100
AcDbEntity
   8
LEVEL001
 370
20
 100
AcDbLine
   6
CONTINUOUS
  62
2
  10
 1139.2041058713
  20
 617.86052217225
  30
0.0
  11
 1139.5041058713
  21
 617.56052217225
  31
0.0
   0
ARC
   5
1A3
 100
AcDbEntity
   8
LEVEL001
 370
20
   6
DOT
  62
2
 100
AcDbCircle
  10
 1101.1042432004
  20
 591.06058015565
  30
0.0
  40
 0.29999995230000
 100
AcDbArc
  50
 89.999999999870
  51
 179.99987273085
   0
ARC
   5
1A4
 100
AcDbEntity
   8
LEVEL001
 370
20
   6
DOT
  62
2
 100
AcDbCircle
  10
 1098.5040234738
  20
 590.26057710395
  30
0.0
  40
 0.29999995230000
 100
AcDbArc
  50
 89.999999999870
  51
 179.99987273085
   0
LINE
   5
1A5
 100
AcDbEntity
   8
LEVEL001
 370
20
 100
AcDbLine
   6
DOT
  62
2
  10
 1102.4040936643
  20
 591.36064424255
  30
0.0
  11
 1102.4040936643
  21
 591.86056794865
  31
0.0
   0
LINE
   5
1A6
 100
AcDbEntity
   8
LEVEL001
 370
20
 100
AcDbLine
   6
DOT
  62
2
  10
 1102.2032492957
  20
 591.85932656145
  30
0.0
  11
 1101.6532486444
  21
 592.17686959125
  31
0.0
   0
LINE
   5
1A7
 100
AcDbEntity
   8
LEVEL001
 370
20
 100
AcDbLine
   6
DOT
  62
2
  10
 1101.6540936643
  20
 592.17810334905
  30
0.0
  11
 1101.6540936643
  21
 595.74382295355
  31
0.0
   0
LINE
   5
1A8
 100
AcDbEntity
   8
LEVEL001
 370
20
 100
AcDbLine
   6
DOT
  62
2
  10
 1123.0036420041
  20
 591.86056794865
  30
0.0
  11
 1102.2040814572
  21
 591.86056794865
  31
0.0
   0
LINE
   5
1A9
 100
AcDbEntity
   8
LEVEL001
 370
20
 100
AcDbLine
   6
DOT
  62
2
  10
 1098.4040784055
  20
 599.24383821235
  30
0.0
  11
 1098.4040784055
  21
 600.74383821235
  31
0.0
   0
LINE
   5
1AA
 100
AcDbEntity
   8
LEVEL001
 370
20
 100
AcDbLine
   6
DOT
  62
2
  10
 1098.5276440793
  20
 599.24383821235
  30
0.0
  11
 1098.4040936643
  21
 599.24383821235
  31
0.0
   0
LINE
   5
1AB
 100
AcDbEntity
   8
LEVEL001
 370
20
 100
AcDbLine
   6
DOT
  62
2
  10
 1098.9978520037
  20
 595.74378012685
  30
0.0
  11
 1098.5276397362
  21
 596.24378550505
  31
0.0
   0
LINE
   5
1AC
 100
AcDbEntity
   8
LEVEL001
 370
20
 100
AcDbLine
   6
DOT
  62
2
  10
 1098.5276288205
  20
 596.24383821235
  30
0.0
  11
 1098.5276288205
  21
 599.24383821235
  31
0.0
   0
LINE
   5
1AD
 100
AcDbEntity
   8
LEVEL001
 370
20
 100
AcDbLine
   6
DOT
  62
2
  10
 1098.9978436643
  20
 595.74383821235
  30
0.0
  11
 1126.2103223020
  21
 595.74383821235
  31
0.0
   0
LINE
   5
1AE
 100
AcDbEntity
   8
LEVEL001
 370
20
 100
AcDbLine
   6
DOT
  62
2
  10
 1100.8041638547
  20
 591.06064119085
  30
0.0
  11
 1100.8041638547
  21
 590.56064119085
  31
0.0
   0
LINE
   5
1AF
 100
AcDbEntity
   8
LEVEL001
 370
20
 100
AcDbLine
   6
DOT
  62
2
  10
 1098.5039929563
  20
 590.56064119085
  30
0.0
  11
 1126.3606518918
  21
 590.56064119085
  31
0.0
   0
LINE
   5
1B0
 100
AcDbEntity
   8
LEVEL001
 370
20
 100
AcDbLine
   6
DOT
  62
2
  10
 1101.1042126828
  20
 591.36064424255
  30
0.0
  11
 1125.5041913205
  21
 591.36064424255
  31
0.0
   0
LINE
   5
1B1
 100
AcDbEntity
   8
LEVEL001
 370
20
 100
AcDbLine
   6
DOT
  62
2
  10
 1099.4671540726
  20
 574.57979179125
  30
0.0
  11
 1098.6774225032
  21
 572.96060201305
  31
0.0
   0
LINE
   5
1B2
 100
AcDbEntity
   8
LEVEL001
 370
20
 100
AcDbLine
   6
DOT
  62
2
  10
 1097.0663403684
  20
 572.96061982855
  30
0.0
  11
 1098.6774243527
  21
 572.96061982855
  31
0.0
   0
ARC
   5
1B3
 100
AcDbEntity
   8
LEVEL001
 370
20
   6
DOT
  62
2
 100
AcDbCircle
  10
 1098.5527295285
  20
 554.46061982855
  30
0.0
  40
 0.50000000000000
 100
AcDbArc
  50
 270.00003597207
  51
 334.00000132539
   0
LINE
   5
1B4
 100
AcDbEntity
   8
LEVEL001
 370
20
 100
AcDbLine
   6
DOT
  62
2
  10
 1095.7141675168
  20
 554.86061372505
  30
0.0
  11
 1094.6041211301
  21
 554.86061372505
  31
0.0
   0
LINE
   5
1B5
 100
AcDbEntity
   8
LEVEL001
 370
20
 100
AcDbLine
   6
DOT
  62
2
  10
 1095.5074159375
  20
 554.43672738045
  30
0.0
  11
 1095.7635850485
  21
 554.96195192765
  31
0.0
   0
LINE
   5
1B6
 100
AcDbEntity
   8
LEVEL001
 370
20
 100
AcDbLine
   6
DOT
  62
2
  10
 1094.6086218825
  20
 554.87509850235
  30
0.0
  11
 1094.8647909935
  21
 555.40032304955
  31
0.0
   0
LINE
   5
1B7
 100
AcDbEntity
   8
LEVEL001
 370
20
 100
AcDbLine
   6
DOT
  62
2
  10
 1099.3041028195
  20
 554.86061372505
  30
0.0
  11
 1125.9041089231
  21
 554.86061372505
  31
0.0
   0
LINE
   5
1B8
 100
AcDbEntity
   8
LEVEL001
 370
20
 100
AcDbLine
   6
DOT
  62
2
  10
 1099.0021191310
  20
 554.24144749875
  30
0.0
  11
 1099.3041079775
  21
 554.86061643185
  31
0.0
   0
LINE
   5
1B9
 100
AcDbEntity
   8
LEVEL001
 370
20
 100
AcDbLine
   6
DOT
  62
2
  10
 1097.8165845090
  20
 553.96061982855
  30
0.0
  11
 1098.5527295285
  21
 553.96061982855
  31
0.0
   0
LINE
   5
1BA
 100
AcDbEntity
   8
LEVEL001
 370
20
 100
AcDbLine
   6
DOT
  62
2
  10
 1092.1849210972
  20
 556.70738284415
  30
0.0
  11
 1097.8165921721
  21
 553.96063351545
  31
0.0
   0
LINE
   5
1BB
 100
AcDbEntity
   8
LEVEL001
 370
20
 100
AcDbLine
   6
DOT
  62
2
  10
 1091.9041089231
  20
 557.15675630315
  30
0.0
  11
 1091.9041089231
  21
 563.01704683045
  31
0.0
   0
LINE
   5
1BC
 100
AcDbEntity
   8
LEVEL001
 370
20
 100
AcDbLine
   6
DOT
  62
2
  10
 1094.1041211301
  20
 567.52772798285
  30
0.0
  11
 1094.1041211301
  21
 574.86061372505
  31
0.0
   0
LINE
   5
1BD
 100
AcDbEntity
   8
LEVEL001
 370
20
 100
AcDbLine
   6
DOT
  62
2
  10
 1094.1041058713
  20
 574.86062898385
  30
0.0
  11
 1094.1041058713
  21
 587.66061677675
  31
0.0
   0
ARC
   5
1BE
 100
AcDbEntity
   8
LEVEL001
 370
20
   6
DOT
  62
2
 100
AcDbCircle
  10
 1092.4041089231
  20
 557.15675630315
  30
0.0
  40
 0.50000000000000
 100
AcDbArc
  50
 179.99998201399
  51
 244.00000200859
   0
ARC
   5
1BF
 100
AcDbEntity
   8
LEVEL001
 370
20
   6
DOT
  62
2
 100
AcDbCircle
  10
 1094.6039838010
  20
 587.66057100045
  30
0.0
  40
 0.50000000000000
 100
AcDbArc
  50
 90.000000000078
  51
 179.99987273103
   0
ARC
   5
1C0
 100
AcDbEntity
   8
LEVEL001
 370
20
   6
DOT
  62
2
 100
AcDbCircle
  10
 1097.0663403684
  20
 572.46061982855
  30
0.0
  40
 0.50000000000000
 100
AcDbArc
  50
 90.000000000026
  51
 153.99996535333
   0
ARC
   5
1C1
 100
AcDbEntity
   8
LEVEL001
 370
20
   6
DOT
  62
2
 100
AcDbCircle
  10
 1094.6041211301
  20
 555.36061372505
  30
0.0
  40
 0.50000000000000
 100
AcDbArc
  50
 203.86555454086
  51
 270.00003597217
   0
ARC
   5
1C2
 100
AcDbEntity
   8
LEVEL001
 370
20
   6
DOT
  62
2
 100
AcDbCircle
  10
 1098.5581616574
  20
 561.83220185975
  30
0.0
  40
 8.0000000000000
 100
AcDbArc
  50
 247.58328317180
  51
 258.31602386750
   0
ARC
   5
1C3
 100
AcDbEntity
   8
LEVEL001
 370
20
   6
DOT
  62
2
 100
AcDbCircle
  10
 1097.2013196164
  20
 555.27104463325
  30
0.0
  40
 1.2999992371000
 100
AcDbArc
  50
 258.31609581187
  51
 289.69272810405
   0
ARC
   5
1C4
 100
AcDbEntity
   8
LEVEL001
 370
20
   6
DOT
  62
2
 100
AcDbCircle
  10
 1094.2232007199
  20
 556.72352876404
  30
0.0
  40
 1.2999992371000
 100
AcDbArc
  50
 198.30696536702
  51
 229.68392550833
   0
ARC
   5
1C5
 100
AcDbEntity
   8
LEVEL001
 370
20
   6
DOT
  62
2
 100
AcDbCircle
  10
 1098.5581311399
  20
 561.83220185974
  30
0.0
  40
 8.0000000000000
 100
AcDbArc
  50
 229.68392550840
  51
 240.41672084559
   0
ARC
   5
1C6
 100
AcDbEntity
   8
LEVEL001
 370
20
   6
DOT
  62
2
 100
AcDbCircle
  10
 1099.9165600949
  20
 574.36061372505
  30
0.0
  40
 0.50000000000000
 100
AcDbArc
  50
 89.999999999922
  51
 153.99996535309
   0
LINE
   5
1C7
 100
AcDbEntity
   8
LEVEL001
 370
20
 100
AcDbLine
   6
DOT
  62
2
  10
 1096.6169421671
  20
 572.67979845925
  30
0.0
  11
 1091.9041089231
  21
 563.01705771195
  31
0.0
   0
LINE
   5
1C8
 100
AcDbEntity
   8
LEVEL001
 370
20
 100
AcDbLine
   6
DOT
  62
2
  10
 1099.3040917728
  20
 554.86058320745
  30
0.0
  11
 1125.9041127074
  21
 554.86058320745
  31
0.0
   0
LINE
   5
1C9
 100
AcDbEntity
   8
LEVEL001
 370
20
 100
AcDbLine
   6
DOT
  62
2
  10
 1094.6042432004
  20
 588.16061677675
  30
0.0
  11
 1098.2039441281
  21
 588.16061677675
  31
0.0
   0
LINE
   5
1CA
 100
AcDbEntity
   8
LEVEL001
 370
20
 100
AcDbLine
   6
DOT
  62
2
  10
 1099.2041882688
  20
 588.16061677675
  30
0.0
  11
 1099.2044324094
  21
 588.16061677675
  31
0.0
   0
LINE
   5
1CB
 100
AcDbEntity
   8
LEVEL001
 370
20
 100
AcDbLine
   6
DOT
  62
2
  10
 1098.2039441281
  20
 590.26063813905
  30
0.0
  11
 1098.2039441281
  21
 588.16061677675
  31
0.0
   0
LINE
   5
1CC
 100
AcDbEntity
   8
LEVEL001
 370
20
 100
AcDbLine
   6
DOT
  62
2
  10
 1099.9165600949
  20
 574.86061372505
  30
0.0
  11
 1125.2916516477
  21
 574.86061372505
  31
0.0
   0
ARC
   5
1CD
 100
AcDbEntity
   8
LEVEL001
 370
20
   6
DOT
  62
2
 100
AcDbCircle
  10
 1125.5042523557
  20
 591.06054963815
  30
0.0
  40
 0.29999995230000
 100
AcDbArc
  50
 0.17986036530128E-4
  51
 90.000000000000
   0
ARC
   5
1CE
 100
AcDbEntity
   8
LEVEL001
 370
20
   6
DOT
  62
2
 100
AcDbCircle
  10
 1124.3934125119
  20
 591.06054963815
  30
0.0
  40
 0.29999995230000
 100
AcDbArc
  50
 0.17986036530128E-4
  51
 90.000000000000
   0
LINE
   5
1CF
 100
AcDbEntity
   8
LEVEL001
 370
20
 100
AcDbLine
   6
DOT
  62
2
  10
 1122.8036908322
  20
 591.86056794865
  30
0.0
  11
 1122.8036908322
  21
 591.36064424255
  31
0.0
   0
LINE
   5
1D0
 100
AcDbEntity
   8
LEVEL001
 370
20
 100
AcDbLine
   6
DOT
  62
2
  10
 1123.5530913748
  20
 592.17746502595
  30
0.0
  11
 1123.0031567960
  21
 591.85996014315
  31
0.0
   0
LINE
   5
1D1
 100
AcDbEntity
   8
LEVEL001
 370
20
 100
AcDbLine
   6
DOT
  62
2
  10
 1123.5535687619
  20
 595.74382295355
  30
0.0
  11
 1123.5535687619
  21
 592.17810334905
  31
0.0
   0
LINE
   5
1D2
 100
AcDbEntity
   8
LEVEL001
 370
20
 100
AcDbLine
   6
DOT
  62
2
  10
 1126.8040723020
  20
 599.24383821235
  30
0.0
  11
 1126.8040723020
  21
 600.74383821235
  31
0.0
   0
LINE
   5
1D3
 100
AcDbEntity
   8
LEVEL001
 370
20
 100
AcDbLine
   6
DOT
  62
2
  10
 1126.8040723020
  20
 599.24383821235
  30
0.0
  11
 1126.6805218869
  21
 599.24383821235
  31
0.0
   0
LINE
   5
1D4
 100
AcDbEntity
   8
LEVEL001
 370
20
 100
AcDbLine
   6
DOT
  62
2
  10
 1126.6804504152
  20
 596.24373038745
  30
0.0
  11
 1126.2103008677
  21
 595.74379170325
  31
0.0
   0
LINE
   5
1D5
 100
AcDbEntity
   8
LEVEL001
 370
20
 100
AcDbLine
   6
DOT
  62
2
  10
 1126.6805218869
  20
 599.24383821235
  30
0.0
  11
 1126.6805218869
  21
 596.24383821235
  31
0.0
   0
LINE
   5
1D6
 100
AcDbEntity
   8
LEVEL001
 370
20
 100
AcDbLine
   6
DOT
  62
2
  10
 1124.6932782346
  20
 591.06064119085
  30
0.0
  11
 1124.6932782346
  21
 590.56064119085
  31
0.0
   0
LINE
   5
1D7
 100
AcDbEntity
   8
LEVEL001
 370
20
 100
AcDbLine
   6
DOT
  62
2
  10
 1125.8041180783
  20
 591.06064119085
  30
0.0
  11
 1125.8041180783
  21
 590.56065644965
  31
0.0
   0
LINE
   5
1D8
 100
AcDbEntity
   8
LEVEL001
 370
20
 100
AcDbLine
   6
DOT
  62
2
  10
 1129.4940442258
  20
 554.86061372505
  30
0.0
  11
 1130.6040906125
  21
 554.86061372505
  31
0.0
   0
LINE
   5
1D9
 100
AcDbEntity
   8
LEVEL001
 370
20
 100
AcDbLine
   6
DOT
  62
2
  10
 1125.7410589064
  20
 574.57979177025
  30
0.0
  11
 1126.5307904758
  21
 572.96060199195
  31
0.0
   0
LINE
   5
1DA
 100
AcDbEntity
   8
LEVEL001
 370
20
 100
AcDbLine
   6
DOT
  62
2
  10
 1128.1418713742
  20
 572.96061982855
  30
0.0
  11
 1126.5307873899
  21
 572.96061982855
  31
0.0
   0
LINE
   5
1DB
 100
AcDbEntity
   8
LEVEL001
 370
20
 100
AcDbLine
   6
DOT
  62
2
  10
 1133.3041028195
  20
 557.15675630315
  30
0.0
  11
 1133.3041028195
  21
 563.01704683045
  31
0.0
   0
LINE
   5
1DC
 100
AcDbEntity
   8
LEVEL001
 370
20
 100
AcDbLine
   6
DOT
  62
2
  10
 1133.0232848562
  20
 556.70736241965
  30
0.0
  11
 1127.3916343531
  21
 553.96062312445
  31
0.0
   0
LINE
   5
1DD
 100
AcDbEntity
   8
LEVEL001
 370
20
 100
AcDbLine
   6
DOT
  62
2
  10
 1130.5995967600
  20
 554.87506728975
  30
0.0
  11
 1130.3434209601
  21
 555.40030555145
  31
0.0
   0
LINE
   5
1DE
 100
AcDbEntity
   8
LEVEL001
 370
20
 100
AcDbLine
   6
DOT
  62
2
  10
 1129.7008027051
  20
 554.43669616785
  30
0.0
  11
 1129.4446269051
  21
 554.96193442955
  31
0.0
   0
LINE
   5
1DF
 100
AcDbEntity
   8
LEVEL001
 370
20
 100
AcDbLine
   6
DOT
  62
2
  10
 1127.3916272336
  20
 553.96061982855
  30
0.0
  11
 1126.6554822141
  21
 553.96061982855
  31
0.0
   0
LINE
   5
1E0
 100
AcDbEntity
   8
LEVEL001
 370
20
 100
AcDbLine
   6
DOT
  62
2
  10
 1126.2060936797
  20
 554.24143041875
  30
0.0
  11
 1125.9041115223
  21
 554.86058563735
  31
0.0
   0
LINE
   5
1E1
 100
AcDbEntity
   8
LEVEL001
 370
20
 100
AcDbLine
   6
DOT
  62
2
  10
 1126.3606976682
  20
 588.16055574165
  30
0.0
  11
 1126.3606976682
  21
 590.56056489685
  31
0.0
   0
ARC
   5
1E2
 100
AcDbEntity
   8
LEVEL001
 370
20
   6
DOT
  62
2
 100
AcDbCircle
  10
 1126.6554822141
  20
 554.46061982855
  30
0.0
  40
 0.50000000000000
 100
AcDbArc
  50
 206.00001597754
  51
 270.00003597228
   0
ARC
   5
1E3
 100
AcDbEntity
   8
LEVEL001
 370
20
   6
DOT
  62
2
 100
AcDbCircle
  10
 1128.0069226438
  20
 555.27104463325
  30
0.0
  40
 1.2999992371000
 100
AcDbArc
  50
 250.30734384017
  51
 281.68397613249
   0
ARC
   5
1E4
 100
AcDbEntity
   8
LEVEL001
 370
20
   6
DOT
  62
2
 100
AcDbCircle
  10
 1126.6500500852
  20
 561.83220185975
  30
0.0
  40
 8.0000000000000
 100
AcDbArc
  50
 281.68397613250
  51
 292.41671682820
   0
ARC
   5
1E5
 100
AcDbEntity
   8
LEVEL001
 370
20
   6
DOT
  62
2
 100
AcDbCircle
  10
 1126.6500806027
  20
 561.83220185974
  30
0.0
  40
 8.0000000000000
 100
AcDbArc
  50
 299.58327915441
  51
 310.31607449160
   0
ARC
   5
1E6
 100
AcDbEntity
   8
LEVEL001
 370
20
   6
DOT
  62
2
 100
AcDbCircle
  10
 1130.9850110227
  20
 556.72352876404
  30
0.0
  40
 1.2999992371000
 100
AcDbArc
  50
 310.31607449167
  51
 341.69303463298
   0
ARC
   5
1E7
 100
AcDbEntity
   8
LEVEL001
 370
20
   6
DOT
  62
2
 100
AcDbCircle
  10
 1132.8041028195
  20
 557.15675630315
  30
0.0
  40
 0.50000000000000
 100
AcDbArc
  50
 295.99999799141
  51
 0.17986007615239E-4
   0
ARC
   5
1E8
 100
AcDbEntity
   8
LEVEL001
 370
20
   6
DOT
  62
2
 100
AcDbCircle
  10
 1130.6040906125
  20
 555.36061372505
  30
0.0
  40
 0.50000000000000
 100
AcDbArc
  50
 270.00003597230
  51
 336.13446276194
   0
ARC
   5
1E9
 100
AcDbEntity
   8
LEVEL001
 370
20
   6
DOT
  62
2
 100
AcDbCircle
  10
 1125.2916516477
  20
 574.36061372505
  30
0.0
  40
 0.50000000000000
 100
AcDbArc
  50
 26.000034646907
  51
 90.000000000287
   0
ARC
   5
1EA
 100
AcDbEntity
   8
LEVEL001
 370
20
   6
DOT
  62
2
 100
AcDbCircle
  10
 1128.1418713742
  20
 572.46061982855
  30
0.0
  40
 0.50000000000000
 100
AcDbArc
  50
 26.000034646674
  51
 89.999999999974
   0
LINE
   5
1EB
 100
AcDbEntity
   8
LEVEL001
 370
20
 100
AcDbLine
   6
DOT
  62
2
  10
 1128.5912538954
  20
 572.67979831425
  30
0.0
  11
 1133.3040944863
  21
 563.01704250365
  31
0.0
   0
LINE
   5
1EC
 100
AcDbEntity
   8
LEVEL001
 370
20
 100
AcDbLine
   6
DOT
  62
2
  10
 1131.1040906125
  20
 567.52772798285
  30
0.0
  11
 1131.1040906125
  21
 574.86064424255
  31
0.0
   0
ARC
   5
1ED
 100
AcDbEntity
   8
LEVEL001
 370
20
   6
DOT
  62
2
 100
AcDbCircle
  10
 1138.6040906125
  20
 590.06054963815
  30
0.0
  40
 0.50000000000000
 100
AcDbArc
  50
 0.17986150918311E-4
  51
 90.000000000000
   0
LINE
   5
1EE
 100
AcDbEntity
   8
LEVEL001
 370
20
 100
AcDbLine
   6
DOT
  62
2
  10
 1139.1040906125
  20
 582.56054963815
  30
0.0
  11
 1126.6040906125
  21
 582.56054963815
  31
0.0
   0
LINE
   5
1EF
 100
AcDbEntity
   8
LEVEL001
 370
20
 100
AcDbLine
   6
DOT
  62
2
  10
 1139.1040906125
  20
 582.56054963815
  30
0.0
  11
 1139.1040906125
  21
 590.06054963815
  31
0.0
   0
LINE
   5
1F0
 100
AcDbEntity
   8
LEVEL001
 370
20
 100
AcDbLine
   6
DOT
  62
2
  10
 1126.6040906125
  20
 582.56054963815
  30
0.0
  11
 1126.6040906125
  21
 590.56054963815
  31
0.0
   0
LINE
   5
1F1
 100
AcDbEntity
   8
LEVEL001
 370
20
 100
AcDbLine
   6
DOT
  62
2
  10
 1138.6040906125
  20
 590.56054963815
  30
0.0
  11
 1126.6040906125
  21
 590.56054963815
  31
0.0
   0
LINE
   5
1F2
 100
AcDbEntity
   8
LEVEL001
 370
20
 100
AcDbLine
   6
DOT
  62
2
  10
 1126.0039471799
  20
 588.16063203555
  30
0.0
  11
 1126.6040906125
  21
 588.16063203555
  31
0.0
   0
LINE
   5
1F3
 100
AcDbEntity
   8
LEVEL001
 370
20
 100
AcDbLine
   6
DOT
  62
2
  10
 1131.1040295774
  20
 582.56054963815
  30
0.0
  11
 1131.1040295774
  21
 574.86064424255
  31
0.0
   0
LINE
   5
1F4
 100
AcDbEntity
   8
LEVEL001
 370
20
 100
AcDbLine
   6
DOT
  62
2
  10
 1098.4040936643
  20
 600.74383821235
  30
0.0
  11
 1126.2102917844
  21
 600.74383821235
  31
0.0
   0
LINE
   5
1F5
 100
AcDbEntity
   8
LEVEL001
 370
20
 100
AcDbLine
   6
DOT
  62
2
  10
 1101.6045331174
  20
 603.36050691345
  30
0.0
  11
 1101.6045331174
  21
 600.74383821235
  31
0.0
   0
LINE
   5
1F6
 100
AcDbEntity
   8
LEVEL001
 370
20
 100
AcDbLine
   6
DOT
  62
2
  10
 1126.2103070432
  20
 600.74383821235
  30
0.0
  11
 1126.8040723020
  21
 600.74383821235
  31
0.0
   0
LINE
   5
1F7
 100
AcDbEntity
   8
LEVEL001
 370
20
 100
AcDbLine
   6
DOT
  62
2
  10
 1123.6040448361
  20
 600.74383821235
  30
0.0
  11
 1123.6040448361
  21
 603.36050691345
  31
0.0
   0
LINE
   5
1F8
 100
AcDbEntity
   8
LEVEL001
 370
20
 100
AcDbLine
   6
DASHDOT
  62
2
  10
 1112.6041058713
  20
 554.86058320745
  30
0.0
  11
 1112.6041058713
  21
 617.86052217225
  31
0.0
   0
LINE
   5
1F9
 100
AcDbEntity
   8
LEVEL001
 370
20
 100
AcDbLine
   6
CONTINUOUS
  62
2
  10
 1473.7822739889
  20
 610.96058239585
  30
0.0
  11
 1473.4116590790
  21
 623.19086899615
  31
0.0
   0
LINE
   5
1FA
 100
AcDbEntity
   8
LEVEL001
 370
20
 100
AcDbLine
   6
CONTINUOUS
  62
2
  10
 1468.2123497255
  20
 612.56412478445
  30
0.0
  11
 1467.8955408359
  21
 623.01881350415
  31
0.0
   0
LINE
   5
1FB
 100
AcDbEntity
   8
LEVEL001
 370
20
 100
AcDbLine
   6
CONTINUOUS
  62
2
  10
 1451.2973036305
  20
 611.54904620205
  30
0.0
  11
 1451.6500859573
  21
 623.19085782295
  31
0.0
   0
LINE
   5
1FC
 100
AcDbEntity
   8
LEVEL001
 370
20
 100
AcDbLine
   6
CONTINUOUS
  62
2
  10
 1452.3436996824
  20
 612.25087384095
  30
0.0
  11
 1452.6654178011
  21
 622.86756705025
  31
0.0
   0
LINE
   5
1FD
 100
AcDbEntity
   8
LEVEL001
 370
20
 100
AcDbLine
   6
CONTINUOUS
  62
2
  10
 1462.5333935077
  20
 624.16057736414
  30
0.0
  11
 1467.2709950877
  21
 611.56057032805
  31
0.0
   0
LINE
   5
1FE
 100
AcDbEntity
   8
LEVEL001
 370
20
 100
AcDbLine
   6
CONTINUOUS
  62
2
  10
 1468.2036974339
  20
 610.96056367715
  30
0.0
  11
 1463.2405076554
  21
 624.16057049035
  31
0.0
   0
LINE
   5
1FF
 100
AcDbEntity
   8
LEVEL001
 370
20
 100
AcDbLine
   6
CONTINUOUS
  62
2
  10
 1473.7822674924
  20
 610.96057405215
  30
0.0
  11
 1468.1213177854
  21
 610.96057405215
  31
0.0
   0
LINE
   5
200
 100
AcDbEntity
   8
LEVEL001
 370
20
 100
AcDbLine
   6
CONTINUOUS
  62
2
  10
 1476.4174451047
  20
 609.96051301695
  30
0.0
  11
 1448.7907513791
  21
 609.96051301695
  31
0.0
   0
LINE
   5
201
 100
AcDbEntity
   8
LEVEL001
 370
20
 100
AcDbLine
   6
CONTINUOUS
  62
2
  10
 1476.0041150266
  20
 610.36052217225
  30
0.0
  11
 1449.2040814573
  21
 610.36052217225
  31
0.0
   0
LINE
   5
202
 100
AcDbEntity
   8
LEVEL001
 370
20
 100
AcDbLine
   6
CONTINUOUS
  62
2
  10
 1477.0039014035
  20
 606.86052217225
  30
0.0
  11
 1448.2040661985
  21
 606.86052217225
  31
0.0
   0
LINE
   5
203
 100
AcDbEntity
   8
LEVEL001
 370
20
 100
AcDbLine
   6
CONTINUOUS
  62
2
  10
 1476.5041150266
  20
 607.36052217225
  30
0.0
  11
 1448.7040814573
  21
 607.36052217225
  31
0.0
   0
LINE
   5
204
 100
AcDbEntity
   8
LEVEL001
 370
20
 100
AcDbLine
   6
CONTINUOUS
  62
2
  10
 1476.8041333371
  20
 603.36052217225
  30
0.0
  11
 1448.4041241819
  21
 603.36052217225
  31
0.0
   0
LINE
   5
205
 100
AcDbEntity
   8
LEVEL001
 370
20
 100
AcDbLine
   6
CONTINUOUS
  62
2
  10
 1476.8041333371
  20
 603.86052217225
  30
0.0
  11
 1448.4041394407
  21
 603.86052217225
  31
0.0
   0
LINE
   5
206
 100
AcDbEntity
   8
LEVEL001
 370
20
 100
AcDbLine
   6
CONTINUOUS
  62
2
  10
 1448.1045788938
  20
 603.86053743105
  30
0.0
  11
 1477.1040906125
  21
 603.86053743105
  31
0.0
   0
LINE
   5
207
 100
AcDbEntity
   8
LEVEL001
 370
20
 100
AcDbLine
   6
CONTINUOUS
  62
2
  10
 1448.1048354286
  20
 603.86037430945
  30
0.0
  11
 1448.2048357353
  21
 606.86037130005
  31
0.0
   0
LINE
   5
208
 100
AcDbEntity
   8
LEVEL001
 370
20
 100
AcDbLine
   6
CONTINUOUS
  62
2
  10
 1448.4041241819
  20
 603.86052217225
  30
0.0
  11
 1448.4041241819
  21
 603.36052217225
  31
0.0
   0
LINE
   5
209
 100
AcDbEntity
   8
LEVEL001
 370
20
 100
AcDbLine
   6
CONTINUOUS
  62
2
  10
 1453.9849499875
  20
 603.36053743105
  30
0.0
  11
 1455.7699994260
  21
 603.36053743105
  31
0.0
   0
LINE
   5
20A
 100
AcDbEntity
   8
LEVEL001
 370
20
 100
AcDbLine
   6
CONTINUOUS
  62
2
  10
 1467.8522137815
  20
 611.06058015565
  30
0.0
  11
 1451.1518963987
  21
 611.06058015565
  31
0.0
   0
LINE
   5
20B
 100
AcDbEntity
   8
LEVEL001
 370
20
 100
AcDbLine
   6
CONTINUOUS
  62
2
  10
 1467.6213177854
  20
 611.56058015565
  30
0.0
  11
 1451.4040936643
  21
 611.56058015565
  31
0.0
   0
LINE
   5
20C
 100
AcDbEntity
   8
LEVEL001
 370
20
 100
AcDbLine
   6
CONTINUOUS
  62
2
  10
 1448.7041108869
  20
 607.36051374505
  30
0.0
  11
 1448.7903181057
  21
 609.94672383185
  31
0.0
   0
LINE
   5
20D
 100
AcDbEntity
   8
LEVEL001
 370
20
 100
AcDbLine
   6
CONTINUOUS
  62
2
  10
 1448.7045411763
  20
 607.35990354864
  30
0.0
  11
 1448.2045406455
  21
 606.85990301785
  31
0.0
   0
LINE
   5
20E
 100
AcDbEntity
   8
LEVEL001
 370
20
 100
AcDbLine
   6
CONTINUOUS
  62
2
  10
 1449.2041170481
  20
 610.36051975514
  30
0.0
  11
 1448.7903253657
  21
 609.94672803775
  31
0.0
   0
LINE
   5
20F
 100
AcDbEntity
   8
LEVEL001
 370
20
 100
AcDbLine
   6
CONTINUOUS
  62
2
  10
 1450.9040936643
  20
 610.36056794865
  30
0.0
  11
 1450.9040936643
  21
 611.06058015565
  31
0.0
   0
ARC
   5
210
 100
AcDbEntity
   8
LEVEL001
 370
20
   6
CONTINUOUS
  62
2
 100
AcDbCircle
  10
 1451.4040936643
  20
 611.06058015565
  30
0.0
  40
 0.50000000000000
 100
AcDbArc
  50
 90.000000000000
  51
 179.99998201385
   0
LINE
   5
211
 100
AcDbEntity
   8
LEVEL001
 370
20
 100
AcDbLine
   6
CONTINUOUS
  62
2
  10
 1468.1213177854
  20
 610.36056794865
  30
0.0
  11
 1468.1213177854
  21
 611.06058015565
  31
0.0
   0
ARC
   5
212
 100
AcDbEntity
   8
LEVEL001
 370
20
   6
CONTINUOUS
  62
2
 100
AcDbCircle
  10
 1467.6213177854
  20
 611.06058015565
  30
0.0
  40
 0.50000000000000
 100
AcDbArc
  50
 0.17986150918311E-4
  51
 90.000000000000
   0
LINE
   5
213
 100
AcDbEntity
   8
LEVEL001
 370
20
 100
AcDbLine
   6
CONTINUOUS
  62
2
  10
 1477.0048974993
  20
 606.86047635695
  30
0.0
  11
 1477.1048979402
  21
 603.86047936635
  31
0.0
   0
LINE
   5
214
 100
AcDbEntity
   8
LEVEL001
 370
20
 100
AcDbLine
   6
CONTINUOUS
  62
2
  10
 1476.8041333371
  20
 603.86052217225
  30
0.0
  11
 1476.8041333371
  21
 603.36052217225
  31
0.0
   0
LINE
   5
215
 100
AcDbEntity
   8
LEVEL001
 370
20
 100
AcDbLine
   6
CONTINUOUS
  62
2
  10
 1476.4178858559
  20
 609.94673634984
  30
0.0
  11
 1476.5040925663
  21
 607.36054151334
  31
0.0
   0
LINE
   5
216
 100
AcDbEntity
   8
LEVEL001
 370
20
 100
AcDbLine
   6
CONTINUOUS
  62
2
  10
 1477.0044784288
  20
 606.85991380744
  30
0.0
  11
 1476.5045318460
  21
 607.35986039025
  31
0.0
   0
LINE
   5
217
 100
AcDbEntity
   8
LEVEL001
 370
20
 100
AcDbLine
   6
CONTINUOUS
  62
2
  10
 1476.0041008989
  20
 610.36049412985
  30
0.0
  11
 1476.4178925814
  21
 609.94670241254
  31
0.0
   0
LINE
   5
218
 100
AcDbEntity
   8
LEVEL001
 370
20
 100
AcDbLine
   6
CONTINUOUS
  62
2
  10
 1472.2065381223
  20
 624.36056794865
  30
0.0
  11
 1462.1940411741
  21
 624.36056794865
  31
0.0
   0
LINE
   5
219
 100
AcDbEntity
   8
LEVEL001
 370
20
 100
AcDbLine
   6
CONTINUOUS
  62
2
  10
 1472.4121197873
  20
 624.16057100034
  30
0.0
  11
 1452.6496380979
  21
 624.16057100034
  31
0.0
   0
ARC
   5
21A
 100
AcDbEntity
   8
LEVEL001
 370
20
   6
CONTINUOUS
  62
2
 100
AcDbCircle
  10
 1452.6496380979
  20
 623.16057100034
  30
0.0
  40
 1.0000000000000
 100
AcDbArc
  50
 89.999999999987
  51
 178.26429434194
   0
LINE
   5
21B
 100
AcDbEntity
   8
LEVEL001
 370
20
 100
AcDbLine
   6
CONTINUOUS
  62
2
  10
 1462.1940411741
  20
 624.16057100034
  30
0.0
  11
 1462.1940411741
  21
 624.36056794865
  31
0.0
   0
LINE
   5
21C
 100
AcDbEntity
   8
LEVEL001
 370
20
 100
AcDbLine
   6
CONTINUOUS
  62
2
  10
 1472.2065381223
  20
 624.16057100034
  30
0.0
  11
 1472.2065381223
  21
 624.36056794865
  31
0.0
   0
ARC
   5
21D
 100
AcDbEntity
   8
LEVEL001
 370
20
   6
CONTINUOUS
  62
2
 100
AcDbCircle
  10
 1472.4121197873
  20
 623.16057100034
  30
0.0
  40
 1.0000000000000
 100
AcDbArc
  50
 1.7357056580585
  51
 90.000000000013
   0
LINE
   5
21E
 100
AcDbEntity
   8
LEVEL001
 370
20
 100
AcDbLine
   6
DASHDOT
  62
2
  10
 1462.6041058713
  20
 554.86061372495
  30
0.0
  11
 1462.6041058713
  21
 624.36056794865
  31
0.0
   0
LINE
   5
21F
 100
AcDbEntity
   8
LEVEL001
 370
20
 100
AcDbLine
   6
DOT
  62
2
  10
 1448.5276288205
  20
 596.24383821225
  30
0.0
  11
 1448.5276288205
  21
 599.24383821225
  31
0.0
   0
LINE
   5
220
 100
AcDbEntity
   8
LEVEL001
 370
20
 100
AcDbLine
   6
DOT
  62
2
  10
 1444.1041516477
  20
 574.86061372495
  30
0.0
  11
 1481.1039685422
  21
 574.86061372495
  31
0.0
   0
LINE
   5
221
 100
AcDbEntity
   8
LEVEL001
 370
20
 100
AcDbLine
   6
DOT
  62
2
  10
 1444.1039685422
  20
 574.86064424255
  30
0.0
  11
 1481.1040295774
  21
 574.86064424255
  31
0.0
   0
LINE
   5
222
 100
AcDbEntity
   8
LEVEL001
 370
20
 100
AcDbLine
   6
DOT
  62
2
  10
 1444.1041211301
  20
 574.86061372495
  30
0.0
  11
 1481.1040906125
  21
 574.86061372495
  31
0.0
   0
LINE
   5
223
 100
AcDbEntity
   8
LEVEL001
 370
20
 100
AcDbLine
   6
DOT
  62
2
  10
 1446.6169421671
  20
 572.67979845915
  30
0.0
  11
 1441.9041181562
  21
 563.01707664265
  31
0.0
   0
ARC
   5
224
 100
AcDbEntity
   8
LEVEL001
 370
20
   6
DOT
  62
2
 100
AcDbCircle
  10
 1448.5581616575
  20
 561.83220185975
  30
0.0
  40
 8.0000000000000
 100
AcDbArc
  50
 247.58328317180
  51
 258.31602386750
   0
LINE
   5
225
 100
AcDbEntity
   8
LEVEL001
 370
20
 100
AcDbLine
   6
DOT
  62
2
  10
 1442.1849210973
  20
 556.70738284415
  30
0.0
  11
 1447.8165921721
  21
 553.96063351545
  31
0.0
   0
ARC
   5
226
 100
AcDbEntity
   8
LEVEL001
 370
20
   6
DOT
  62
2
 100
AcDbCircle
  10
 1448.5581311399
  20
 561.83220185974
  30
0.0
  40
 8.0000000000000
 100
AcDbArc
  50
 229.68392550840
  51
 240.41672084559
   0
LINE
   5
227
 100
AcDbEntity
   8
LEVEL001
 370
20
 100
AcDbLine
   6
DOT
  62
2
  10
 1444.6086218826
  20
 554.87509850235
  30
0.0
  11
 1444.8647909935
  21
 555.40032304955
  31
0.0
   0
LINE
   5
228
 100
AcDbEntity
   8
LEVEL001
 370
20
 100
AcDbLine
   6
DOT
  62
2
  10
 1445.5074159376
  20
 554.43672738045
  30
0.0
  11
 1445.7635850485
  21
 554.96195192765
  31
0.0
   0
LINE
   5
229
 100
AcDbEntity
   8
LEVEL001
 370
20
 100
AcDbLine
   6
DOT
  62
2
  10
 1445.7141675168
  20
 554.86061372495
  30
0.0
  11
 1444.6041211301
  21
 554.86061372495
  31
0.0
   0
ARC
   5
22A
 100
AcDbEntity
   8
LEVEL001
 370
20
   6
DOT
  62
2
 100
AcDbCircle
  10
 1444.6041211301
  20
 555.36061372494
  30
0.0
  40
 0.50000000000000
 100
AcDbArc
  50
 203.86555454086
  51
 270.00003597217
   0
LINE
   5
22B
 100
AcDbEntity
   8
LEVEL001
 370
20
 100
AcDbLine
   6
DOT
  62
2
  10
 1441.9041089231
  20
 557.15675630305
  30
0.0
  11
 1441.9041089231
  21
 563.01704683034
  31
0.0
   0
ARC
   5
22C
 100
AcDbEntity
   8
LEVEL001
 370
20
   6
DOT
  62
2
 100
AcDbCircle
  10
 1444.2232007200
  20
 556.72352876405
  30
0.0
  40
 1.2999992371000
 100
AcDbArc
  50
 198.30696536712
  51
 229.68392550848
   0
ARC
   5
22D
 100
AcDbEntity
   8
LEVEL001
 370
20
   6
DOT
  62
2
 100
AcDbCircle
  10
 1442.4041089231
  20
 557.15675630305
  30
0.0
  40
 0.50000000000000
 100
AcDbArc
  50
 179.99998201399
  51
 244.00000200859
   0
LINE
   5
22E
 100
AcDbEntity
   8
LEVEL001
 370
20
 100
AcDbLine
   6
DOT
  62
2
  10
 1444.1041058713
  20
 574.86062898375
  30
0.0
  11
 1444.1041058713
  21
 587.66061677674
  31
0.0
   0
LINE
   5
22F
 100
AcDbEntity
   8
LEVEL001
 370
20
 100
AcDbLine
   6
DOT
  62
2
  10
 1444.1041211301
  20
 567.52772798274
  30
0.0
  11
 1444.1041211301
  21
 574.86061372495
  31
0.0
   0
ARC
   5
230
 100
AcDbEntity
   8
LEVEL001
 370
20
   6
DOT
  62
2
 100
AcDbCircle
  10
 1444.6039838010
  20
 587.66057100034
  30
0.0
  40
 0.50000000000000
 100
AcDbArc
  50
 90.000000000078
  51
 179.99987273082
   0
LINE
   5
231
 100
AcDbEntity
   8
LEVEL001
 370
20
 100
AcDbLine
   6
DOT
  62
2
  10
 1449.3041028196
  20
 554.86061372495
  30
0.0
  11
 1475.9041089231
  21
 554.86061372495
  31
0.0
   0
ARC
   5
232
 100
AcDbEntity
   8
LEVEL001
 370
20
   6
DOT
  62
2
 100
AcDbCircle
  10
 1447.2013196164
  20
 555.27104463315
  30
0.0
  40
 1.2999992371000
 100
AcDbArc
  50
 258.31609581182
  51
 289.69272810408
   0
LINE
   5
233
 100
AcDbEntity
   8
LEVEL001
 370
20
 100
AcDbLine
   6
DOT
  62
2
  10
 1447.8165845090
  20
 553.96061982845
  30
0.0
  11
 1448.5527295285
  21
 553.96061982845
  31
0.0
   0
LINE
   5
234
 100
AcDbEntity
   8
LEVEL001
 370
20
 100
AcDbLine
   6
DOT
  62
2
  10
 1449.0021191311
  20
 554.24144749875
  30
0.0
  11
 1449.3041079775
  21
 554.86061643185
  31
0.0
   0
ARC
   5
235
 100
AcDbEntity
   8
LEVEL001
 370
20
   6
DOT
  62
2
 100
AcDbCircle
  10
 1448.5527295285
  20
 554.46061982845
  30
0.0
  40
 0.50000000000000
 100
AcDbArc
  50
 270.00003597207
  51
 334.00000132539
   0
LINE
   5
236
 100
AcDbEntity
   8
LEVEL001
 370
20
 100
AcDbLine
   6
DOT
  62
2
  10
 1449.4671540726
  20
 574.57979179124
  30
0.0
  11
 1448.6774225032
  21
 572.96060201295
  31
0.0
   0
ARC
   5
237
 100
AcDbEntity
   8
LEVEL001
 370
20
   6
DOT
  62
2
 100
AcDbCircle
  10
 1447.0663403684
  20
 572.46061982845
  30
0.0
  40
 0.50000000000000
 100
AcDbArc
  50
 90.000000000026
  51
 153.99996535333
   0
LINE
   5
238
 100
AcDbEntity
   8
LEVEL001
 370
20
 100
AcDbLine
   6
DOT
  62
2
  10
 1447.0663403684
  20
 572.96061982845
  30
0.0
  11
 1448.6774243528
  21
 572.96061982845
  31
0.0
   0
ARC
   5
239
 100
AcDbEntity
   8
LEVEL001
 370
20
   6
DOT
  62
2
 100
AcDbCircle
  10
 1449.9165600950
  20
 574.36061372495
  30
0.0
  40
 0.50000000000000
 100
AcDbArc
  50
 90.000000000026
  51
 153.99996535333
   0
LINE
   5
23A
 100
AcDbEntity
   8
LEVEL001
 370
20
 100
AcDbLine
   6
DOT
  62
2
  10
 1451.1042126828
  20
 591.36064424255
  30
0.0
  11
 1475.5041913205
  21
 591.36064424255
  31
0.0
   0
LINE
   5
23B
 100
AcDbEntity
   8
LEVEL001
 370
20
 100
AcDbLine
   6
DOT
  62
2
  10
 1448.9978436643
  20
 595.74383821225
  30
0.0
  11
 1476.2103223020
  21
 595.74383821225
  31
0.0
   0
LINE
   5
23C
 100
AcDbEntity
   8
LEVEL001
 370
20
 100
AcDbLine
   6
DOT
  62
2
  10
 1473.0036420041
  20
 591.86056794865
  30
0.0
  11
 1452.2040814573
  21
 591.86056794865
  31
0.0
   0
LINE
   5
23D
 100
AcDbEntity
   8
LEVEL001
 370
20
 100
AcDbLine
   6
DOT
  62
2
  10
 1448.5039929563
  20
 590.56064119075
  30
0.0
  11
 1476.3606518918
  21
 590.56064119075
  31
0.0
   0
LINE
   5
23E
 100
AcDbEntity
   8
LEVEL001
 370
20
 100
AcDbLine
   6
DOT
  62
2
  10
 1448.2039441282
  20
 590.26063813905
  30
0.0
  11
 1448.2039441282
  21
 588.16063203554
  31
0.0
   0
LINE
   5
23F
 100
AcDbEntity
   8
LEVEL001
 370
20
 100
AcDbLine
   6
DOT
  62
2
  10
 1451.6540936643
  20
 592.17810334894
  30
0.0
  11
 1451.6540936643
  21
 595.74382295345
  31
0.0
   0
LINE
   5
240
 100
AcDbEntity
   8
LEVEL001
 370
20
 100
AcDbLine
   6
DOT
  62
2
  10
 1452.2032492957
  20
 591.85932656135
  30
0.0
  11
 1451.6532486444
  21
 592.17686959115
  31
0.0
   0
LINE
   5
241
 100
AcDbEntity
   8
LEVEL001
 370
20
 100
AcDbLine
   6
DOT
  62
2
  10
 1450.8041638547
  20
 591.06064119075
  30
0.0
  11
 1450.8041638547
  21
 590.56064119075
  31
0.0
   0
ARC
   5
242
 100
AcDbEntity
   8
LEVEL001
 370
20
   6
DOT
  62
2
 100
AcDbCircle
  10
 1448.5040234739
  20
 590.26057710385
  30
0.0
  40
 0.29999995230000
 100
AcDbArc
  50
 89.999999999870
  51
 179.99987273085
   0
ARC
   5
243
 100
AcDbEntity
   8
LEVEL001
 370
20
   6
DOT
  62
2
 100
AcDbCircle
  10
 1451.1042432004
  20
 591.06058015565
  30
0.0
  40
 0.29999995230000
 100
AcDbArc
  50
 89.999999999870
  51
 179.99987273085
   0
LINE
   5
244
 100
AcDbEntity
   8
LEVEL001
 370
20
 100
AcDbLine
   6
DOT
  62
2
  10
 1452.4040936643
  20
 591.36064424255
  30
0.0
  11
 1452.4040936643
  21
 591.86056794865
  31
0.0
   0
LINE
   5
245
 100
AcDbEntity
   8
LEVEL001
 370
20
 100
AcDbLine
   6
DOT
  62
2
  10
 1448.9978520037
  20
 595.74378012674
  30
0.0
  11
 1448.5276397362
  21
 596.24378550495
  31
0.0
   0
LINE
   5
246
 100
AcDbEntity
   8
LEVEL001
 370
20
 100
AcDbLine
   6
DOT
  62
2
  10
 1448.4040936643
  20
 600.74383821225
  30
0.0
  11
 1476.2102917844
  21
 600.74383821225
  31
0.0
   0
LINE
   5
247
 100
AcDbEntity
   8
LEVEL001
 370
20
 100
AcDbLine
   6
DOT
  62
2
  10
 1451.6045331174
  20
 603.36050691345
  30
0.0
  11
 1451.6045331174
  21
 600.74383821225
  31
0.0
   0
LINE
   5
248
 100
AcDbEntity
   8
LEVEL001
 370
20
 100
AcDbLine
   6
DOT
  62
2
  10
 1448.4040784055
  20
 599.24383821225
  30
0.0
  11
 1448.4040784055
  21
 600.74383821225
  31
0.0
   0
LINE
   5
249
 100
AcDbEntity
   8
LEVEL001
 370
20
 100
AcDbLine
   6
DOT
  62
2
  10
 1448.5276440793
  20
 599.24383821225
  30
0.0
  11
 1448.4040936643
  21
 599.24383821225
  31
0.0
   0
LINE
   5
24A
 100
AcDbEntity
   8
LEVEL001
 370
20
 100
AcDbLine
   6
DOT
  62
2
  10
 1444.6042432004
  20
 588.16061677674
  30
0.0
  11
 1448.2039441282
  21
 588.16061677674
  31
0.0
   0
LINE
   5
24B
 100
AcDbEntity
   8
LEVEL001
 370
20
 100
AcDbLine
   6
DOT
  62
2
  10
 1476.6805218869
  20
 599.24383821225
  30
0.0
  11
 1476.6805218869
  21
 596.24383821225
  31
0.0
   0
LINE
   5
24C
 100
AcDbEntity
   8
LEVEL001
 370
20
 100
AcDbLine
   6
DOT
  62
2
  10
 1478.5912570974
  20
 572.67979174924
  30
0.0
  11
 1483.3040944863
  21
 563.01704250365
  31
0.0
   0
LINE
   5
24D
 100
AcDbEntity
   8
LEVEL001
 370
20
 100
AcDbLine
   6
DOT
  62
2
  10
 1480.5995967601
  20
 554.87506728974
  30
0.0
  11
 1480.3434209601
  21
 555.40030555135
  31
0.0
   0
ARC
   5
24E
 100
AcDbEntity
   8
LEVEL001
 370
20
   6
DOT
  62
2
 100
AcDbCircle
  10
 1476.6500806028
  20
 561.83220185975
  30
0.0
  40
 8.0000000000000
 100
AcDbArc
  50
 299.58327915436
  51
 310.31607449157
   0
LINE
   5
24F
 100
AcDbEntity
   8
LEVEL001
 370
20
 100
AcDbLine
   6
DOT
  62
2
  10
 1483.0232848563
  20
 556.70736241955
  30
0.0
  11
 1477.3916343531
  21
 553.96062312435
  31
0.0
   0
ARC
   5
250
 100
AcDbEntity
   8
LEVEL001
 370
20
   6
DOT
  62
2
 100
AcDbCircle
  10
 1476.6500500852
  20
 561.83220185975
  30
0.0
  40
 8.0000000000000
 100
AcDbArc
  50
 281.68397613250
  51
 292.41671682820
   0
ARC
   5
251
 100
AcDbEntity
   8
LEVEL001
 370
20
   6
DOT
  62
2
 100
AcDbCircle
  10
 1478.0069226438
  20
 555.27104463315
  30
0.0
  40
 1.2999992371000
 100
AcDbArc
  50
 250.30734384017
  51
 281.68397613249
   0
ARC
   5
252
 100
AcDbEntity
   8
LEVEL001
 370
20
   6
DOT
  62
2
 100
AcDbCircle
  10
 1476.6554822141
  20
 554.46061982845
  30
0.0
  40
 0.50000000000000
 100
AcDbArc
  50
 206.00001597754
  51
 270.00003597228
   0
LINE
   5
253
 100
AcDbEntity
   8
LEVEL001
 370
20
 100
AcDbLine
   6
DOT
  62
2
  10
 1476.2060936797
  20
 554.24143041864
  30
0.0
  11
 1475.9041115223
  21
 554.86058563725
  31
0.0
   0
LINE
   5
254
 100
AcDbEntity
   8
LEVEL001
 370
20
 100
AcDbLine
   6
DOT
  62
2
  10
 1477.3916272336
  20
 553.96061982845
  30
0.0
  11
 1476.6554822141
  21
 553.96061982845
  31
0.0
   0
LINE
   5
255
 100
AcDbEntity
   8
LEVEL001
 370
20
 100
AcDbLine
   6
DOT
  62
2
  10
 1479.7008027051
  20
 554.43669616784
  30
0.0
  11
 1479.4446269051
  21
 554.96193442954
  31
0.0
   0
LINE
   5
256
 100
AcDbEntity
   8
LEVEL001
 370
20
 100
AcDbLine
   6
DOT
  62
2
  10
 1479.4940442258
  20
 554.86061372495
  30
0.0
  11
 1480.6040906125
  21
 554.86061372495
  31
0.0
   0
ARC
   5
257
 100
AcDbEntity
   8
LEVEL001
 370
20
   6
DOT
  62
2
 100
AcDbCircle
  10
 1480.6040906125
  20
 555.36061372494
  30
0.0
  40
 0.50000000000000
 100
AcDbArc
  50
 270.00003597230
  51
 336.13446276194
   0
LINE
   5
258
 100
AcDbEntity
   8
LEVEL001
 370
20
 100
AcDbLine
   6
DOT
  62
2
  10
 1483.3041028196
  20
 557.15675630305
  30
0.0
  11
 1483.3041028196
  21
 563.01704683044
  31
0.0
   0
ARC
   5
259
 100
AcDbEntity
   8
LEVEL001
 370
20
   6
DOT
  62
2
 100
AcDbCircle
  10
 1480.9850110227
  20
 556.72352876404
  30
0.0
  40
 1.2999992371000
 100
AcDbArc
  50
 310.31607449167
  51
 341.69303463298
   0
ARC
   5
25A
 100
AcDbEntity
   8
LEVEL001
 370
20
   6
DOT
  62
2
 100
AcDbCircle
  10
 1482.8041028196
  20
 557.15675630305
  30
0.0
  40
 0.50000000000000
 100
AcDbArc
  50
 295.99999799141
  51
 0.17986007615239E-4
   0
LINE
   5
25B
 100
AcDbEntity
   8
LEVEL001
 370
20
 100
AcDbLine
   6
DOT
  62
2
  10
 1481.1040295774
  20
 587.66063203555
  30
0.0
  11
 1481.1040295774
  21
 574.86064424255
  31
0.0
   0
LINE
   5
25C
 100
AcDbEntity
   8
LEVEL001
 370
20
 100
AcDbLine
   6
DOT
  62
2
  10
 1481.1040906125
  20
 567.52771919739
  30
0.0
  11
 1481.1040906125
  21
 574.86061372495
  31
0.0
   0
ARC
   5
25D
 100
AcDbEntity
   8
LEVEL001
 370
20
   6
DOT
  62
2
 100
AcDbCircle
  10
 1475.2916516477
  20
 574.36061372495
  30
0.0
  40
 0.50000000000000
 100
AcDbArc
  50
 26.000034646674
  51
 89.999999999974
   0
LINE
   5
25E
 100
AcDbEntity
   8
LEVEL001
 370
20
 100
AcDbLine
   6
DOT
  62
2
  10
 1475.7410589064
  20
 574.57979177015
  30
0.0
  11
 1476.5307904758
  21
 572.96060199195
  31
0.0
   0
ARC
   5
25F
 100
AcDbEntity
   8
LEVEL001
 370
20
   6
DOT
  62
2
 100
AcDbCircle
  10
 1478.1418713743
  20
 572.46061982845
  30
0.0
  40
 0.50000000000000
 100
AcDbArc
  50
 26.000034646674
  51
 89.999999999974
   0
LINE
   5
260
 100
AcDbEntity
   8
LEVEL001
 370
20
 100
AcDbLine
   6
DOT
  62
2
  10
 1478.1418713743
  20
 572.96061982845
  30
0.0
  11
 1476.5307873899
  21
 572.96061982845
  31
0.0
   0
LINE
   5
261
 100
AcDbEntity
   8
LEVEL001
 370
20
 100
AcDbLine
   6
DOT
  62
2
  10
 1489.1040753537
  20
 582.56053437925
  30
0.0
  11
 1489.1040753537
  21
 590.06053437925
  31
0.0
   0
LINE
   5
262
 100
AcDbEntity
   8
LEVEL001
 370
20
 100
AcDbLine
   6
DOT
  62
2
  10
 1476.3606976682
  20
 588.16055574154
  30
0.0
  11
 1476.3606976682
  21
 590.56056489685
  31
0.0
   0
LINE
   5
263
 100
AcDbEntity
   8
LEVEL001
 370
20
 100
AcDbLine
   6
DOT
  62
2
  10
 1476.6040753537
  20
 582.56053437925
  30
0.0
  11
 1476.6040753537
  21
 590.56053437925
  31
0.0
   0
LINE
   5
264
 100
AcDbEntity
   8
LEVEL001
 370
20
 100
AcDbLine
   6
DOT
  62
2
  10
 1489.1040753537
  20
 582.56053437925
  30
0.0
  11
 1476.6040753537
  21
 582.56053437925
  31
0.0
   0
ARC
   5
265
 100
AcDbEntity
   8
LEVEL001
 370
20
   6
DOT
  62
2
 100
AcDbCircle
  10
 1480.6040753537
  20
 587.66054048274
  30
0.0
  40
 0.50000000000000
 100
AcDbArc
  50
 0.17986150918311E-4
  51
 90.000000000000
   0
LINE
   5
266
 100
AcDbEntity
   8
LEVEL001
 370
20
 100
AcDbLine
   6
DOT
  62
2
  10
 1488.6040753537
  20
 590.56053437925
  30
0.0
  11
 1476.6040753537
  21
 590.56053437925
  31
0.0
   0
LINE
   5
267
 100
AcDbEntity
   8
LEVEL001
 370
20
 100
AcDbLine
   6
DOT
  62
2
  10
 1473.5535687619
  20
 595.74382295345
  30
0.0
  11
 1473.5535687619
  21
 592.17810334894
  31
0.0
   0
ARC
   5
268
 100
AcDbEntity
   8
LEVEL001
 370
20
   6
DOT
  62
2
 100
AcDbCircle
  10
 1475.5042523557
  20
 591.06054963805
  30
0.0
  40
 0.29999995230000
 100
AcDbArc
  50
 0.17986036530128E-4
  51
 90.000000000000
   0
LINE
   5
269
 100
AcDbEntity
   8
LEVEL001
 370
20
 100
AcDbLine
   6
DOT
  62
2
  10
 1473.5530913748
  20
 592.17746502595
  30
0.0
  11
 1473.0031567960
  21
 591.85996014315
  31
0.0
   0
LINE
   5
26A
 100
AcDbEntity
   8
LEVEL001
 370
20
 100
AcDbLine
   6
DOT
  62
2
  10
 1472.8036908323
  20
 591.86056794865
  30
0.0
  11
 1472.8036908323
  21
 591.36064424255
  31
0.0
   0
LINE
   5
26B
 100
AcDbEntity
   8
LEVEL001
 370
20
 100
AcDbLine
   6
DOT
  62
2
  10
 1475.8041180784
  20
 591.06064119075
  30
0.0
  11
 1475.8041180784
  21
 590.56065644955
  31
0.0
   0
LINE
   5
26C
 100
AcDbEntity
   8
LEVEL001
 370
20
 100
AcDbLine
   6
DOT
  62
2
  10
 1476.6804504152
  20
 596.24373038735
  30
0.0
  11
 1476.2103008677
  21
 595.74379170315
  31
0.0
   0
ARC
   5
26D
 100
AcDbEntity
   8
LEVEL001
 370
20
   6
DOT
  62
2
 100
AcDbCircle
  10
 1488.6040753537
  20
 590.06053437925
  30
0.0
  40
 0.50000000000000
 100
AcDbArc
  50
 0.17986150918311E-4
  51
 90.000000000000
   0
LINE
   5
26E
 100
AcDbEntity
   8
LEVEL001
 370
20
 100
AcDbLine
   6
DOT
  62
2
  10
 1473.6040448362
  20
 600.74383821225
  30
0.0
  11
 1473.6040448362
  21
 603.36050691345
  31
0.0
   0
LINE
   5
26F
 100
AcDbEntity
   8
LEVEL001
 370
20
 100
AcDbLine
   6
DOT
  62
2
  10
 1476.8040723020
  20
 599.24383821225
  30
0.0
  11
 1476.8040723020
  21
 600.74383821225
  31
0.0
   0
LINE
   5
270
 100
AcDbEntity
   8
LEVEL001
 370
20
 100
AcDbLine
   6
DOT
  62
2
  10
 1476.8040723020
  20
 599.24383821225
  30
0.0
  11
 1476.6805218869
  21
 599.24383821225
  31
0.0
   0
LINE
   5
271
 100
AcDbEntity
   8
LEVEL001
 370
20
 100
AcDbLine
   6
DOT
  62
2
  10
 1476.2103070432
  20
 600.74383821225
  30
0.0
  11
 1476.8040723020
  21
 600.74383821225
  31
0.0
   0
LINE
   5
272
 100
AcDbEntity
   8
LEVEL001
 370
20
 100
AcDbLine
   6
DOT
  62
2
  10
 1476.3606976682
  20
 588.16063203554
  30
0.0
  11
 1480.6040295774
  21
 588.16063203554
  31
0.0
   0
LINE
   5
273
 100
AcDbEntity
   8
LEVEL001
 370
20
 100
AcDbLine
   6
CONTINUOUS
  62
6
  10
 1502.6041058713
  20
 603.36052217225
  30
0.0
  11
 1433.9194046602
  21
 603.36052217225
  31
0.0
   0
LINE
   5
274
 100
AcDbEntity
   8
LEVEL001
 370
20
 100
AcDbLine
   6
CONTINUOUS
  62
6
  10
 1502.6041058713
  20
 604.36052217225
  30
0.0
  11
 1433.6041058713
  21
 604.36052217225
  31
0.0
   0
ARC
   5
275
 100
AcDbEntity
   8
LEVEL001
 370
20
   6
CONTINUOUS
  62
6
 100
AcDbCircle
  10
 1502.6041058713
  20
 603.36052217225
  30
0.0
  40
 1.0000000000000
 100
AcDbArc
  50
0.0
  51
 90.000000000000
   0
POINT
   5
276
 100
AcDbEntity
   8
LEVEL001
 100
AcDbPoint
  62
6
  10
 1503.6041058713
  20
 604.36052217225
  30
0.0
   0
LINE
   5
277
 100
AcDbEntity
   8
LEVEL001
 370
20
 100
AcDbLine
   6
DASHDOT
  62
6
  10
 1511.4978843596
  20
 587.96052217225
  30
0.0
  11
 1491.8445422794
  21
 587.96052217225
  31
0.0
   0
LINE
   5
278
 100
AcDbEntity
   8
LEVEL001
 370
20
 100
AcDbLine
   6
DASHDOT
  62
6
  10
 1511.4978843596
  20
 526.36052217225
  30
0.0
  11
 1491.8445422794
  21
 526.36052217225
  31
0.0
   0
LINE
   5
279
 100
AcDbEntity
   8
LEVEL001
 370
20
 100
AcDbLine
   6
CONTINUOUS
  62
6
  10
 1502.6041058713
  20
 603.36052217225
  30
0.0
  11
 1502.6041058713
  21
 499.99759243305
  31
0.0
   0
LINE
   5
27A
 100
AcDbEntity
   8
LEVEL001
 370
20
 100
AcDbLine
   6
CONTINUOUS
  62
6
  10
 1503.6041058713
  20
 603.36052217225
  30
0.0
  11
 1503.6041058713
  21
 499.36052217225
  31
0.0
   0
LINE
   5
27B
 100
AcDbEntity
   8
LEVEL001
 370
20
 100
AcDbLine
   6
DOT
  62
6
  10
 1349.5317820751
  20
 427.51541767633
  30
0.0
  11
 1309.3814315305
  21
 370.17477457610
  31
0.0
   0
LINE
   5
27C
 100
AcDbEntity
   8
LEVEL001
 370
20
 100
AcDbLine
   6
DOT
  62
6
  10
 1348.8663193737
  20
 428.30848524142
  30
0.0
  11
 1308.5622794862
  21
 370.74835101245
  31
0.0
   0
LINE
   5
27D
 100
AcDbEntity
   8
LEVEL001
 370
20
 100
AcDbLine
   6
DOT
  62
6
  10
 1309.3814315305
  20
 370.17477457610
  30
0.0
  11
 1308.5622794862
  21
 370.74835101245
  31
0.0
   0
LINE
   5
27E
 100
AcDbEntity
   8
LEVEL001
 370
20
 100
AcDbLine
   6
DOT
  62
6
  10
 1502.6041058713
  20
 499.99759243305
  30
0.0
  11
 1367.2353195541
  21
 436.87409069818
  31
0.0
   0
LINE
   5
27F
 100
AcDbEntity
   8
LEVEL001
 370
20
 100
AcDbLine
   6
DOT
  62
6
  10
 1366.3525233836
  20
 436.46243608328
  30
0.0
  11
 1348.8663193737
  21
 428.30848524142
  31
0.0
   0
LINE
   5
280
 100
AcDbEntity
   8
LEVEL001
 370
20
 100
AcDbLine
   6
DOT
  62
6
  10
 1503.6041058713
  20
 499.36052217225
  30
0.0
  11
 1367.6579378158
  21
 435.96778291114
  31
0.0
   0
LINE
   5
281
 100
AcDbEntity
   8
LEVEL001
 370
20
 100
AcDbLine
   6
DOT
  62
6
  10
 1366.7603604440
  20
 435.54923570887
  30
0.0
  11
 1349.5317820751
  21
 427.51541767633
  31
0.0
   0
LINE
   5
282
 100
AcDbEntity
   8
LEVEL001
 370
20
 100
AcDbLine
   6
DOT
  62
6
  10
 1367.6579378158
  20
 435.96778291114
  30
0.0
  11
 1367.2353195541
  21
 436.87409069818
  31
0.0
   0
LINE
   5
283
 100
AcDbEntity
   8
LEVEL001
 370
20
 100
AcDbLine
   6
DOT
  62
6
  10
 1405.5073607575
  20
 583.46619485567
  30
0.0
  11
 1404.9337843212
  21
 584.28534689996
  31
0.0
   0
LINE
   5
284
 100
AcDbEntity
   8
LEVEL001
 370
20
 100
AcDbLine
   6
DOT
  62
6
  10
 1433.9194046602
  20
 603.36052217225
  30
0.0
  11
 1405.5073607575
  21
 583.46619485567
  31
0.0
   0
LINE
   5
285
 100
AcDbEntity
   8
LEVEL001
 370
20
 100
AcDbLine
   6
DOT
  62
6
  10
 1433.6041058713
  20
 604.36052217225
  30
0.0
  11
 1404.9337843212
  21
 584.28534689996
  31
0.0
   0
POINT
   5
286
 100
AcDbEntity
   8
LEVEL001
 100
AcDbPoint
  62
7
  10
 1523.9790713601
  20
 469.02297826247
  30
0.0
   0
ARC
   5
287
 100
AcDbEntity
   8
LEVEL001
 370
30
   6
CONTINUOUS
  62
7
 100
AcDbCircle
  10
 1518.7028132571
  20
 554.09863539687
  30
0.0
  40
 1.0000000000000
 100
AcDbArc
  50
 73.651905520828
  51
 267.48795752604
   0
ARC
   5
288
 100
AcDbEntity
   8
LEVEL001
 370
30
   6
CONTINUOUS
  62
7
 100
AcDbCircle
  10
 1536.4912099276
  20
 548.88073169275
  30
0.0
  40
 1.0000000000000
 100
AcDbArc
  50
 253.65190552085
  51
 87.487957525882
   0
ARC
   5
289
 100
AcDbEntity
   8
LEVEL001
 370
30
   6
CONTINUOUS
  62
7
 100
AcDbCircle
  10
 1518.7028132571
  20
 554.09863539686
  30
0.0
  40
 1.0000000000000
 100
AcDbArc
  50
 73.651905521014
  51
 253.65190552101
   0
LINE
   5
28A
 100
AcDbEntity
   8
LEVEL001
 370
30
 100
AcDbLine
   6
CONTINUOUS
  62
7
  10
 1536.7726822048
  20
 549.84030105301
  30
0.0
  11
 1518.9842855343
  21
 555.05820475712
  31
0.0
   0
LINE
   5
28B
 100
AcDbEntity
   8
LEVEL001
 370
30
 100
AcDbLine
   6
CONTINUOUS
  62
7
  10
 1536.2097376504
  20
 547.92116233249
  30
0.0
  11
 1518.4213409798
  21
 553.13906603661
  31
0.0
   0
LINE
   5
28C
 100
AcDbEntity
   8
LEVEL001
 370
30
 100
AcDbLine
   6
CONTINUOUS
  62
7
  10
 1518.7466426243
  20
 555.09767442842
  30
0.0
  11
 1527.7379939083
  21
 554.70321012381
  31
0.0
   0
LINE
   5
28D
 100
AcDbEntity
   8
LEVEL001
 370
30
 100
AcDbLine
   6
CONTINUOUS
  62
7
  10
 1518.6589838899
  20
 553.09959636531
  30
0.0
  11
 1527.6503351739
  21
 552.70513206070
  31
0.0
   0
ARC
   5
28E
 100
AcDbEntity
   8
LEVEL001
 370
30
   6
CONTINUOUS
  62
7
 100
AcDbCircle
  10
 1528.0886288457
  20
 562.69552237626
  30
0.0
  40
 8.0000000000000
 100
AcDbArc
  50
 267.48795752584
  51
 192.48795752584
   0
ARC
   5
28F
 100
AcDbEntity
   8
LEVEL001
 370
30
   6
CONTINUOUS
  62
7
 100
AcDbCircle
  10
 1528.0886288457
  20
 562.69552237626
  30
0.0
  40
 10.000000000000
 100
AcDbArc
  50
 267.48795752585
  51
 192.48795752583
   0
LINE
   5
290
 100
AcDbEntity
   8
LEVEL001
 370
30
 100
AcDbLine
   6
CONTINUOUS
  62
7
  10
 1520.2778970296
  20
 560.96564709259
  30
0.0
  11
 1518.3252140756
  21
 560.53317827167
  31
0.0
   0
LINE
   5
291
 100
AcDbEntity
   8
LEVEL001
 370
9
 100
AcDbLine
   6
DASHDOT
  62
1
  10
 1515.9003526607
  20
 563.23024065584
  30
0.0
  11
 1540.2769050307
  21
 562.16080409668
  31
0.0
   0
LINE
   5
292
 100
AcDbEntity
   8
LEVEL001
 370
30
 100
AcDbLine
   6
CONTINUOUS
  62
7
  10
 1526.1768707314
  20
 313.77746406665
  30
0.0
  11
 1517.1855194474
  21
 314.17192837126
  31
0.0
   0
LINE
   5
293
 100
AcDbEntity
   8
LEVEL001
 370
30
 100
AcDbLine
   6
CONTINUOUS
  62
7
  10
 1526.2645294657
  20
 315.77554212977
  30
0.0
  11
 1517.2731781817
  21
 316.17000643438
  31
0.0
   0
ARC
   5
294
 100
AcDbEntity
   8
LEVEL001
 370
30
   6
CONTINUOUS
  62
7
 100
AcDbCircle
  10
 1516.8348845099
  20
 306.17961611881
  30
0.0
  40
 8.0000000000000
 100
AcDbArc
  50
 87.487957525831
  51
 12.487957525852
   0
ARC
   5
295
 100
AcDbEntity
   8
LEVEL001
 370
30
   6
CONTINUOUS
  62
7
 100
AcDbCircle
  10
 1516.8348845099
  20
 306.17961611881
  30
0.0
  40
 10.000000000000
 100
AcDbArc
  50
 87.487957525849
  51
 12.487957525851
   0
LINE
   5
296
 100
AcDbEntity
   8
LEVEL001
 370
30
 100
AcDbLine
   6
CONTINUOUS
  62
7
  10
 1524.6456163260
  20
 307.90949140249
  30
0.0
  11
 1526.5982992801
  21
 308.34196022341
  31
0.0
   0
LINE
   5
297
 100
AcDbEntity
   8
LEVEL001
 370
9
 100
AcDbLine
   6
DASHDOT
  62
1
  10
 1529.0231606949
  20
 305.64489783923
  30
0.0
  11
 1504.6466083250
  21
 306.71433439840
  31
0.0
   0
ARC
   5
298
 100
AcDbEntity
   8
LEVEL001
 370
30
   6
CONTINUOUS
  62
7
 100
AcDbCircle
  10
 1526.2207000986
  20
 314.77650309821
  30
0.0
  40
 1.0000000000000
 100
AcDbArc
  50
 253.65190552085
  51
 87.487957525908
   0
ARC
   5
299
 100
AcDbEntity
   8
LEVEL001
 370
30
   6
CONTINUOUS
  62
7
 100
AcDbCircle
  10
 1508.4323034280
  20
 319.99440680233
  30
0.0
  40
 1.0000000000000
 100
AcDbArc
  50
 73.651905520999
  51
 253.65190552100
   0
LINE
   5
29A
 100
AcDbEntity
   8
LEVEL001
 370
30
 100
AcDbLine
   6
CONTINUOUS
  62
7
  10
 1526.5021723758
  20
 315.73607245847
  30
0.0
  11
 1508.7137757053
  21
 320.95397616258
  31
0.0
   0
LINE
   5
29B
 100
AcDbEntity
   8
LEVEL001
 370
30
 100
AcDbLine
   6
CONTINUOUS
  62
7
  10
 1525.9392278213
  20
 313.81693373795
  30
0.0
  11
 1508.1508311508
  21
 319.03483744207
  31
0.0
   0
LINE
   5
29C
 100
AcDbEntity
   8
LEVEL001
 370
9
 100
AcDbLine
   6
DASHDOT
  62
1
  10
 1516.3089321038
  20
 294.19114774014
  30
0.0
  11
 1528.6145812518
  21
 574.68399075494
  31
0.0
   0
LINE
   5
29D
 100
AcDbEntity
   8
LEVEL001
 370
9
 100
AcDbLine
   6
DASHDOT
  62
1
  10
 1526.1330413642
  20
 312.77842503510
  30
0.0
  11
 1536.5788686620
  21
 550.87880975586
  31
0.0
   0
LINE
   5
29E
 100
AcDbEntity
   8
LEVEL001
 370
20
 100
AcDbLine
   6
DIVIDE
  62
4
  10
 1527.2197391301
  20
 314.73267373103
  30
0.0
  11
 1537.4902489592
  21
 548.83690232557
  31
0.0
   0
LINE
   5
29F
 100
AcDbEntity
   8
LEVEL001
 370
9
 100
AcDbLine
   6
DASHDOT
  62
1
  10
 1508.3446446937
  20
 317.99632873921
  30
0.0
  11
 1518.7904719914
  21
 556.09671345998
  31
0.0
   0
LINE
   5
2A0
 100
AcDbEntity
   8
LEVEL001
 370
20
 100
AcDbLine
   6
DIVIDE
  62
4
  10
 1507.4332643965
  20
 320.03823616950
  30
0.0
  11
 1517.7037742255
  21
 554.14246476404
  31
0.0
   0
LINE
   5
2A1
 100
AcDbEntity
   8
LEVEL001
 370
20
 100
AcDbLine
   6
DOT
  62
5
  10
 1494.8191064881
  20
 560.97932432576
  30
0.0
  11
 1498.4041058713
  21
 560.97932432576
  31
0.0
   0
LINE
   5
2A2
 100
AcDbEntity
   8
LEVEL001
 370
20
 100
AcDbLine
   6
DOT
  62
5
  10
 1498.4041058713
  20
 560.97932432576
  30
0.0
  11
 1498.4041058713
  21
 551.74172001873
  31
0.0
   0
LINE
   5
2A3
 100
AcDbEntity
   8
LEVEL001
 370
20
 100
AcDbLine
   6
DOT
  62
5
  10
 1498.4041058713
  20
 551.74172001873
  30
0.0
  11
 1494.8191064881
  21
 551.74172001873
  31
0.0
   0
LINE
   5
2A4
 100
AcDbEntity
   8
LEVEL001
 370
20
 100
AcDbLine
   6
DOT
  62
5
  10
 1494.4041058713
  20
 552.89642055711
  30
0.0
  11
 1494.4041058713
  21
 559.82462378738
  31
0.0
   0
ARC
   5
2A5
 100
AcDbEntity
   8
LEVEL001
 370
20
   6
DOT
  62
5
 100
AcDbCircle
  10
 1501.0372994403
  20
 556.36052217225
  30
0.0
  40
 6.6331935689551
 100
AcDbArc
  50
 159.62529312685
  51
 200.37470687315
   0
LINE
   5
2A6
 100
AcDbEntity
   8
LEVEL001
 370
20
 100
AcDbLine
   6
DOT
  62
5
  10
 1498.4041058713
  20
 554.05112109549
  30
0.0
  11
 1494.8191064881
  21
 554.05112109549
  31
0.0
   0
ARC
   5
2A7
 100
AcDbEntity
   8
LEVEL001
 370
20
   6
DOT
  62
5
 100
AcDbCircle
  10
 1496.2180294949
  20
 552.89642055711
  30
0.0
  40
 1.8139236235490
 100
AcDbArc
  50
 140.46301627475
  51
 219.53698372525
   0
LINE
   5
2A8
 100
AcDbEntity
   8
LEVEL001
 370
20
 100
AcDbLine
   6
DOT
  62
5
  10
 1498.4041058713
  20
 558.66992324901
  30
0.0
  11
 1494.8191064881
  21
 558.66992324901
  31
0.0
   0
ARC
   5
2A9
 100
AcDbEntity
   8
LEVEL001
 370
20
   6
DOT
  62
5
 100
AcDbCircle
  10
 1496.2180294949
  20
 559.82462378738
  30
0.0
  40
 1.8139236235490
 100
AcDbArc
  50
 140.46301627475
  51
 219.53698372525
   0
LINE
   5
2AA
 100
AcDbEntity
   8
LEVEL001
 370
20
 100
AcDbLine
   6
DOT
  62
5
  10
 1492.4041058713
  20
 556.36052217225
  30
0.0
  11
 1502.6477272396
  21
 556.36052217225
  31
0.0
   0
LINE
   5
2AB
 100
AcDbEntity
   8
LEVEL001
 370
20
 100
AcDbLine
   6
DOT
  62
5
  10
 1494.8191064881
  20
 492.97932432576
  30
0.0
  11
 1498.4041058713
  21
 492.97932432576
  31
0.0
   0
LINE
   5
2AC
 100
AcDbEntity
   8
LEVEL001
 370
20
 100
AcDbLine
   6
DOT
  62
5
  10
 1498.4041058713
  20
 492.97932432576
  30
0.0
  11
 1498.4041058713
  21
 483.74172001873
  31
0.0
   0
LINE
   5
2AD
 100
AcDbEntity
   8
LEVEL001
 370
20
 100
AcDbLine
   6
DOT
  62
5
  10
 1498.4041058713
  20
 483.74172001873
  30
0.0
  11
 1494.8191064881
  21
 483.74172001873
  31
0.0
   0
LINE
   5
2AE
 100
AcDbEntity
   8
LEVEL001
 370
20
 100
AcDbLine
   6
DOT
  62
5
  10
 1494.4041058713
  20
 484.89642055711
  30
0.0
  11
 1494.4041058713
  21
 491.82462378738
  31
0.0
   0
ARC
   5
2AF
 100
AcDbEntity
   8
LEVEL001
 370
20
   6
DOT
  62
5
 100
AcDbCircle
  10
 1501.0372994403
  20
 488.36052217225
  30
0.0
  40
 6.6331935689551
 100
AcDbArc
  50
 159.62529312685
  51
 200.37470687315
   0
LINE
   5
2B0
 100
AcDbEntity
   8
LEVEL001
 370
20
 100
AcDbLine
   6
DOT
  62
5
  10
 1498.4041058713
  20
 486.05112109549
  30
0.0
  11
 1494.8191064881
  21
 486.05112109549
  31
0.0
   0
ARC
   5
2B1
 100
AcDbEntity
   8
LEVEL001
 370
20
   6
DOT
  62
5
 100
AcDbCircle
  10
 1496.2180294949
  20
 484.89642055711
  30
0.0
  40
 1.8139236235490
 100
AcDbArc
  50
 140.46301627475
  51
 219.53698372525
   0
LINE
   5
2B2
 100
AcDbEntity
   8
LEVEL001
 370
20
 100
AcDbLine
   6
DOT
  62
5
  10
 1498.4041058713
  20
 490.66992324901
  30
0.0
  11
 1494.8191064881
  21
 490.66992324901
  31
0.0
   0
ARC
   5
2B3
 100
AcDbEntity
   8
LEVEL001
 370
20
   6
DOT
  62
5
 100
AcDbCircle
  10
 1496.2180294949
  20
 491.82462378738
  30
0.0
  40
 1.8139236235490
 100
AcDbArc
  50
 140.46301627475
  51
 219.53698372525
   0
LINE
   5
2B4
 100
AcDbEntity
   8
LEVEL001
 370
20
 100
AcDbLine
   6
DOT
  62
5
  10
 1492.4041058713
  20
 488.36052217225
  30
0.0
  11
 1502.6477272396
  21
 488.36052217225
  31
0.0
   0
LINE
   5
2B5
 100
AcDbEntity
   8
LEVEL001
 370
20
 100
AcDbLine
   6
DOT
  62
5
  10
 1484.6680975579
  20
 576.36052217225
  30
0.0
  11
 1497.4041058713
  21
 576.36052217225
  31
0.0
   0
LINE
   5
2B6
 100
AcDbEntity
   8
LEVEL001
 370
20
 100
AcDbLine
   6
DOT
  62
5
  10
 1389.4041058713
  20
 584.36052217225
  30
0.0
  11
 1499.4041058713
  21
 584.36052217225
  31
0.0
   0
LINE
   5
2B7
 100
AcDbEntity
   8
LEVEL001
 370
20
 100
AcDbLine
   6
DOT
  62
5
  10
 1389.4041058713
  20
 584.36052217225
  30
0.0
  11
 1384.4041058713
  21
 579.36052217225
  31
0.0
   0
POINT
   5
2B8
 100
AcDbEntity
   8
LEVEL001
 100
AcDbPoint
  62
5
  10
 1384.4041058713
  20
 584.36052217225
  30
0.0
   0
CIRCLE
   5
2B9
 100
AcDbEntity
   8
LEVEL001
 370
20
 100
AcDbCircle
   6
DOT
  62
5
  10
 1491.4041058713
  20
 576.36052217225
  30
0.0
  40
 2.0670000000000
   0
CIRCLE
   5
2BA
 100
AcDbEntity
   8
LEVEL001
 370
20
 100
AcDbCircle
   6
DOT
  62
5
  10
 1491.4041058713
  20
 576.36052217225
  30
0.0
  40
 2.5000000000000
   0
LINE
   5
2BB
 100
AcDbEntity
   8
LEVEL001
 370
20
 100
AcDbLine
   6
DOT
  62
5
  10
 1491.4041058713
  20
 570.36052217225
  30
0.0
  11
 1491.4041058713
  21
 582.36052217225
  31
0.0
   0
LINE
   5
2BC
 100
AcDbEntity
   8
LEVEL001
 370
20
 100
AcDbLine
   6
DOT
  62
5
  10
 1485.4041058713
  20
 576.36052217225
  30
0.0
  11
 1497.4041058713
  21
 576.36052217225
  31
0.0
   0
LINE
   5
2BD
 100
AcDbEntity
   8
LEVEL001
 370
20
 100
AcDbLine
   6
DOT
  62
5
  10
 1487.4041058713
  20
 578.66992324901
  30
0.0
  11
 1487.4041058713
  21
 574.05112109549
  31
0.0
   0
LINE
   5
2BE
 100
AcDbEntity
   8
LEVEL001
 370
20
 100
AcDbLine
   6
DOT
  62
5
  10
 1491.4041058713
  20
 580.97932432576
  30
0.0
  11
 1487.4041058713
  21
 578.66992324901
  31
0.0
   0
CIRCLE
   5
2BF
 100
AcDbEntity
   8
LEVEL001
 370
20
 100
AcDbCircle
   6
DOT
  62
5
  10
 1491.4041058713
  20
 576.36052217225
  30
0.0
  40
 4.0000000000000
   0
LINE
   5
2C0
 100
AcDbEntity
   8
LEVEL001
 370
20
 100
AcDbLine
   6
DOT
  62
5
  10
 1487.4041058713
  20
 574.05112109549
  30
0.0
  11
 1491.4041058713
  21
 571.74172001873
  31
0.0
   0
LINE
   5
2C1
 100
AcDbEntity
   8
LEVEL001
 370
20
 100
AcDbLine
   6
DOT
  62
5
  10
 1491.4041058713
  20
 571.74172001873
  30
0.0
  11
 1495.4041058713
  21
 574.05112109549
  31
0.0
   0
LINE
   5
2C2
 100
AcDbEntity
   8
LEVEL001
 370
20
 100
AcDbLine
   6
DOT
  62
5
  10
 1495.4041058713
  20
 574.05112109549
  30
0.0
  11
 1495.4041058713
  21
 578.66992324901
  31
0.0
   0
LINE
   5
2C3
 100
AcDbEntity
   8
LEVEL001
 370
20
 100
AcDbLine
   6
DOT
  62
5
  10
 1495.4041058713
  20
 578.66992324901
  30
0.0
  11
 1491.4041058713
  21
 580.97932432576
  31
0.0
   0
LINE
   5
2C4
 100
AcDbEntity
   8
LEVEL001
 370
20
 100
AcDbLine
   6
DOT
  62
5
  10
 1484.6680975579
  20
 468.36052217225
  30
0.0
  11
 1497.4041058713
  21
 468.36052217225
  31
0.0
   0
LINE
   5
2C5
 100
AcDbEntity
   8
LEVEL001
 370
20
 100
AcDbLine
   6
DOT
  62
5
  10
 1384.4041058713
  20
 465.36052217225
  30
0.0
  11
 1389.4041058713
  21
 460.36052217225
  31
0.0
   0
POINT
   5
2C6
 100
AcDbEntity
   8
LEVEL001
 100
AcDbPoint
  62
5
  10
 1384.4041058713
  20
 460.36052217225
  30
0.0
   0
LINE
   5
2C7
 100
AcDbEntity
   8
LEVEL001
 370
20
 100
AcDbLine
   6
DOT
  62
5
  10
 1389.4041058713
  20
 460.36052217225
  30
0.0
  11
 1499.4041058713
  21
 460.36052217225
  31
0.0
   0
LINE
   5
2C8
 100
AcDbEntity
   8
LEVEL001
 370
20
 100
AcDbLine
   6
DOT
  62
5
  10
 1498.4041058713
  20
 584.36052217225
  30
0.0
  11
 1498.4041058713
  21
 460.36052217225
  31
0.0
   0
LINE
   5
2C9
 100
AcDbEntity
   8
LEVEL001
 370
20
 100
AcDbLine
   6
DOT
  62
5
  10
 1499.4041058713
  20
 584.36052217225
  30
0.0
  11
 1499.4041058713
  21
 460.36052217225
  31
0.0
   0
LINE
   5
2CA
 100
AcDbEntity
   8
LEVEL001
 370
20
 100
AcDbLine
   6
DOT
  62
5
  10
 1491.4041058713
  20
 582.83640819846
  30
0.0
  11
 1491.4041058713
  21
 461.96793954988
  31
0.0
   0
LINE
   5
2CB
 100
AcDbEntity
   8
LEVEL001
 370
20
 100
AcDbLine
   6
DOT
  62
5
  10
 1384.4041058713
  20
 579.36052217225
  30
0.0
  11
 1384.4041058713
  21
 465.36052217225
  31
0.0
   0
CIRCLE
   5
2CC
 100
AcDbEntity
   8
LEVEL001
 370
20
 100
AcDbCircle
   6
DOT
  62
5
  10
 1491.4041058713
  20
 468.36052217225
  30
0.0
  40
 2.0670000000000
   0
CIRCLE
   5
2CD
 100
AcDbEntity
   8
LEVEL001
 370
20
 100
AcDbCircle
   6
DOT
  62
5
  10
 1491.4041058713
  20
 468.36052217225
  30
0.0
  40
 2.5000000000000
   0
LINE
   5
2CE
 100
AcDbEntity
   8
LEVEL001
 370
20
 100
AcDbLine
   6
DOT
  62
5
  10
 1491.4041058713
  20
 462.36052217225
  30
0.0
  11
 1491.4041058713
  21
 474.36052217225
  31
0.0
   0
LINE
   5
2CF
 100
AcDbEntity
   8
LEVEL001
 370
20
 100
AcDbLine
   6
DOT
  62
5
  10
 1497.4041058713
  20
 468.36052217225
  30
0.0
  11
 1485.4041058713
  21
 468.36052217225
  31
0.0
   0
LINE
   5
2D0
 100
AcDbEntity
   8
LEVEL001
 370
20
 100
AcDbLine
   6
DOT
  62
5
  10
 1495.4041058713
  20
 470.66992324901
  30
0.0
  11
 1495.4041058713
  21
 466.05112109549
  31
0.0
   0
LINE
   5
2D1
 100
AcDbEntity
   8
LEVEL001
 370
20
 100
AcDbLine
   6
DOT
  62
5
  10
 1491.4041058713
  20
 472.97932432576
  30
0.0
  11
 1495.4041058713
  21
 470.66992324901
  31
0.0
   0
CIRCLE
   5
2D2
 100
AcDbEntity
   8
LEVEL001
 370
20
 100
AcDbCircle
   6
DOT
  62
5
  10
 1491.4041058713
  20
 468.36052217225
  30
0.0
  40
 4.0000000000000
   0
LINE
   5
2D3
 100
AcDbEntity
   8
LEVEL001
 370
20
 100
AcDbLine
   6
DOT
  62
5
  10
 1495.4041058713
  20
 466.05112109549
  30
0.0
  11
 1491.4041058713
  21
 463.74172001873
  31
0.0
   0
LINE
   5
2D4
 100
AcDbEntity
   8
LEVEL001
 370
20
 100
AcDbLine
   6
DOT
  62
5
  10
 1491.4041058713
  20
 463.74172001873
  30
0.0
  11
 1487.4041058713
  21
 466.05112109549
  31
0.0
   0
LINE
   5
2D5
 100
AcDbEntity
   8
LEVEL001
 370
20
 100
AcDbLine
   6
DOT
  62
5
  10
 1487.4041058713
  20
 466.05112109549
  30
0.0
  11
 1487.4041058713
  21
 470.66992324901
  31
0.0
   0
LINE
   5
2D6
 100
AcDbEntity
   8
LEVEL001
 370
20
 100
AcDbLine
   6
DOT
  62
5
  10
 1487.4041058713
  20
 470.66992324901
  30
0.0
  11
 1491.4041058713
  21
 472.97932432576
  31
0.0
   0
ARC
   5
2D7
 100
AcDbEntity
   8
LEVEL001
 370
20
   6
DOT
  62
6
 100
AcDbCircle
  10
 1059.6041058713
  20
 281.36052217224
  30
0.0
  40
 1.0000000000000
 100
AcDbArc
  50
 180.00000000000
  51
 270.00000000000
   0
POINT
   5
2D8
 100
AcDbEntity
   8
LEVEL001
 100
AcDbPoint
  62
6
  10
 1058.6041058713
  20
 280.36052217224
  30
0.0
   0
LINE
   5
2D9
 100
AcDbEntity
   8
LEVEL001
 370
20
 100
AcDbLine
   6
DOT
  62
6
  10
 1058.6041058713
  20
 309.36052217224
  30
0.0
  11
 1058.6041058713
  21
 281.36052217224
  31
0.0
   0
LINE
   5
2DA
 100
AcDbEntity
   8
LEVEL001
 370
20
 100
AcDbLine
   6
DOT
  62
6
  10
 1057.6041058713
  20
 326.36052217224
  30
0.0
  11
 1057.6041058713
  21
 281.36052217224
  31
0.0
   0
LINE
   5
2DB
 100
AcDbEntity
   8
LEVEL001
 370
20
 100
AcDbLine
   6
DOT
  62
6
  10
 1058.6041058713
  20
 326.36052217224
  30
0.0
  11
 1058.6041058713
  21
 309.36052217224
  31
0.0
   0
ARC
   5
2DC
 100
AcDbEntity
   8
LEVEL001
 370
20
   6
DOT
  62
6
 100
AcDbCircle
  10
 1059.6041058713
  20
 281.36052217224
  30
0.0
  40
 2.0000000000000
 100
AcDbArc
  50
 180.00000000000
  51
 270.00000000000
   0
POINT
   5
2DD
 100
AcDbEntity
   8
LEVEL001
 100
AcDbPoint
  62
6
  10
 1057.6041058713
  20
 279.36052217224
  30
0.0
   0
LINE
   5
2DE
 100
AcDbEntity
   8
LEVEL001
 370
20
 100
AcDbLine
   6
DOT
  62
6
  10
 1058.6041058713
  20
 326.36052217224
  30
0.0
  11
 1057.6041058713
  21
 326.36052217224
  31
0.0
   0
LINE
   5
2DF
 100
AcDbEntity
   8
LEVEL001
 370
20
 100
AcDbLine
   6
DOT
  62
6
  10
 1320.6041058713
  20
 280.36052217224
  30
0.0
  11
 1059.6041058713
  21
 280.36052217224
  31
0.0
   0
LINE
   5
2E0
 100
AcDbEntity
   8
LEVEL001
 370
20
 100
AcDbLine
   6
DOT
  62
6
  10
 1321.6041058713
  20
 309.36052217224
  30
0.0
  11
 1321.6041058713
  21
 281.36052217224
  31
0.0
   0
ARC
   5
2E1
 100
AcDbEntity
   8
LEVEL001
 370
20
   6
DOT
  62
6
 100
AcDbCircle
  10
 1320.6041058713
  20
 281.36052217224
  30
0.0
  40
 1.0000000000000
 100
AcDbArc
  50
 270.00000000000
  51
0.0
   0
POINT
   5
2E2
 100
AcDbEntity
   8
LEVEL001
 100
AcDbPoint
  62
6
  10
 1321.6041058713
  20
 280.36052217224
  30
0.0
   0
LINE
   5
2E3
 100
AcDbEntity
   8
LEVEL001
 370
20
 100
AcDbLine
   6
DOT
  62
6
  10
 1320.6041058713
  20
 279.36052217224
  30
0.0
  11
 1059.6041058713
  21
 279.36052217224
  31
0.0
   0
LINE
   5
2E4
 100
AcDbEntity
   8
LEVEL001
 370
20
 100
AcDbLine
   6
DOT
  62
6
  10
 1322.6041058713
  20
 309.36052217224
  30
0.0
  11
 1057.6041058713
  21
 309.36052217224
  31
0.0
   0
LINE
   5
2E5
 100
AcDbEntity
   8
LEVEL001
 370
20
 100
AcDbLine
   6
DOT
  62
6
  10
 1322.6041058713
  20
 309.36052217224
  30
0.0
  11
 1322.6041058713
  21
 281.36052217224
  31
0.0
   0
ARC
   5
2E6
 100
AcDbEntity
   8
LEVEL001
 370
20
   6
DOT
  62
6
 100
AcDbCircle
  10
 1320.6041058713
  20
 281.36052217224
  30
0.0
  40
 2.0000000000000
 100
AcDbArc
  50
 270.00000000000
  51
0.0
   0
POINT
   5
2E7
 100
AcDbEntity
   8
LEVEL001
 100
AcDbPoint
  62
6
  10
 1322.6041058713
  20
 279.36052217224
  30
0.0
   0
LINE
   5
2E8
 100
AcDbEntity
   8
LEVEL001
 370
20
 100
AcDbLine
   6
CONTINUOUS
  62
6
  10
 1502.6041058713
  20
 445.36052217225
  30
0.0
  11
 1502.6041058713
  21
 282.36052217225
  31
0.0
   0
POINT
   5
2E9
 100
AcDbEntity
   8
LEVEL001
 100
AcDbPoint
  62
6
  10
 1364.2161031785
  20
 522.10126291299
  30
0.0
   0
ARC
   5
2EA
 100
AcDbEntity
   8
LEVEL001
 370
20
   6
CONTINUOUS
  62
6
 100
AcDbCircle
  10
 1058.6041058713
  20
 601.36052217225
  30
0.0
  40
 2.0000000000000
 100
AcDbArc
  50
 90.000000000000
  51
 180.00000000000
   0
POINT
   5
2EB
 100
AcDbEntity
   8
LEVEL001
 100
AcDbPoint
  62
6
  10
 1056.6041058713
  20
 603.36052217225
  30
0.0
   0
LINE
   5
2EC
 100
AcDbEntity
   8
LEVEL001
 370
20
 100
AcDbLine
   6
CONTINUOUS
  62
6
  10
 1056.6041058713
  20
 601.36052217225
  30
0.0
  11
 1056.6041058713
  21
 279.36052217225
  31
0.0
   0
ARC
   5
2ED
 100
AcDbEntity
   8
LEVEL001
 370
20
   6
HIDDEN
  62
6
 100
AcDbCircle
  10
 1058.6041058713
  20
 601.36052217225
  30
0.0
  40
 1.0000000000000
 100
AcDbArc
  50
 90.000000000000
  51
 180.00000000000
   0
POINT
   5
2EE
 100
AcDbEntity
   8
LEVEL001
 100
AcDbPoint
  62
6
  10
 1057.6041058713
  20
 602.36052217225
  30
0.0
   0
LINE
   5
2EF
 100
AcDbEntity
   8
LEVEL001
 370
20
 100
AcDbLine
   6
HIDDEN
  62
6
  10
 1057.6041058713
  20
 601.36052217225
  30
0.0
  11
 1057.6041058713
  21
 279.36052217225
  31
0.0
   0
LINE
   5
2F0
 100
AcDbEntity
   8
LEVEL001
 370
20
 100
AcDbLine
   6
HIDDEN
  62
6
  10
 1081.6041058713
  20
 602.36052217225
  30
0.0
  11
 1058.6041058713
  21
 602.36052217225
  31
0.0
   0
POINT
   5
2F1
 100
AcDbEntity
   8
LEVEL001
 100
AcDbPoint
  62
6
  10
 1257.6041058713
  20
 539.36052217225
  30
0.0
   0
LINE
   5
2F2
 100
AcDbEntity
   8
LEVEL001
 370
20
 100
AcDbLine
   6
HIDDEN
  62
6
  10
 1209.7606110157
  20
 583.36052217225
  30
0.0
  11
 1058.6041058713
  21
 583.36052217225
  31
0.0
   0
LINE
   5
2F3
 100
AcDbEntity
   8
LEVEL001
 370
20
 100
AcDbLine
   6
HIDDEN
  62
6
  10
 1232.6041058713
  20
 603.36052217225
  30
0.0
  11
 1232.6041058713
  21
 599.36052217225
  31
0.0
   0
ARC
   5
2F4
 100
AcDbEntity
   8
LEVEL001
 370
20
   6
HIDDEN
  62
6
 100
AcDbCircle
  10
 1257.6041058713
  20
 539.36052217225
  30
0.0
  40
 65.000000000000
 100
AcDbArc
  50
 112.61986494804
  51
 137.39633319364
   0
LINE
   5
2F5
 100
AcDbEntity
   8
LEVEL001
 370
20
 100
AcDbLine
   6
HIDDEN
  62
6
  10
 1282.6041058713
  20
 603.36052217225
  30
0.0
  11
 1282.6041058713
  21
 599.36052217225
  31
0.0
   0
ARC
   5
2F6
 100
AcDbEntity
   8
LEVEL001
 370
20
   6
HIDDEN
  62
6
 100
AcDbCircle
  10
 1257.6041058713
  20
 539.36052217225
  30
0.0
  40
 65.000000000000
 100
AcDbArc
  50
 42.603666806362
  51
 67.380135051959
   0
LINE
   5
2F7
 100
AcDbEntity
   8
LEVEL001
 370
20
 100
AcDbLine
   6
CONTINUOUS
  62
6
  10
 1502.6041058713
  20
 282.36052217225
  30
0.0
  11
 1499.6041058713
  21
 279.36052217225
  31
0.0
   0
POINT
   5
2F8
 100
AcDbEntity
   8
LEVEL001
 100
AcDbPoint
  62
6
  10
 1502.6041058713
  20
 279.36052217225
  30
0.0
   0
LINE
   5
2F9
 100
AcDbEntity
   8
LEVEL001
 370
20
 100
AcDbLine
   6
CONTINUOUS
  62
6
  10
 1056.6041058713
  20
 279.36052217225
  30
0.0
  11
 1499.6041058713
  21
 279.36052217225
  31
0.0
   0
LINE
   5
2FA
 100
AcDbEntity
   8
LEVEL001
 370
20
 100
AcDbLine
   6
DASHDOT
  62
6
  10
 1157.6041058713
  20
 597.46847770219
  30
0.0
  11
 1157.6041058713
  21
 610.33695393233
  31
0.0
   0
LINE
   5
2FB
 100
AcDbEntity
   8
LEVEL001
 370
20
 100
AcDbLine
   6
DASHDOT
  62
6
  10
 1402.6041058713
  20
 596.38037550528
  30
0.0
  11
 1402.6041058713
  21
 610.33695393233
  31
0.0
   0
POINT
   5
2FC
 100
AcDbEntity
   8
LEVEL001
 100
AcDbPoint
  62
6
  10
 1257.6041058713
  20
 431.36052217225
  30
0.0
   0
POINT
   5
2FD
 100
AcDbEntity
   8
LEVEL001
 100
AcDbPoint
  62
6
  10
 1150.9921085642
  20
 522.10126291299
  30
0.0
   0
LINE
   5
2FE
 100
AcDbEntity
   8
LEVEL001
 370
20
 100
AcDbLine
   6
DASHDOT
  62
6
  10
 1064.6199101009
  20
 582.36052217225
  30
0.0
  11
 1048.3924106705
  21
 582.36052217225
  31
0.0
   0
LINE
   5
2FF
 100
AcDbEntity
   8
LEVEL001
 370
20
 100
AcDbLine
   6
DASHDOT
  62
6
  10
 1064.6199101009
  20
 339.36052217225
  30
0.0
  11
 1048.3924106705
  21
 339.36052217225
  31
0.0
   0
ARC
   5
300
 100
AcDbEntity
   8
LEVEL001
 370
20
   6
CONTINUOUS
  62
6
 100
AcDbCircle
  10
 1364.2161031785
  20
 522.36052217225
  30
0.0
  40
 41.000000000000
 100
AcDbArc
  50
 90.000000000000
  51
 270.00000000000
   0
LINE
   5
301
 100
AcDbEntity
   8
LEVEL001
 370
20
 100
AcDbLine
   6
DASHDOT
  62
6
  10
 1359.5438485739
  20
 522.36052217225
  30
0.0
  11
 1368.6665772098
  21
 522.36052217225
  31
0.0
   0
LINE
   5
302
 100
AcDbEntity
   8
LEVEL001
 370
20
 100
AcDbLine
   6
DASHDOT
  62
6
  10
 1364.2161031785
  20
 517.88975903316
  30
0.0
  11
 1364.2161031785
  21
 526.68472496359
  31
0.0
   0
LINE
   5
303
 100
AcDbEntity
   8
LEVEL001
 370
20
 100
AcDbLine
   6
DASHDOT
  62
6
  10
 1263.4611742450
  20
 539.36052217225
  30
0.0
  11
 1251.0881321131
  21
 539.36052217225
  31
0.0
   0
LINE
   5
304
 100
AcDbEntity
   8
LEVEL001
 370
20
 100
AcDbLine
   6
DASHDOT
  62
6
  10
 1257.6041058713
  20
 532.25534170246
  30
0.0
  11
 1257.6041058713
  21
 546.63593040548
  31
0.0
   0
CIRCLE
   5
305
 100
AcDbEntity
   8
LEVEL001
 370
20
 100
AcDbCircle
   6
CONTINUOUS
  62
6
  10
 1491.4041058713
  20
 576.36052217225
  30
0.0
  40
 3.5000000000000
   0
LINE
   5
306
 100
AcDbEntity
   8
LEVEL001
 370
20
 100
AcDbLine
   6
DASHDOT
  62
6
  10
 1502.6041058713
  20
 576.36052217225
  30
0.0
  11
 1482.2963335116
  21
 576.36052217225
  31
0.0
   0
CIRCLE
   5
307
 100
AcDbEntity
   8
LEVEL001
 370
20
 100
AcDbCircle
   6
CONTINUOUS
  62
6
  10
 1491.4041058713
  20
 468.36052217225
  30
0.0
  40
 3.5000000000000
   0
LINE
   5
308
 100
AcDbEntity
   8
LEVEL001
 370
20
 100
AcDbLine
   6
DASHDOT
  62
6
  10
 1502.6041058713
  20
 468.36052217225
  30
0.0
  11
 1482.2963335116
  21
 468.36052217225
  31
0.0
   0
LINE
   5
309
 100
AcDbEntity
   8
LEVEL001
 370
20
 100
AcDbLine
   6
DASHDOT
  62
6
  10
 1491.4041058713
  20
 583.36517877879
  30
0.0
  11
 1491.4041058713
  21
 460.84177178116
  31
0.0
   0
LINE
   5
30A
 100
AcDbEntity
   8
LEVEL001
 370
20
 100
AcDbLine
   6
CONTINUOUS
  62
6
  10
 1081.6041058713
  20
 601.36052217225
  30
0.0
  11
 1143.6041058713
  21
 601.36052217225
  31
0.0
   0
LINE
   5
30B
 100
AcDbEntity
   8
LEVEL001
 370
20
 100
AcDbLine
   6
CONTINUOUS
  62
6
  10
 1081.6041058713
  20
 603.36052217225
  30
0.0
  11
 1081.6041058713
  21
 601.36052217225
  31
0.0
   0
LINE
   5
30C
 100
AcDbEntity
   8
LEVEL001
 370
20
 100
AcDbLine
   6
CONTINUOUS
  62
6
  10
 1143.6041058713
  20
 603.36052217225
  30
0.0
  11
 1143.6041058713
  21
 601.36052217225
  31
0.0
   0
LINE
   5
30D
 100
AcDbEntity
   8
LEVEL001
 370
20
 100
AcDbLine
   6
CONTINUOUS
  62
6
  10
 1081.6041058713
  20
 603.36052217225
  30
0.0
  11
 1058.6041058713
  21
 603.36052217225
  31
0.0
   0
LINE
   5
30E
 100
AcDbEntity
   8
LEVEL001
 370
20
 100
AcDbLine
   6
HIDDEN
  62
6
  10
 1464.4041058713
  20
 601.36052217225
  30
0.0
  11
 1464.4041058713
  21
 583.36052217225
  31
0.0
   0
LINE
   5
30F
 100
AcDbEntity
   8
LEVEL001
 370
20
 100
AcDbLine
   6
CONTINUOUS
  62
6
  10
 1443.6041058713
  20
 603.36052217225
  30
0.0
  11
 1443.6041058713
  21
 601.36052217225
  31
0.0
   0
LINE
   5
310
 100
AcDbEntity
   8
LEVEL001
 370
20
 100
AcDbLine
   6
CONTINUOUS
  62
6
  10
 1464.4041058713
  20
 603.36052217225
  30
0.0
  11
 1464.4041058713
  21
 601.91903074062
  31
0.0
   0
LINE
   5
311
 100
AcDbEntity
   8
LEVEL001
 370
20
 100
AcDbLine
   6
CONTINUOUS
  62
6
  10
 1083.1013016735
  20
 603.36052217225
  30
0.0
  11
 1141.9121131013
  21
 603.36052217225
  31
0.0
   0
LINE
   5
312
 100
AcDbEntity
   8
LEVEL001
 370
20
 100
AcDbLine
   6
CONTINUOUS
  62
6
  10
 1083.1013016735
  20
 602.36052217225
  30
0.0
  11
 1141.9121131013
  21
 602.36052217225
  31
0.0
   0
LINE
   5
313
 100
AcDbEntity
   8
LEVEL001
 370
20
 100
AcDbLine
   6
CONTINUOUS
  62
6
  10
 1445.4185322060
  20
 603.36052217225
  30
0.0
  11
 1464.4041058713
  21
 603.36052217225
  31
0.0
   0
LINE
   5
314
 100
AcDbEntity
   8
LEVEL001
 370
20
 100
AcDbLine
   6
CONTINUOUS
  62
6
  10
 1445.4185322060
  20
 602.36052217225
  30
0.0
  11
 1464.4041058713
  21
 602.36052217225
  31
0.0
   0
CIRCLE
   5
315
 100
AcDbEntity
   8
LEVEL001
 370
20
 100
AcDbCircle
   6
CONTINUOUS
  62
6
  10
 1072.6041058713
  20
 294.36052217225
  30
0.0
  40
 3.5000000000000
   0
CIRCLE
   5
316
 100
AcDbEntity
   8
LEVEL001
 370
20
 100
AcDbCircle
   6
CONTINUOUS
  62
6
  10
 1452.6041058713
  20
 294.36052217225
  30
0.0
  40
 3.5000000000000
   0
LINE
   5
317
 100
AcDbEntity
   8
LEVEL001
 370
20
 100
AcDbLine
   6
DASHDOT
  62
6
  10
 1452.6041058713
  20
 303.00961329807
  30
0.0
  11
 1452.6041058713
  21
 285.80975319868
  31
0.0
   0
LINE
   5
318
 100
AcDbEntity
   8
LEVEL001
 370
20
 100
AcDbLine
   6
DASHDOT
  62
6
  10
 1072.6041058713
  20
 302.36048950245
  30
0.0
  11
 1072.6041058713
  21
 285.95186905926
  31
0.0
   0
LINE
   5
319
 100
AcDbEntity
   8
LEVEL001
 370
20
 100
AcDbLine
   6
DASHDOT
  62
6
  10
 1064.2250526087
  20
 294.36052217225
  30
0.0
  11
 1461.5233842525
  21
 294.36052217225
  31
0.0
   0
LINE
   5
31A
 100
AcDbEntity
   8
LEVEL001
 370
20
 100
AcDbLine
   6
DASHDOT
  62
6
  10
 1062.0604530746
  20
 294.36052217225
  30
0.0
  11
 1048.3924106705
  21
 294.36052217225
  31
0.0
   0
LINE
   5
31B
 100
AcDbEntity
   8
LEVEL001
 370
20
 100
AcDbLine
   6
CONTINUOUS
  62
6
  10
 1502.6041058713
  20
 445.36052217225
  30
0.0
  11
 1499.1041058713
  21
 445.36052217225
  31
0.0
   0
LINE
   5
31C
 100
AcDbEntity
   8
LEVEL001
 370
20
 100
AcDbLine
   6
CONTINUOUS
  62
6
  10
 1499.1041058713
  20
 566.36052217225
  30
0.0
  11
 1496.1041058713
  21
 563.36052217225
  31
0.0
   0
POINT
   5
31D
 100
AcDbEntity
   8
LEVEL001
 100
AcDbPoint
  62
6
  10
 1499.1041058713
  20
 563.36052217225
  30
0.0
   0
LINE
   5
31E
 100
AcDbEntity
   8
LEVEL001
 370
20
 100
AcDbLine
   6
CONTINUOUS
  62
6
  10
 1364.2161031785
  20
 563.36052217225
  30
0.0
  11
 1496.1041058713
  21
 563.36052217225
  31
0.0
   0
LINE
   5
31F
 100
AcDbEntity
   8
LEVEL001
 370
20
 100
AcDbLine
   6
CONTINUOUS
  62
6
  10
 1496.1041058713
  20
 481.36052217225
  30
0.0
  11
 1499.1041058713
  21
 478.36052217225
  31
0.0
   0
POINT
   5
320
 100
AcDbEntity
   8
LEVEL001
 100
AcDbPoint
  62
6
  10
 1499.1041058713
  20
 481.36052217225
  30
0.0
   0
LINE
   5
321
 100
AcDbEntity
   8
LEVEL001
 370
20
 100
AcDbLine
   6
CONTINUOUS
  62
6
  10
 1499.1041058713
  20
 478.36052217225
  30
0.0
  11
 1499.1041058713
  21
 445.61978143150
  31
0.0
   0
LINE
   5
322
 100
AcDbEntity
   8
LEVEL001
 370
20
 100
AcDbLine
   6
CONTINUOUS
  62
6
  10
 1364.2161031785
  20
 481.36052217225
  30
0.0
  11
 1496.1041058713
  21
 481.36052217225
  31
0.0
   0
LINE
   5
323
 100
AcDbEntity
   8
LEVEL001
 370
20
 100
AcDbLine
   6
CONTINUOUS
  62
6
  10
 1496.1041058713
  20
 601.36052217225
  30
0.0
  11
 1499.1041058713
  21
 598.36052217225
  31
0.0
   0
POINT
   5
324
 100
AcDbEntity
   8
LEVEL001
 100
AcDbPoint
  62
6
  10
 1499.1041058713
  20
 601.36052217225
  30
0.0
   0
LINE
   5
325
 100
AcDbEntity
   8
LEVEL001
 370
20
 100
AcDbLine
   6
CONTINUOUS
  62
6
  10
 1499.1041058713
  20
 598.36052217225
  30
0.0
  11
 1499.1041058713
  21
 566.36052217225
  31
0.0
   0
LINE
   5
326
 100
AcDbEntity
   8
LEVEL001
 370
20
 100
AcDbLine
   6
CONTINUOUS
  62
6
  10
 1443.6041058713
  20
 601.36052217225
  30
0.0
  11
 1496.1041058713
  21
 601.36052217225
  31
0.0
   0
LINE
   5
327
 100
AcDbEntity
   8
LEVEL001
 370
20
 100
AcDbLine
   6
CONTINUOUS
  62
6
  10
 1256.5328182883
  20
 603.36052217225
  30
0.0
  11
 1143.6041058713
  21
 603.36052217225
  31
0.0
   0
LINE
   5
328
 100
AcDbEntity
   8
LEVEL001
 370
20
 100
AcDbLine
   6
HIDDEN
  62
6
  10
 1257.1385919181
  20
 602.36052217225
  30
0.0
  11
 1143.6041058713
  21
 602.36052217225
  31
0.0
   0
LINE
   5
329
 100
AcDbEntity
   8
LEVEL001
 370
20
 100
AcDbLine
   6
CONTINUOUS
  62
6
  10
 1443.6041058713
  20
 603.36052217225
  30
0.0
  11
 1373.4499552055
  21
 603.36052217225
  31
0.0
   0
LINE
   5
32A
 100
AcDbEntity
   8
LEVEL001
 370
20
 100
AcDbLine
   6
HIDDEN
  62
6
  10
 1443.6041058713
  20
 602.36052217225
  30
0.0
  11
 1374.0557288352
  21
 602.36052217225
  31
0.0
   0
LINE
   5
32B
 100
AcDbEntity
   8
LEVEL001
 370
20
 100
AcDbLine
   6
HIDDEN
  62
6
  10
 1372.8865574660
  20
 602.36052217225
  30
0.0
  11
 1257.6041058713
  21
 602.36052217225
  31
0.0
   0
LINE
   5
32C
 100
AcDbEntity
   8
LEVEL001
 370
20
 100
AcDbLine
   6
HIDDEN
  62
6
  10
 1464.4041058713
  20
 583.36052217225
  30
0.0
  11
 1385.5654278003
  21
 583.36052217225
  31
0.0
   0
LINE
   5
32D
 100
AcDbEntity
   8
LEVEL001
 370
20
 100
AcDbLine
   6
HIDDEN
  62
6
  10
 1384.3962564311
  20
 583.36052217225
  30
0.0
  11
 1305.4476007269
  21
 583.36052217225
  31
0.0
   0
LINE
   5
32E
 100
AcDbEntity
   8
LEVEL001
 370
20
 100
AcDbLine
   6
DOT
  62
6
  10
 1372.2807838363
  20
 603.36052217225
  30
0.0
  11
 1257.6041058713
  21
 603.36052217225
  31
0.0
   0
POINT
   5
32F
 100
AcDbEntity
   8
LEVEL001
 100
AcDbPoint
  62
7
  10
 1347.3568821672
  20
 453.42982294780
  30
0.0
   0
POINT
   5
330
 100
AcDbEntity
   8
LEVEL001
 100
AcDbPoint
  62
7
  10
 1347.3568821672
  20
 453.42982294780
  30
0.0
   0
CIRCLE
   5
331
 100
AcDbEntity
   8
LEVEL001
 370
30
 100
AcDbCircle
   6
CONTINUOUS
  62
7
  10
 1107.1584413247
  20
 687.14501238995
  30
0.0
  40
 8.0000000000000
   0
LINE
   5
332
 100
AcDbEntity
   8
LEVEL001
 370
30
 100
AcDbLine
   6
CONTINUOUS
  62
7
  10
 1108.7852282094
  20
 712.09202753068
  30
0.0
  11
 1289.7513485170
  21
 700.29128465916
  31
0.0
   0
ARC
   5
333
 100
AcDbEntity
   8
LEVEL001
 370
30
   6
CONTINUOUS
  62
7
 100
AcDbCircle
  10
 1286.4977747476
  20
 650.39725437770
  30
0.0
  40
 50.000000000000
 100
AcDbArc
  50
 31.206375769758
  51
 86.269042931231
   0
ARC
   5
334
 100
AcDbEntity
   8
LEVEL001
 370
9
   6
DASHDOT
  62
1
 100
AcDbCircle
  10
 1291.6789966430
  20
 641.84418828005
  30
0.0
  40
 190.00000000000
 100
AcDbArc
  50
 162.33967575615
  51
 171.14606857672
   0
LINE
   5
335
 100
AcDbEntity
   8
LEVEL001
 370
9
 100
AcDbLine
   6
DASHDOT
  62
1
  10
 1291.6789966430
  20
 641.84418828005
  30
0.0
  11
 1074.6782042944
  21
 695.11909149577
  31
0.0
   0
LINE
   5
336
 100
AcDbEntity
   8
LEVEL001
 370
30
 100
AcDbLine
   6
CONTINUOUS
  62
7
  10
 1238.5512223640
  20
 633.04421099840
  30
0.0
  11
 1101.8556811959
  21
 662.71386966155
  31
0.0
   0
ARC
   5
337
 100
AcDbEntity
   8
LEVEL001
 370
30
   6
CONTINUOUS
  62
7
 100
AcDbCircle
  10
 1107.1584413247
  20
 687.14501238995
  30
0.0
  40
 25.000000000000
 100
AcDbArc
  50
 86.269042931218
  51
 257.75394388435
   0
ARC
   5
338
 100
AcDbEntity
   8
LEVEL001
 370
30
   6
CONTINUOUS
  62
7
 100
AcDbCircle
  10
 1528.2639463144
  20
 566.69167850249
  30
0.0
  40
 10.000000000000
 100
AcDbArc
  50
 229.51678579240
  51
 160.89596574711
   0
ARC
   5
339
 100
AcDbEntity
   8
LEVEL001
 370
9
   6
DASHDOT
  62
1
 100
AcDbCircle
  10
 1364.2161031785
  20
 522.10126291298
  30
0.0
  40
 170.00000000000
 100
AcDbArc
  50
 9.6656177224276
  51
 20.606401734810
   0
LINE
   5
33A
 100
AcDbEntity
   8
LEVEL001
 370
9
 100
AcDbLine
   6
DASHDOT
  62
1
  10
 1523.6320072141
  20
 565.43265500349
  30
0.0
  11
 1532.8958854147
  21
 567.95070200148
  31
0.0
   0
LINE
   5
33B
 100
AcDbEntity
   8
LEVEL001
 370
9
 100
AcDbLine
   6
DASHDOT
  62
1
  10
 1529.5229698134
  20
 562.05973940218
  30
0.0
  11
 1527.0049228154
  21
 571.32361760279
  31
0.0
   0
CIRCLE
   5
33C
 100
AcDbEntity
   8
LEVEL001
 370
20
 100
AcDbCircle
   6
CONTINUOUS
  62
3
  10
 1528.2639463144
  20
 566.69167850248
  30
0.0
  40
 4.0000000000000
   0
CIRCLE
   5
33D
 100
AcDbEntity
   8
LEVEL001
 370
30
 100
AcDbCircle
   6
CONTINUOUS
  62
7
  10
 1528.2639463144
  20
 566.69167850248
  30
0.0
  40
 3.3235000000000
   0
LINE
   5
33E
 100
AcDbEntity
   8
LEVEL001
 370
30
 100
AcDbLine
   6
CONTINUOUS
  62
7
  10
 1238.5512223640
  20
 633.04421099840
  30
0.0
  11
 1256.5328182883
  21
 603.36052217225
  31
0.0
   0
LINE
   5
33F
 100
AcDbEntity
   8
LEVEL001
 370
9
 100
AcDbLine
   6
DASHDOT
  62
1
  10
 1293.9561454073
  20
 643.22362495248
  30
0.0
  11
 1289.1539062811
  21
 640.31455512608
  31
0.0
   0
LINE
   5
340
 100
AcDbEntity
   8
LEVEL001
 370
9
 100
AcDbLine
   6
DASHDOT
  62
1
  10
 1370.0528287465
  20
 525.63699734615
  30
0.0
  11
 1358.3222349102
  21
 518.53091293889
  31
0.0
   0
LINE
   5
341
 100
AcDbEntity
   8
LEVEL001
 370
9
 100
AcDbLine
   6
DASHDOT
  62
1
  10
 1515.2090165423
  20
 563.14317257333
  30
0.0
  11
 1540.9656879139
  21
 570.14418312432
  31
0.0
   0
LINE
   5
342
 100
AcDbEntity
   8
LEVEL001
 370
30
 100
AcDbLine
   6
CONTINUOUS
  62
7
  10
 1373.4499552055
  20
 603.36052217225
  30
0.0
  11
 1329.2631052359
  21
 676.30336385465
  31
0.0
   0
LINE
   5
343
 100
AcDbEntity
   8
LEVEL001
 370
30
 100
AcDbLine
   6
CONTINUOUS
  62
7
  10
 1518.8146876136
  20
 569.96452283210
  30
0.0
  11
 1503.6041058713
  21
 570.17522348756
  31
0.0
   0
LINE
   5
344
 100
AcDbEntity
   8
LEVEL001
 370
30
 100
AcDbLine
   6
CONTINUOUS
  62
7
  10
 1503.6041058713
  20
 548.08027078806
  30
0.0
  11
 1521.7716938510
  21
 559.08571650214
  31
0.0
   0
CIRCLE
   5
345
 100
AcDbEntity
   8
LEVEL001
 370
20
 100
AcDbCircle
   6
CONTINUOUS
  62
2
  10
 1291.6789966430
  20
 641.84418828005
  30
0.0
  40
 15.000000000000
   0
CIRCLE
   5
346
 100
AcDbEntity
   8
LEVEL001
 370
20
 100
AcDbCircle
   6
CONTINUOUS
  62
2
  10
 1291.6789966430
  20
 641.84418828005
  30
0.0
  40
 31.000000000000
   0
CIRCLE
   5
347
 100
AcDbEntity
   8
LEVEL001
 370
20
 100
AcDbCircle
   6
CONTINUOUS
  62
2
  10
 1291.6789966430
  20
 641.84418828005
  30
0.0
  40
 20.000000000000
   0
CIRCLE
   5
348
 100
AcDbEntity
   8
LEVEL001
 370
20
 100
AcDbCircle
   6
CONTINUOUS
  62
2
  10
 1291.6789966430
  20
 641.84418828005
  30
0.0
  40
 26.000000000000
   0
LINE
   5
349
 100
AcDbEntity
   8
LEVEL001
 370
20
 100
AcDbLine
   6
DASHDOT
  62
2
  10
 1260.6789966430
  20
 641.84418828005
  30
0.0
  11
 1322.6789966430
  21
 641.84418828005
  31
0.0
   0
LINE
   5
34A
 100
AcDbEntity
   8
LEVEL001
 370
20
 100
AcDbLine
   6
DASHDOT
  62
2
  10
 1291.6789966430
  20
 672.84418828005
  30
0.0
  11
 1291.6789966430
  21
 610.84418828005
  31
0.0
   0
ARC
   5
34B
 100
AcDbEntity
   8
LEVEL001
 370
20
   6
CONTINUOUS
  62
2
 100
AcDbCircle
  10
 1271.7604123560
  20
 653.34418828005
  30
0.0
  40
 4.0000000000000
 100
AcDbArc
  50
 194.60567290307
  51
 292.00304558329
   0
ARC
   5
34C
 100
AcDbEntity
   8
LEVEL001
 370
20
   6
CONTINUOUS
  62
2
 100
AcDbCircle
  10
 1271.7604123560
  20
 653.34418828005
  30
0.0
  40
 4.0000000000000
 100
AcDbArc
  50
 7.9969544167208
  51
 105.39432709693
   0
ARC
   5
34D
 100
AcDbEntity
   8
LEVEL001
 370
20
   6
CONTINUOUS
  62
2
 100
AcDbCircle
  10
 1280.1789966430
  20
 661.76277256709
  30
0.0
  40
 4.0000000000000
 100
AcDbArc
  50
 164.60567290312
  51
 262.00304558341
   0
ARC
   5
34E
 100
AcDbEntity
   8
LEVEL001
 370
20
   6
CONTINUOUS
  62
2
 100
AcDbCircle
  10
 1280.1789966430
  20
 661.76277256709
  30
0.0
  40
 4.0000000000000
 100
AcDbArc
  50
 337.99695441659
  51
 75.394327096883
   0
ARC
   5
34F
 100
AcDbEntity
   8
LEVEL001
 370
20
   6
CONTINUOUS
  62
2
 100
AcDbCircle
  10
 1268.6789966430
  20
 641.84418828005
  30
0.0
  40
 4.0000000000000
 100
AcDbArc
  50
 224.60567290310
  51
 322.00304558329
   0
ARC
   5
350
 100
AcDbEntity
   8
LEVEL001
 370
20
   6
CONTINUOUS
  62
2
 100
AcDbCircle
  10
 1268.6789966430
  20
 641.84418828005
  30
0.0
  40
 4.0000000000000
 100
AcDbArc
  50
 37.996954416645
  51
 135.39432709690
   0
ARC
   5
351
 100
AcDbEntity
   8
LEVEL001
 370
20
   6
CONTINUOUS
  62
2
 100
AcDbCircle
  10
 1271.7604123560
  20
 630.34418828005
  30
0.0
  40
 4.0000000000000
 100
AcDbArc
  50
 67.996954416581
  51
 165.39432709679
   0
ARC
   5
352
 100
AcDbEntity
   8
LEVEL001
 370
20
   6
CONTINUOUS
  62
2
 100
AcDbCircle
  10
 1271.7604123560
  20
 630.34418828005
  30
0.0
  40
 4.0000000000000
 100
AcDbArc
  50
 254.60567290323
  51
 352.00304558342
   0
ARC
   5
353
 100
AcDbEntity
   8
LEVEL001
 370
20
   6
CONTINUOUS
  62
2
 100
AcDbCircle
  10
 1280.1789966430
  20
 621.92560399301
  30
0.0
  40
 4.0000000000000
 100
AcDbArc
  50
 97.996954416538
  51
 195.39432709682
   0
ARC
   5
354
 100
AcDbEntity
   8
LEVEL001
 370
20
   6
CONTINUOUS
  62
2
 100
AcDbCircle
  10
 1280.1789966430
  20
 621.92560399301
  30
0.0
  40
 4.0000000000000
 100
AcDbArc
  50
 284.60567290317
  51
 22.003045583479
   0
ARC
   5
355
 100
AcDbEntity
   8
LEVEL001
 370
20
   6
CONTINUOUS
  62
2
 100
AcDbCircle
  10
 1291.6789966430
  20
 618.84418828005
  30
0.0
  40
 4.0000000000000
 100
AcDbArc
  50
 127.99695441666
  51
 225.39432709695
   0
ARC
   5
356
 100
AcDbEntity
   8
LEVEL001
 370
20
   6
CONTINUOUS
  62
2
 100
AcDbCircle
  10
 1291.6789966430
  20
 618.84418828005
  30
0.0
  40
 4.0000000000000
 100
AcDbArc
  50
 314.60567290305
  51
 52.003045583290
   0
ARC
   5
357
 100
AcDbEntity
   8
LEVEL001
 370
20
   6
CONTINUOUS
  62
2
 100
AcDbCircle
  10
 1303.1789966430
  20
 621.92560399301
  30
0.0
  40
 4.0000000000000
 100
AcDbArc
  50
 344.60567290310
  51
 82.003045583324
   0
ARC
   5
358
 100
AcDbEntity
   8
LEVEL001
 370
20
   6
CONTINUOUS
  62
2
 100
AcDbCircle
  10
 1303.1789966430
  20
 621.92560399301
  30
0.0
  40
 4.0000000000000
 100
AcDbArc
  50
 157.99695441668
  51
 255.39432709689
   0
ARC
   5
359
 100
AcDbEntity
   8
LEVEL001
 370
20
   6
CONTINUOUS
  62
2
 100
AcDbCircle
  10
 1311.5975809301
  20
 630.34418828005
  30
0.0
  40
 4.0000000000000
 100
AcDbArc
  50
 14.605672903135
  51
 112.00304558333
   0
ARC
   5
35A
 100
AcDbEntity
   8
LEVEL001
 370
20
   6
CONTINUOUS
  62
2
 100
AcDbCircle
  10
 1311.5975809301
  20
 630.34418828005
  30
0.0
  40
 4.0000000000000
 100
AcDbArc
  50
 187.99695441669
  51
 285.39432709686
   0
ARC
   5
35B
 100
AcDbEntity
   8
LEVEL001
 370
20
   6
CONTINUOUS
  62
2
 100
AcDbCircle
  10
 1314.6789966430
  20
 641.84418828005
  30
0.0
  40
 4.0000000000000
 100
AcDbArc
  50
 44.605672903022
  51
 142.00304558326
   0
ARC
   5
35C
 100
AcDbEntity
   8
LEVEL001
 370
20
   6
CONTINUOUS
  62
2
 100
AcDbCircle
  10
 1314.6789966430
  20
 641.84418828005
  30
0.0
  40
 4.0000000000000
 100
AcDbArc
  50
 217.99695441659
  51
 315.39432709700
   0
ARC
   5
35D
 100
AcDbEntity
   8
LEVEL001
 370
20
   6
CONTINUOUS
  62
2
 100
AcDbCircle
  10
 1311.5975809301
  20
 653.34418828005
  30
0.0
  40
 4.0000000000000
 100
AcDbArc
  50
 247.99695441663
  51
 345.39432709691
   0
ARC
   5
35E
 100
AcDbEntity
   8
LEVEL001
 370
20
   6
CONTINUOUS
  62
2
 100
AcDbCircle
  10
 1311.5975809300
  20
 653.34418828005
  30
0.0
  40
 4.0000000000000
 100
AcDbArc
  50
 74.605672903081
  51
 172.00304558335
   0
ARC
   5
35F
 100
AcDbEntity
   8
LEVEL001
 370
20
   6
CONTINUOUS
  62
2
 100
AcDbCircle
  10
 1303.1789966430
  20
 661.76277256709
  30
0.0
  40
 4.0000000000000
 100
AcDbArc
  50
 104.60567290312
  51
 202.00304558341
   0
ARC
   5
360
 100
AcDbEntity
   8
LEVEL001
 370
20
   6
CONTINUOUS
  62
2
 100
AcDbCircle
  10
 1303.1789966430
  20
 661.76277256709
  30
0.0
  40
 4.0000000000000
 100
AcDbArc
  50
 277.99695441660
  51
 15.394327096886
   0
ARC
   5
361
 100
AcDbEntity
   8
LEVEL001
 370
20
   6
CONTINUOUS
  62
2
 100
AcDbCircle
  10
 1291.6789966430
  20
 664.84418828005
  30
0.0
  40
 4.0000000000000
 100
AcDbArc
  50
 134.60567290305
  51
 232.00304558329
   0
ARC
   5
362
 100
AcDbEntity
   8
LEVEL001
 370
20
   6
CONTINUOUS
  62
2
 100
AcDbCircle
  10
 1291.6789966430
  20
 664.84418828005
  30
0.0
  40
 4.0000000000000
 100
AcDbArc
  50
 307.99695441655
  51
 45.394327096963
   0
LINE
   5
363
 100
AcDbEntity
   8
LEVEL001
 370
9
 100
AcDbLine
   6
DASHDOT
  62
1
  10
 1465.1041058713
  20
 235.61782317224
  30
0.0
  11
 1465.1041058713
  21
 164.82052317224
  31
0.0
   0
LINE
   5
364
 100
AcDbEntity
   8
LEVEL001
 370
9
 100
AcDbLine
   6
DASHDOT
  62
1
  10
 1445.1041058713
  20
 193.36052417224
  30
0.0
  11
 1485.1041058713
  21
 193.36052417224
  31
0.0
   0
LINE
   5
365
 100
AcDbEntity
   8
LEVEL001
 370
9
 100
AcDbLine
   6
DASHDOT
  62
1
  10
 1452.6041058713
  20
 235.61782317224
  30
0.0
  11
 1452.6041058713
  21
 228.66568317225
  31
0.0
   0
LINE
   5
366
 100
AcDbEntity
   8
LEVEL001
 370
9
 100
AcDbLine
   6
DASHDOT
  62
1
  10
 1477.6041058713
  20
 235.61782317224
  30
0.0
  11
 1477.6041058713
  21
 228.66568317225
  31
0.0
   0
LINE
   5
367
 100
AcDbEntity
   8
LEVEL001
 370
30
 100
AcDbLine
   6
CONTINUOUS
  62
7
  10
 1475.1041058713
  20
 215.68916317225
  30
0.0
  11
 1475.1041058713
  21
 171.03188017224
  31
0.0
   0
LINE
   5
368
 100
AcDbEntity
   8
LEVEL001
 370
30
 100
AcDbLine
   6
CONTINUOUS
  62
7
  10
 1455.1041058713
  20
 215.68916317225
  30
0.0
  11
 1455.1041058713
  21
 171.03188017224
  31
0.0
   0
LINE
   5
369
 100
AcDbEntity
   8
LEVEL001
 370
30
 100
AcDbLine
   6
CONTINUOUS
  62
7
  10
 1481.4280558713
  20
 210.50789317224
  30
0.0
  11
 1483.6451858713
  21
 228.76919317224
  31
0.0
   0
LINE
   5
36A
 100
AcDbEntity
   8
LEVEL001
 370
30
 100
AcDbLine
   6
CONTINUOUS
  62
7
  10
 1483.4134458713
  20
 210.26684317225
  30
0.0
  11
 1485.4703458713
  21
 227.20848317224
  31
0.0
   0
LINE
   5
36B
 100
AcDbEntity
   8
LEVEL001
 370
30
 100
AcDbLine
   6
CONTINUOUS
  62
7
  10
 1484.7847158713
  20
 221.56127317225
  30
0.0
  11
 1484.5113358713
  21
 213.23242617224
  31
0.0
   0
LINE
   5
36C
 100
AcDbEntity
   8
LEVEL001
 370
30
 100
AcDbLine
   6
CONTINUOUS
  62
7
  10
 1480.9041858713
  20
 231.36052317225
  30
0.0
  11
 1480.5696058713
  21
 207.05909417224
  31
0.0
   0
LINE
   5
36D
 100
AcDbEntity
   8
LEVEL001
 370
30
 100
AcDbLine
   6
CONTINUOUS
  62
7
  10
 1448.7801538713
  20
 210.50789317224
  30
0.0
  11
 1446.5630368713
  21
 228.76919317224
  31
0.0
   0
LINE
   5
36E
 100
AcDbEntity
   8
LEVEL001
 370
30
 100
AcDbLine
   6
CONTINUOUS
  62
7
  10
 1446.7947648713
  20
 210.26684317225
  30
0.0
  11
 1444.7378648713
  21
 227.20848317224
  31
0.0
   0
LINE
   5
36F
 100
AcDbEntity
   8
LEVEL001
 370
30
 100
AcDbLine
   6
CONTINUOUS
  62
7
  10
 1445.4234948713
  20
 221.56127317225
  30
0.0
  11
 1445.6968788713
  21
 213.23242617224
  31
0.0
   0
LINE
   5
370
 100
AcDbEntity
   8
LEVEL001
 370
30
 100
AcDbLine
   6
CONTINUOUS
  62
7
  10
 1449.3040338713
  20
 231.36052317225
  30
0.0
  11
 1449.6386058713
  21
 207.05910217225
  31
0.0
   0
LINE
   5
371
 100
AcDbEntity
   8
LEVEL001
 370
30
 100
AcDbLine
   6
CONTINUOUS
  62
7
  10
 1477.1041058713
  20
 190.11052417224
  30
0.0
  11
 1478.1031058713
  21
 190.11052417224
  31
0.0
   0
LINE
   5
372
 100
AcDbEntity
   8
LEVEL001
 370
30
 100
AcDbLine
   6
CONTINUOUS
  62
7
  10
 1477.1041058713
  20
 196.61052417224
  30
0.0
  11
 1478.1133258713
  21
 196.61052417224
  31
0.0
   0
LINE
   5
373
 100
AcDbEntity
   8
LEVEL001
 370
30
 100
AcDbLine
   6
CONTINUOUS
  62
7
  10
 1453.1041058713
  20
 203.36052417224
  30
0.0
  11
 1453.1041058713
  21
 183.36052417224
  31
0.0
   0
LINE
   5
374
 100
AcDbEntity
   8
LEVEL001
 370
30
 100
AcDbLine
   6
CONTINUOUS
  62
7
  10
 1477.1041058713
  20
 203.36052417224
  30
0.0
  11
 1477.1041058713
  21
 183.36052417224
  31
0.0
   0
LINE
   5
375
 100
AcDbEntity
   8
LEVEL001
 370
30
 100
AcDbLine
   6
CONTINUOUS
  62
7
  10
 1449.8041028713
  20
 197.63383917224
  30
0.0
  11
 1449.8041028713
  21
 189.08720817225
  31
0.0
   0
LINE
   5
376
 100
AcDbEntity
   8
LEVEL001
 370
30
 100
AcDbLine
   6
CONTINUOUS
  62
7
  10
 1450.0947218713
  20
 196.71781617224
  30
0.0
  11
 1450.1124748713
  21
 185.42477917225
  31
0.0
   0
LINE
   5
377
 100
AcDbEntity
   8
LEVEL001
 370
30
 100
AcDbLine
   6
CONTINUOUS
  62
7
  10
 1452.0841548713
  20
 203.43670317225
  30
0.0
  11
 1452.1124748713
  21
 185.42793717224
  31
0.0
   0
LINE
   5
378
 100
AcDbEntity
   8
LEVEL001
 370
30
 100
AcDbLine
   6
CONTINUOUS
  62
7
  10
 1454.1041058713
  20
 182.36052417224
  30
0.0
  11
 1455.1041058713
  21
 182.36052417224
  31
0.0
   0
LINE
   5
379
 100
AcDbEntity
   8
LEVEL001
 370
30
 100
AcDbLine
   6
CONTINUOUS
  62
7
  10
 1452.1051128713
  20
 190.11052417224
  30
0.0
  11
 1453.1041058713
  21
 190.11052417224
  31
0.0
   0
LINE
   5
37A
 100
AcDbEntity
   8
LEVEL001
 370
30
 100
AcDbLine
   6
CONTINUOUS
  62
7
  10
 1450.1124978713
  20
 185.42477917225
  30
0.0
  11
 1452.1124978713
  21
 185.42792217225
  31
0.0
   0
LINE
   5
37B
 100
AcDbEntity
   8
LEVEL001
 370
30
 100
AcDbLine
   6
CONTINUOUS
  62
7
  10
 1475.1041058713
  20
 182.36052417224
  30
0.0
  11
 1476.1041058713
  21
 182.36052417224
  31
0.0
   0
LINE
   5
37C
 100
AcDbEntity
   8
LEVEL001
 370
30
 100
AcDbLine
   6
CONTINUOUS
  62
7
  10
 1454.1041058713
  20
 204.36052417224
  30
0.0
  11
 1455.1041058713
  21
 204.36052417224
  31
0.0
   0
LINE
   5
37D
 100
AcDbEntity
   8
LEVEL001
 370
30
 100
AcDbLine
   6
CONTINUOUS
  62
7
  10
 1452.0948968713
  20
 196.61052417224
  30
0.0
  11
 1453.1041058713
  21
 196.61052417224
  31
0.0
   0
LINE
   5
37E
 100
AcDbEntity
   8
LEVEL001
 370
30
 100
AcDbLine
   6
CONTINUOUS
  62
7
  10
 1451.2962828713
  20
 201.84292317224
  30
0.0
  11
 1449.2959318713
  21
 208.13747117224
  31
0.0
   0
LINE
   5
37F
 100
AcDbEntity
   8
LEVEL001
 370
30
 100
AcDbLine
   6
CONTINUOUS
  62
7
  10
 1449.3901698713
  20
 201.23718717225
  30
0.0
  11
 1447.3898188713
  21
 207.53173517224
  31
0.0
   0
LINE
   5
380
 100
AcDbEntity
   8
LEVEL001
 370
30
 100
AcDbLine
   6
CONTINUOUS
  62
7
  10
 1447.1555738713
  20
 208.34837017224
  30
0.0
  11
 1447.0726958713
  21
 208.48923217224
  31
0.0
   0
LINE
   5
381
 100
AcDbEntity
   8
LEVEL001
 370
30
 100
AcDbLine
   6
CONTINUOUS
  62
7
  10
 1475.1041058713
  20
 204.36052417224
  30
0.0
  11
 1476.1041058713
  21
 204.36052417224
  31
0.0
   0
LINE
   5
382
 100
AcDbEntity
   8
LEVEL001
 370
30
 100
AcDbLine
   6
CONTINUOUS
  62
7
  10
 1480.1134858713
  20
 196.71780817225
  30
0.0
  11
 1480.0957358713
  21
 185.42477917225
  31
0.0
   0
LINE
   5
383
 100
AcDbEntity
   8
LEVEL001
 370
30
 100
AcDbLine
   6
CONTINUOUS
  62
7
  10
 1478.1240558713
  20
 203.43668817224
  30
0.0
  11
 1478.0957358713
  21
 185.42792217225
  31
0.0
   0
LINE
   5
384
 100
AcDbEntity
   8
LEVEL001
 370
30
 100
AcDbLine
   6
CONTINUOUS
  62
7
  10
 1480.0957158713
  20
 185.42477117224
  30
0.0
  11
 1478.0957158713
  21
 185.42791417224
  31
0.0
   0
LINE
   5
385
 100
AcDbEntity
   8
LEVEL001
 370
30
 100
AcDbLine
   6
CONTINUOUS
  62
7
  10
 1478.9119358713
  20
 201.84291517225
  30
0.0
  11
 1480.9122758713
  21
 208.13746317225
  31
0.0
   0
LINE
   5
386
 100
AcDbEntity
   8
LEVEL001
 370
30
 100
AcDbLine
   6
CONTINUOUS
  62
7
  10
 1480.8180458713
  20
 201.23717917224
  30
0.0
  11
 1482.8183958713
  21
 207.53172817224
  31
0.0
   0
LINE
   5
387
 100
AcDbEntity
   8
LEVEL001
 370
30
 100
AcDbLine
   6
CONTINUOUS
  62
7
  10
 1483.0526358713
  20
 208.34836317225
  30
0.0
  11
 1483.1355158713
  21
 208.48922417225
  31
0.0
   0
LINE
   5
388
 100
AcDbEntity
   8
LEVEL001
 370
30
 100
AcDbLine
   6
CONTINUOUS
  62
7
  10
 1451.5041078713
  20
 230.16052317224
  30
0.0
  11
 1478.8894958713
  21
 230.16052317224
  31
0.0
   0
LINE
   5
389
 100
AcDbEntity
   8
LEVEL001
 370
30
 100
AcDbLine
   6
CONTINUOUS
  62
7
  10
 1445.1041058713
  20
 231.36052317225
  30
0.0
  11
 1485.1041058713
  21
 231.36052317225
  31
0.0
   0
LINE
   5
38A
 100
AcDbEntity
   8
LEVEL001
 370
30
 100
AcDbLine
   6
CONTINUOUS
  62
7
  10
 1445.1041058713
  20
 233.36052317225
  30
0.0
  11
 1485.1041058713
  21
 233.36052317225
  31
0.0
   0
LINE
   5
38B
 100
AcDbEntity
   8
LEVEL001
 370
30
 100
AcDbLine
   6
CONTINUOUS
  62
7
  10
 1445.5590768713
  20
 231.36052317225
  30
0.0
  11
 1446.5630668713
  21
 228.76920317224
  31
0.0
   0
LINE
   5
38C
 100
AcDbEntity
   8
LEVEL001
 370
30
 100
AcDbLine
   6
CONTINUOUS
  62
7
  10
 1445.1041058713
  20
 233.36052317225
  30
0.0
  11
 1445.1041058713
  21
 231.36052317225
  31
0.0
   0
LINE
   5
38D
 100
AcDbEntity
   8
LEVEL001
 370
30
 100
AcDbLine
   6
CONTINUOUS
  62
7
  10
 1484.6491358713
  20
 231.36052317225
  30
0.0
  11
 1483.6451458713
  21
 228.76920317224
  31
0.0
   0
LINE
   5
38E
 100
AcDbEntity
   8
LEVEL001
 370
30
 100
AcDbLine
   6
CONTINUOUS
  62
7
  10
 1485.1041058713
  20
 233.36052317225
  30
0.0
  11
 1485.1041058713
  21
 231.36052317225
  31
0.0
   0
LINE
   5
38F
 100
AcDbEntity
   8
LEVEL001
 370
30
 100
AcDbLine
   6
CONTINUOUS
  62
7
  10
 1480.2739258713
  20
 198.11052417224
  30
0.0
  11
 1480.2739258713
  21
 188.61052417224
  31
0.0
   0
LINE
   5
390
 100
AcDbEntity
   8
LEVEL001
 370
30
 100
AcDbLine
   6
CONTINUOUS
  62
7
  10
 1480.1804558713
  20
 198.11052417224
  30
0.0
  11
 1480.2739258713
  21
 198.11052417224
  31
0.0
   0
LINE
   5
391
 100
AcDbEntity
   8
LEVEL001
 370
30
 100
AcDbLine
   6
CONTINUOUS
  62
7
  10
 1480.1007458713
  20
 188.61052417224
  30
0.0
  11
 1480.2739258713
  21
 188.61052417224
  31
0.0
   0
ARC
   5
392
 100
AcDbEntity
   8
LEVEL001
 370
30
   6
CONTINUOUS
  62
7
 100
AcDbCircle
  10
 1457.1041058713
  20
 171.03188017224
  30
0.0
  40
 2.0000000000000
 100
AcDbArc
  50
 179.99997999993
  51
 260.40582999995
   0
ARC
   5
393
 100
AcDbEntity
   8
LEVEL001
 370
30
   6
CONTINUOUS
  62
7
 100
AcDbCircle
  10
 1473.1041058713
  20
 171.03188017224
  30
0.0
  40
 2.0000000000000
 100
AcDbArc
  50
 279.59414999994
  51
 0.13027551975275E-10
   0
ARC
   5
394
 100
AcDbEntity
   8
LEVEL001
 370
30
   6
CONTINUOUS
  62
7
 100
AcDbCircle
  10
 1465.1041058713
  20
 218.36052317224
  30
0.0
  40
 50.000000000000
 100
AcDbArc
  50
 260.40590999995
  51
 279.59406999995
   0
ARC
   5
395
 100
AcDbEntity
   8
LEVEL001
 370
30
   6
CONTINUOUS
  62
7
 100
AcDbCircle
  10
 1455.6915078713
  20
 213.56049017225
  30
0.0
  40
 10.000000000000
 100
AcDbArc
  50
 181.87997999997
  51
 210.47225999996
   0
ARC
   5
396
 100
AcDbEntity
   8
LEVEL001
 370
30
   6
CONTINUOUS
  62
7
 100
AcDbCircle
  10
 1456.5112938713
  20
 193.36052417225
  30
0.0
  40
 8.6071840000000
 100
AcDbArc
  50
 156.73285999998
  51
 203.26712999996
   0
ARC
   5
397
 100
AcDbEntity
   8
LEVEL001
 370
30
   6
CONTINUOUS
  62
7
 100
AcDbCircle
  10
 1454.1041058713
  20
 183.36052417224
  30
0.0
  40
 1.0000000000000
 100
AcDbArc
  50
 179.99997999989
  51
 270.00002999995
   0
ARC
   5
398
 100
AcDbEntity
   8
LEVEL001
 370
30
   6
CONTINUOUS
  62
7
 100
AcDbCircle
  10
 1450.1041058713
  20
 190.76052517224
  30
0.0
  40
 1.7000000000000
 100
AcDbArc
  50
 208.07243999998
  51
 270.08948999996
   0
ARC
   5
399
 100
AcDbEntity
   8
LEVEL001
 370
30
   6
CONTINUOUS
  62
7
 100
AcDbCircle
  10
 1476.1041058713
  20
 183.36052417224
  30
0.0
  40
 1.0000000000000
 100
AcDbArc
  50
 270.00001999995
  51
 0.32568879938186E-11
   0
ARC
   5
39A
 100
AcDbEntity
   8
LEVEL001
 370
30
   6
CONTINUOUS
  62
7
 100
AcDbCircle
  10
 1454.1041058713
  20
 203.36052417224
  30
0.0
  40
 1.0000000000000
 100
AcDbArc
  50
 89.999981999988
  51
 180.00001999990
   0
ARC
   5
39B
 100
AcDbEntity
   8
LEVEL001
 370
30
   6
CONTINUOUS
  62
7
 100
AcDbCircle
  10
 1450.1041058713
  20
 195.96052217224
  30
0.0
  40
 1.7000000000000
 100
AcDbArc
  50
 91.363997999949
  51
 151.92743999995
   0
ARC
   5
39C
 100
AcDbEntity
   8
LEVEL001
 370
30
   6
CONTINUOUS
  62
7
 100
AcDbCircle
  10
 1461.6854198713
  20
 212.07473417225
  30
0.0
  40
 13.000000000000
 100
AcDbArc
  50
 186.92242999997
  51
 197.62976999997
   0
ARC
   5
39D
 100
AcDbEntity
   8
LEVEL001
 370
30
   6
CONTINUOUS
  62
7
 100
AcDbCircle
  10
 1435.0947678713
  20
 196.69423417225
  30
0.0
  40
 17.000000000000
 100
AcDbArc
  50
 0.90093999995884E-1
  51
 17.629704999993
   0
ARC
   5
39E
 100
AcDbEntity
   8
LEVEL001
 370
30
   6
CONTINUOUS
  62
7
 100
AcDbCircle
  10
 1445.0841928713
  20
 203.42568717225
  30
0.0
  40
 7.0000000000000
 100
AcDbArc
  50
 0.90093999997883E-1
  51
 48.626404999996
   0
ARC
   5
39F
 100
AcDbEntity
   8
LEVEL001
 370
30
   6
CONTINUOUS
  62
7
 100
AcDbCircle
  10
 1435.0947678713
  20
 196.69423417224
  30
0.0
  40
 15.000000000000
 100
AcDbArc
  50
 0.90094000000675E-1
  51
 17.629704999994
   0
ARC
   5
3A0
 100
AcDbEntity
   8
LEVEL001
 370
30
   6
CONTINUOUS
  62
7
 100
AcDbCircle
  10
 1461.6854198713
  20
 212.07473417225
  30
0.0
  40
 15.000000000000
 100
AcDbArc
  50
 186.92242999997
  51
 197.62976999997
   0
ARC
   5
3A1
 100
AcDbEntity
   8
LEVEL001
 370
30
   6
CONTINUOUS
  62
7
 100
AcDbCircle
  10
 1476.1041058713
  20
 203.36052417224
  30
0.0
  40
 1.0000000000000
 100
AcDbArc
  50
0.0
  51
 89.999981999988
   0
ARC
   5
3A2
 100
AcDbEntity
   8
LEVEL001
 370
30
   6
CONTINUOUS
  62
7
 100
AcDbCircle
  10
 1468.5227958713
  20
 212.07473417225
  30
0.0
  40
 13.000000000000
 100
AcDbArc
  50
 342.37021999992
  51
 353.07754999992
   0
ARC
   5
3A3
 100
AcDbEntity
   8
LEVEL001
 370
30
   6
CONTINUOUS
  62
7
 100
AcDbCircle
  10
 1495.1134458713
  20
 196.69423417224
  30
0.0
  40
 17.000000000000
 100
AcDbArc
  50
 162.37025999996
  51
 179.90986999996
   0
ARC
   5
3A4
 100
AcDbEntity
   8
LEVEL001
 370
30
   6
CONTINUOUS
  62
7
 100
AcDbCircle
  10
 1485.1240158713
  20
 203.42568717224
  30
0.0
  40
 7.0000000000000
 100
AcDbArc
  50
 131.37354999997
  51
 179.90985999997
   0
ARC
   5
3A5
 100
AcDbEntity
   8
LEVEL001
 370
30
   6
CONTINUOUS
  62
7
 100
AcDbCircle
  10
 1495.1134458713
  20
 196.69423417224
  30
0.0
  40
 15.000000000000
 100
AcDbArc
  50
 162.37025999996
  51
 179.90986999996
   0
ARC
   5
3A6
 100
AcDbEntity
   8
LEVEL001
 370
30
   6
CONTINUOUS
  62
7
 100
AcDbCircle
  10
 1468.5227958713
  20
 212.07473417225
  30
0.0
  40
 15.000000000000
 100
AcDbArc
  50
 342.37021999992
  51
 353.07754999992
   0
ARC
   5
3A7
 100
AcDbEntity
   8
LEVEL001
 370
30
   6
CONTINUOUS
  62
7
 100
AcDbCircle
  10
 1474.5167058713
  20
 213.56049017224
  30
0.0
  40
 10.000000000000
 100
AcDbArc
  50
 329.52773999994
  51
 358.12001999993
   0
ARC
   5
3A8
 100
AcDbEntity
   8
LEVEL001
 370
30
   6
CONTINUOUS
  62
7
 100
AcDbCircle
  10
 1459.7238418713
  20
 227.85682317224
  30
0.0
  40
 15.000000000000
 100
AcDbArc
  50
 166.49208999997
  51
 181.87995999997
   0
ARC
   5
3A9
 100
AcDbEntity
   8
LEVEL001
 370
30
   6
CONTINUOUS
  62
7
 100
AcDbCircle
  10
 1465.1041058713
  20
 168.36052417224
  30
0.0
  40
 50.000000000000
 100
AcDbArc
  50
 80.405928999983
  51
 99.594088999979
   0
ARC
   5
3AA
 100
AcDbEntity
   8
LEVEL001
 370
30
   6
CONTINUOUS
  62
7
 100
AcDbCircle
  10
 1457.1041058713
  20
 215.68916317224
  30
0.0
  40
 2.0000000000000
 100
AcDbArc
  50
 99.594163999980
  51
 180.00001999999
   0
ARC
   5
3AB
 100
AcDbEntity
   8
LEVEL001
 370
30
   6
CONTINUOUS
  62
7
 100
AcDbCircle
  10
 1451.5041078713
  20
 233.57719317224
  30
0.0
  40
 3.4166640000000
 100
AcDbArc
  50
 230.03620999994
  51
 270.00001999995
   0
ARC
   5
3AC
 100
AcDbEntity
   8
LEVEL001
 370
30
   6
CONTINUOUS
  62
7
 100
AcDbCircle
  10
 1473.1041058713
  20
 215.68916317225
  30
0.0
  40
 2.0000000000000
 100
AcDbArc
  50
 0.24426659953640E-11
  51
 80.405853999994
   0
ARC
   5
3AD
 100
AcDbEntity
   8
LEVEL001
 370
30
   6
CONTINUOUS
  62
7
 100
AcDbCircle
  10
 1478.7139858713
  20
 233.57267317224
  30
0.0
  40
 3.4166640000000
 100
AcDbArc
  50
 272.94441999996
  51
 309.96376999995
   0
ARC
   5
3AE
 100
AcDbEntity
   8
LEVEL001
 370
30
   6
CONTINUOUS
  62
7
 100
AcDbCircle
  10
 1470.4843658713
  20
 227.85682317224
  30
0.0
  40
 15.000000000000
 100
AcDbArc
  50
 358.11999999993
  51
 13.507873999998
   0
ARC
   5
3AF
 100
AcDbEntity
   8
LEVEL001
 370
30
   6
CONTINUOUS
  62
7
 100
AcDbCircle
  10
 1476.6082058713
  20
 193.36052417224
  30
0.0
  40
 6.0000000000000
 100
AcDbArc
  50
 307.65845999994
  51
 0.27140733281822E-11
   0
ARC
   5
3B0
 100
AcDbEntity
   8
LEVEL001
 370
30
   6
CONTINUOUS
  62
7
 100
AcDbCircle
  10
 1476.6082058713
  20
 193.36052417224
  30
0.0
  40
 6.0000000000000
 100
AcDbArc
  50
0.0
  51
 52.341538999990
   0
LINE
   5
3B1
 100
AcDbEntity
   8
LEVEL001
 370
20
 100
AcDbLine
   6
HIDDEN
  62
9
  10
 1449.3541058713
  20
 231.36052317225
  30
0.0
  11
 1449.3541058713
  21
 233.36052317225
  31
0.0
   0
LINE
   5
3B2
 100
AcDbEntity
   8
LEVEL001
 370
20
 100
AcDbLine
   6
HIDDEN
  62
9
  10
 1455.8541058713
  20
 231.36052317225
  30
0.0
  11
 1455.8541058713
  21
 233.36052317225
  31
0.0
   0
LINE
   5
3B3
 100
AcDbEntity
   8
LEVEL001
 370
20
 100
AcDbLine
   6
HIDDEN
  62
9
  10
 1474.3541058713
  20
 231.36052317225
  30
0.0
  11
 1474.3541058713
  21
 233.36052317225
  31
0.0
   0
LINE
   5
3B4
 100
AcDbEntity
   8
LEVEL001
 370
20
 100
AcDbLine
   6
HIDDEN
  62
9
  10
 1480.8541058713
  20
 231.36052317225
  30
0.0
  11
 1480.8541058713
  21
 233.36052317225
  31
0.0
   0
POINT
   5
3B5
 100
AcDbEntity
   8
LEVEL001
 100
AcDbPoint
  62
7
  10
 1465.1041058713
  20
 168.36052417224
  30
0.0
   0
LINE
   5
3B6
 100
AcDbEntity
   8
LEVEL001
 370
9
 100
AcDbLine
   6
DASHDOT
  62
1
  10
 1095.1041058713
  20
 235.61782317224
  30
0.0
  11
 1095.1041058713
  21
 164.82052317224
  31
0.0
   0
LINE
   5
3B7
 100
AcDbEntity
   8
LEVEL001
 370
9
 100
AcDbLine
   6
DASHDOT
  62
1
  10
 1075.1041058713
  20
 193.36052417224
  30
0.0
  11
 1115.1041058713
  21
 193.36052417224
  31
0.0
   0
LINE
   5
3B8
 100
AcDbEntity
   8
LEVEL001
 370
9
 100
AcDbLine
   6
DASHDOT
  62
1
  10
 1082.6041058713
  20
 235.61782317224
  30
0.0
  11
 1082.6041058713
  21
 228.66568317225
  31
0.0
   0
LINE
   5
3B9
 100
AcDbEntity
   8
LEVEL001
 370
9
 100
AcDbLine
   6
DASHDOT
  62
1
  10
 1107.6041058713
  20
 235.61782317224
  30
0.0
  11
 1107.6041058713
  21
 228.66568317225
  31
0.0
   0
LINE
   5
3BA
 100
AcDbEntity
   8
LEVEL001
 370
30
 100
AcDbLine
   6
CONTINUOUS
  62
7
  10
 1105.1041058713
  20
 215.68916317225
  30
0.0
  11
 1105.1041058713
  21
 171.03188017224
  31
0.0
   0
LINE
   5
3BB
 100
AcDbEntity
   8
LEVEL001
 370
30
 100
AcDbLine
   6
CONTINUOUS
  62
7
  10
 1085.1041058713
  20
 215.68916317225
  30
0.0
  11
 1085.1041058713
  21
 171.03188017224
  31
0.0
   0
LINE
   5
3BC
 100
AcDbEntity
   8
LEVEL001
 370
30
 100
AcDbLine
   6
CONTINUOUS
  62
7
  10
 1111.4280558713
  20
 210.50789317224
  30
0.0
  11
 1113.6451858713
  21
 228.76919317224
  31
0.0
   0
LINE
   5
3BD
 100
AcDbEntity
   8
LEVEL001
 370
30
 100
AcDbLine
   6
CONTINUOUS
  62
7
  10
 1113.4134458713
  20
 210.26684317225
  30
0.0
  11
 1115.4703458713
  21
 227.20848317224
  31
0.0
   0
LINE
   5
3BE
 100
AcDbEntity
   8
LEVEL001
 370
30
 100
AcDbLine
   6
CONTINUOUS
  62
7
  10
 1114.7847158713
  20
 221.56127317225
  30
0.0
  11
 1114.5113358713
  21
 213.23242617224
  31
0.0
   0
LINE
   5
3BF
 100
AcDbEntity
   8
LEVEL001
 370
30
 100
AcDbLine
   6
CONTINUOUS
  62
7
  10
 1110.9041858713
  20
 231.36052317225
  30
0.0
  11
 1110.5696058713
  21
 207.05909417224
  31
0.0
   0
LINE
   5
3C0
 100
AcDbEntity
   8
LEVEL001
 370
30
 100
AcDbLine
   6
CONTINUOUS
  62
7
  10
 1078.7801538713
  20
 210.50789317224
  30
0.0
  11
 1076.5630368713
  21
 228.76919317224
  31
0.0
   0
LINE
   5
3C1
 100
AcDbEntity
   8
LEVEL001
 370
30
 100
AcDbLine
   6
CONTINUOUS
  62
7
  10
 1076.7947648713
  20
 210.26684317225
  30
0.0
  11
 1074.7378648713
  21
 227.20848317224
  31
0.0
   0
LINE
   5
3C2
 100
AcDbEntity
   8
LEVEL001
 370
30
 100
AcDbLine
   6
CONTINUOUS
  62
7
  10
 1075.4234948713
  20
 221.56127317225
  30
0.0
  11
 1075.6968788713
  21
 213.23242617224
  31
0.0
   0
LINE
   5
3C3
 100
AcDbEntity
   8
LEVEL001
 370
30
 100
AcDbLine
   6
CONTINUOUS
  62
7
  10
 1079.3040338713
  20
 231.36052317225
  30
0.0
  11
 1079.6386058713
  21
 207.05910217225
  31
0.0
   0
LINE
   5
3C4
 100
AcDbEntity
   8
LEVEL001
 370
30
 100
AcDbLine
   6
CONTINUOUS
  62
7
  10
 1107.1041058713
  20
 190.11052417224
  30
0.0
  11
 1108.1031058713
  21
 190.11052417224
  31
0.0
   0
LINE
   5
3C5
 100
AcDbEntity
   8
LEVEL001
 370
30
 100
AcDbLine
   6
CONTINUOUS
  62
7
  10
 1107.1041058713
  20
 196.61052417224
  30
0.0
  11
 1108.1133258713
  21
 196.61052417224
  31
0.0
   0
LINE
   5
3C6
 100
AcDbEntity
   8
LEVEL001
 370
30
 100
AcDbLine
   6
CONTINUOUS
  62
7
  10
 1083.1041058713
  20
 203.36052417224
  30
0.0
  11
 1083.1041058713
  21
 183.36052417224
  31
0.0
   0
LINE
   5
3C7
 100
AcDbEntity
   8
LEVEL001
 370
30
 100
AcDbLine
   6
CONTINUOUS
  62
7
  10
 1107.1041058713
  20
 203.36052417224
  30
0.0
  11
 1107.1041058713
  21
 183.36052417224
  31
0.0
   0
LINE
   5
3C8
 100
AcDbEntity
   8
LEVEL001
 370
30
 100
AcDbLine
   6
CONTINUOUS
  62
7
  10
 1079.8041028713
  20
 197.63383917224
  30
0.0
  11
 1079.8041028713
  21
 189.08720817225
  31
0.0
   0
LINE
   5
3C9
 100
AcDbEntity
   8
LEVEL001
 370
30
 100
AcDbLine
   6
CONTINUOUS
  62
7
  10
 1080.0947218713
  20
 196.71781617224
  30
0.0
  11
 1080.1124748713
  21
 185.42477917225
  31
0.0
   0
LINE
   5
3CA
 100
AcDbEntity
   8
LEVEL001
 370
30
 100
AcDbLine
   6
CONTINUOUS
  62
7
  10
 1082.0841548713
  20
 203.43670317225
  30
0.0
  11
 1082.1124748713
  21
 185.42793717224
  31
0.0
   0
LINE
   5
3CB
 100
AcDbEntity
   8
LEVEL001
 370
30
 100
AcDbLine
   6
CONTINUOUS
  62
7
  10
 1084.1041058713
  20
 182.36052417224
  30
0.0
  11
 1085.1041058713
  21
 182.36052417224
  31
0.0
   0
LINE
   5
3CC
 100
AcDbEntity
   8
LEVEL001
 370
30
 100
AcDbLine
   6
CONTINUOUS
  62
7
  10
 1082.1051128713
  20
 190.11052417224
  30
0.0
  11
 1083.1041058713
  21
 190.11052417224
  31
0.0
   0
LINE
   5
3CD
 100
AcDbEntity
   8
LEVEL001
 370
30
 100
AcDbLine
   6
CONTINUOUS
  62
7
  10
 1080.1124978713
  20
 185.42477917225
  30
0.0
  11
 1082.1124978713
  21
 185.42792217225
  31
0.0
   0
LINE
   5
3CE
 100
AcDbEntity
   8
LEVEL001
 370
30
 100
AcDbLine
   6
CONTINUOUS
  62
7
  10
 1105.1041058713
  20
 182.36052417224
  30
0.0
  11
 1106.1041058713
  21
 182.36052417224
  31
0.0
   0
LINE
   5
3CF
 100
AcDbEntity
   8
LEVEL001
 370
30
 100
AcDbLine
   6
CONTINUOUS
  62
7
  10
 1084.1041058713
  20
 204.36052417224
  30
0.0
  11
 1085.1041058713
  21
 204.36052417224
  31
0.0
   0
LINE
   5
3D0
 100
AcDbEntity
   8
LEVEL001
 370
30
 100
AcDbLine
   6
CONTINUOUS
  62
7
  10
 1082.0948968713
  20
 196.61052417224
  30
0.0
  11
 1083.1041058713
  21
 196.61052417224
  31
0.0
   0
LINE
   5
3D1
 100
AcDbEntity
   8
LEVEL001
 370
30
 100
AcDbLine
   6
CONTINUOUS
  62
7
  10
 1081.2962828713
  20
 201.84292317224
  30
0.0
  11
 1079.2959318713
  21
 208.13747117224
  31
0.0
   0
LINE
   5
3D2
 100
AcDbEntity
   8
LEVEL001
 370
30
 100
AcDbLine
   6
CONTINUOUS
  62
7
  10
 1079.3901698713
  20
 201.23718717225
  30
0.0
  11
 1077.3898188713
  21
 207.53173517224
  31
0.0
   0
LINE
   5
3D3
 100
AcDbEntity
   8
LEVEL001
 370
30
 100
AcDbLine
   6
CONTINUOUS
  62
7
  10
 1077.1555738713
  20
 208.34837017224
  30
0.0
  11
 1077.0726958713
  21
 208.48923217224
  31
0.0
   0
LINE
   5
3D4
 100
AcDbEntity
   8
LEVEL001
 370
30
 100
AcDbLine
   6
CONTINUOUS
  62
7
  10
 1105.1041058713
  20
 204.36052417224
  30
0.0
  11
 1106.1041058713
  21
 204.36052417224
  31
0.0
   0
LINE
   5
3D5
 100
AcDbEntity
   8
LEVEL001
 370
30
 100
AcDbLine
   6
CONTINUOUS
  62
7
  10
 1110.1134858713
  20
 196.71780817225
  30
0.0
  11
 1110.0957358713
  21
 185.42477917225
  31
0.0
   0
LINE
   5
3D6
 100
AcDbEntity
   8
LEVEL001
 370
30
 100
AcDbLine
   6
CONTINUOUS
  62
7
  10
 1108.1240558713
  20
 203.43668817224
  30
0.0
  11
 1108.0957358713
  21
 185.42792217225
  31
0.0
   0
LINE
   5
3D7
 100
AcDbEntity
   8
LEVEL001
 370
30
 100
AcDbLine
   6
CONTINUOUS
  62
7
  10
 1110.0957158713
  20
 185.42477117224
  30
0.0
  11
 1108.0957158713
  21
 185.42791417224
  31
0.0
   0
LINE
   5
3D8
 100
AcDbEntity
   8
LEVEL001
 370
30
 100
AcDbLine
   6
CONTINUOUS
  62
7
  10
 1108.9119358713
  20
 201.84291517225
  30
0.0
  11
 1110.9122758713
  21
 208.13746317225
  31
0.0
   0
LINE
   5
3D9
 100
AcDbEntity
   8
LEVEL001
 370
30
 100
AcDbLine
   6
CONTINUOUS
  62
7
  10
 1110.8180458713
  20
 201.23717917224
  30
0.0
  11
 1112.8183958713
  21
 207.53172817224
  31
0.0
   0
LINE
   5
3DA
 100
AcDbEntity
   8
LEVEL001
 370
30
 100
AcDbLine
   6
CONTINUOUS
  62
7
  10
 1113.0526358713
  20
 208.34836317225
  30
0.0
  11
 1113.1355158713
  21
 208.48922417225
  31
0.0
   0
LINE
   5
3DB
 100
AcDbEntity
   8
LEVEL001
 370
30
 100
AcDbLine
   6
CONTINUOUS
  62
7
  10
 1081.5041078713
  20
 230.16052317224
  30
0.0
  11
 1108.8894958713
  21
 230.16052317224
  31
0.0
   0
LINE
   5
3DC
 100
AcDbEntity
   8
LEVEL001
 370
30
 100
AcDbLine
   6
CONTINUOUS
  62
7
  10
 1075.1041058713
  20
 231.36052317225
  30
0.0
  11
 1115.1041058713
  21
 231.36052317225
  31
0.0
   0
LINE
   5
3DD
 100
AcDbEntity
   8
LEVEL001
 370
30
 100
AcDbLine
   6
CONTINUOUS
  62
7
  10
 1075.1041058713
  20
 233.36052317225
  30
0.0
  11
 1115.1041058713
  21
 233.36052317225
  31
0.0
   0
LINE
   5
3DE
 100
AcDbEntity
   8
LEVEL001
 370
30
 100
AcDbLine
   6
CONTINUOUS
  62
7
  10
 1075.5590768713
  20
 231.36052317225
  30
0.0
  11
 1076.5630668713
  21
 228.76920317224
  31
0.0
   0
LINE
   5
3DF
 100
AcDbEntity
   8
LEVEL001
 370
30
 100
AcDbLine
   6
CONTINUOUS
  62
7
  10
 1075.1041058713
  20
 233.36052317225
  30
0.0
  11
 1075.1041058713
  21
 231.36052317225
  31
0.0
   0
LINE
   5
3E0
 100
AcDbEntity
   8
LEVEL001
 370
30
 100
AcDbLine
   6
CONTINUOUS
  62
7
  10
 1114.6491358713
  20
 231.36052317225
  30
0.0
  11
 1113.6451458713
  21
 228.76920317224
  31
0.0
   0
LINE
   5
3E1
 100
AcDbEntity
   8
LEVEL001
 370
30
 100
AcDbLine
   6
CONTINUOUS
  62
7
  10
 1115.1041058713
  20
 233.36052317225
  30
0.0
  11
 1115.1041058713
  21
 231.36052317225
  31
0.0
   0
LINE
   5
3E2
 100
AcDbEntity
   8
LEVEL001
 370
30
 100
AcDbLine
   6
CONTINUOUS
  62
7
  10
 1110.2739258713
  20
 198.11052417224
  30
0.0
  11
 1110.2739258713
  21
 188.61052417224
  31
0.0
   0
LINE
   5
3E3
 100
AcDbEntity
   8
LEVEL001
 370
30
 100
AcDbLine
   6
CONTINUOUS
  62
7
  10
 1110.1804558713
  20
 198.11052417224
  30
0.0
  11
 1110.2739258713
  21
 198.11052417224
  31
0.0
   0
LINE
   5
3E4
 100
AcDbEntity
   8
LEVEL001
 370
30
 100
AcDbLine
   6
CONTINUOUS
  62
7
  10
 1110.1007458713
  20
 188.61052417224
  30
0.0
  11
 1110.2739258713
  21
 188.61052417224
  31
0.0
   0
ARC
   5
3E5
 100
AcDbEntity
   8
LEVEL001
 370
30
   6
CONTINUOUS
  62
7
 100
AcDbCircle
  10
 1087.1041058713
  20
 171.03188017224
  30
0.0
  40
 2.0000000000000
 100
AcDbArc
  50
 179.99997999993
  51
 260.40582999995
   0
ARC
   5
3E6
 100
AcDbEntity
   8
LEVEL001
 370
30
   6
CONTINUOUS
  62
7
 100
AcDbCircle
  10
 1103.1041058713
  20
 171.03188017224
  30
0.0
  40
 2.0000000000000
 100
AcDbArc
  50
 279.59414999994
  51
 0.13027551975275E-10
   0
ARC
   5
3E7
 100
AcDbEntity
   8
LEVEL001
 370
30
   6
CONTINUOUS
  62
7
 100
AcDbCircle
  10
 1095.1041058713
  20
 218.36052317224
  30
0.0
  40
 50.000000000000
 100
AcDbArc
  50
 260.40590999995
  51
 279.59406999995
   0
ARC
   5
3E8
 100
AcDbEntity
   8
LEVEL001
 370
30
   6
CONTINUOUS
  62
7
 100
AcDbCircle
  10
 1085.6915078713
  20
 213.56049017225
  30
0.0
  40
 10.000000000000
 100
AcDbArc
  50
 181.87997999997
  51
 210.47225999996
   0
ARC
   5
3E9
 100
AcDbEntity
   8
LEVEL001
 370
30
   6
CONTINUOUS
  62
7
 100
AcDbCircle
  10
 1086.5112938713
  20
 193.36052417225
  30
0.0
  40
 8.6071840000000
 100
AcDbArc
  50
 156.73285999998
  51
 203.26712999996
   0
ARC
   5
3EA
 100
AcDbEntity
   8
LEVEL001
 370
30
   6
CONTINUOUS
  62
7
 100
AcDbCircle
  10
 1084.1041058713
  20
 183.36052417224
  30
0.0
  40
 1.0000000000000
 100
AcDbArc
  50
 179.99997999989
  51
 270.00002999995
   0
ARC
   5
3EB
 100
AcDbEntity
   8
LEVEL001
 370
30
   6
CONTINUOUS
  62
7
 100
AcDbCircle
  10
 1080.1041058713
  20
 190.76052517224
  30
0.0
  40
 1.7000000000000
 100
AcDbArc
  50
 208.07243999998
  51
 270.08948999996
   0
ARC
   5
3EC
 100
AcDbEntity
   8
LEVEL001
 370
30
   6
CONTINUOUS
  62
7
 100
AcDbCircle
  10
 1106.1041058713
  20
 183.36052417224
  30
0.0
  40
 1.0000000000000
 100
AcDbArc
  50
 270.00001999995
  51
 0.32568879938186E-11
   0
ARC
   5
3ED
 100
AcDbEntity
   8
LEVEL001
 370
30
   6
CONTINUOUS
  62
7
 100
AcDbCircle
  10
 1084.1041058713
  20
 203.36052417224
  30
0.0
  40
 1.0000000000000
 100
AcDbArc
  50
 89.999981999988
  51
 180.00001999990
   0
ARC
   5
3EE
 100
AcDbEntity
   8
LEVEL001
 370
30
   6
CONTINUOUS
  62
7
 100
AcDbCircle
  10
 1080.1041058713
  20
 195.96052217224
  30
0.0
  40
 1.7000000000000
 100
AcDbArc
  50
 91.363997999949
  51
 151.92743999995
   0
ARC
   5
3EF
 100
AcDbEntity
   8
LEVEL001
 370
30
   6
CONTINUOUS
  62
7
 100
AcDbCircle
  10
 1091.6854198713
  20
 212.07473417225
  30
0.0
  40
 13.000000000000
 100
AcDbArc
  50
 186.92242999997
  51
 197.62976999997
   0
ARC
   5
3F0
 100
AcDbEntity
   8
LEVEL001
 370
30
   6
CONTINUOUS
  62
7
 100
AcDbCircle
  10
 1065.0947678713
  20
 196.69423417225
  30
0.0
  40
 17.000000000000
 100
AcDbArc
  50
 0.90093999995884E-1
  51
 17.629704999993
   0
ARC
   5
3F1
 100
AcDbEntity
   8
LEVEL001
 370
30
   6
CONTINUOUS
  62
7
 100
AcDbCircle
  10
 1075.0841928713
  20
 203.42568717225
  30
0.0
  40
 7.0000000000000
 100
AcDbArc
  50
 0.90093999997883E-1
  51
 48.626404999996
   0
ARC
   5
3F2
 100
AcDbEntity
   8
LEVEL001
 370
30
   6
CONTINUOUS
  62
7
 100
AcDbCircle
  10
 1065.0947678713
  20
 196.69423417224
  30
0.0
  40
 15.000000000000
 100
AcDbArc
  50
 0.90094000000675E-1
  51
 17.629704999994
   0
ARC
   5
3F3
 100
AcDbEntity
   8
LEVEL001
 370
30
   6
CONTINUOUS
  62
7
 100
AcDbCircle
  10
 1091.6854198713
  20
 212.07473417225
  30
0.0
  40
 15.000000000000
 100
AcDbArc
  50
 186.92242999997
  51
 197.62976999997
   0
ARC
   5
3F4
 100
AcDbEntity
   8
LEVEL001
 370
30
   6
CONTINUOUS
  62
7
 100
AcDbCircle
  10
 1106.1041058713
  20
 203.36052417224
  30
0.0
  40
 1.0000000000000
 100
AcDbArc
  50
0.0
  51
 89.999981999988
   0
ARC
   5
3F5
 100
AcDbEntity
   8
LEVEL001
 370
30
   6
CONTINUOUS
  62
7
 100
AcDbCircle
  10
 1098.5227958713
  20
 212.07473417225
  30
0.0
  40
 13.000000000000
 100
AcDbArc
  50
 342.37021999992
  51
 353.07754999992
   0
ARC
   5
3F6
 100
AcDbEntity
   8
LEVEL001
 370
30
   6
CONTINUOUS
  62
7
 100
AcDbCircle
  10
 1125.1134458713
  20
 196.69423417224
  30
0.0
  40
 17.000000000000
 100
AcDbArc
  50
 162.37025999996
  51
 179.90986999996
   0
ARC
   5
3F7
 100
AcDbEntity
   8
LEVEL001
 370
30
   6
CONTINUOUS
  62
7
 100
AcDbCircle
  10
 1115.1240158713
  20
 203.42568717224
  30
0.0
  40
 7.0000000000000
 100
AcDbArc
  50
 131.37354999997
  51
 179.90985999997
   0
ARC
   5
3F8
 100
AcDbEntity
   8
LEVEL001
 370
30
   6
CONTINUOUS
  62
7
 100
AcDbCircle
  10
 1125.1134458713
  20
 196.69423417224
  30
0.0
  40
 15.000000000000
 100
AcDbArc
  50
 162.37025999996
  51
 179.90986999996
   0
ARC
   5
3F9
 100
AcDbEntity
   8
LEVEL001
 370
30
   6
CONTINUOUS
  62
7
 100
AcDbCircle
  10
 1098.5227958713
  20
 212.07473417225
  30
0.0
  40
 15.000000000000
 100
AcDbArc
  50
 342.37021999992
  51
 353.07754999992
   0
ARC
   5
3FA
 100
AcDbEntity
   8
LEVEL001
 370
30
   6
CONTINUOUS
  62
7
 100
AcDbCircle
  10
 1104.5167058713
  20
 213.56049017224
  30
0.0
  40
 10.000000000000
 100
AcDbArc
  50
 329.52773999994
  51
 358.12001999993
   0
ARC
   5
3FB
 100
AcDbEntity
   8
LEVEL001
 370
30
   6
CONTINUOUS
  62
7
 100
AcDbCircle
  10
 1089.7238418713
  20
 227.85682317224
  30
0.0
  40
 15.000000000000
 100
AcDbArc
  50
 166.49208999997
  51
 181.87995999997
   0
ARC
   5
3FC
 100
AcDbEntity
   8
LEVEL001
 370
30
   6
CONTINUOUS
  62
7
 100
AcDbCircle
  10
 1095.1041058713
  20
 168.36052417224
  30
0.0
  40
 50.000000000000
 100
AcDbArc
  50
 80.405928999983
  51
 99.594088999979
   0
ARC
   5
3FD
 100
AcDbEntity
   8
LEVEL001
 370
30
   6
CONTINUOUS
  62
7
 100
AcDbCircle
  10
 1087.1041058713
  20
 215.68916317224
  30
0.0
  40
 2.0000000000000
 100
AcDbArc
  50
 99.594163999980
  51
 180.00001999999
   0
ARC
   5
3FE
 100
AcDbEntity
   8
LEVEL001
 370
30
   6
CONTINUOUS
  62
7
 100
AcDbCircle
  10
 1081.5041078713
  20
 233.57719317224
  30
0.0
  40
 3.4166640000000
 100
AcDbArc
  50
 230.03620999994
  51
 270.00001999995
   0
ARC
   5
3FF
 100
AcDbEntity
   8
LEVEL001
 370
30
   6
CONTINUOUS
  62
7
 100
AcDbCircle
  10
 1103.1041058713
  20
 215.68916317225
  30
0.0
  40
 2.0000000000000
 100
AcDbArc
  50
 0.24426659953640E-11
  51
 80.405853999994
   0
ARC
   5
400
 100
AcDbEntity
   8
LEVEL001
 370
30
   6
CONTINUOUS
  62
7
 100
AcDbCircle
  10
 1108.7139858713
  20
 233.57267317224
  30
0.0
  40
 3.4166640000000
 100
AcDbArc
  50
 272.94441999996
  51
 309.96376999995
   0
ARC
   5
401
 100
AcDbEntity
   8
LEVEL001
 370
30
   6
CONTINUOUS
  62
7
 100
AcDbCircle
  10
 1100.4843658713
  20
 227.85682317224
  30
0.0
  40
 15.000000000000
 100
AcDbArc
  50
 358.11999999993
  51
 13.507873999998
   0
ARC
   5
402
 100
AcDbEntity
   8
LEVEL001
 370
30
   6
CONTINUOUS
  62
7
 100
AcDbCircle
  10
 1106.6082058713
  20
 193.36052417224
  30
0.0
  40
 6.0000000000000
 100
AcDbArc
  50
 307.65845999994
  51
 0.27140733281822E-11
   0
ARC
   5
403
 100
AcDbEntity
   8
LEVEL001
 370
30
   6
CONTINUOUS
  62
7
 100
AcDbCircle
  10
 1106.6082058713
  20
 193.36052417224
  30
0.0
  40
 6.0000000000000
 100
AcDbArc
  50
0.0
  51
 52.341538999990
   0
LINE
   5
404
 100
AcDbEntity
   8
LEVEL001
 370
20
 100
AcDbLine
   6
HIDDEN
  62
9
  10
 1079.3541058713
  20
 231.36052317225
  30
0.0
  11
 1079.3541058713
  21
 233.36052317225
  31
0.0
   0
LINE
   5
405
 100
AcDbEntity
   8
LEVEL001
 370
20
 100
AcDbLine
   6
HIDDEN
  62
9
  10
 1085.8541058713
  20
 231.36052317225
  30
0.0
  11
 1085.8541058713
  21
 233.36052317225
  31
0.0
   0
LINE
   5
406
 100
AcDbEntity
   8
LEVEL001
 370
20
 100
AcDbLine
   6
HIDDEN
  62
9
  10
 1104.3541058713
  20
 231.36052317225
  30
0.0
  11
 1104.3541058713
  21
 233.36052317225
  31
0.0
   0
LINE
   5
407
 100
AcDbEntity
   8
LEVEL001
 370
20
 100
AcDbLine
   6
HIDDEN
  62
9
  10
 1110.8541058713
  20
 231.36052317225
  30
0.0
  11
 1110.8541058713
  21
 233.36052317225
  31
0.0
   0
POINT
   5
408
 100
AcDbEntity
   8
LEVEL001
 100
AcDbPoint
  62
7
  10
 1095.1041058713
  20
 168.36052417224
  30
0.0
   0
ENDBLK
   5
409
 100
AcDbEntity
   8
0
 100
AcDbBlockEnd
   0
BLOCK
   5
40A
 100
AcDbEntity
   8
0
 100
AcDbBlockBegin
   2
BLOCK005
  70
64
  10
0.0
  20
0.0
  30
0.0
   3
BLOCK005
   0
LWPOLYLINE
   5
40B
 100
AcDbEntity
   8
LEVEL001
 370
30
   6
CONTINUOUS
  62
7
 100
AcDbPolyline
  90
8
  70
1
  10
 660.10410587131
  20
 212.79522323518
  10
 660.10410587131
  20
 237.29522323518
  10
 980.10410587131
  20
 237.29522323518
  10
 980.10410587131
  20
 212.79522323518
  10
 975.60410587131
  20
 212.79522323518
  10
 975.60410587131
  20
 232.79522323518
  10
 664.60410587131
  20
 232.79522323518
  10
 664.60410587131
  20
 212.79522323518
   0
LWPOLYLINE
   5
40C
 100
AcDbEntity
   8
LEVEL001
 370
30
   6
CONTINUOUS
  62
7
 100
AcDbPolyline
  90
4
  70
1
  10
 696.60410587131
  20
 167.79522323518
  10
 717.60410587131
  20
 167.79522323518
  10
 717.60410587131
  20
 217.79522323518
  10
 696.60410587131
  20
 217.79522323518
   0
ARC
   5
40D
 100
AcDbEntity
   8
LEVEL001
 370
30
   6
CONTINUOUS
  62
7
 100
AcDbCircle
  10
 707.10410587131
  20
 217.79522323518
  30
0.0
  40
 12.000000000000
 100
AcDbArc
  50
0.0
  51
 180.00000000000
   0
LWPOLYLINE
   5
40E
 100
AcDbEntity
   8
LEVEL001
 370
30
   6
CONTINUOUS
  62
7
 100
AcDbPolyline
  90
4
  70
1
  10
 922.60410587131
  20
 167.79522323518
  10
 943.60410587131
  20
 167.79522323518
  10
 943.60410587131
  20
 217.79522323518
  10
 922.60410587131
  20
 217.79522323518
   0
ARC
   5
40F
 100
AcDbEntity
   8
LEVEL001
 370
30
   6
CONTINUOUS
  62
7
 100
AcDbCircle
  10
 933.10410587131
  20
 217.79522323518
  30
0.0
  40
 12.000000000000
 100
AcDbArc
  50
0.0
  51
 180.00000000000
   0
LWPOLYLINE
   5
410
 100
AcDbEntity
   8
LEVEL001
 370
30
   6
CONTINUOUS
  62
7
 100
AcDbPolyline
  90
4
  70
1
  10
 750.10410587131
  20
 579.79522323518
  10
 890.10410587131
  20
 579.79522323518
  10
 890.10410587131
  20
 604.79522323518
  10
 750.10410587131
  20
 604.79522323518
   0
CIRCLE
   5
411
 100
AcDbEntity
   8
LEVEL001
 370
30
 100
AcDbCircle
   6
CONTINUOUS
  62
7
  10
 949.07524904163
  20
 685.79522323514
  30
0.0
  40
 15.000000000000
   0
LINE
   5
412
 100
AcDbEntity
   8
LEVEL001
 370
30
 100
AcDbLine
   6
CONTINUOUS
  62
7
  10
 907.60410587131
  20
 667.62535025410
  30
0.0
  11
 934.32780032771
  21
 683.05428244221
  31
0.0
   0
LINE
   5
413
 100
AcDbEntity
   8
LEVEL001
 370
30
 100
AcDbLine
   6
CONTINUOUS
  62
7
  10
 912.60410587131
  20
 658.96509621625
  30
0.0
  11
 939.32780032770
  21
 674.39402840436
  31
0.0
   0
ARC
   5
414
 100
AcDbEntity
   8
LEVEL001
 370
30
   6
CONTINUOUS
  62
7
 100
AcDbCircle
  10
 910.10410587131
  20
 663.29522323518
  30
0.0
  40
 5.0000000000000
 100
AcDbArc
  50
 119.99999999994
  51
 299.99999999994
   0
LWPOLYLINE
   5
415
 100
AcDbEntity
   8
LEVEL001
 370
30
   6
CONTINUOUS
  62
7
 100
AcDbPolyline
  90
6
  70
0
  10
 695.10410587131
  20
 217.79522323518
  10
 695.10410587131
  20
 185.29522323518
  10
 693.10410587131
  20
 185.29522323518
  10
 693.10410587131
  20
 230.79522323518
  10
 677.60410587131
  20
 230.79522323518
  10
 677.60410587131
  20
 232.79522323518
   0
LWPOLYLINE
   5
416
 100
AcDbEntity
   8
LEVEL001
 370
30
   6
CONTINUOUS
  62
7
 100
AcDbPolyline
  90
6
  70
0
  10
 736.60410587131
  20
 232.79522323518
  10
 736.60410587131
  20
 230.79522323518
  10
 721.10410587131
  20
 230.79522323518
  10
 721.10410587131
  20
 185.29522323518
  10
 719.10410587131
  20
 185.29522323518
  10
 719.10410587131
  20
 217.79522323518
   0
LWPOLYLINE
   5
417
 100
AcDbEntity
   8
LEVEL001
 370
30
   6
CONTINUOUS
  62
7
 100
AcDbPolyline
  90
6
  70
0
  10
 921.10410587131
  20
 217.79522323518
  10
 921.10410587131
  20
 185.29522323518
  10
 919.10410587131
  20
 185.29522323518
  10
 919.10410587131
  20
 230.79522323518
  10
 903.60410587131
  20
 230.79522323518
  10
 903.60410587131
  20
 232.79522323518
   0
LWPOLYLINE
   5
418
 100
AcDbEntity
   8
LEVEL001
 370
30
   6
CONTINUOUS
  62
7
 100
AcDbPolyline
  90
6
  70
0
  10
 962.60410587131
  20
 232.79522323518
  10
 962.60410587131
  20
 230.79522323518
  10
 947.10410587131
  20
 230.79522323518
  10
 947.10410587131
  20
 185.29522323518
  10
 945.10410587131
  20
 185.29522323518
  10
 945.10410587131
  20
 217.79522323518
   0
ARC
   5
419
 100
AcDbEntity
   8
LEVEL001
 370
30
   6
CONTINUOUS
  62
7
 100
AcDbCircle
  10
 910.10410587131
  20
 663.29522323518
  30
0.0
  40
 10.000000000000
 100
AcDbArc
  50
 59.999999999943
  51
0.0
   0
LWPOLYLINE
   5
41A
 100
AcDbEntity
   8
LEVEL001
 370
30
   6
CONTINUOUS
  62
7
 100
AcDbPolyline
  90
4
  70
0
  10
 926.60410587131
  20
 748.29522323518
  10
 926.60410587131
  20
 777.29522323518
  10
 866.60410587131
  20
 777.29522323518
  10
 866.60410587131
  20
 748.29522323518
   0
LINE
   5
41B
 100
AcDbEntity
   8
LEVEL001
 370
30
 100
AcDbLine
   6
CONTINUOUS
  62
7
  10
 916.60410587131
  20
 777.29522323518
  30
0.0
  11
 916.60410587131
  21
 748.29522323518
  31
0.0
   0
LINE
   5
41C
 100
AcDbEntity
   8
LEVEL001
 370
30
 100
AcDbLine
   6
CONTINUOUS
  62
7
  10
 876.60410587131
  20
 777.29522323518
  30
0.0
  11
 876.60410587131
  21
 748.29522323518
  31
0.0
   0
LWPOLYLINE
   5
41D
 100
AcDbEntity
   8
LEVEL001
 370
30
   6
CONTINUOUS
  62
7
 100
AcDbPolyline
  90
4
  70
1
  10
 981.60410587131
  20
 237.29522323518
  10
 658.60410587131
  20
 237.29522323518
  10
 658.60410587131
  20
 777.29522323518
  10
 981.60410587131
  20
 777.29522323518
   0
LINE
   5
41E
 100
AcDbEntity
   8
LEVEL001
 370
30
 100
AcDbLine
   6
CONTINUOUS
  62
7
  10
 658.60410587131
  20
 748.29522323518
  30
0.0
  11
 981.60410587131
  21
 748.29522323518
  31
0.0
   0
LWPOLYLINE
   5
41F
 100
AcDbEntity
   8
LEVEL001
 370
30
   6
CONTINUOUS
  62
7
 100
AcDbPolyline
  90
4
  70
0
  10
 1002.6041058713
  20
 705.49522323517
  10
 1003.1041058713
  20
 701.99522323517
  10
 1003.1041058713
  20
 685.99522323517
  10
 1002.6041058713
  20
 682.49522323517
   0
LWPOLYLINE
   5
420
 100
AcDbEntity
   8
LEVEL001
 370
30
   6
CONTINUOUS
  62
7
 100
AcDbPolyline
  90
3
  70
0
  10
 1001.1041058713
  20
 682.49522323517
  10
 1000.1041058713
  20
 677.74522323517
  10
 990.10410587131
  20
 677.74522323517
   0
LINE
   5
421
 100
AcDbEntity
   8
LEVEL001
 370
30
 100
AcDbLine
   6
CONTINUOUS
  62
7
  10
 992.60410587131
  20
 682.49522323517
  30
0.0
  11
 991.10410587131
  21
 680.99522323517
  31
0.0
   0
LWPOLYLINE
   5
422
 100
AcDbEntity
   8
LEVEL001
 370
30
   6
CONTINUOUS
  62
7
 100
AcDbPolyline
  90
4
  70
0
  10
 983.10410587131
  20
 633.04522323518
  10
 994.60410587131
  20
 633.04522323518
  10
 994.60410587131
  20
 600.54522323518
  10
 983.10410587131
  20
 600.54522323518
   0
LWPOLYLINE
   5
423
 100
AcDbEntity
   8
LEVEL001
 370
30
   6
CONTINUOUS
  62
7
 100
AcDbPolyline
  90
4
  70
0
  10
 994.60410587131
  20
 629.29522323518
  10
 1000.6041058713
  20
 629.29522323518
  10
 1000.6041058713
  20
 604.29522323518
  10
 994.60410587131
  20
 604.29522323518
   0
LWPOLYLINE
   5
424
 100
AcDbEntity
   8
LEVEL001
 370
30
   6
CONTINUOUS
  62
7
 100
AcDbPolyline
  90
4
  70
0
  10
 981.60410587131
  20
 738.79522323518
  10
 984.10410587131
  20
 738.79522323518
  10
 984.10410587131
  20
 693.79522323518
  10
 981.60410587131
  20
 693.79522323518
   0
LWPOLYLINE
   5
425
 100
AcDbEntity
   8
LEVEL001
 370
30
   6
CONTINUOUS
  62
7
 100
AcDbPolyline
  90
4
  70
0
  10
 984.10410587131
  20
 727.54522323518
  10
 995.60410587131
  20
 727.54522323518
  10
 995.60410587131
  20
 695.04522323518
  10
 984.10410587131
  20
 695.04522323518
   0
LWPOLYLINE
   5
426
 100
AcDbEntity
   8
LEVEL001
 370
30
   6
CONTINUOUS
  62
7
 100
AcDbPolyline
  90
4
  70
0
  10
 995.60410587131
  20
 723.79522323518
  10
 1001.6041058713
  20
 723.79522323518
  10
 1001.6041058713
  20
 698.79522323518
  10
 995.60410587131
  20
 698.79522323518
   0
LWPOLYLINE
   5
427
 100
AcDbEntity
   8
LEVEL001
 370
30
   6
CONTINUOUS
  62
7
 100
AcDbPolyline
  90
3
  70
0
  10
 981.60410587131
  20
 772.79522323518
  10
 983.10410587131
  20
 772.79522323518
  10
 983.10410587131
  20
 738.79522323518
   0
LWPOLYLINE
   5
428
 100
AcDbEntity
   8
LEVEL001
 370
30
   6
CONTINUOUS
  62
7
 100
AcDbPolyline
  90
3
  70
0
  10
 983.10410587131
  20
 693.79522323518
  10
 983.10410587131
  20
 566.79522323518
  10
 981.60410587131
  20
 566.79522323518
   0
LWPOLYLINE
   5
429
 100
AcDbEntity
   8
LEVEL001
 370
30
   6
CONTINUOUS
  62
7
 100
AcDbPolyline
  90
3
  70
0
  10
 984.10410587131
  20
 730.79522323518
  10
 987.10410587131
  20
 730.79522323518
  10
 987.10410587131
  20
 727.54522323518
   0
LWPOLYLINE
   5
42A
 100
AcDbEntity
   8
LEVEL001
 370
30
   6
CONTINUOUS
  62
7
 100
AcDbPolyline
  90
4
  70
0
  10
 987.10410587131
  20
 695.04522323518
  10
 987.10410587131
  20
 646.79522323518
  10
 983.10410587131
  20
 646.79522323518
  10
 983.10410587131
  20
 693.79522323518
   0
LWPOLYLINE
   5
42B
 100
AcDbEntity
   8
LEVEL001
 370
30
   6
CONTINUOUS
  62
7
 100
AcDbPolyline
  90
3
  70
0
  10
 990.10410587131
  20
 695.04522323518
  10
 990.10410587131
  20
 654.79522323518
  10
 987.10410587131
  20
 654.79522323518
   0
LWPOLYLINE
   5
42C
 100
AcDbEntity
   8
LEVEL001
 370
30
   6
CONTINUOUS
  62
7
 100
AcDbPolyline
  90
5
  70
0
  10
 1001.6041058713
  20
 705.49522323517
  10
 1002.6041058713
  20
 705.49522323517
  10
 1002.6041058713
  20
 682.49522323517
  10
 992.60410587131
  20
 682.49522323517
  10
 992.60410587131
  20
 695.04522323518
   0
LWPOLYLINE
   5
42D
 100
AcDbEntity
   8
LEVEL001
 370
30
   6
CONTINUOUS
  62
7
 100
AcDbPolyline
  90
3
  70
0
  10
 991.10410587131
  20
 695.04522323518
  10
 991.10410587131
  20
 680.99522323517
  10
 990.10410587131
  20
 680.99522323517
   0
ENDBLK
   5
42E
 100
AcDbEntity
   8
0
 100
AcDbBlockEnd
   0
BLOCK
   5
42F
 100
AcDbEntity
   8
0
 100
AcDbBlockBegin
   2
*D4
  70
65
  10
0.0
  20
0.0
  30
0.0
   3
*D4
   0
LINE
   5
430
 100
AcDbEntity
   8
LEVEL001
 370
9
 100
AcDbLine
   6
CONTINUOUS
  62
1
  10
 523.60410587131
  20
 180.79522323518
  30
0.0
  11
 523.60410587131
  21
 49.280214788198
  31
0.0
   0
LINE
   5
431
 100
AcDbEntity
   8
LEVEL001
 370
9
 100
AcDbLine
   6
CONTINUOUS
  62
1
  10
 1633.6041058713
  20
 180.79522323518
  30
0.0
  11
 1633.6041058713
  21
 49.280214788198
  31
0.0
   0
LINE
   5
432
 100
AcDbEntity
   8
LEVEL001
 370
9
 100
AcDbLine
   6
CONTINUOUS
  62
1
  10
 523.60410587131
  20
 65.280214788198
  30
0.0
  11
 1078.6041058713
  21
 65.280214788198
  31
0.0
   0
LINE
   5
433
 100
AcDbEntity
   8
LEVEL001
 370
9
 100
AcDbLine
   6
CONTINUOUS
  62
1
  10
 1633.6041058713
  20
 65.280214788198
  30
0.0
  11
 1078.6041058713
  21
 65.280214788198
  31
0.0
   0
INSERT
   5
434
 100
AcDbEntity
   8
LEVEL001
   6
CONTINUOUS
  62
1
 100
AcDbBlockReference
   2
_OPEN30
  10
 523.60410587131
  20
 65.280214788198
  30
0.0
  41
 24.000000000000
  42
 24.000000000000
  43
 24.000000000000
  50
 180.00000000000
   0
INSERT
   5
435
 100
AcDbEntity
   8
LEVEL001
   6
CONTINUOUS
  62
1
 100
AcDbBlockReference
   2
_OPEN30
  10
 1633.6041058713
  20
 65.280214788198
  30
0.0
  41
 24.000000000000
  42
 24.000000000000
  43
 24.000000000000
  50
0.0
   0
MTEXT
   5
436
 100
AcDbEntity
   8
LEVEL001
 370
30
  62
7
 100
AcDbMText
  10
 1078.6041058713
  20
 73.280214788198
  30
0.0
  40
 32.000000000000
  41
0.0
  71
8
  72
1
   1
\A1;1110
   7
GMM001
   0
ENDBLK
   5
437
 100
AcDbEntity
   8
0
 100
AcDbBlockEnd
   0
BLOCK
   5
438
 100
AcDbEntity
   8
0
 100
AcDbBlockBegin
   2
*D5
  70
65
  10
0.0
  20
0.0
  30
0.0
   3
*D5
   0
LINE
   5
439
 100
AcDbEntity
   8
LEVEL001
 370
9
 100
AcDbLine
   6
CONTINUOUS
  62
1
  10
 1971.9868095079
  20
 167.79522323518
  30
0.0
  11
 1971.9868095079
  21
 49.280214788198
  31
0.0
   0
LINE
   5
43A
 100
AcDbEntity
   8
LEVEL001
 370
9
 100
AcDbLine
   6
CONTINUOUS
  62
1
  10
 3421.9868095079
  20
 167.79522323518
  30
0.0
  11
 3421.9868095079
  21
 49.280214788198
  31
0.0
   0
LINE
   5
43B
 100
AcDbEntity
   8
LEVEL001
 370
9
 100
AcDbLine
   6
CONTINUOUS
  62
1
  10
 1971.9868095079
  20
 65.280214788198
  30
0.0
  11
 2696.9868095079
  21
 65.280214788198
  31
0.0
   0
LINE
   5
43C
 100
AcDbEntity
   8
LEVEL001
 370
9
 100
AcDbLine
   6
CONTINUOUS
  62
1
  10
 3421.9868095079
  20
 65.280214788198
  30
0.0
  11
 2696.9868095079
  21
 65.280214788198
  31
0.0
   0
INSERT
   5
43D
 100
AcDbEntity
   8
LEVEL001
   6
CONTINUOUS
  62
1
 100
AcDbBlockReference
   2
_OPEN30
  10
 1971.9868095079
  20
 65.280214788198
  30
0.0
  41
 24.000000000000
  42
 24.000000000000
  43
 24.000000000000
  50
 180.00000000000
   0
INSERT
   5
43E
 100
AcDbEntity
   8
LEVEL001
   6
CONTINUOUS
  62
1
 100
AcDbBlockReference
   2
_OPEN30
  10
 3421.9868095079
  20
 65.280214788198
  30
0.0
  41
 24.000000000000
  42
 24.000000000000
  43
 24.000000000000
  50
0.0
   0
MTEXT
   5
43F
 100
AcDbEntity
   8
LEVEL001
 370
30
  62
7
 100
AcDbMText
  10
 2696.9868095079
  20
 73.280214788198
  30
0.0
  40
 32.000000000000
  41
0.0
  71
8
  72
1
   1
\A1;1450
   7
GMM001
   0
ENDBLK
   5
440
 100
AcDbEntity
   8
0
 100
AcDbBlockEnd
   0
BLOCK
   5
441
 100
AcDbEntity
   8
0
 100
AcDbBlockBegin
   2
*D6
  70
65
  10
0.0
  20
0.0
  30
0.0
   3
*D6
   0
LINE
   5
442
 100
AcDbEntity
   8
LEVEL001
 370
9
 100
AcDbLine
   6
CONTINUOUS
  62
1
  10
 488.60410587131
  20
 167.79522323518
  30
0.0
  11
 340.13793103448
  21
 167.79522323518
  31
0.0
   0
LINE
   5
443
 100
AcDbEntity
   8
LEVEL001
 370
9
 100
AcDbLine
   6
CONTINUOUS
  62
1
  10
 356.13793103448
  20
 167.79522323518
  30
0.0
  11
 356.13793103448
  21
 497.79522323518
  31
0.0
   0
LINE
   5
444
 100
AcDbEntity
   8
LEVEL001
 370
9
 100
AcDbLine
   6
CONTINUOUS
  62
1
  10
 356.13793103448
  20
 827.79522323518
  30
0.0
  11
 356.13793103448
  21
 497.79522323518
  31
0.0
   0
INSERT
   5
445
 100
AcDbEntity
   8
LEVEL001
   6
CONTINUOUS
  62
1
 100
AcDbBlockReference
   2
_OPEN30
  10
 356.13793103448
  20
 167.79522323518
  30
0.0
  41
 24.000000000000
  42
 24.000000000000
  43
 24.000000000000
  50
 270.00000000000
   0
INSERT
   5
446
 100
AcDbEntity
   8
LEVEL001
   6
CONTINUOUS
  62
1
 100
AcDbBlockReference
   2
_OPEN30
  10
 356.13793103448
  20
 827.79522323518
  30
0.0
  41
 24.000000000000
  42
 24.000000000000
  43
 24.000000000000
  50
 90.000000000000
   0
MTEXT
   5
447
 100
AcDbEntity
   8
LEVEL001
 370
30
  62
7
 100
AcDbMText
  10
 348.13793103448
  20
 497.79522323518
  30
0.0
  40
 32.000000000000
  41
0.0
  71
8
  72
1
   1
\A1;660
   7
GMM001
  11
0.0
  21
 1.0000000000000
  31
0.0
   0
ENDBLK
   5
448
 100
AcDbEntity
   8
0
 100
AcDbBlockEnd
   0
BLOCK
   5
449
 100
AcDbEntity
   8
0
 100
AcDbBlockBegin
   2
*D7
  70
65
  10
0.0
  20
0.0
  30
0.0
   3
*D7
   0
LINE
   5
44A
 100
AcDbEntity
   8
LEVEL001
 370
9
 100
AcDbLine
   6
CONTINUOUS
  62
1
  10
 518.79187309454
  20
 827.79522323518
  30
0.0
  11
 340.13793103448
  21
 827.79522323518
  31
0.0
   0
LINE
   5
44B
 100
AcDbEntity
   8
LEVEL001
 370
9
 100
AcDbLine
   6
CONTINUOUS
  62
1
  10
 491.12969293091
  20
 1457.7952232352
  30
0.0
  11
 340.13793103448
  21
 1457.7952232352
  31
0.0
   0
LINE
   5
44C
 100
AcDbEntity
   8
LEVEL001
 370
9
 100
AcDbLine
   6
CONTINUOUS
  62
1
  10
 356.13793103448
  20
 827.79522323518
  30
0.0
  11
 356.13793103448
  21
 1142.7952232352
  31
0.0
   0
LINE
   5
44D
 100
AcDbEntity
   8
LEVEL001
 370
9
 100
AcDbLine
   6
CONTINUOUS
  62
1
  10
 356.13793103448
  20
 1457.7952232352
  30
0.0
  11
 356.13793103448
  21
 1142.7952232352
  31
0.0
   0
INSERT
   5
44E
 100
AcDbEntity
   8
LEVEL001
   6
CONTINUOUS
  62
1
 100
AcDbBlockReference
   2
_OPEN30
  10
 356.13793103448
  20
 827.79522323518
  30
0.0
  41
 24.000000000000
  42
 24.000000000000
  43
 24.000000000000
  50
 270.00000000000
   0
INSERT
   5
44F
 100
AcDbEntity
   8
LEVEL001
   6
CONTINUOUS
  62
1
 100
AcDbBlockReference
   2
_OPEN30
  10
 356.13793103448
  20
 1457.7952232352
  30
0.0
  41
 24.000000000000
  42
 24.000000000000
  43
 24.000000000000
  50
 90.000000000000
   0
MTEXT
   5
450
 100
AcDbEntity
   8
LEVEL001
 370
30
  62
7
 100
AcDbMText
  10
 348.13793103448
  20
 1142.7952232352
  30
0.0
  40
 32.000000000000
  41
0.0
  71
8
  72
1
   1
\A1;630
   7
GMM001
  11
0.0
  21
 1.0000000000000
  31
0.0
   0
ENDBLK
   5
451
 100
AcDbEntity
   8
0
 100
AcDbBlockEnd
   0
BLOCK
   5
452
 100
AcDbEntity
   8
0
 100
AcDbBlockBegin
   2
*D8
  70
65
  10
0.0
  20
0.0
  30
0.0
   3
*D8
   0
LINE
   5
453
 100
AcDbEntity
   8
LEVEL001
 370
9
 100
AcDbLine
   6
CONTINUOUS
  62
1
  10
 491.12969293091
  20
 1457.7952232352
  30
0.0
  11
 259.03448275862
  21
 1457.7952232352
  31
0.0
   0
LINE
   5
454
 100
AcDbEntity
   8
LEVEL001
 370
9
 100
AcDbLine
   6
CONTINUOUS
  62
1
  10
 488.60410587131
  20
 167.79522323518
  30
0.0
  11
 259.03448275862
  21
 167.79522323518
  31
0.0
   0
LINE
   5
455
 100
AcDbEntity
   8
LEVEL001
 370
9
 100
AcDbLine
   6
CONTINUOUS
  62
1
  10
 275.03448275862
  20
 1457.7952232352
  30
0.0
  11
 275.03448275862
  21
 812.79522323518
  31
0.0
   0
LINE
   5
456
 100
AcDbEntity
   8
LEVEL001
 370
9
 100
AcDbLine
   6
CONTINUOUS
  62
1
  10
 275.03448275862
  20
 167.79522323518
  30
0.0
  11
 275.03448275862
  21
 812.79522323518
  31
0.0
   0
INSERT
   5
457
 100
AcDbEntity
   8
LEVEL001
   6
CONTINUOUS
  62
1
 100
AcDbBlockReference
   2
_OPEN30
  10
 275.03448275862
  20
 1457.7952232352
  30
0.0
  41
 24.000000000000
  42
 24.000000000000
  43
 24.000000000000
  50
 90.000000000000
   0
INSERT
   5
458
 100
AcDbEntity
   8
LEVEL001
   6
CONTINUOUS
  62
1
 100
AcDbBlockReference
   2
_OPEN30
  10
 275.03448275862
  20
 167.79522323518
  30
0.0
  41
 24.000000000000
  42
 24.000000000000
  43
 24.000000000000
  50
 270.00000000000
   0
MTEXT
   5
459
 100
AcDbEntity
   8
LEVEL001
 370
30
  62
7
 100
AcDbMText
  10
 267.03448275862
  20
 812.79522323518
  30
0.0
  40
 32.000000000000
  41
0.0
  71
8
  72
1
   1
\A1;1290
   7
GMM001
  11
0.0
  21
 1.0000000000000
  31
0.0
   0
ENDBLK
   5
45A
 100
AcDbEntity
   8
0
 100
AcDbBlockEnd
   0
ENDSEC
   0
SECTION
   2
ENTITIES
   0
MTEXT
   5
45C
 100
AcDbEntity
   8
LEVEL001
 370
30
  62
7
 100
AcDbMText
  10
 4526.1932373619
  20
 80.000000000000
  30
0.0
  40
 32.000000000000
  41
0.0
  71
7
  72
1
   1
\T1.000000;井上
   7
GMM001
  44
 0.79999984000003
   0
INSERT
   5
45D
 100
AcDbEntity
   8
LEVEL001
 100
AcDbBlockReference
   2
BLOCK001
  10
0.0
  20
0.0
  30
0.0
   0
INSERT
   5
45E
 100
AcDbEntity
   8
LEVEL001
 100
AcDbBlockReference
   2
BLOCK002
  10
0.0
  20
0.0
  30
0.0
   0
INSERT
   5
45F
 100
AcDbEntity
   8
0
 100
AcDbBlockReference
   2
BLOCK003
  10
0.0
  20
0.0
  30
0.0
   0
MTEXT
   5
461
 100
AcDbEntity
   8
LEVEL001
 370
30
  62
7
 100
AcDbMText
  10
 4334.1932373619
  20
 80.000000000000
  30
0.0
  40
 32.000000000000
  41
0.0
  71
7
  72
1
   1
\T1.000000;27
   7
GMM004
  44
 0.79999984000003
   0
MTEXT
   5
463
 100
AcDbEntity
   8
LEVEL001
 370
30
  62
7
 100
AcDbMText
  10
 4386.8036624727
  20
 80.000000000000
  30
0.0
  40
 32.000000000000
  41
0.0
  71
7
  72
1
   1
\T1.000000; 3
   7
GMM004
  44
 0.79999984000003
   0
MTEXT
   5
465
 100
AcDbEntity
   8
LEVEL001
 370
30
  62
7
 100
AcDbMText
  10
 4431.0442472249
  20
 80.000000000000
  30
0.0
  40
 32.000000000000
  41
0.0
  71
7
  72
1
   1
\T1.000000;26
   7
GMM004
  44
 0.79999984000003
   0
INSERT
   5
466
 100
AcDbEntity
   8
0
 100
AcDbBlockReference
   2
GMM001
  10
 4638.1932373619
  20
0.0
  30
0.0
  41
 8.0000000000000
  42
 8.0000000000000
   0
LINE
   5
467
 100
AcDbEntity
   8
LEVEL001
 370
30
 100
AcDbLine
   6
CONTINUOUS
  62
7
  10
 3421.9868095079
  20
 834.44838694458
  30
0.0
  11
 3421.9868095079
  21
 863.44838694458
  31
0.0
   0
LINE
   5
468
 100
AcDbEntity
   8
LEVEL001
 370
30
 100
AcDbLine
   6
CONTINUOUS
  62
7
  10
 3410.9868095079
  20
 1452.4483869446
  30
0.0
  11
 3410.9868095079
  21
 1412.4483869446
  31
0.0
   0
LINE
   5
469
 100
AcDbEntity
   8
LEVEL001
 370
30
 100
AcDbLine
   6
CONTINUOUS
  62
7
  10
 3410.9868095079
  20
 1452.4483869446
  30
0.0
  11
 3409.9868095079
  21
 1452.4483869446
  31
0.0
   0
LINE
   5
46A
 100
AcDbEntity
   8
LEVEL001
 370
30
 100
AcDbLine
   6
CONTINUOUS
  62
7
  10
 3410.9868095079
  20
 1412.4483869446
  30
0.0
  11
 3410.9868095079
  21
 1452.4483869446
  31
0.0
   0
ARC
   5
46B
 100
AcDbEntity
   8
LEVEL001
 370
30
   6
CONTINUOUS
  62
7
 100
AcDbCircle
  10
 3409.9868095079
  20
 1453.4483869446
  30
0.0
  40
 1.0000000000000
 100
AcDbArc
  50
0.0
  51
 90.000000000000
   0
POINT
   5
46C
 100
AcDbEntity
   8
LEVEL001
 100
AcDbPoint
  62
7
  10
 3410.9868095079
  20
 1454.4483869446
  30
0.0
   0
ARC
   5
46D
 100
AcDbEntity
   8
LEVEL001
 370
30
   6
CONTINUOUS
  62
7
 100
AcDbCircle
  10
 3409.9868095079
  20
 1453.4483869446
  30
0.0
  40
 2.0000000000000
 100
AcDbArc
  50
0.0
  51
 90.000000000000
   0
POINT
   5
46E
 100
AcDbEntity
   8
LEVEL001
 100
AcDbPoint
  62
7
  10
 3411.9868095079
  20
 1455.4483869446
  30
0.0
   0
ARC
   5
46F
 100
AcDbEntity
   8
LEVEL001
 370
30
   6
CONTINUOUS
  62
7
 100
AcDbCircle
  10
 3409.9868095079
  20
 1453.4483869446
  30
0.0
  40
 1.0000000000000
 100
AcDbArc
  50
0.0
  51
 90.000000000000
   0
POINT
   5
470
 100
AcDbEntity
   8
LEVEL001
 100
AcDbPoint
  62
7
  10
 3410.9868095079
  20
 1454.4483869446
  30
0.0
   0
ARC
   5
471
 100
AcDbEntity
   8
LEVEL001
 370
30
   6
CONTINUOUS
  62
7
 100
AcDbCircle
  10
 3409.9868095079
  20
 1453.4483869446
  30
0.0
  40
 2.0000000000000
 100
AcDbArc
  50
0.0
  51
 90.000000000000
   0
POINT
   5
472
 100
AcDbEntity
   8
LEVEL001
 100
AcDbPoint
  62
7
  10
 3411.9868095079
  20
 1455.4483869446
  30
0.0
   0
LINE
   5
473
 100
AcDbEntity
   8
LEVEL001
 370
30
 100
AcDbLine
   6
CONTINUOUS
  62
7
  10
 3410.9868095079
  20
 1413.4483869446
  30
0.0
  11
 3411.9868095079
  21
 1413.4483869446
  31
0.0
   0
LINE
   5
474
 100
AcDbEntity
   8
LEVEL001
 370
30
 100
AcDbLine
   6
CONTINUOUS
  62
7
  10
 3411.9868095079
  20
 1413.4483869446
  30
0.0
  11
 3411.9868095079
  21
 1453.4483869446
  31
0.0
   0
LINE
   5
475
 100
AcDbEntity
   8
LEVEL001
 370
30
 100
AcDbLine
   6
CONTINUOUS
  62
7
  10
 3411.9868095079
  20
 1413.4483869446
  30
0.0
  11
 3410.9868095079
  21
 1413.4483869446
  31
0.0
   0
LINE
   5
476
 100
AcDbEntity
   8
LEVEL001
 370
30
 100
AcDbLine
   6
CONTINUOUS
  62
7
  10
 3411.9868095079
  20
 1413.4483869446
  30
0.0
  11
 3411.9868095079
  21
 1453.4483869446
  31
0.0
   0
LINE
   5
477
 100
AcDbEntity
   8
LEVEL001
 370
30
 100
AcDbLine
   6
CONTINUOUS
  62
7
  10
 3410.9868095079
  20
 1009.4483869446
  30
0.0
  11
 3410.9868095079
  21
 1453.4483869446
  31
0.0
   0
LINE
   5
478
 100
AcDbEntity
   8
LEVEL001
 370
30
 100
AcDbLine
   6
CONTINUOUS
  62
7
  10
 3409.9868095079
  20
 887.44838694458
  30
0.0
  11
 3409.9868095079
  21
 1454.4483869446
  31
0.0
   0
POINT
   5
479
 100
AcDbEntity
   8
LEVEL001
 100
AcDbPoint
  62
1
  10
 3410.9868095079
  20
 1454.4483869446
  30
0.0
   0
POINT
   5
47A
 100
AcDbEntity
   8
LEVEL001
 100
AcDbPoint
  62
1
  10
 3411.9868095079
  20
 1455.4483869446
  30
0.0
   0
LINE
   5
47B
 100
AcDbEntity
   8
LEVEL001
 370
30
 100
AcDbLine
   6
CONTINUOUS
  62
7
  10
 522.71369865816
  20
 3077.9772707017
  30
0.0
  11
 522.71369865816
  21
 2764.3772707017
  31
0.0
   0
LINE
   5
47C
 100
AcDbEntity
   8
LEVEL001
 370
30
 100
AcDbLine
   6
CONTINUOUS
  62
7
  10
 602.71369865816
  20
 3077.9772707017
  30
0.0
  11
 522.71369865816
  21
 3077.9772707017
  31
0.0
   0
LINE
   5
47D
 100
AcDbEntity
   8
LEVEL001
 370
30
 100
AcDbLine
   6
CONTINUOUS
  62
7
  10
 1632.7136986582
  20
 2833.4772707017
  30
0.0
  11
 1632.7136986582
  21
 3077.9772707017
  31
0.0
   0
LINE
   5
47E
 100
AcDbEntity
   8
LEVEL001
 370
30
 100
AcDbLine
   6
CONTINUOUS
  62
7
  10
 1632.7136986582
  20
 3077.9772707017
  30
0.0
  11
 602.71369865816
  21
 3077.9772707017
  31
0.0
   0
LINE
   5
47F
 100
AcDbEntity
   8
LEVEL001
 370
30
 100
AcDbLine
   6
CONTINUOUS
  62
7
  10
 522.71369865816
  20
 2352.9772707017
  30
0.0
  11
 522.71369865816
  21
 2764.3772707017
  31
0.0
   0
LINE
   5
480
 100
AcDbEntity
   8
LEVEL001
 370
30
 100
AcDbLine
   6
CONTINUOUS
  62
7
  10
 1632.7136986582
  20
 2352.9772707017
  30
0.0
  11
 1632.7136986582
  21
 2833.4772707017
  31
0.0
   0
LINE
   5
481
 100
AcDbEntity
   8
LEVEL001
 370
30
 100
AcDbLine
   6
CONTINUOUS
  62
7
  10
 522.71369865816
  20
 2352.9772707017
  30
0.0
  11
 1632.7136986582
  21
 2352.9772707017
  31
0.0
   0
POINT
   5
482
 100
AcDbEntity
   8
LEVEL001
 100
AcDbPoint
  62
7
  10
 1353.7136986582
  20
 2764.9772707017
  30
0.0
   0
LINE
   5
483
 100
AcDbEntity
   8
LEVEL001
 370
30
 100
AcDbLine
   6
CONTINUOUS
  62
7
  10
 826.71369865816
  20
 2919.9772707017
  30
0.0
  11
 826.71369865816
  21
 2920.9772707017
  31
0.0
   0
LINE
   5
484
 100
AcDbEntity
   8
LEVEL001
 370
30
 100
AcDbLine
   6
CONTINUOUS
  62
7
  10
 826.71369865816
  20
 2920.9772707017
  30
0.0
  11
 828.71369865816
  21
 2920.9772707017
  31
0.0
   0
LINE
   5
485
 100
AcDbEntity
   8
LEVEL001
 370
30
 100
AcDbLine
   6
CONTINUOUS
  62
7
  10
 630.71369865816
  20
 2920.9772707017
  30
0.0
  11
 630.71369865816
  21
 2919.9772707017
  31
0.0
   0
LINE
   5
486
 100
AcDbEntity
   8
LEVEL001
 370
30
 100
AcDbLine
   6
CONTINUOUS
  62
7
  10
 603.71369865816
  20
 2923.9772707017
  30
0.0
  11
 606.71369865816
  21
 2920.9772707017
  31
0.0
   0
POINT
   5
487
 100
AcDbEntity
   8
LEVEL001
 100
AcDbPoint
  62
7
  10
 603.71369865816
  20
 2920.9772707017
  30
0.0
   0
LINE
   5
488
 100
AcDbEntity
   8
LEVEL001
 370
30
 100
AcDbLine
   6
CONTINUOUS
  62
7
  10
 606.71369865816
  20
 2920.9772707017
  30
0.0
  11
 630.71369865816
  21
 2920.9772707017
  31
0.0
   0
LINE
   5
489
 100
AcDbEntity
   8
LEVEL001
 370
30
 100
AcDbLine
   6
CONTINUOUS
  62
7
  10
 1358.7136986582
  20
 2763.9772707017
  30
0.0
  11
 1358.7136986582
  21
 2764.2095037489
  31
0.0
   0
POINT
   5
48A
 100
AcDbEntity
   8
LEVEL001
 100
AcDbPoint
  62
7
  10
 603.71369865816
  20
 2798.1506292458
  30
0.0
   0
LINE
   5
48B
 100
AcDbEntity
   8
LEVEL001
 370
30
 100
AcDbLine
   6
CONTINUOUS
  62
7
  10
 603.71369865816
  20
 2796.2112894176
  30
0.0
  11
 603.71369865816
  21
 2767.2095037489
  31
0.0
   0
LINE
   5
48C
 100
AcDbEntity
   8
LEVEL001
 370
30
 100
AcDbLine
   6
CONTINUOUS
  62
7
  10
 603.71369865816
  20
 2796.2112894176
  30
0.0
  11
 606.71369865816
  21
 2799.2112894176
  31
0.0
   0
POINT
   5
48D
 100
AcDbEntity
   8
LEVEL001
 100
AcDbPoint
  62
7
  10
 603.71369865816
  20
 2799.2112894176
  30
0.0
   0
LINE
   5
48E
 100
AcDbEntity
   8
LEVEL001
 370
30
 100
AcDbLine
   6
CONTINUOUS
  62
7
  10
 627.71369865816
  20
 2799.2112894176
  30
0.0
  11
 606.71369865816
  21
 2799.2112894176
  31
0.0
   0
LINE
   5
48F
 100
AcDbEntity
   8
LEVEL001
 370
30
 100
AcDbLine
   6
CONTINUOUS
  62
7
  10
 606.71369865816
  20
 2764.2095037489
  30
0.0
  11
 603.71369865816
  21
 2767.2095037489
  31
0.0
   0
LINE
   5
490
 100
AcDbEntity
   8
LEVEL001
 370
30
 100
AcDbLine
   6
CONTINUOUS
  62
7
  10
 606.71369865816
  20
 2764.2095037489
  30
0.0
  11
 627.71369865816
  21
 2764.2095037489
  31
0.0
   0
LINE
   5
491
 100
AcDbEntity
   8
LEVEL001
 370
30
 100
AcDbLine
   6
CONTINUOUS
  62
7
  10
 623.71369865816
  20
 2763.9772707017
  30
0.0
  11
 623.71369865816
  21
 2764.2095037489
  31
0.0
   0
LWPOLYLINE
   5
492
 100
AcDbEntity
   8
LEVEL001
 370
30
   6
CONTINUOUS
  62
7
 100
AcDbPolyline
  90
4
  70
0
  10
 549.71369865816
  20
 2408.7772707017
  10
 549.71369865816
  20
 2406.2772707017
  10
 583.71369865816
  20
 2406.2772707017
  10
 583.71369865816
  20
 2408.7772707017
   0
POINT
   5
493
 100
AcDbEntity
   8
LEVEL001
 100
AcDbPoint
  62
7
  10
 1605.7136986582
  20
 2375.5004222933
  30
0.0
   0
POINT
   5
494
 100
AcDbEntity
   8
LEVEL001
 100
AcDbPoint
  62
7
  10
 1605.7136986582
  20
 2435.4213062138
  30
0.0
   0
POINT
   5
495
 100
AcDbEntity
   8
LEVEL001
 100
AcDbPoint
  62
7
  10
 1605.7136986582
  20
 2374.2008137235
  30
0.0
   0
POINT
   5
496
 100
AcDbEntity
   8
LEVEL001
 100
AcDbPoint
  62
7
  10
 1605.7136986582
  20
 2434.1216983755
  30
0.0
   0
POINT
   5
497
 100
AcDbEntity
   8
LEVEL001
 100
AcDbPoint
  62
7
  10
 1605.7136986582
  20
 2375.5004222933
  30
0.0
   0
POINT
   5
498
 100
AcDbEntity
   8
LEVEL001
 100
AcDbPoint
  62
7
  10
 1605.7136986582
  20
 2435.4213069453
  30
0.0
   0
LWPOLYLINE
   5
499
 100
AcDbEntity
   8
LEVEL001
 370
30
   6
CONTINUOUS
  62
7
 100
AcDbPolyline
  90
4
  70
0
  10
 1610.7136986582
  20
 2436.6184019027
  10
 1610.7136986582
  20
 2437.9180104725
  10
 1420.7136986582
  20
 2437.9180104725
  10
 1420.7136986582
  20
 2436.6184019027
   0
POINT
   5
49A
 100
AcDbEntity
   8
LEVEL001
 100
AcDbPoint
  62
7
  10
 1425.7136986582
  20
 2435.4213062138
  30
0.0
   0
POINT
   5
49B
 100
AcDbEntity
   8
LEVEL001
 100
AcDbPoint
  62
7
  10
 1425.7136986582
  20
 2375.5004222933
  30
0.0
   0
POINT
   5
49C
 100
AcDbEntity
   8
LEVEL001
 100
AcDbPoint
  62
7
  10
 1425.7136986582
  20
 2374.2008137235
  30
0.0
   0
POINT
   5
49D
 100
AcDbEntity
   8
LEVEL001
 100
AcDbPoint
  62
7
  10
 1425.7136986582
  20
 2434.1216983755
  30
0.0
   0
POINT
   5
49E
 100
AcDbEntity
   8
LEVEL001
 100
AcDbPoint
  62
7
  10
 1425.7136986582
  20
 2375.5004222933
  30
0.0
   0
POINT
   5
49F
 100
AcDbEntity
   8
LEVEL001
 100
AcDbPoint
  62
7
  10
 1425.7136986582
  20
 2435.4213069453
  30
0.0
   0
LINE
   5
4A0
 100
AcDbEntity
   8
LEVEL001
 370
30
 100
AcDbLine
   6
CONTINUOUS
  62
7
  10
 584.31201534050
  20
 2763.9772707017
  30
0.0
  11
 563.20983146323
  21
 2712.7862520804
  31
0.0
   0
LINE
   5
4A1
 100
AcDbEntity
   8
LEVEL001
 370
30
 100
AcDbLine
   6
CONTINUOUS
  62
7
  10
 595.12834053293
  20
 2763.9772707017
  30
0.0
  11
 572.45511562590
  21
 2708.9751209161
  31
0.0
   0
LINE
   5
4A2
 100
AcDbEntity
   8
LEVEL001
 370
30
 100
AcDbLine
   6
CONTINUOUS
  62
7
  10
 561.41728338027
  20
 2718.9333466274
  30
0.0
  11
 559.51171779814
  21
 2714.3107045461
  31
0.0
   0
LINE
   5
4A3
 100
AcDbEntity
   8
LEVEL001
 370
30
 100
AcDbLine
   6
CONTINUOUS
  62
7
  10
 561.41728338027
  20
 2718.9333466274
  30
0.0
  11
 578.05879487311
  21
 2712.0733105317
  31
0.0
   0
LINE
   5
4A4
 100
AcDbEntity
   8
LEVEL001
 370
30
 100
AcDbLine
   6
CONTINUOUS
  62
7
  10
 578.05879487311
  20
 2712.0733105317
  30
0.0
  11
 576.15322929098
  21
 2707.4506684504
  31
0.0
   0
LINE
   5
4A5
 100
AcDbEntity
   8
LEVEL001
 370
30
 100
AcDbLine
   6
CONTINUOUS
  62
7
  10
 576.15322929098
  20
 2707.4506684504
  30
0.0
  11
 559.51171779814
  21
 2714.3107045461
  31
0.0
   0
ARC
   5
4A6
 100
AcDbEntity
   8
LEVEL001
 370
30
   6
CONTINUOUS
  62
7
 100
AcDbCircle
  10
 560.45224977981
  20
 2692.9772707017
  30
0.0
  40
 20.000000000000
 100
AcDbArc
  50
 82.074863481193
  51
 53.119839109335
   0
LWPOLYLINE
   5
4A7
 100
AcDbEntity
   8
LEVEL001
 370
30
   6
CONTINUOUS
  62
7
 100
AcDbPolyline
  90
3
  70
0
  10
 549.71369865816
  20
 2758.7772707017
  10
 549.71369865816
  20
 2761.2772707017
  10
 583.19900962186
  20
 2761.2772707017
   0
LWPOLYLINE
   5
4A8
 100
AcDbEntity
   8
LEVEL001
 370
30
   6
CONTINUOUS
  62
7
 100
AcDbPolyline
  90
3
  70
0
  10
 582.16844877127
  20
 2758.7772707017
  10
 547.71369865816
  20
 2758.7772707017
  10
 547.71369865816
  20
 2708.3957438856
   0
LWPOLYLINE
   5
4A9
 100
AcDbEntity
   8
LEVEL001
 370
30
   6
CONTINUOUS
  62
7
 100
AcDbPolyline
  90
3
  70
0
  10
 547.71369865816
  20
 2677.5587975179
  10
 547.71369865816
  20
 2408.7772707017
  10
 1352.2136986582
  20
 2408.7772707017
   0
LINE
   5
4AA
 100
AcDbEntity
   8
LEVEL001
 370
30
 100
AcDbLine
   6
CONTINUOUS
  62
7
  10
 1626.7136986582
  20
 2443.4994129025
  30
0.0
  11
 1354.2136986582
  21
 2443.4994129025
  31
0.0
   0
LINE
   5
4AB
 100
AcDbEntity
   8
LEVEL001
 370
30
 100
AcDbLine
   6
CONTINUOUS
  62
7
  10
 1353.7136986582
  20
 2787.6032384783
  30
0.0
  11
 1353.7136986582
  21
 2368.7772707017
  31
0.0
   0
LINE
   5
4AC
 100
AcDbEntity
   8
LEVEL001
 370
30
 100
AcDbLine
   6
CONTINUOUS
  62
7
  10
 1353.7136986582
  20
 2804.5631068118
  30
0.0
  11
 1351.7136986582
  21
 2804.5631068118
  31
0.0
   0
LINE
   5
4AD
 100
AcDbEntity
   8
LEVEL001
 370
30
 100
AcDbLine
   6
CONTINUOUS
  62
7
  10
 629.21369865816
  20
 2368.7772707017
  30
0.0
  11
 629.21369865816
  21
 2367.5772707017
  31
0.0
   0
LINE
   5
4AE
 100
AcDbEntity
   8
LEVEL001
 370
30
 100
AcDbLine
   6
CONTINUOUS
  62
7
  10
 629.21369865816
  20
 2367.5772707017
  30
0.0
  11
 1353.7136986582
  21
 2367.5772707017
  31
0.0
   0
LWPOLYLINE
   5
4AF
 100
AcDbEntity
   8
LEVEL001
 370
30
   6
CONTINUOUS
  62
7
 100
AcDbPolyline
  90
8
  70
0
  10
 1346.7136986582
  20
 2388.5772707017
  10
 1346.7136986582
  20
 2386.5772707017
  10
 1351.2136986582
  20
 2386.5772707017
  10
 1351.2136986582
  20
 2376.5772707017
  10
 1352.2136986582
  20
 2376.5772707017
  10
 1352.2136986582
  20
 2387.5772707017
  10
 1347.7136986582
  20
 2387.5772707017
  10
 1347.7136986582
  20
 2388.5772707017
   0
LWPOLYLINE
   5
4B0
 100
AcDbEntity
   8
LEVEL001
 370
30
   6
CONTINUOUS
  62
7
 100
AcDbPolyline
  90
8
  70
0
  10
 1346.7136986582
  20
 2778.5772707017
  10
 1346.7136986582
  20
 2780.5772707017
  10
 1351.2136986582
  20
 2780.5772707017
  10
 1351.2136986582
  20
 2790.5772707017
  10
 1352.2136986582
  20
 2790.5772707017
  10
 1352.2136986582
  20
 2779.5772707017
  10
 1347.7136986582
  20
 2779.5772707017
  10
 1347.7136986582
  20
 2778.5772707017
   0
LWPOLYLINE
   5
4B1
 100
AcDbEntity
   8
LEVEL001
 370
30
   6
CONTINUOUS
  62
7
 100
AcDbPolyline
  90
4
  70
0
  10
 1352.2136986582
  20
 2388.5772707017
  10
 1339.2136986582
  20
 2388.5772707017
  10
 1339.2136986582
  20
 2778.5772707017
  10
 1352.2136986582
  20
 2778.5772707017
   0
LINE
   5
4B2
 100
AcDbEntity
   8
LEVEL001
 370
30
 100
AcDbLine
   6
CONTINUOUS
  62
7
  10
 1352.2136986582
  20
 2795.5772707017
  30
0.0
  11
 1335.7136986582
  21
 2795.5772707017
  31
0.0
   0
LINE
   5
4B3
 100
AcDbEntity
   8
LEVEL001
 370
30
 100
AcDbLine
   6
CONTINUOUS
  62
7
  10
 828.71369865816
  20
 2920.9772707017
  30
0.0
  11
 828.71369865816
  21
 2800.7009359273
  31
0.0
   0
LINE
   5
4B4
 100
AcDbEntity
   8
LEVEL001
 370
30
 100
AcDbLine
   6
CONTINUOUS
  62
7
  10
 1351.7136986582
  20
 2804.5631068118
  30
0.0
  11
 1351.7136986582
  21
 2791.8947636756
  31
0.0
   0
LINE
   5
4B5
 100
AcDbEntity
   8
LEVEL001
 370
30
 100
AcDbLine
   6
CONTINUOUS
  62
7
  10
 1335.7136986582
  20
 2790.2961877017
  30
0.0
  11
 1335.7136986582
  21
 2815.9205433547
  31
0.0
   0
LINE
   5
4B6
 100
AcDbEntity
   8
LEVEL001
 370
30
 100
AcDbLine
   6
CONTINUOUS
  62
7
  10
 1335.7136986582
  20
 2787.2961877017
  30
0.0
  11
 1335.7136986582
  21
 2790.2961877017
  31
0.0
   0
LINE
   5
4B7
 100
AcDbEntity
   8
LEVEL001
 370
30
 100
AcDbLine
   6
CONTINUOUS
  62
7
  10
 1353.7136986582
  20
 2801.4080680023
  30
0.0
  11
 1353.7136986582
  21
 2800.7009359273
  31
0.0
   0
LINE
   5
4B8
 100
AcDbEntity
   8
LEVEL001
 370
30
 100
AcDbLine
   6
CONTINUOUS
  62
7
  10
 1335.7136986582
  20
 2801.4080680023
  30
0.0
  11
 1353.7136986582
  21
 2801.4080680023
  31
0.0
   0
LINE
   5
4B9
 100
AcDbEntity
   8
LEVEL001
 370
30
 100
AcDbLine
   6
CONTINUOUS
  62
7
  10
 1335.7136986582
  20
 2800.7009359273
  30
0.0
  11
 1353.7136986582
  21
 2800.7009359273
  31
0.0
   0
LINE
   5
4BA
 100
AcDbEntity
   8
LEVEL001
 370
30
 100
AcDbLine
   6
CONTINUOUS
  62
7
  10
 1353.7136986582
  20
 2817.6108637975
  30
0.0
  11
 1353.7136986582
  21
 2804.5631068118
  31
0.0
   0
LINE
   5
4BB
 100
AcDbEntity
   8
LEVEL001
 370
30
 100
AcDbLine
   6
CONTINUOUS
  62
7
  10
 1375.7136986582
  20
 2817.6108637975
  30
0.0
  11
 834.63627566485
  21
 2817.6108637975
  31
0.0
   0
LINE
   5
4BC
 100
AcDbEntity
   8
LEVEL001
 370
30
 100
AcDbLine
   6
CONTINUOUS
  62
7
  10
 1375.7136986582
  20
 2817.6108637975
  30
0.0
  11
 1378.7136986582
  21
 2820.6108637975
  31
0.0
   0
POINT
   5
4BD
 100
AcDbEntity
   8
LEVEL001
 100
AcDbPoint
  62
7
  10
 1378.7136986582
  20
 2817.6108637975
  30
0.0
   0
LINE
   5
4BE
 100
AcDbEntity
   8
LEVEL001
 370
30
 100
AcDbLine
   6
CONTINUOUS
  62
7
  10
 1353.7136986582
  20
 2368.5772707017
  30
0.0
  11
 1353.7136986582
  21
 2367.5772707017
  31
0.0
   0
LINE
   5
4BF
 100
AcDbEntity
   8
LEVEL001
 370
30
 100
AcDbLine
   6
CONTINUOUS
  62
7
  10
 1353.7136986582
  20
 2367.5772707017
  30
0.0
  11
 1626.7136986582
  21
 2367.5772707017
  31
0.0
   0
LINE
   5
4C0
 100
AcDbEntity
   8
LEVEL001
 370
30
 100
AcDbLine
   6
CONTINUOUS
  62
7
  10
 1626.7136986582
  20
 2367.5772707017
  30
0.0
  11
 1626.7136986582
  21
 2833.0772707017
  31
0.0
   0
LINE
   5
4C1
 100
AcDbEntity
   8
LEVEL001
 370
30
 100
AcDbLine
   6
CONTINUOUS
  62
7
  10
 1626.7136986582
  20
 2833.0772707017
  30
0.0
  11
 1378.7136986582
  21
 2833.0772707017
  31
0.0
   0
LINE
   5
4C2
 100
AcDbEntity
   8
LEVEL001
 370
30
 100
AcDbLine
   6
CONTINUOUS
  62
7
  10
 1353.7136986582
  20
 2817.6108637975
  30
0.0
  11
 1353.7136986582
  21
 2368.5772707017
  31
0.0
   0
LINE
   5
4C3
 100
AcDbEntity
   8
LEVEL001
 370
30
 100
AcDbLine
   6
CONTINUOUS
  62
7
  10
 1352.2136986582
  20
 2367.5772707017
  30
0.0
  11
 1352.2136986582
  21
 2817.6108637975
  31
0.0
   0
LINE
   5
4C4
 100
AcDbEntity
   8
LEVEL001
 370
30
 100
AcDbLine
   6
CONTINUOUS
  62
7
  10
 603.71369865816
  20
 2803.7009359273
  30
0.0
  11
 606.71369865816
  21
 2800.7009359273
  31
0.0
   0
POINT
   5
4C5
 100
AcDbEntity
   8
LEVEL001
 100
AcDbPoint
  62
7
  10
 603.71369865816
  20
 2800.7009359273
  30
0.0
   0
LINE
   5
4C6
 100
AcDbEntity
   8
LEVEL001
 370
30
 100
AcDbLine
   6
CONTINUOUS
  62
7
  10
 603.71369865816
  20
 2916.9772707017
  30
0.0
  11
 603.71369865816
  21
 2803.7009359273
  31
0.0
   0
LINE
   5
4C7
 100
AcDbEntity
   8
LEVEL001
 370
30
 100
AcDbLine
   6
CONTINUOUS
  62
7
  10
 603.71369865816
  20
 2916.9772707017
  30
0.0
  11
 606.71369865816
  21
 2919.9772707017
  31
0.0
   0
POINT
   5
4C8
 100
AcDbEntity
   8
LEVEL001
 100
AcDbPoint
  62
7
  10
 603.71369865816
  20
 2919.9772707017
  30
0.0
   0
LINE
   5
4C9
 100
AcDbEntity
   8
LEVEL001
 370
30
 100
AcDbLine
   6
CONTINUOUS
  62
7
  10
 606.71369865816
  20
 2919.9772707017
  30
0.0
  11
 826.71369865816
  21
 2919.9772707017
  31
0.0
   0
LINE
   5
4CA
 100
AcDbEntity
   8
LEVEL001
 370
30
 100
AcDbLine
   6
CONTINUOUS
  62
7
  10
 628.71369865816
  20
 2920.9772707017
  30
0.0
  11
 628.71369865816
  21
 2919.9772707017
  31
0.0
   0
LINE
   5
4CB
 100
AcDbEntity
   8
LEVEL001
 370
30
 100
AcDbLine
   6
CONTINUOUS
  62
7
  10
 623.71369865816
  20
 2799.2112894176
  30
0.0
  11
 623.71369865816
  21
 2800.7009359273
  31
0.0
   0
LINE
   5
4CC
 100
AcDbEntity
   8
LEVEL001
 370
30
 100
AcDbLine
   6
CONTINUOUS
  62
7
  10
 623.71369865816
  20
 2919.9772707017
  30
0.0
  11
 623.71369865816
  21
 2920.9772707017
  31
0.0
   0
LINE
   5
4CD
 100
AcDbEntity
   8
LEVEL001
 370
30
 100
AcDbLine
   6
CONTINUOUS
  62
7
  10
 608.77569194323
  20
 2871.0630571392
  30
0.0
  11
 642.81861880696
  21
 2871.0630571392
  31
0.0
   0
LINE
   5
4CE
 100
AcDbEntity
   8
LEVEL001
 370
30
 100
AcDbLine
   6
CONTINUOUS
  62
7
  10
 1335.7136986582
  20
 2795.5772707017
  30
0.0
  11
 1335.7136986582
  21
 2729.0195037489
  31
0.0
   0
LINE
   5
4CF
 100
AcDbEntity
   8
LEVEL001
 370
30
 100
AcDbLine
   6
CONTINUOUS
  62
7
  10
 1335.7136986582
  20
 2729.0195037489
  30
0.0
  11
 627.71369865816
  21
 2729.0195037489
  31
0.0
   0
LINE
   5
4D0
 100
AcDbEntity
   8
LEVEL001
 370
30
 100
AcDbLine
   6
CONTINUOUS
  62
7
  10
 627.71369865816
  20
 2800.7009359273
  30
0.0
  11
 627.71369865816
  21
 2729.0195037489
  31
0.0
   0
LINE
   5
4D1
 100
AcDbEntity
   8
LEVEL001
 370
30
 100
AcDbLine
   6
CONTINUOUS
  62
7
  10
 643.71369865816
  20
 2800.7009359273
  30
0.0
  11
 643.71369865816
  21
 2919.9772707017
  31
0.0
   0
LINE
   5
4D2
 100
AcDbEntity
   8
LEVEL001
 370
30
 100
AcDbLine
   6
CONTINUOUS
  62
7
  10
 643.71369865816
  20
 2865.2857283322
  30
0.0
  11
 828.71369865816
  21
 2865.2857283322
  31
0.0
   0
LINE
   5
4D3
 100
AcDbEntity
   8
LEVEL001
 370
30
 100
AcDbLine
   6
CONTINUOUS
  62
7
  10
 606.71369865816
  20
 2800.7009359273
  30
0.0
  11
 643.71369865816
  21
 2800.7009359273
  31
0.0
   0
LINE
   5
4D4
 100
AcDbEntity
   8
LEVEL001
 370
30
 100
AcDbLine
   6
CONTINUOUS
  62
7
  10
 603.71369865816
  20
 3077.9772707017
  30
0.0
  11
 1378.7136986582
  21
 3077.9772707017
  31
0.0
   0
LINE
   5
4D5
 100
AcDbEntity
   8
LEVEL001
 370
30
 100
AcDbLine
   6
CONTINUOUS
  62
7
  10
 603.71369865816
  20
 3077.9772707017
  30
0.0
  11
 603.71369865816
  21
 2923.9772707017
  31
0.0
   0
ARC
   5
4D6
 100
AcDbEntity
   8
LEVEL001
 370
30
   6
CONTINUOUS
  62
7
 100
AcDbCircle
  10
 1624.7136986582
  20
 3073.9772707017
  30
0.0
  40
 2.0000000000000
 100
AcDbArc
  50
0.0
  51
 90.000000000000
   0
POINT
   5
4D7
 100
AcDbEntity
   8
LEVEL001
 100
AcDbPoint
  62
7
  10
 1626.7136986582
  20
 3075.9772707017
  30
0.0
   0
LINE
   5
4D8
 100
AcDbEntity
   8
LEVEL001
 370
30
 100
AcDbLine
   6
CONTINUOUS
  62
7
  10
 1378.7136986582
  20
 3076.9772707017
  30
0.0
  11
 1623.7136986582
  21
 3076.9772707017
  31
0.0
   0
LINE
   5
4D9
 100
AcDbEntity
   8
LEVEL001
 370
30
 100
AcDbLine
   6
CONTINUOUS
  62
7
  10
 1623.7136986582
  20
 3076.9772707017
  30
0.0
  11
 1623.7136986582
  21
 3075.9772707017
  31
0.0
   0
LINE
   5
4DA
 100
AcDbEntity
   8
LEVEL001
 370
30
 100
AcDbLine
   6
CONTINUOUS
  62
7
  10
 1378.7136986582
  20
 3075.9772707017
  30
0.0
  11
 1624.7136986582
  21
 3075.9772707017
  31
0.0
   0
LINE
   5
4DB
 100
AcDbEntity
   8
LEVEL001
 370
30
 100
AcDbLine
   6
CONTINUOUS
  62
7
  10
 1626.7136986582
  20
 3073.9772707017
  30
0.0
  11
 1626.7136986582
  21
 2833.0772707017
  31
0.0
   0
LINE
   5
4DC
 100
AcDbEntity
   8
LEVEL001
 370
30
 100
AcDbLine
   6
CONTINUOUS
  62
7
  10
 1378.7136986582
  20
 2820.6108637975
  30
0.0
  11
 1378.7136986582
  21
 3077.9772707017
  31
0.0
   0
ARC
   5
4DD
 100
AcDbEntity
   8
LEVEL001
 370
30
   6
CONTINUOUS
  62
7
 100
AcDbCircle
  10
 529.71369865816
  20
 2765.9772707017
  30
0.0
  40
 2.0000000000000
 100
AcDbArc
  50
 180.00000000000
  51
 270.00000000000
   0
POINT
   5
4DE
 100
AcDbEntity
   8
LEVEL001
 100
AcDbPoint
  62
7
  10
 527.71369865816
  20
 2763.9772707017
  30
0.0
   0
LWPOLYLINE
   5
4DF
 100
AcDbEntity
   8
LEVEL001
 370
30
   6
CONTINUOUS
  62
7
 100
AcDbPolyline
  90
4
  70
0
  10
 628.21369865816
  20
 2368.7772707017
  10
 628.21369865816
  20
 2367.5772707017
  10
 527.71369865816
  20
 2367.5772707017
  10
 527.71369865816
  20
 2763.9772707017
   0
LWPOLYLINE
   5
4E0
 100
AcDbEntity
   8
LEVEL001
 370
30
   6
CONTINUOUS
  62
7
 100
AcDbPolyline
  90
4
  70
0
  10
 1352.2136986582
  20
 2406.7772707017
  10
 529.21369865816
  20
 2406.7772707017
  10
 529.21369865816
  20
 2368.7772707017
  10
 1353.7136986582
  20
 2368.7772707017
   0
LINE
   5
4E1
 100
AcDbEntity
   8
LEVEL001
 370
30
 100
AcDbLine
   6
CONTINUOUS
  62
7
  10
 539.88220676397
  20
 2871.0630571392
  30
0.0
  11
 598.88484157067
  21
 2871.0630571392
  31
0.0
   0
LINE
   5
4E2
 100
AcDbEntity
   8
LEVEL001
 370
30
 100
AcDbLine
   6
CONTINUOUS
  62
7
  10
 527.71369865816
  20
 3073.9772707017
  30
0.0
  11
 527.71369865816
  21
 2765.9772707017
  31
0.0
   0
ARC
   5
4E3
 100
AcDbEntity
   8
LEVEL001
 370
30
   6
CONTINUOUS
  62
7
 100
AcDbCircle
  10
 529.71369865816
  20
 3073.9772707017
  30
0.0
  40
 2.0000000000000
 100
AcDbArc
  50
 90.000000000000
  51
 180.00000000000
   0
POINT
   5
4E4
 100
AcDbEntity
   8
LEVEL001
 100
AcDbPoint
  62
7
  10
 527.71369865816
  20
 3075.9772707017
  30
0.0
   0
LINE
   5
4E5
 100
AcDbEntity
   8
LEVEL001
 370
30
 100
AcDbLine
   6
CONTINUOUS
  62
7
  10
 603.71369865816
  20
 3076.9772707017
  30
0.0
  11
 530.71369865816
  21
 3076.9772707017
  31
0.0
   0
LINE
   5
4E6
 100
AcDbEntity
   8
LEVEL001
 370
30
 100
AcDbLine
   6
CONTINUOUS
  62
7
  10
 530.71369865816
  20
 3076.9772707017
  30
0.0
  11
 530.71369865816
  21
 3075.9772707017
  31
0.0
   0
LINE
   5
4E7
 100
AcDbEntity
   8
LEVEL001
 370
30
 100
AcDbLine
   6
CONTINUOUS
  62
7
  10
 603.71369865816
  20
 3075.9772707017
  30
0.0
  11
 529.71369865816
  21
 3075.9772707017
  31
0.0
   0
LINE
   5
4E8
 100
AcDbEntity
   8
LEVEL001
 370
30
 100
AcDbLine
   6
CONTINUOUS
  62
7
  10
 547.71369865816
  20
 2677.5587975179
  30
0.0
  11
 547.71369865816
  21
 2406.7772707017
  31
0.0
   0
LINE
   5
4E9
 100
AcDbEntity
   8
LEVEL001
 370
30
 100
AcDbLine
   6
CONTINUOUS
  62
7
  10
 529.71369865816
  20
 2763.9772707017
  30
0.0
  11
 623.71369865816
  21
 2763.9772707017
  31
0.0
   0
LWPOLYLINE
   5
4EA
 100
AcDbEntity
   8
LEVEL001
 370
30
   6
CONTINUOUS
  62
7
 100
AcDbPolyline
  90
4
  70
0
  10
 546.71369865816
  20
 2763.9772707017
  10
 546.71369865816
  20
 2756.5772707017
  10
 547.71369865816
  20
 2756.5772707017
  10
 547.71369865816
  20
 2708.3957438856
   0
LINE
   5
4EB
 100
AcDbEntity
   8
LEVEL001
 370
30
 100
AcDbLine
   6
CONTINUOUS
  62
7
  10
 1610.7136986582
  20
 2371.7041101963
  30
0.0
  11
 1610.7136986582
  21
 2436.6184019027
  31
0.0
   0
LINE
   5
4EC
 100
AcDbEntity
   8
LEVEL001
 370
30
 100
AcDbLine
   6
CONTINUOUS
  62
7
  10
 1610.7136986582
  20
 2436.6184019027
  30
0.0
  11
 1420.7136986582
  21
 2436.6184019027
  31
0.0
   0
LINE
   5
4ED
 100
AcDbEntity
   8
LEVEL001
 370
30
 100
AcDbLine
   6
CONTINUOUS
  62
7
  10
 1420.7136986582
  20
 2436.6184019027
  30
0.0
  11
 1420.7136986582
  21
 2371.7041101963
  31
0.0
   0
LINE
   5
4EE
 100
AcDbEntity
   8
LEVEL001
 370
30
 100
AcDbLine
   6
CONTINUOUS
  62
7
  10
 1420.7136986582
  20
 2371.7041101963
  30
0.0
  11
 1610.7136986582
  21
 2371.7041101963
  31
0.0
   0
LINE
   5
4EF
 100
AcDbEntity
   8
LEVEL001
 370
30
 100
AcDbLine
   6
CONTINUOUS
  62
7
  10
 828.71369865816
  20
 2801.4080680023
  30
0.0
  11
 1335.7136986582
  21
 2801.4080680023
  31
0.0
   0
LINE
   5
4F0
 100
AcDbEntity
   8
LEVEL001
 370
30
 100
AcDbLine
   6
CONTINUOUS
  62
7
  10
 828.71369865816
  20
 2800.7009359273
  30
0.0
  11
 1335.7136986582
  21
 2800.7009359273
  31
0.0
   0
ELLIPSE
   5
4F1
 100
AcDbEntity
   8
LEVEL001
 370
30
   6
CONTINUOUS
  62
7
 100
AcDbEllipse
  10
 554.71369865815
  20
 2830.0562206872
  30
0.0
  11
-20.000000000000
  21
0.0
  31
0.0
  40
 0.80000000000000
  41
 3.0086186017185
  42
 0.13297405187129
   0
ELLIPSE
   5
4F2
 100
AcDbEntity
   8
LEVEL001
 370
30
   6
CONTINUOUS
  62
7
 100
AcDbEllipse
  10
 554.71369865815
  20
 2844.5519097016
  30
0.0
  11
-15.200000000000
  21
0.0
  31
0.0
  40
 0.65789473684211
  41
 0.70769736666054E-1
  42
 0.33994986682127
   0
ELLIPSE
   5
4F3
 100
AcDbEntity
   8
LEVEL001
 370
30
   6
CONTINUOUS
  62
7
 100
AcDbEllipse
  10
 554.71369865815
  20
 2844.5519097016
  30
0.0
  11
-15.200000000000
  21
0.0
  31
0.0
  40
 0.65789473684211
  41
 2.8016427867685
  42
 3.0708229169237
   0
ELLIPSE
   5
4F4
 100
AcDbEntity
   8
LEVEL001
 370
30
   6
CONTINUOUS
  62
7
 100
AcDbEllipse
  10
 554.71369865815
  20
 2843.1376961392
  30
0.0
  11
-15.200000000000
  21
0.0
  31
0.0
  40
 0.65789473684211
  41
 2.9084871995546
  42
 0.23310545403521
   0
ELLIPSE
   5
4F5
 100
AcDbEntity
   8
LEVEL001
 370
30
   6
CONTINUOUS
  62
7
 100
AcDbEllipse
  10
 554.71369865815
  20
 2825.8135800001
  30
0.0
  11
-20.000000000000
  21
0.0
  31
0.0
  40
 0.80000000000000
  41
0.0
  42
 6.2831853071796
   0
ELLIPSE
   5
4F6
 100
AcDbEntity
   8
LEVEL001
 370
30
   6
CONTINUOUS
  62
7
 100
AcDbEllipse
  10
 554.71369865815
  20
 2783.8620576190
  30
0.0
  11
-14.500000000000
  21
0.0
  31
0.0
  40
 0.66670774868224
  41
0.0
  42
 6.2831853071796
   0
LINE
   5
4F7
 100
AcDbEntity
   8
LEVEL001
 370
30
 100
AcDbLine
   6
CONTINUOUS
  62
7
  10
 540.21369865815
  20
 2793.6402211392
  30
0.0
  11
 540.21369865815
  21
 2783.8620576190
  31
0.0
   0
LINE
   5
4F8
 100
AcDbEntity
   8
LEVEL001
 370
30
 100
AcDbLine
   6
CONTINUOUS
  62
7
  10
 569.21369865815
  20
 2793.6402211392
  30
0.0
  11
 569.21369865815
  21
 2783.8620576190
  31
0.0
   0
ELLIPSE
   5
4F9
 100
AcDbEntity
   8
LEVEL001
 370
30
   6
CONTINUOUS
  62
7
 100
AcDbEllipse
  10
 554.71369865815
  20
 2793.6402211392
  30
0.0
  11
-14.500000000000
  21
0.0
  31
0.0
  40
 0.66670774868224
  41
 3.1415926535898
  42
-0.24492127076448E-15
   0
LWPOLYLINE
   5
4FA
 100
AcDbEntity
   8
LEVEL001
 370
9
   6
DIVIDE
  62
1
 100
AcDbPolyline
  90
4
  70
0
  10
 658.60410587131
  20
 2352.9772707017
  10
 658.60410587131
  20
 1627.9772707017
  10
 1544.2161031785
  20
 1627.9772707017
  10
 1544.2161031785
  20
 2352.9772707017
   0
DIMENSION
   5
4FB
 100
AcDbEntity
   8
LEVEL001
 370
30
   6
CONTINUOUS
  62
7
 100
AcDbDimension
   2
*D1
  10
 1822.6787734164
  20
 3077.9772707017
  30
0.0
  11
 1822.6787734164
  21
 2352.9772707017
  31
0.0
  70
0
   3
GMM001
 100
AcDbAlignedDimension
  13
 1544.2161031785
  23
 1627.9772707017
  33
0.0
  14
 1632.7136986582
  24
 3077.9772707017
  34
0.0
  50
 90.000000000000
 100
AcDbRotatedDimension
   0
LINE
   5
4FC
 100
AcDbEntity
   8
LEVEL001
 370
30
 100
AcDbLine
   6
CONTINUOUS
  62
7
  10
 2738.5868095079
  20
 827.79522323518
  30
0.0
  11
 3398.5868095079
  21
 827.79522323518
  31
0.0
   0
LINE
   5
4FD
 100
AcDbEntity
   8
LEVEL001
 370
30
 100
AcDbLine
   6
CONTINUOUS
  62
7
  10
 2696.9868095079
  20
 798.79522323518
  30
0.0
  11
 3421.9868095079
  21
 798.79522323518
  31
0.0
   0
LINE
   5
4FE
 100
AcDbEntity
   8
LEVEL001
 370
30
 100
AcDbLine
   6
CONTINUOUS
  62
7
  10
 3421.9868095079
  20
 827.79522323518
  30
0.0
  11
 2696.9868095079
  21
 827.79522323518
  31
0.0
   0
LINE
   5
4FF
 100
AcDbEntity
   8
LEVEL001
 370
30
 100
AcDbLine
   6
CONTINUOUS
  62
7
  10
 2696.9868095079
  20
 827.79522323518
  30
0.0
  11
 2696.9868095079
  21
 798.79522323518
  31
0.0
   0
LINE
   5
500
 100
AcDbEntity
   8
LEVEL001
 370
30
 100
AcDbLine
   6
CONTINUOUS
  62
7
  10
 2696.9868095079
  20
 798.79522323518
  30
0.0
  11
 2696.9868095079
  21
 167.79522323518
  31
0.0
   0
POINT
   5
501
 100
AcDbEntity
   8
LEVEL001
 100
AcDbPoint
  62
7
  10
 2716.9099620739
  20
 1300.8102213523
  30
0.0
   0
POINT
   5
502
 100
AcDbEntity
   8
LEVEL001
 100
AcDbPoint
  62
7
  10
 2776.8308457514
  20
 1404.7789069385
  30
0.0
   0
LWPOLYLINE
   5
503
 100
AcDbEntity
   8
LEVEL001
 370
30
   6
CONTINUOUS
  62
7
 100
AcDbPolyline
  90
4
  70
1
  10
 2714.4132585772
  20
 1296.4781927686
  10
 2779.3275494911
  20
 1409.1109359437
  10
 2778.0279409160
  20
 1409.8599469927
  10
 2713.1136500021
  20
 1297.2272038176
   0
LINE
   5
504
 100
AcDbEntity
   8
LEVEL001
 370
30
 100
AcDbLine
   6
CONTINUOUS
  62
7
  10
 2729.9868095079
  20
 1022.7952232352
  30
0.0
  11
 3119.9868095079
  21
 1022.7952232352
  31
0.0
   0
LINE
   5
505
 100
AcDbEntity
   8
LEVEL001
 370
30
 100
AcDbLine
   6
CONTINUOUS
  62
7
  10
 3119.9868095079
  20
 1260.7952232352
  30
0.0
  11
 2729.9868095079
  21
 1260.7952232352
  31
0.0
   0
LINE
   5
506
 100
AcDbEntity
   8
LEVEL001
 370
30
 100
AcDbLine
   6
CONTINUOUS
  62
7
  10
 2729.9868095079
  20
 1260.7952232352
  30
0.0
  11
 2729.9868095079
  21
 1022.7952232352
  31
0.0
   0
LINE
   5
507
 100
AcDbEntity
   8
LEVEL001
 370
30
 100
AcDbLine
   6
CONTINUOUS
  62
7
  10
 3119.9868095079
  20
 1022.7952232352
  30
0.0
  11
 3119.9868095079
  21
 1260.7952232352
  31
0.0
   0
ARC
   5
508
 100
AcDbEntity
   8
LEVEL001
 370
20
   6
DIVIDE
  62
4
 100
AcDbCircle
  10
 2709.6048465079
  20
 1054.0314931362
  30
0.0
  40
 1.0000000000000
 100
AcDbArc
  50
 94.891173000116
  51
 184.89117300002
   0
LINE
   5
509
 100
AcDbEntity
   8
LEVEL001
 370
20
 100
AcDbLine
   6
DIVIDE
  62
4
  10
 2708.9868095079
  20
 988.93219213623
  30
0.0
  11
 2708.9868095079
  21
 1016.9321921362
  31
0.0
   0
LWPOLYLINE
   5
50A
 100
AcDbEntity
   8
LEVEL001
 370
30
   6
CONTINUOUS
  62
7
 100
AcDbPolyline
  90
5
  70
1
  10
 2708.9868095079
  20
 851.79522323518
  10
 2708.9868095079
  20
 1287.0627645821
  10
 2784.9089517087
  20
 1418.7952232352
  10
 3173.0868095079
  20
 1418.7952232352
  10
 3173.0868095079
  20
 851.79522323518
   0
LINE
   5
50B
 100
AcDbEntity
   8
LEVEL001
 370
30
 100
AcDbLine
   6
CONTINUOUS
  62
7
  10
 3153.9946631961
  20
 1418.7952232352
  30
0.0
  11
 3154.9946631961
  21
 1419.7952232352
  31
0.0
   0
LINE
   5
50C
 100
AcDbEntity
   8
LEVEL001
 370
30
 100
AcDbLine
   6
CONTINUOUS
  62
7
  10
 2708.9868095079
  20
 904.29522323518
  30
0.0
  11
 2708.9868095079
  21
 1079.2952232352
  31
0.0
   0
LINE
   5
50D
 100
AcDbEntity
   8
LEVEL001
 370
30
 100
AcDbLine
   6
CONTINUOUS
  62
7
  10
 3409.9868095079
  20
 851.79522323518
  30
0.0
  11
 3173.0868095079
  21
 851.79522323518
  31
0.0
   0
LWPOLYLINE
   5
50E
 100
AcDbEntity
   8
LEVEL001
 370
30
   6
CONTINUOUS
  62
7
 100
AcDbPolyline
  90
4
  70
0
  10
 2741.9868095079
  20
 851.79522323518
  10
 2741.9868095079
  20
 827.79522323518
  10
 3409.9868095079
  20
 827.79522323518
  10
 3409.9868095079
  20
 852.79522323518
   0
LINE
   5
50F
 100
AcDbEntity
   8
LEVEL001
 370
30
 100
AcDbLine
   6
CONTINUOUS
  62
7
  10
 3173.0868095079
  20
 1418.7952232352
  30
0.0
  11
 3409.9868095079
  21
 1418.7952232352
  31
0.0
   0
LINE
   5
510
 100
AcDbEntity
   8
LEVEL001
 370
30
 100
AcDbLine
   6
CONTINUOUS
  62
7
  10
 3154.9946631961
  20
 1419.7952232352
  30
0.0
  11
 3409.9868095079
  21
 1419.7952232352
  31
0.0
   0
LINE
   5
511
 100
AcDbEntity
   8
LEVEL001
 370
30
 100
AcDbLine
   6
CONTINUOUS
  62
7
  10
 2706.9868095079
  20
 1079.2952232352
  30
0.0
  11
 2708.9868095079
  21
 1079.2952232352
  31
0.0
   0
LINE
   5
512
 100
AcDbEntity
   8
LEVEL001
 370
30
 100
AcDbLine
   6
CONTINUOUS
  62
7
  10
 2706.9868095079
  20
 1079.2952232352
  30
0.0
  11
 2706.9868095079
  21
 904.29522323518
  31
0.0
   0
LINE
   5
513
 100
AcDbEntity
   8
LEVEL001
 370
30
 100
AcDbLine
   6
CONTINUOUS
  62
7
  10
 2706.9868095079
  20
 904.29522323518
  30
0.0
  11
 2708.9868095079
  21
 904.29522323518
  31
0.0
   0
LINE
   5
514
 100
AcDbEntity
   8
LEVEL001
 370
30
 100
AcDbLine
   6
CONTINUOUS
  62
7
  10
 2741.9868095079
  20
 830.99522323517
  30
0.0
  11
 3409.9868095079
  21
 830.99522323517
  31
0.0
   0
LINE
   5
515
 100
AcDbEntity
   8
LEVEL001
 370
30
 100
AcDbLine
   6
CONTINUOUS
  62
7
  10
 3174.2258576963
  20
 1452.8295081283
  30
0.0
  11
 3264.9868095079
  21
 1419.7952232352
  31
0.0
   0
ARC
   5
516
 100
AcDbEntity
   8
LEVEL001
 370
30
   6
CONTINUOUS
  62
7
 100
AcDbCircle
  10
 3173.8838375530
  20
 1451.8898155075
  30
0.0
  40
 1.0000000000000
 100
AcDbArc
  50
 70.000000000040
  51
 114.99987896019
   0
POINT
   5
517
 100
AcDbEntity
   8
LEVEL001
 100
AcDbPoint
  62
7
  10
 3173.8366254312
  20
 1452.9711770870
  30
0.0
   0
LINE
   5
518
 100
AcDbEntity
   8
LEVEL001
 370
30
 100
AcDbLine
   6
CONTINUOUS
  62
7
  10
 3154.4287384533
  20
 1443.9211830066
  30
0.0
  11
 3173.4612212059
  21
 1452.7961241873
  31
0.0
   0
LINE
   5
519
 100
AcDbEntity
   8
LEVEL001
 370
30
 100
AcDbLine
   6
CONTINUOUS
  62
7
  10
 3153.9450594719
  20
 1442.5922299475
  30
0.0
  11
 3153.9450469686
  21
 1442.5922567609
  31
0.0
   0
ARC
   5
51A
 100
AcDbEntity
   8
LEVEL001
 370
30
   6
CONTINUOUS
  62
7
 100
AcDbCircle
  10
 3154.8513560748
  20
 1443.0148749211
  30
0.0
  40
 1.0000000000000
 100
AcDbArc
  50
 204.99996278017
  51
 294.99995952453
   0
ARC
   5
51B
 100
AcDbEntity
   8
LEVEL001
 370
30
   6
CONTINUOUS
  62
7
 100
AcDbCircle
  10
 3154.8513435715
  20
 1443.0149017345
  30
0.0
  40
 1.0000000000000
 100
AcDbArc
  50
 114.99989348489
  51
 204.99996278007
   0
LINE
   5
51C
 100
AcDbEntity
   8
LEVEL001
 370
30
 100
AcDbLine
   6
CONTINUOUS
  62
7
  10
 3153.9450480132
  20
 1442.5922572481
  30
0.0
  11
 3153.9450355099
  21
 1442.5922840615
  31
0.0
   0
LINE
   5
51D
 100
AcDbEntity
   8
LEVEL001
 370
30
 100
AcDbLine
   6
CONTINUOUS
  62
7
  10
 3164.3370546037
  20
 1446.3347430745
  30
0.0
  11
 3155.2739736963
  21
 1442.1085668355
  31
0.0
   0
LINE
   5
51E
 100
AcDbEntity
   8
LEVEL001
 370
30
 100
AcDbLine
   6
CONTINUOUS
  62
7
  10
 3082.3276830567
  20
 1433.6115542442
  30
0.0
  11
 3081.1786163921
  21
 1434.5757356588
  31
0.0
   0
LINE
   5
51F
 100
AcDbEntity
   8
LEVEL001
 370
30
 100
AcDbLine
   6
CONTINUOUS
  62
7
  10
 3081.1786163921
  20
 1434.5757356588
  30
0.0
  11
 3086.9637048792
  21
 1441.4701356468
  31
0.0
   0
ARC
   5
520
 100
AcDbEntity
   8
LEVEL001
 370
30
   6
CONTINUOUS
  62
7
 100
AcDbCircle
  10
 3089.2618382086
  20
 1439.5417728178
  30
0.0
  40
 3.0000000000000
 100
AcDbArc
  50
 50.000000000010
  51
 140.00000000001
   0
POINT
   5
521
 100
AcDbEntity
   8
LEVEL001
 100
AcDbPoint
  62
7
  10
 3088.8920677083
  20
 1443.7682689762
  30
0.0
   0
LINE
   5
522
 100
AcDbEntity
   8
LEVEL001
 370
30
 100
AcDbLine
   6
CONTINUOUS
  62
7
  10
 3088.1127627100
  20
 1440.5059437045
  30
0.0
  11
 3082.3276830567
  21
 1433.6115542442
  31
0.0
   0
ARC
   5
523
 100
AcDbEntity
   8
LEVEL001
 370
30
   6
CONTINUOUS
  62
7
 100
AcDbCircle
  10
 3089.2618293747
  20
 1439.5417622899
  30
0.0
  40
 1.5000000000000
 100
AcDbArc
  50
 50.000000000025
  51
 140.00000000004
   0
POINT
   5
524
 100
AcDbEntity
   8
LEVEL001
 100
AcDbPoint
  62
7
  10
 3089.0769441245
  20
 1441.6550103691
  30
0.0
   0
LINE
   5
525
 100
AcDbEntity
   8
LEVEL001
 370
30
 100
AcDbLine
   6
CONTINUOUS
  62
7
  10
 3082.3276830567
  20
 1433.6115542442
  30
0.0
  11
 3086.7470530910
  21
 1418.7952232352
  31
0.0
   0
LINE
   5
526
 100
AcDbEntity
   8
LEVEL001
 370
20
 100
AcDbLine
   6
DASHDOT
  62
6
  10
 3118.6537813402
  20
 1418.7952232352
  30
0.0
  11
 3117.2357105368
  21
 1419.9851255505
  31
0.0
   0
LINE
   5
527
 100
AcDbEntity
   8
LEVEL001
 370
9
 100
AcDbLine
   6
DASHDOT
  62
1
  10
 3118.6537813402
  20
 1418.7952232352
  30
0.0
  11
 3117.2357105368
  21
 1419.9851255505
  31
0.0
   0
LINE
   5
528
 100
AcDbEntity
   8
LEVEL001
 370
30
 100
AcDbLine
   6
CONTINUOUS
  62
7
  10
 3091.1902010377
  20
 1441.8399061471
  30
0.0
  11
 3118.6537846882
  21
 1418.7952232352
  31
0.0
   0
LINE
   5
529
 100
AcDbEntity
   8
LEVEL001
 370
30
 100
AcDbLine
   6
CONTINUOUS
  62
7
  10
 3116.3201989479
  20
 1418.7952232352
  30
0.0
  11
 3090.2260196231
  21
 1440.6908394825
  31
0.0
   0
LINE
   5
52A
 100
AcDbEntity
   8
LEVEL001
 370
30
 100
AcDbLine
   6
CONTINUOUS
  62
7
  10
 3173.8838385765
  20
 1451.8898151349
  30
0.0
  11
 3154.8513675849
  21
 1443.0148476445
  31
0.0
   0
LINE
   5
52B
 100
AcDbEntity
   8
LEVEL001
 370
30
 100
AcDbLine
   6
CONTINUOUS
  62
7
  10
 3163.9144369823
  20
 1447.2410511601
  30
0.0
  11
 3164.3370546037
  21
 1446.3347430745
  31
0.0
   0
LINE
   5
52C
 100
AcDbEntity
   8
LEVEL001
 370
30
 100
AcDbLine
   6
CONTINUOUS
  62
7
  10
 3135.8183732829
  20
 1418.7952232352
  30
0.0
  11
 3155.4491235660
  21
 1442.1902404105
  31
0.0
   0
LINE
   5
52D
 100
AcDbEntity
   8
LEVEL001
 370
30
 100
AcDbLine
   6
CONTINUOUS
  62
7
  10
 3262.0630051077
  20
 1419.7952232352
  30
0.0
  11
 3173.8838385765
  21
 1451.8898151349
  31
0.0
   0
LINE
   5
52E
 100
AcDbEntity
   8
LEVEL001
 370
30
 100
AcDbLine
   6
CONTINUOUS
  62
7
  10
 3135.8183732829
  20
 1418.7952232352
  30
0.0
  11
 3155.7234567903
  21
 1442.5171780160
  31
0.0
   0
DIMENSION
   5
52F
 100
AcDbEntity
   8
LEVEL001
 370
30
   6
CONTINUOUS
  62
7
 100
AcDbDimension
   2
*D2
  10
 2696.9868095079
  20
 1527.9779343454
  30
0.0
  11
 3059.4868095079
  21
 1541.6922200597
  31
0.0
  70
128
   3
GMM002
 100
AcDbAlignedDimension
  13
 3421.9868095079
  23
 851.79522323518
  33
0.0
  14
 2696.9868095079
  24
 824.79522323514
  34
0.0
  50
 180.00000000000
 100
AcDbRotatedDimension
   0
LINE
   5
530
 100
AcDbEntity
   8
LEVEL001
 370
30
 100
AcDbLine
   6
CONTINUOUS
  62
7
  10
 1349.6041058713
  20
 827.79522323518
  30
0.0
  11
 1369.6041058713
  21
 827.79522323518
  31
0.0
   0
LINE
   5
531
 100
AcDbEntity
   8
LEVEL001
 370
30
 100
AcDbLine
   6
CONTINUOUS
  62
7
  10
 624.60410587131
  20
 827.79522323518
  30
0.0
  11
 604.60410587131
  21
 827.79522323518
  31
0.0
   0
LINE
   5
532
 100
AcDbEntity
   8
LEVEL001
 370
30
 100
AcDbLine
   6
CONTINUOUS
  62
7
  10
 523.60410587131
  20
 798.79522323518
  30
0.0
  11
 523.60410587131
  21
 167.79522323518
  31
0.0
   0
LINE
   5
533
 100
AcDbEntity
   8
LEVEL001
 370
30
 100
AcDbLine
   6
CONTINUOUS
  62
7
  10
 483.60410587131
  20
 167.79522323518
  30
0.0
  11
 1665.6917336599
  21
 167.79522323518
  31
0.0
   0
LINE
   5
534
 100
AcDbEntity
   8
LEVEL001
 370
30
 100
AcDbLine
   6
CONTINUOUS
  62
7
  10
 552.60410587131
  20
 798.79522323518
  30
0.0
  11
 552.60410587131
  21
 167.79522323518
  31
0.0
   0
LINE
   5
535
 100
AcDbEntity
   8
LEVEL001
 370
30
 100
AcDbLine
   6
CONTINUOUS
  62
7
  10
 1354.6041058713
  20
 1332.7952228267
  30
0.0
  11
 1352.1041058713
  21
 1332.7952228267
  31
0.0
   0
LINE
   5
536
 100
AcDbEntity
   8
LEVEL001
 370
30
 100
AcDbLine
   6
CONTINUOUS
  62
7
  10
 632.10410587131
  20
 1332.7952228267
  30
0.0
  11
 629.60410587131
  21
 1332.7952228267
  31
0.0
   0
LINE
   5
537
 100
AcDbEntity
   8
LEVEL001
 370
30
 100
AcDbLine
   6
CONTINUOUS
  62
7
  10
 632.10410587131
  20
 1324.3349119219
  30
0.0
  11
 633.10410587131
  21
 1325.3349119219
  31
0.0
   0
LINE
   5
538
 100
AcDbEntity
   8
LEVEL001
 370
30
 100
AcDbLine
   6
CONTINUOUS
  62
7
  10
 633.10410587131
  20
 1325.3349119219
  30
0.0
  11
 832.10410587131
  21
 1325.3349119219
  31
0.0
   0
ARC
   5
539
 100
AcDbEntity
   8
LEVEL001
 370
30
   6
CONTINUOUS
  62
7
 100
AcDbCircle
  10
 1294.5041058713
  20
 1249.0449119219
  30
0.0
  40
 8.2900000000000
 100
AcDbArc
  50
 49.353726340673
  51
 130.64627365933
   0
ARC
   5
53A
 100
AcDbEntity
   8
LEVEL001
 370
30
   6
CONTINUOUS
  62
7
 100
AcDbCircle
  10
 1283.7041058713
  20
 1261.6249119219
  30
0.0
  40
 8.2900000000000
 100
AcDbArc
  50
 229.35372634068
  51
 310.64627365932
   0
ARC
   5
53B
 100
AcDbEntity
   8
LEVEL001
 370
30
   6
CONTINUOUS
  62
7
 100
AcDbCircle
  10
 1316.1041058713
  20
 1249.0449119219
  30
0.0
  40
 8.2900000000000
 100
AcDbArc
  50
 49.353726340677
  51
 130.64627365932
   0
ARC
   5
53C
 100
AcDbEntity
   8
LEVEL001
 370
30
   6
CONTINUOUS
  62
7
 100
AcDbCircle
  10
 1305.3041058713
  20
 1261.6249119219
  30
0.0
  40
 8.2900000000000
 100
AcDbArc
  50
 229.35372634067
  51
 310.64627365933
   0
ARC
   5
53D
 100
AcDbEntity
   8
LEVEL001
 370
30
   6
CONTINUOUS
  62
7
 100
AcDbCircle
  10
 1326.9041058713
  20
 1261.6249119219
  30
0.0
  40
 8.2900000000000
 100
AcDbArc
  50
 229.35372634067
  51
 310.64627365933
   0
ARC
   5
53E
 100
AcDbEntity
   8
LEVEL001
 370
30
   6
CONTINUOUS
  62
7
 100
AcDbCircle
  10
 1240.5041058713
  20
 1261.6249119219
  30
0.0
  40
 8.2900000000000
 100
AcDbArc
  50
 229.35372634067
  51
 310.64627365933
   0
ARC
   5
53F
 100
AcDbEntity
   8
LEVEL001
 370
30
   6
CONTINUOUS
  62
7
 100
AcDbCircle
  10
 1251.3041058713
  20
 1249.0449119219
  30
0.0
  40
 8.2900000000000
 100
AcDbArc
  50
 49.353726340673
  51
 130.64627365933
   0
ARC
   5
540
 100
AcDbEntity
   8
LEVEL001
 370
30
   6
CONTINUOUS
  62
7
 100
AcDbCircle
  10
 1262.1041058713
  20
 1261.6249119219
  30
0.0
  40
 8.2900000000000
 100
AcDbArc
  50
 229.35372634068
  51
 310.64627365932
   0
ARC
   5
541
 100
AcDbEntity
   8
LEVEL001
 370
30
   6
CONTINUOUS
  62
7
 100
AcDbCircle
  10
 1272.9041058713
  20
 1249.0449119219
  30
0.0
  40
 8.2900000000000
 100
AcDbArc
  50
 49.353726340669
  51
 130.64627365933
   0
ARC
   5
542
 100
AcDbEntity
   8
LEVEL001
 370
30
   6
CONTINUOUS
  62
7
 100
AcDbCircle
  10
 1208.1041058713
  20
 1249.0449119219
  30
0.0
  40
 8.2900000000000
 100
AcDbArc
  50
 49.353726340677
  51
 130.64627365932
   0
ARC
   5
543
 100
AcDbEntity
   8
LEVEL001
 370
30
   6
CONTINUOUS
  62
7
 100
AcDbCircle
  10
 1218.9041058713
  20
 1261.6249119219
  30
0.0
  40
 8.2900000000000
 100
AcDbArc
  50
 229.35372634067
  51
 310.64627365933
   0
ARC
   5
544
 100
AcDbEntity
   8
LEVEL001
 370
30
   6
CONTINUOUS
  62
7
 100
AcDbCircle
  10
 1229.7041058713
  20
 1249.0449119219
  30
0.0
  40
 8.2900000000000
 100
AcDbArc
  50
 49.353726340677
  51
 130.64627365932
   0
ARC
   5
545
 100
AcDbEntity
   8
LEVEL001
 370
30
   6
CONTINUOUS
  62
7
 100
AcDbCircle
  10
 1143.3041058713
  20
 1249.0449119219
  30
0.0
  40
 8.2900000000000
 100
AcDbArc
  50
 49.353726340673
  51
 130.64627365933
   0
ARC
   5
546
 100
AcDbEntity
   8
LEVEL001
 370
30
   6
CONTINUOUS
  62
7
 100
AcDbCircle
  10
 1132.5041058713
  20
 1261.6249119219
  30
0.0
  40
 8.2900000000000
 100
AcDbArc
  50
 229.35372634067
  51
 310.64627365933
   0
ARC
   5
547
 100
AcDbEntity
   8
LEVEL001
 370
30
   6
CONTINUOUS
  62
7
 100
AcDbCircle
  10
 1164.9041058713
  20
 1249.0449119219
  30
0.0
  40
 8.2900000000000
 100
AcDbArc
  50
 49.353726340673
  51
 130.64627365933
   0
ARC
   5
548
 100
AcDbEntity
   8
LEVEL001
 370
30
   6
CONTINUOUS
  62
7
 100
AcDbCircle
  10
 1154.1041058713
  20
 1261.6249119219
  30
0.0
  40
 8.2900000000000
 100
AcDbArc
  50
 229.35372634068
  51
 310.64627365932
   0
ARC
   5
549
 100
AcDbEntity
   8
LEVEL001
 370
30
   6
CONTINUOUS
  62
7
 100
AcDbCircle
  10
 1175.7041058713
  20
 1261.6249119219
  30
0.0
  40
 8.2900000000000
 100
AcDbArc
  50
 229.35372634067
  51
 310.64627365933
   0
ARC
   5
54A
 100
AcDbEntity
   8
LEVEL001
 370
30
   6
CONTINUOUS
  62
7
 100
AcDbCircle
  10
 1186.5041058713
  20
 1249.0449119219
  30
0.0
  40
 8.2900000000000
 100
AcDbArc
  50
 49.353726340673
  51
 130.64627365933
   0
ARC
   5
54B
 100
AcDbEntity
   8
LEVEL001
 370
30
   6
CONTINUOUS
  62
7
 100
AcDbCircle
  10
 1089.3041058713
  20
 1261.6249119219
  30
0.0
  40
 8.2900000000000
 100
AcDbArc
  50
 229.35372634067
  51
 310.64627365933
   0
ARC
   5
54C
 100
AcDbEntity
   8
LEVEL001
 370
30
   6
CONTINUOUS
  62
7
 100
AcDbCircle
  10
 1100.1041058713
  20
 1249.0449119219
  30
0.0
  40
 8.2900000000000
 100
AcDbArc
  50
 49.353726340677
  51
 130.64627365932
   0
ARC
   5
54D
 100
AcDbEntity
   8
LEVEL001
 370
30
   6
CONTINUOUS
  62
7
 100
AcDbCircle
  10
 1110.9041058713
  20
 1261.6249119219
  30
0.0
  40
 8.2900000000000
 100
AcDbArc
  50
 229.35372634067
  51
 310.64627365933
   0
ARC
   5
54E
 100
AcDbEntity
   8
LEVEL001
 370
30
   6
CONTINUOUS
  62
7
 100
AcDbCircle
  10
 1121.7041058713
  20
 1249.0449119219
  30
0.0
  40
 8.2900000000000
 100
AcDbArc
  50
 49.353726340673
  51
 130.64627365933
   0
ARC
   5
54F
 100
AcDbEntity
   8
LEVEL001
 370
30
   6
CONTINUOUS
  62
7
 100
AcDbCircle
  10
 1056.9041058713
  20
 1249.0449119219
  30
0.0
  40
 8.2900000000000
 100
AcDbArc
  50
 49.353726340673
  51
 130.64627365933
   0
ARC
   5
550
 100
AcDbEntity
   8
LEVEL001
 370
30
   6
CONTINUOUS
  62
7
 100
AcDbCircle
  10
 1067.7041058713
  20
 1261.6249119219
  30
0.0
  40
 8.2900000000000
 100
AcDbArc
  50
 229.35372634067
  51
 310.64627365933
   0
ARC
   5
551
 100
AcDbEntity
   8
LEVEL001
 370
30
   6
CONTINUOUS
  62
7
 100
AcDbCircle
  10
 1078.5041058713
  20
 1249.0449119219
  30
0.0
  40
 8.2900000000000
 100
AcDbArc
  50
 49.353726340673
  51
 130.64627365933
   0
ARC
   5
552
 100
AcDbEntity
   8
LEVEL001
 370
30
   6
CONTINUOUS
  62
7
 100
AcDbCircle
  10
 1024.5041058713
  20
 1261.6249119219
  30
0.0
  40
 8.2900000000000
 100
AcDbArc
  50
 229.35372634067
  51
 310.64627365933
   0
ARC
   5
553
 100
AcDbEntity
   8
LEVEL001
 370
30
   6
CONTINUOUS
  62
7
 100
AcDbCircle
  10
 1035.3041058713
  20
 1249.0449119219
  30
0.0
  40
 8.2900000000000
 100
AcDbArc
  50
 49.353726340673
  51
 130.64627365933
   0
ARC
   5
554
 100
AcDbEntity
   8
LEVEL001
 370
30
   6
CONTINUOUS
  62
7
 100
AcDbCircle
  10
 1046.1041058713
  20
 1261.6249119219
  30
0.0
  40
 8.2900000000000
 100
AcDbArc
  50
 229.35372634068
  51
 310.64627365932
   0
ARC
   5
555
 100
AcDbEntity
   8
LEVEL001
 370
30
   6
CONTINUOUS
  62
7
 100
AcDbCircle
  10
 992.10410587131
  20
 1249.0449119219
  30
0.0
  40
 8.2900000000000
 100
AcDbArc
  50
 49.353726340677
  51
 130.64627365932
   0
ARC
   5
556
 100
AcDbEntity
   8
LEVEL001
 370
30
   6
CONTINUOUS
  62
7
 100
AcDbCircle
  10
 1002.9041058713
  20
 1261.6249119219
  30
0.0
  40
 8.2900000000000
 100
AcDbArc
  50
 229.35372634067
  51
 310.64627365933
   0
ARC
   5
557
 100
AcDbEntity
   8
LEVEL001
 370
30
   6
CONTINUOUS
  62
7
 100
AcDbCircle
  10
 1013.7041058713
  20
 1249.0449119219
  30
0.0
  40
 8.2900000000000
 100
AcDbArc
  50
 49.353726340673
  51
 130.64627365933
   0
ARC
   5
558
 100
AcDbEntity
   8
LEVEL001
 370
30
   6
CONTINUOUS
  62
7
 100
AcDbCircle
  10
 927.30410587131
  20
 1249.0449119219
  30
0.0
  40
 8.2900000000000
 100
AcDbArc
  50
 49.353726340673
  51
 130.64627365933
   0
ARC
   5
559
 100
AcDbEntity
   8
LEVEL001
 370
30
   6
CONTINUOUS
  62
7
 100
AcDbCircle
  10
 916.50410587131
  20
 1261.6249119219
  30
0.0
  40
 8.2900000000000
 100
AcDbArc
  50
 229.35372634067
  51
 310.64627365933
   0
ARC
   5
55A
 100
AcDbEntity
   8
LEVEL001
 370
30
   6
CONTINUOUS
  62
7
 100
AcDbCircle
  10
 948.90410587131
  20
 1249.0449119219
  30
0.0
  40
 8.2900000000000
 100
AcDbArc
  50
 49.353726340673
  51
 130.64627365933
   0
ARC
   5
55B
 100
AcDbEntity
   8
LEVEL001
 370
30
   6
CONTINUOUS
  62
7
 100
AcDbCircle
  10
 938.10410587131
  20
 1261.6249119219
  30
0.0
  40
 8.2900000000000
 100
AcDbArc
  50
 229.35372634068
  51
 310.64627365932
   0
ARC
   5
55C
 100
AcDbEntity
   8
LEVEL001
 370
30
   6
CONTINUOUS
  62
7
 100
AcDbCircle
  10
 959.70410587131
  20
 1261.6249119219
  30
0.0
  40
 8.2900000000000
 100
AcDbArc
  50
 229.35372634067
  51
 310.64627365933
   0
ARC
   5
55D
 100
AcDbEntity
   8
LEVEL001
 370
30
   6
CONTINUOUS
  62
7
 100
AcDbCircle
  10
 970.50410587131
  20
 1249.0449119219
  30
0.0
  40
 8.2900000000000
 100
AcDbArc
  50
 49.353726340677
  51
 130.64627365932
   0
ARC
   5
55E
 100
AcDbEntity
   8
LEVEL001
 370
30
   6
CONTINUOUS
  62
7
 100
AcDbCircle
  10
 873.30410587131
  20
 1261.6249119219
  30
0.0
  40
 8.2900000000000
 100
AcDbArc
  50
 229.35372634067
  51
 310.64627365933
   0
ARC
   5
55F
 100
AcDbEntity
   8
LEVEL001
 370
30
   6
CONTINUOUS
  62
7
 100
AcDbCircle
  10
 884.10410587131
  20
 1249.0449119219
  30
0.0
  40
 8.2900000000000
 100
AcDbArc
  50
 49.353726340677
  51
 130.64627365932
   0
ARC
   5
560
 100
AcDbEntity
   8
LEVEL001
 370
30
   6
CONTINUOUS
  62
7
 100
AcDbCircle
  10
 894.90410587131
  20
 1261.6249119219
  30
0.0
  40
 8.2900000000000
 100
AcDbArc
  50
 229.35372634067
  51
 310.64627365933
   0
ARC
   5
561
 100
AcDbEntity
   8
LEVEL001
 370
30
   6
CONTINUOUS
  62
7
 100
AcDbCircle
  10
 905.70410587131
  20
 1249.0449119219
  30
0.0
  40
 8.2900000000000
 100
AcDbArc
  50
 49.353726340673
  51
 130.64627365933
   0
ARC
   5
562
 100
AcDbEntity
   8
LEVEL001
 370
30
   6
CONTINUOUS
  62
7
 100
AcDbCircle
  10
 840.90410587131
  20
 1249.0449119219
  30
0.0
  40
 8.2900000000000
 100
AcDbArc
  50
 49.353726340673
  51
 130.64627365933
   0
ARC
   5
563
 100
AcDbEntity
   8
LEVEL001
 370
30
   6
CONTINUOUS
  62
7
 100
AcDbCircle
  10
 851.70410587131
  20
 1261.6249119219
  30
0.0
  40
 8.2900000000000
 100
AcDbArc
  50
 229.35372634067
  51
 310.64627365933
   0
ARC
   5
564
 100
AcDbEntity
   8
LEVEL001
 370
30
   6
CONTINUOUS
  62
7
 100
AcDbCircle
  10
 862.50410587131
  20
 1249.0449119219
  30
0.0
  40
 8.2900000000000
 100
AcDbArc
  50
 49.353726340677
  51
 130.64627365932
   0
ARC
   5
565
 100
AcDbEntity
   8
LEVEL001
 370
30
   6
CONTINUOUS
  62
7
 100
AcDbCircle
  10
 1197.3041058713
  20
 1261.6249119220
  30
0.0
  40
 8.2900000000000
 100
AcDbArc
  50
 229.35372634062
  51
 310.64627365904
   0
ARC
   5
566
 100
AcDbEntity
   8
LEVEL001
 370
30
   6
CONTINUOUS
  62
7
 100
AcDbCircle
  10
 981.30410587134
  20
 1261.6249119220
  30
0.0
  40
 8.2900000000000
 100
AcDbArc
  50
 229.35372634061
  51
 310.64627365904
   0
ARC
   5
567
 100
AcDbEntity
   8
LEVEL001
 370
30
   6
CONTINUOUS
  62
7
 100
AcDbCircle
  10
 834.10410587131
  20
 1256.7706251566
  30
0.0
  40
 2.0000000000000
 100
AcDbArc
  50
 180.00000000001
  51
 309.48899854629
   0
ARC
   5
568
 100
AcDbEntity
   8
LEVEL001
 370
30
   6
CONTINUOUS
  62
7
 100
AcDbCircle
  10
 830.10410587136
  20
 1261.6249119220
  30
0.0
  40
 8.2900000000000
 100
AcDbArc
  50
 309.48899854609
  51
 310.64627365886
   0
LINE
   5
569
 100
AcDbEntity
   8
LEVEL001
 370
30
 100
AcDbLine
   6
CONTINUOUS
  62
7
  10
 632.10410587131
  20
 1271.3349119219
  30
0.0
  11
 633.10410587131
  21
 1270.3349119219
  31
0.0
   0
LINE
   5
56A
 100
AcDbEntity
   8
LEVEL001
 370
30
 100
AcDbLine
   6
CONTINUOUS
  62
7
  10
 633.10410587131
  20
 1270.3349119219
  30
0.0
  11
 832.10410587131
  21
 1270.3349119219
  31
0.0
   0
LINE
   5
56B
 100
AcDbEntity
   8
LEVEL001
 370
30
 100
AcDbLine
   6
CONTINUOUS
  62
7
  10
 832.10410587131
  20
 1256.4126863484
  30
0.0
  11
 832.10410587131
  21
 1297.8349119219
  31
0.0
   0
LINE
   5
56C
 100
AcDbEntity
   8
LEVEL001
 370
30
 100
AcDbLine
   6
CONTINUOUS
  62
7
  10
 632.10410587131
  20
 1324.3349119219
  30
0.0
  11
 632.10410587131
  21
 1297.8349119219
  31
0.0
   0
LINE
   5
56D
 100
AcDbEntity
   8
LEVEL001
 370
30
 100
AcDbLine
   6
CONTINUOUS
  62
7
  10
 632.10410587131
  20
 1297.8349119219
  30
0.0
  11
 632.10410587131
  21
 1271.3349119219
  31
0.0
   0
LINE
   5
56E
 100
AcDbEntity
   8
LEVEL001
 370
30
 100
AcDbLine
   6
CONTINUOUS
  62
7
  10
 629.60410587131
  20
 1282.8349119219
  30
0.0
  11
 632.10410587131
  21
 1282.8349119219
  31
0.0
   0
LINE
   5
56F
 100
AcDbEntity
   8
LEVEL001
 370
30
 100
AcDbLine
   6
CONTINUOUS
  62
7
  10
 632.10410587131
  20
 1312.8349119219
  30
0.0
  11
 629.60410587131
  21
 1312.8349119219
  31
0.0
   0
LINE
   5
570
 100
AcDbEntity
   8
LEVEL001
 370
30
 100
AcDbLine
   6
CONTINUOUS
  62
7
  10
 1352.1041058713
  20
 1282.8349119219
  30
0.0
  11
 1354.6041058713
  21
 1282.8349119219
  31
0.0
   0
LINE
   5
571
 100
AcDbEntity
   8
LEVEL001
 370
30
 100
AcDbLine
   6
CONTINUOUS
  62
7
  10
 1354.6041058713
  20
 1312.8349119219
  30
0.0
  11
 1352.1041058713
  21
 1312.8349119219
  31
0.0
   0
LINE
   5
572
 100
AcDbEntity
   8
LEVEL001
 370
30
 100
AcDbLine
   6
CONTINUOUS
  62
7
  10
 632.10410587131
  20
 1155.1952232352
  30
0.0
  11
 629.60410587131
  21
 1155.1952232352
  31
0.0
   0
LINE
   5
573
 100
AcDbEntity
   8
LEVEL001
 370
30
 100
AcDbLine
   6
CONTINUOUS
  62
7
  10
 629.60410587131
  20
 1125.1952232352
  30
0.0
  11
 632.10410587131
  21
 1125.1952232352
  31
0.0
   0
LINE
   5
574
 100
AcDbEntity
   8
LEVEL001
 370
30
 100
AcDbLine
   6
CONTINUOUS
  62
7
  10
 632.10410587131
  20
 1177.8452232352
  30
0.0
  11
 632.10410587131
  21
 1102.5452232352
  31
0.0
   0
LINE
   5
575
 100
AcDbEntity
   8
LEVEL001
 370
30
 100
AcDbLine
   6
CONTINUOUS
  62
7
  10
 632.10410587131
  20
 1102.5452232352
  30
0.0
  11
 1352.1041058713
  21
 1102.5452232352
  31
0.0
   0
LINE
   5
576
 100
AcDbEntity
   8
LEVEL001
 370
30
 100
AcDbLine
   6
CONTINUOUS
  62
7
  10
 624.60410587131
  20
 1084.7952232352
  30
0.0
  11
 624.60410587131
  21
 1418.7952232352
  31
0.0
   0
ARC
   5
577
 100
AcDbEntity
   8
LEVEL001
 370
30
   6
CONTINUOUS
  62
7
 100
AcDbCircle
  10
 593.10410587131
  20
 1285.2952232352
  30
0.0
  40
 7.5000000000000
 100
AcDbArc
  50
0.0
  51
 90.000000000000
   0
ARC
   5
578
 100
AcDbEntity
   8
LEVEL001
 370
30
   6
CONTINUOUS
  62
7
 100
AcDbCircle
  10
 593.10410587131
  20
 1285.2952232352
  30
0.0
  40
 7.5000000000000
 100
AcDbArc
  50
 270.00000000000
  51
0.0
   0
LINE
   5
579
 100
AcDbEntity
   8
LEVEL001
 370
30
 100
AcDbLine
   6
CONTINUOUS
  62
7
  10
 593.10410587131
  20
 1277.7952232352
  30
0.0
  11
 585.60410587131
  21
 1277.7952232352
  31
0.0
   0
ARC
   5
57A
 100
AcDbEntity
   8
LEVEL001
 370
30
   6
CONTINUOUS
  62
7
 100
AcDbCircle
  10
 585.60410587131
  20
 1275.7952232352
  30
0.0
  40
 2.0000000000000
 100
AcDbArc
  50
 90.000000000000
  51
 180.00000000000
   0
LINE
   5
57B
 100
AcDbEntity
   8
LEVEL001
 370
30
 100
AcDbLine
   6
CONTINUOUS
  62
7
  10
 583.60410587131
  20
 1275.7952232352
  30
0.0
  11
 583.60410587131
  21
 1264.7952232352
  31
0.0
   0
ARC
   5
57C
 100
AcDbEntity
   8
LEVEL001
 370
30
   6
CONTINUOUS
  62
7
 100
AcDbCircle
  10
 585.60410587131
  20
 1264.7952232352
  30
0.0
  40
 2.0000000000000
 100
AcDbArc
  50
 180.00000000000
  51
 270.00000000000
   0
LINE
   5
57D
 100
AcDbEntity
   8
LEVEL001
 370
30
 100
AcDbLine
   6
CONTINUOUS
  62
7
  10
 571.60410587131
  20
 1285.2952232352
  30
0.0
  11
 571.60410587131
  21
 1279.7952232352
  31
0.0
   0
ARC
   5
57E
 100
AcDbEntity
   8
LEVEL001
 370
30
   6
CONTINUOUS
  62
7
 100
AcDbCircle
  10
 569.60410587131
  20
 1279.7952232352
  30
0.0
  40
 2.0000000000000
 100
AcDbArc
  50
 270.00000000000
  51
0.0
   0
ARC
   5
57F
 100
AcDbEntity
   8
LEVEL001
 370
30
   6
CONTINUOUS
  62
7
 100
AcDbCircle
  10
 569.60410587131
  20
 1260.7952232352
  30
0.0
  40
 2.0000000000000
 100
AcDbArc
  50
0.0
  51
 90.000000000000
   0
LINE
   5
580
 100
AcDbEntity
   8
LEVEL001
 370
30
 100
AcDbLine
   6
CONTINUOUS
  62
7
  10
 571.60410587131
  20
 1260.7952232352
  30
0.0
  11
 571.60410587131
  21
 1249.7952232352
  31
0.0
   0
ARC
   5
581
 100
AcDbEntity
   8
LEVEL001
 370
30
   6
CONTINUOUS
  62
7
 100
AcDbCircle
  10
 569.60410587131
  20
 1249.7952232352
  30
0.0
  40
 2.0000000000000
 100
AcDbArc
  50
 270.00000000000
  51
0.0
   0
ARC
   5
582
 100
AcDbEntity
   8
LEVEL001
 370
30
   6
CONTINUOUS
  62
7
 100
AcDbCircle
  10
 585.60410587131
  20
 1245.7952232352
  30
0.0
  40
 2.0000000000000
 100
AcDbArc
  50
 90.000000000000
  51
 180.00000000000
   0
LINE
   5
583
 100
AcDbEntity
   8
LEVEL001
 370
30
 100
AcDbLine
   6
CONTINUOUS
  62
7
  10
 583.60410587131
  20
 1245.7952232352
  30
0.0
  11
 583.60410587131
  21
 1234.7952232352
  31
0.0
   0
ARC
   5
584
 100
AcDbEntity
   8
LEVEL001
 370
30
   6
CONTINUOUS
  62
7
 100
AcDbCircle
  10
 585.60410587131
  20
 1234.7952232352
  30
0.0
  40
 2.0000000000000
 100
AcDbArc
  50
 180.00000000000
  51
 270.00000000000
   0
ARC
   5
585
 100
AcDbEntity
   8
LEVEL001
 370
30
   6
CONTINUOUS
  62
7
 100
AcDbCircle
  10
 585.60410587131
  20
 1215.7952232352
  30
0.0
  40
 2.0000000000000
 100
AcDbArc
  50
 90.000000000000
  51
 180.00000000000
   0
LINE
   5
586
 100
AcDbEntity
   8
LEVEL001
 370
30
 100
AcDbLine
   6
CONTINUOUS
  62
7
  10
 583.60410587131
  20
 1215.7952232352
  30
0.0
  11
 583.60410587131
  21
 1204.7952232352
  31
0.0
   0
ARC
   5
587
 100
AcDbEntity
   8
LEVEL001
 370
30
   6
CONTINUOUS
  62
7
 100
AcDbCircle
  10
 585.60410587131
  20
 1204.7952232352
  30
0.0
  40
 2.0000000000000
 100
AcDbArc
  50
 180.00000000000
  51
 270.00000000000
   0
ARC
   5
588
 100
AcDbEntity
   8
LEVEL001
 370
30
   6
CONTINUOUS
  62
7
 100
AcDbCircle
  10
 569.60410587131
  20
 1230.7952232352
  30
0.0
  40
 2.0000000000000
 100
AcDbArc
  50
0.0
  51
 90.000000000000
   0
LINE
   5
589
 100
AcDbEntity
   8
LEVEL001
 370
30
 100
AcDbLine
   6
CONTINUOUS
  62
7
  10
 571.60410587131
  20
 1230.7952232352
  30
0.0
  11
 571.60410587131
  21
 1219.7952232352
  31
0.0
   0
ARC
   5
58A
 100
AcDbEntity
   8
LEVEL001
 370
30
   6
CONTINUOUS
  62
7
 100
AcDbCircle
  10
 569.60410587131
  20
 1219.7952232352
  30
0.0
  40
 2.0000000000000
 100
AcDbArc
  50
 270.00000000000
  51
0.0
   0
ARC
   5
58B
 100
AcDbEntity
   8
LEVEL001
 370
30
   6
CONTINUOUS
  62
7
 100
AcDbCircle
  10
 592.10410587131
  20
 1256.2952232352
  30
0.0
  40
 8.5000000000000
 100
AcDbArc
  50
 270.00000000000
  51
0.0
   0
LINE
   5
58C
 100
AcDbEntity
   8
LEVEL001
 370
30
 100
AcDbLine
   6
CONTINUOUS
  62
7
  10
 592.10410587131
  20
 1247.7952232352
  30
0.0
  11
 585.60410587131
  21
 1247.7952232352
  31
0.0
   0
ARC
   5
58D
 100
AcDbEntity
   8
LEVEL001
 370
30
   6
CONTINUOUS
  62
7
 100
AcDbCircle
  10
 592.10410587131
  20
 1196.2952232352
  30
0.0
  40
 8.5000000000000
 100
AcDbArc
  50
 270.09963562127
  51
 128.75435279189
   0
LINE
   5
58E
 100
AcDbEntity
   8
LEVEL001
 370
30
 100
AcDbLine
   6
CONTINUOUS
  62
7
  10
 569.60410587131
  20
 1277.7952232352
  30
0.0
  11
 566.58133144636
  21
 1277.7952232352
  31
0.0
   0
LINE
   5
58F
 100
AcDbEntity
   8
LEVEL001
 370
30
 100
AcDbLine
   6
CONTINUOUS
  62
7
  10
 569.60410587131
  20
 1262.7952232352
  30
0.0
  11
 561.10410587131
  21
 1262.7952232352
  31
0.0
   0
ARC
   5
590
 100
AcDbEntity
   8
LEVEL001
 370
30
   6
CONTINUOUS
  62
7
 100
AcDbCircle
  10
 561.10410587131
  20
 1271.2952232352
  30
0.0
  40
 8.5000000000000
 100
AcDbArc
  50
 49.880833101586
  51
 272.67592212630
   0
ARC
   5
591
 100
AcDbEntity
   8
LEVEL001
 370
30
   6
CONTINUOUS
  62
7
 100
AcDbCircle
  10
 592.10410587131
  20
 1256.2952232352
  30
0.0
  40
 8.5000000000000
 100
AcDbArc
  50
 0.15326531735617E-11
  51
 130.77316082173
   0
LINE
   5
592
 100
AcDbEntity
   8
LEVEL001
 370
30
 100
AcDbLine
   6
CONTINUOUS
  62
7
  10
 586.55304545285
  20
 1262.7952232352
  30
0.0
  11
 585.60410587131
  21
 1262.7952232352
  31
0.0
   0
LINE
   5
593
 100
AcDbEntity
   8
LEVEL001
 370
30
 100
AcDbLine
   6
CONTINUOUS
  62
7
  10
 592.81757475329
  20
 1217.7952232352
  30
0.0
  11
 585.60410587131
  21
 1217.7952232352
  31
0.0
   0
ARC
   5
594
 100
AcDbEntity
   8
LEVEL001
 370
30
   6
CONTINUOUS
  62
7
 100
AcDbCircle
  10
 592.10410587131
  20
 1226.2952232352
  30
0.0
  40
 8.5000000000000
 100
AcDbArc
  50
 276.93305429917
  51
 130.05255048951
   0
LINE
   5
595
 100
AcDbEntity
   8
LEVEL001
 370
30
 100
AcDbLine
   6
CONTINUOUS
  62
7
  10
 586.63444138851
  20
 1232.7952232352
  30
0.0
  11
 585.60410587131
  21
 1232.7952232352
  31
0.0
   0
LINE
   5
596
 100
AcDbEntity
   8
LEVEL001
 370
30
 100
AcDbLine
   6
CONTINUOUS
  62
7
  10
 579.10410587131
  20
 1187.7952232352
  30
0.0
  11
 592.11888710583
  21
 1187.7952232352
  31
0.0
   0
LINE
   5
597
 100
AcDbEntity
   8
LEVEL001
 370
30
 100
AcDbLine
   6
CONTINUOUS
  62
7
  10
 586.78325276295
  20
 1202.7952232352
  30
0.0
  11
 585.60410587131
  21
 1202.7952232352
  31
0.0
   0
LINE
   5
598
 100
AcDbEntity
   8
LEVEL001
 370
30
 100
AcDbLine
   6
CONTINUOUS
  62
7
  10
 569.60410587131
  20
 1217.7952232352
  30
0.0
  11
 566.58133144636
  21
 1217.7952232352
  31
0.0
   0
LINE
   5
599
 100
AcDbEntity
   8
LEVEL001
 370
30
 100
AcDbLine
   6
CONTINUOUS
  62
7
  10
 569.60410587131
  20
 1247.7952232352
  30
0.0
  11
 566.58133144636
  21
 1247.7952232352
  31
0.0
   0
ARC
   5
59A
 100
AcDbEntity
   8
LEVEL001
 370
30
   6
CONTINUOUS
  62
7
 100
AcDbCircle
  10
 561.10410587131
  20
 1241.2952232352
  30
0.0
  40
 8.5000000000000
 100
AcDbArc
  50
 49.880833101584
  51
 270.74783502539
   0
LINE
   5
59B
 100
AcDbEntity
   8
LEVEL001
 370
30
 100
AcDbLine
   6
CONTINUOUS
  62
7
  10
 569.60410587131
  20
 1232.7952232352
  30
0.0
  11
 560.53642408110
  21
 1232.7952232352
  31
0.0
   0
ARC
   5
59C
 100
AcDbEntity
   8
LEVEL001
 370
30
   6
CONTINUOUS
  62
7
 100
AcDbCircle
  10
 579.10410587131
  20
 1195.2702010129
  30
0.0
  40
 7.5000000000000
 100
AcDbArc
  50
 180.00000000000
  51
 270.00000000000
   0
ARC
   5
59D
 100
AcDbEntity
   8
LEVEL001
 370
30
   6
CONTINUOUS
  62
7
 100
AcDbCircle
  10
 561.10410587131
  20
 1211.2702010129
  30
0.0
  40
 8.5000000000000
 100
AcDbArc
  50
 49.471246009424
  51
 269.47614095487
   0
LINE
   5
59E
 100
AcDbEntity
   8
LEVEL001
 370
30
 100
AcDbLine
   6
CONTINUOUS
  62
7
  10
 569.60962424320
  20
 1202.7757041795
  30
0.0
  11
 560.37914905880
  21
 1202.8011728739
  31
0.0
   0
ARC
   5
59F
 100
AcDbEntity
   8
LEVEL001
 370
30
   6
CONTINUOUS
  62
7
 100
AcDbCircle
  10
 569.60410587131
  20
 1200.7757117927
  30
0.0
  40
 2.0000000000000
 100
AcDbArc
  50
 0.65137759876373E-11
  51
 89.841910089957
   0
LINE
   5
5A0
 100
AcDbEntity
   8
LEVEL001
 370
30
 100
AcDbLine
   6
CONTINUOUS
  62
7
  10
 571.60410587131
  20
 1200.7757117927
  30
0.0
  11
 571.60410587131
  21
 1195.2702010129
  31
0.0
   0
ARC
   5
5A1
 100
AcDbEntity
   8
LEVEL001
 370
30
   6
CONTINUOUS
  62
7
 100
AcDbCircle
  10
 579.10410587131
  20
 1285.2952232352
  30
0.0
  40
 7.5000000000000
 100
AcDbArc
  50
 124.22697445374
  51
 179.99999999999
   0
LINE
   5
5A2
 100
AcDbEntity
   8
LEVEL001
 370
30
 100
AcDbLine
   6
CONTINUOUS
  62
7
  10
 593.10410587131
  20
 1292.7952232352
  30
0.0
  11
 585.44701010546
  21
 1292.7952232352
  31
0.0
   0
LINE
   5
5A3
 100
AcDbEntity
   8
LEVEL001
 370
30
 100
AcDbLine
   6
CONTINUOUS
  62
7
  10
 565.51344411923
  20
 1309.8901557890
  30
0.0
  11
 583.60410587131
  21
 1274.3852343237
  31
0.0
   0
LINE
   5
5A4
 100
AcDbEntity
   8
LEVEL001
 370
30
 100
AcDbLine
   6
CONTINUOUS
  62
7
  10
 593.08989213652
  20
 1277.7952232352
  30
0.0
  11
 574.42350929175
  21
 1314.4300609225
  31
0.0
   0
ARC
   5
5A5
 100
AcDbEntity
   8
LEVEL001
 370
30
   6
CONTINUOUS
  62
7
 100
AcDbCircle
  10
 561.62927238832
  20
 1329.0892322045
  30
0.0
  40
 20.000000000000
 100
AcDbArc
  50
 316.35314739569
  51
 277.64685435501
   0
LINE
   5
5A6
 100
AcDbEntity
   8
LEVEL001
 370
30
 100
AcDbLine
   6
CONTINUOUS
  62
7
  10
 564.29061089040
  20
 1309.2670911149
  30
0.0
  11
 576.10142629364
  21
 1315.2850023694
  31
0.0
   0
LINE
   5
5A7
 100
AcDbEntity
   8
LEVEL001
 370
30
 100
AcDbLine
   6
CONTINUOUS
  62
7
  10
 575.34392148033
  20
 1312.6236503601
  30
0.0
  11
 624.60410587131
  21
 1312.6236503601
  31
0.0
   0
LINE
   5
5A8
 100
AcDbEntity
   8
LEVEL001
 370
30
 100
AcDbLine
   6
CONTINUOUS
  62
7
  10
 1627.6041058713
  20
 1287.0627645821
  30
0.0
  11
 1355.6041058713
  21
 1287.0627645821
  31
0.0
   0
POINT
   5
5A9
 100
AcDbEntity
   8
LEVEL001
 100
AcDbPoint
  62
7
  10
 1355.6041058713
  20
 1313.5629901882
  30
0.0
   0
LINE
   5
5AA
 100
AcDbEntity
   8
LEVEL001
 370
30
 100
AcDbLine
   6
CONTINUOUS
  62
7
  10
 604.60410587131
  20
 1418.7952232352
  30
0.0
  11
 604.60410587131
  21
 1419.7952232352
  31
0.0
   0
LINE
   5
5AB
 100
AcDbEntity
   8
LEVEL001
 370
30
 100
AcDbLine
   6
CONTINUOUS
  62
7
  10
 631.60410587131
  20
 1356.0146601349
  30
0.0
  11
 630.10410587131
  21
 1356.0146601349
  31
0.0
   0
LINE
   5
5AC
 100
AcDbEntity
   8
LEVEL001
 370
30
 100
AcDbLine
   6
CONTINUOUS
  62
7
  10
 632.10410587131
  20
 1332.7952228267
  30
0.0
  11
 630.10410587131
  21
 1332.7952228267
  31
0.0
   0
ARC
   5
5AD
 100
AcDbEntity
   8
LEVEL001
 370
30
   6
CONTINUOUS
  62
7
 100
AcDbCircle
  10
 627.10410587131
  20
 1315.0629901882
  30
0.0
  40
 1.5000000000000
 100
AcDbArc
  50
 270.00000000000
  51
0.0
   0
ARC
   5
5AE
 100
AcDbEntity
   8
LEVEL001
 370
30
   6
CONTINUOUS
  62
7
 100
AcDbCircle
  10
 627.10410587131
  20
 1315.5452232353
  30
0.0
  40
 3.0000000000000
 100
AcDbArc
  50
 270.00000000000
  51
0.0
   0
LINE
   5
5AF
 100
AcDbEntity
   8
LEVEL001
 370
30
 100
AcDbLine
   6
CONTINUOUS
  62
7
  10
 627.10410587131
  20
 1313.5629901882
  30
0.0
  11
 607.60410587131
  21
 1313.5629901882
  31
0.0
   0
LINE
   5
5B0
 100
AcDbEntity
   8
LEVEL001
 370
30
 100
AcDbLine
   6
CONTINUOUS
  62
7
  10
 607.60410587131
  20
 1312.5452232353
  30
0.0
  11
 627.10410587131
  21
 1312.5452232353
  31
0.0
   0
LINE
   5
5B1
 100
AcDbEntity
   8
LEVEL001
 370
30
 100
AcDbLine
   6
CONTINUOUS
  62
7
  10
 604.60410587131
  20
 1316.5629901882
  30
0.0
  11
 607.60410587131
  21
 1313.5629901882
  31
0.0
   0
LINE
   5
5B2
 100
AcDbEntity
   8
LEVEL001
 370
30
 100
AcDbLine
   6
CONTINUOUS
  62
7
  10
 604.60410587131
  20
 1315.5452232353
  30
0.0
  11
 607.60410587131
  21
 1312.5452232353
  31
0.0
   0
LINE
   5
5B3
 100
AcDbEntity
   8
LEVEL001
 370
30
 100
AcDbLine
   6
CONTINUOUS
  62
7
  10
 607.60410587131
  20
 1313.5629901882
  30
0.0
  11
 607.60410587131
  21
 1312.5452232353
  31
0.0
   0
LINE
   5
5B4
 100
AcDbEntity
   8
LEVEL001
 370
30
 100
AcDbLine
   6
CONTINUOUS
  62
7
  10
 604.60410587131
  20
 1344.5041156851
  30
0.0
  11
 604.60410587131
  21
 1315.5452232353
  31
0.0
   0
LINE
   5
5B5
 100
AcDbEntity
   8
LEVEL001
 370
30
 100
AcDbLine
   6
CONTINUOUS
  62
7
  10
 604.60410587131
  20
 1344.5041156851
  30
0.0
  11
 607.60410587131
  21
 1347.5041156851
  31
0.0
   0
POINT
   5
5B6
 100
AcDbEntity
   8
LEVEL001
 100
AcDbPoint
  62
7
  10
 604.60410587131
  20
 1347.5041156851
  30
0.0
   0
LINE
   5
5B7
 100
AcDbEntity
   8
LEVEL001
 370
30
 100
AcDbLine
   6
CONTINUOUS
  62
7
  10
 628.60410587131
  20
 1347.5041156851
  30
0.0
  11
 607.60410587131
  21
 1347.5041156851
  31
0.0
   0
POINT
   5
5B8
 100
AcDbEntity
   8
LEVEL001
 100
AcDbPoint
  62
7
  10
 1606.6041058713
  20
 1300.8102213523
  30
0.0
   0
POINT
   5
5B9
 100
AcDbEntity
   8
LEVEL001
 100
AcDbPoint
  62
7
  10
 1606.6041058713
  20
 1404.7789069385
  30
0.0
   0
LWPOLYLINE
   5
5BA
 100
AcDbEntity
   8
LEVEL001
 370
30
   6
CONTINUOUS
  62
7
 100
AcDbPolyline
  90
4
  70
1
  10
 1421.6041058713
  20
 1297.2272038443
  10
 1611.6041058713
  20
 1297.2272038443
  10
 1611.6041058713
  20
 1409.8599465627
  10
 1421.6041058713
  20
 1409.8599465627
   0
LWPOLYLINE
   5
5BB
 100
AcDbEntity
   8
LEVEL001
 370
30
   6
CONTINUOUS
  62
7
 100
AcDbPolyline
  90
4
  70
0
  10
 1421.6041058713
  20
 1297.2272038443
  10
 1421.6041058713
  20
 1296.4781927862
  10
 1611.6041058713
  20
 1296.4781927862
  10
 1611.6041058713
  20
 1297.2272038443
   0
POINT
   5
5BC
 100
AcDbEntity
   8
LEVEL001
 100
AcDbPoint
  62
7
  10
 1426.6041058713
  20
 1300.8102213523
  30
0.0
   0
POINT
   5
5BD
 100
AcDbEntity
   8
LEVEL001
 100
AcDbPoint
  62
7
  10
 1426.6041058713
  20
 1404.7789069385
  30
0.0
   0
LINE
   5
5BE
 100
AcDbEntity
   8
LEVEL001
 370
30
 100
AcDbLine
   6
CONTINUOUS
  62
7
  10
 832.10410587131
  20
 1297.8349119219
  30
0.0
  11
 832.10410587131
  21
 1336.9968384550
  31
0.0
   0
LINE
   5
5BF
 100
AcDbEntity
   8
LEVEL001
 370
30
 100
AcDbLine
   6
CONTINUOUS
  62
7
  10
 1352.1041058713
  20
 1336.9968384550
  30
0.0
  11
 1352.1041058713
  21
 1306.4728287640
  31
0.0
   0
LINE
   5
5C0
 100
AcDbEntity
   8
LEVEL001
 370
30
 100
AcDbLine
   6
CONTINUOUS
  62
7
  10
 626.40410587140
  20
 850.59522323518
  30
0.0
  11
 626.40410587140
  21
 832.99522323517
  31
0.0
   0
LINE
   5
5C1
 100
AcDbEntity
   8
LEVEL001
 370
30
 100
AcDbLine
   6
CONTINUOUS
  62
7
  10
 1357.8041058712
  20
 850.59522323518
  30
0.0
  11
 1357.8041058712
  21
 832.99522323517
  31
0.0
   0
ARC
   5
5C2
 100
AcDbEntity
   8
LEVEL001
 370
30
   6
CONTINUOUS
  62
7
 100
AcDbCircle
  10
 1359.8041058712
  20
 850.59522323518
  30
0.0
  40
 2.0000000000000
 100
AcDbArc
  50
 143.13010235417
  51
 180.00000000004
   0
LINE
   5
5C3
 100
AcDbEntity
   8
LEVEL001
 370
30
 100
AcDbLine
   6
CONTINUOUS
  62
7
  10
 1354.6041058712
  20
 832.99522323517
  30
0.0
  11
 1354.6041058712
  21
 851.79522323518
  31
0.0
   0
ARC
   5
5C4
 100
AcDbEntity
   8
LEVEL001
 370
30
   6
CONTINUOUS
  62
7
 100
AcDbCircle
  10
 624.40410587140
  20
 850.59522323518
  30
0.0
  40
 2.0000000000000
 100
AcDbArc
  50
0.0
  51
 36.869897645826
   0
LINE
   5
5C5
 100
AcDbEntity
   8
LEVEL001
 370
30
 100
AcDbLine
   6
CONTINUOUS
  62
7
  10
 629.60410587140
  20
 832.99522323517
  30
0.0
  11
 629.60410587140
  21
 851.79522323518
  31
0.0
   0
LINE
   5
5C6
 100
AcDbEntity
   8
LEVEL001
 370
30
 100
AcDbLine
   6
CONTINUOUS
  62
7
  10
 1355.1041058713
  20
 854.79522323518
  30
0.0
  11
 629.60410587131
  21
 854.79522323518
  31
0.0
   0
LINE
   5
5C7
 100
AcDbEntity
   8
LEVEL001
 370
30
 100
AcDbLine
   6
CONTINUOUS
  62
7
  10
 1437.4841058713
  20
 965.79522323465
  30
0.0
  11
 1438.4841058713
  21
 965.79522323465
  31
0.0
   0
ARC
   5
5C8
 100
AcDbEntity
   8
LEVEL001
 370
30
   6
CONTINUOUS
  62
7
 100
AcDbCircle
  10
 1439.4841058713
  20
 907.79522323465
  30
0.0
  40
 1.0000000000000
 100
AcDbArc
  50
 180.00000000000
  51
 270.00000000000
   0
LINE
   5
5C9
 100
AcDbEntity
   8
LEVEL001
 370
30
 100
AcDbLine
   6
CONTINUOUS
  62
7
  10
 1457.4841058713
  20
 1001.7952232346
  30
0.0
  11
 1457.4841058713
  21
 1000.7952232346
  31
0.0
   0
LINE
   5
5CA
 100
AcDbEntity
   8
LEVEL001
 370
30
 100
AcDbLine
   6
CONTINUOUS
  62
7
  10
 1481.4841058712
  20
 1000.7952232346
  30
0.0
  11
 1437.4841058713
  21
 1000.7952232346
  31
0.0
   0
LINE
   5
5CB
 100
AcDbEntity
   8
LEVEL001
 370
30
 100
AcDbLine
   6
CONTINUOUS
  62
7
  10
 1438.4841058713
  20
 1000.7952232346
  30
0.0
  11
 1438.4841058713
  21
 907.79522323465
  31
0.0
   0
LINE
   5
5CC
 100
AcDbEntity
   8
LEVEL001
 370
30
 100
AcDbLine
   6
CONTINUOUS
  62
7
  10
 1437.4841058713
  20
 1000.7952232346
  30
0.0
  11
 1437.4841058713
  21
 907.79522323465
  31
0.0
   0
LINE
   5
5CD
 100
AcDbEntity
   8
LEVEL001
 370
30
 100
AcDbLine
   6
CONTINUOUS
  62
7
  10
 1485.4841058712
  20
 996.79522323465
  30
0.0
  11
 1480.4841058712
  21
 1001.7952232346
  31
0.0
   0
LINE
   5
5CE
 100
AcDbEntity
   8
LEVEL001
 370
30
 100
AcDbLine
   6
CONTINUOUS
  62
7
  10
 1484.4841058712
  20
 996.79522323465
  30
0.0
  11
 1480.4841058712
  21
 1000.7952232346
  31
0.0
   0
LINE
   5
5CF
 100
AcDbEntity
   8
LEVEL001
 370
30
 100
AcDbLine
   6
CONTINUOUS
  62
7
  10
 1612.6041058713
  20
 1015.7952232352
  30
0.0
  11
 1612.6041058713
  21
 905.79522323518
  31
0.0
   0
LINE
   5
5D0
 100
AcDbEntity
   8
LEVEL001
 370
30
 100
AcDbLine
   6
CONTINUOUS
  62
7
  10
 1612.6041058713
  20
 905.79522323518
  30
0.0
  11
 1312.6041058713
  21
 905.79522323518
  31
0.0
   0
LINE
   5
5D1
 100
AcDbEntity
   8
LEVEL001
 370
30
 100
AcDbLine
   6
CONTINUOUS
  62
7
  10
 1602.4841058713
  20
 965.79522323465
  30
0.0
  11
 1601.4841058713
  21
 965.79522323465
  31
0.0
   0
ARC
   5
5D2
 100
AcDbEntity
   8
LEVEL001
 370
30
   6
CONTINUOUS
  62
7
 100
AcDbCircle
  10
 1600.4841058713
  20
 907.79522323465
  30
0.0
  40
 1.0000000000000
 100
AcDbArc
  50
 269.99999999995
  51
0.0
   0
ARC
   5
5D3
 100
AcDbEntity
   8
LEVEL001
 370
30
   6
CONTINUOUS
  62
7
 100
AcDbCircle
  10
 1600.4841058713
  20
 907.79522323465
  30
0.0
  40
 2.0000000000000
 100
AcDbArc
  50
 270.00000000000
  51
0.0
   0
LINE
   5
5D4
 100
AcDbEntity
   8
LEVEL001
 370
30
 100
AcDbLine
   6
CONTINUOUS
  62
7
  10
 1600.4841058713
  20
 906.79522323465
  30
0.0
  11
 1439.4841058713
  21
 906.79522323465
  31
0.0
   0
LINE
   5
5D5
 100
AcDbEntity
   8
LEVEL001
 370
30
 100
AcDbLine
   6
CONTINUOUS
  62
7
  10
 1582.4841058713
  20
 1000.7952232346
  30
0.0
  11
 1582.4841058713
  21
 1001.7952232346
  31
0.0
   0
LINE
   5
5D6
 100
AcDbEntity
   8
LEVEL001
 370
30
 100
AcDbLine
   6
CONTINUOUS
  62
7
  10
 1555.4841058714
  20
 996.79522323465
  30
0.0
  11
 1559.4841058714
  21
 1000.7952232346
  31
0.0
   0
LINE
   5
5D7
 100
AcDbEntity
   8
LEVEL001
 370
30
 100
AcDbLine
   6
CONTINUOUS
  62
7
  10
 1602.4841058713
  20
 1000.7952232346
  30
0.0
  11
 1558.4841058714
  21
 1000.7952232346
  31
0.0
   0
LINE
   5
5D8
 100
AcDbEntity
   8
LEVEL001
 370
30
 100
AcDbLine
   6
CONTINUOUS
  62
7
  10
 1554.4841058714
  20
 996.79522323465
  30
0.0
  11
 1559.4841058714
  21
 1001.7952232346
  31
0.0
   0
LINE
   5
5D9
 100
AcDbEntity
   8
LEVEL001
 370
30
 100
AcDbLine
   6
CONTINUOUS
  62
7
  10
 1601.4841058713
  20
 1000.7952232346
  30
0.0
  11
 1601.4841058713
  21
 907.79522323465
  31
0.0
   0
LINE
   5
5DA
 100
AcDbEntity
   8
LEVEL001
 370
30
 100
AcDbLine
   6
CONTINUOUS
  62
7
  10
 1602.4841058713
  20
 1000.7952232346
  30
0.0
  11
 1602.4841058713
  21
 907.79522323465
  31
0.0
   0
LINE
   5
5DB
 100
AcDbEntity
   8
LEVEL001
 370
30
 100
AcDbLine
   6
CONTINUOUS
  62
7
  10
 1582.4841058713
  20
 1001.7952232346
  30
0.0
  11
 1457.4841058713
  21
 1001.7952232346
  31
0.0
   0
LINE
   5
5DC
 100
AcDbEntity
   8
LEVEL001
 370
30
 100
AcDbLine
   6
CONTINUOUS
  62
7
  10
 1484.4841058712
  20
 996.79522323465
  30
0.0
  11
 1555.4841058714
  21
 996.79522323465
  31
0.0
   0
LINE
   5
5DD
 100
AcDbEntity
   8
LEVEL001
 370
30
 100
AcDbLine
   6
CONTINUOUS
  62
7
  10
 1612.6041058713
  20
 1015.7952232352
  30
0.0
  11
 1312.6041058713
  21
 1015.7952232352
  31
0.0
   0
LINE
   5
5DE
 100
AcDbEntity
   8
LEVEL001
 370
30
 100
AcDbLine
   6
CONTINUOUS
  62
7
  10
 1628.6041058713
  20
 1019.7952232352
  30
0.0
  11
 1627.6041058713
  21
 1019.7952232352
  31
0.0
   0
ARC
   5
5DF
 100
AcDbEntity
   8
LEVEL001
 370
30
   6
CONTINUOUS
  62
7
 100
AcDbCircle
  10
 1337.7041058713
  20
 1249.0449119219
  30
0.0
  40
 8.2900000000000
 100
AcDbArc
  50
 61.936727912985
  51
 130.64627365933
   0
LINE
   5
5E0
 100
AcDbEntity
   8
LEVEL001
 370
30
 100
AcDbLine
   6
CONTINUOUS
  62
7
  10
 1454.6041058713
  20
 1243.7280343070
  30
0.0
  11
 1583.6041058713
  21
 1243.7280343070
  31
0.0
   0
ARC
   5
5E1
 100
AcDbEntity
   8
LEVEL001
 370
30
   6
CONTINUOUS
  62
7
 100
AcDbCircle
  10
 1583.6041058713
  20
 1236.7280343070
  30
0.0
  40
 7.0000000000000
 100
AcDbArc
  50
0.0
  51
 90.000000000000
   0
POINT
   5
5E2
 100
AcDbEntity
   8
LEVEL001
 100
AcDbPoint
  62
7
  10
 1590.6041058713
  20
 1243.7280343070
  30
0.0
   0
ARC
   5
5E3
 100
AcDbEntity
   8
LEVEL001
 370
30
   6
CONTINUOUS
  62
7
 100
AcDbCircle
  10
 1583.6041058713
  20
 1047.7952232352
  30
0.0
  40
 7.0000000000000
 100
AcDbArc
  50
 270.00000000000
  51
0.0
   0
POINT
   5
5E4
 100
AcDbEntity
   8
LEVEL001
 100
AcDbPoint
  62
7
  10
 1590.6041058713
  20
 1040.7952232352
  30
0.0
   0
LINE
   5
5E5
 100
AcDbEntity
   8
LEVEL001
 370
30
 100
AcDbLine
   6
CONTINUOUS
  62
7
  10
 1590.6041058713
  20
 1047.7952232352
  30
0.0
  11
 1590.6041058713
  21
 1236.7280343070
  31
0.0
   0
LINE
   5
5E6
 100
AcDbEntity
   8
LEVEL001
 370
30
 100
AcDbLine
   6
CONTINUOUS
  62
7
  10
 1352.1041058713
  20
 1122.7952232352
  30
0.0
  11
 1354.6041058713
  21
 1122.7952232352
  31
0.0
   0
ARC
   5
5E7
 100
AcDbEntity
   8
LEVEL001
 370
30
   6
CONTINUOUS
  62
7
 100
AcDbCircle
  10
 1454.6041058713
  20
 1236.7952232352
  30
0.0
  40
 7.0000000000000
 100
AcDbArc
  50
 89.999999999996
  51
 180.00000000000
   0
LINE
   5
5E8
 100
AcDbEntity
   8
LEVEL001
 370
30
 100
AcDbLine
   6
CONTINUOUS
  62
7
  10
 1352.1041058713
  20
 1102.5452232352
  30
0.0
  11
 1352.1041058713
  21
 1177.8452232352
  31
0.0
   0
LINE
   5
5E9
 100
AcDbEntity
   8
LEVEL001
 370
30
 100
AcDbLine
   6
CONTINUOUS
  62
7
  10
 1352.1041058713
  20
 1177.8452232352
  30
0.0
  11
 632.10410587131
  21
 1177.8452232352
  31
0.0
   0
LINE
   5
5EA
 100
AcDbEntity
   8
LEVEL001
 370
30
 100
AcDbLine
   6
CONTINUOUS
  62
7
  10
 1354.6041058713
  20
 1153.1952232352
  30
0.0
  11
 1352.1041058713
  21
 1153.1952232352
  31
0.0
   0
LINE
   5
5EB
 100
AcDbEntity
   8
LEVEL001
 370
30
 100
AcDbLine
   6
CONTINUOUS
  62
7
  10
 1352.1041058713
  20
 1254.1573059846
  30
0.0
  11
 1352.1041058713
  21
 1297.8349119219
  31
0.0
   0
ARC
   5
5EC
 100
AcDbEntity
   8
LEVEL001
 370
30
   6
CONTINUOUS
  62
7
 100
AcDbCircle
  10
 1348.5041058713
  20
 1261.6249119219
  30
0.0
  40
 8.2900000000000
 100
AcDbArc
  50
 229.35372634068
  51
 295.73699109545
   0
ARC
   5
5ED
 100
AcDbEntity
   8
LEVEL001
 370
30
   6
CONTINUOUS
  62
7
 100
AcDbCircle
  10
 1337.7041058713
  20
 1249.0449119219
  30
0.0
  40
 8.2900000000000
 100
AcDbArc
  50
 49.353726340630
  51
 61.936727912935
   0
LINE
   5
5EE
 100
AcDbEntity
   8
LEVEL001
 370
30
 100
AcDbLine
   6
CONTINUOUS
  62
7
  10
 1628.6041058713
  20
 1257.7952232352
  30
0.0
  11
 1628.6041058713
  21
 1019.7952232352
  31
0.0
   0
LINE
   5
5EF
 100
AcDbEntity
   8
LEVEL001
 370
30
 100
AcDbLine
   6
CONTINUOUS
  62
7
  10
 1628.6041058713
  20
 1257.7952232352
  30
0.0
  11
 1627.6041058713
  21
 1257.7952232352
  31
0.0
   0
LWPOLYLINE
   5
5F0
 100
AcDbEntity
   8
LEVEL001
 370
30
   6
CONTINUOUS
  62
7
 100
AcDbPolyline
  90
4
  70
0
  10
 1354.6041058713
  20
 1260.7952232352
  10
 1341.6041058713
  20
 1260.7952232352
  10
 1341.6041058713
  20
 1257.7952232352
  10
 1349.1041058713
  20
 1257.7952232352
   0
LWPOLYLINE
   5
5F1
 100
AcDbEntity
   8
LEVEL001
 370
30
   6
CONTINUOUS
  62
7
 100
AcDbPolyline
  90
4
  70
1
  10
 1354.6041058713
  20
 1127.7952232352
  10
 1349.1041058713
  20
 1127.7952232352
  10
 1349.1041058713
  20
 1257.7952232352
  10
 1354.6041058713
  20
 1257.7952232352
   0
LINE
   5
5F2
 100
AcDbEntity
   8
LEVEL001
 370
30
 100
AcDbLine
   6
CONTINUOUS
  62
7
  10
 1353.6041058713
  20
 1257.7952232352
  30
0.0
  11
 1353.6041058713
  21
 1127.7952232352
  31
0.0
   0
LINE
   5
5F3
 100
AcDbEntity
   8
LEVEL001
 370
30
 100
AcDbLine
   6
CONTINUOUS
  62
7
  10
 629.60410587131
  20
 1084.7952232352
  30
0.0
  11
 629.60410587131
  21
 1313.8869108401
  31
0.0
   0
LINE
   5
5F4
 100
AcDbEntity
   8
LEVEL001
 370
30
 100
AcDbLine
   6
CONTINUOUS
  62
7
  10
 629.60410587131
  20
 851.79522323518
  30
0.0
  11
 629.60410587131
  21
 904.29522323518
  31
0.0
   0
LINE
   5
5F5
 100
AcDbEntity
   8
LEVEL001
 370
30
 100
AcDbLine
   6
CONTINUOUS
  62
7
  10
 1312.6041058713
  20
 904.29522323518
  30
0.0
  11
 1312.6041058713
  21
 1079.2952232352
  31
0.0
   0
LWPOLYLINE
   5
5F6
 100
AcDbEntity
   8
LEVEL001
 370
30
   6
CONTINUOUS
  62
7
 100
AcDbPolyline
  90
6
  70
0
  10
 1354.6041058713
  20
 905.79522323518
  10
 1354.6041058713
  20
 851.79522323518
  10
 1627.6041058713
  20
 851.79522323518
  10
 1627.6041058713
  20
 1418.7952232352
  10
 1354.6041058713
  20
 1418.7952232352
  10
 1354.6041058713
  20
 1084.7952232352
   0
LINE
   5
5F7
 100
AcDbEntity
   8
LEVEL001
 370
30
 100
AcDbLine
   6
CONTINUOUS
  62
7
  10
 612.60410587131
  20
 1079.2952232352
  30
0.0
  11
 612.60410587131
  21
 904.29522323518
  31
0.0
   0
LINE
   5
5F8
 100
AcDbEntity
   8
LEVEL001
 370
30
 100
AcDbLine
   6
CONTINUOUS
  62
7
  10
 1312.6041058713
  20
 1079.2952232352
  30
0.0
  11
 612.60410587131
  21
 1079.2952232352
  31
0.0
   0
LINE
   5
5F9
 100
AcDbEntity
   8
LEVEL001
 370
30
 100
AcDbLine
   6
CONTINUOUS
  62
7
  10
 1312.6041058713
  20
 904.29522323518
  30
0.0
  11
 612.60410587131
  21
 904.29522323518
  31
0.0
   0
ARC
   5
5FA
 100
AcDbEntity
   8
LEVEL001
 370
30
   6
CONTINUOUS
  62
7
 100
AcDbCircle
  10
 530.60410587131
  20
 1416.7952232352
  30
0.0
  40
 2.0000000000000
 100
AcDbArc
  50
 90.000000000000
  51
 180.00000000000
   0
LINE
   5
5FB
 100
AcDbEntity
   8
LEVEL001
 370
30
 100
AcDbLine
   6
CONTINUOUS
  62
7
  10
 529.60410587131
  20
 1312.6236503601
  30
0.0
  11
 549.98992100014
  21
 1312.6236503601
  31
0.0
   0
LWPOLYLINE
   5
5FC
 100
AcDbEntity
   8
LEVEL001
 370
30
   6
CONTINUOUS
  62
7
 100
AcDbPolyline
  90
4
  70
1
  10
 1354.6041058713
  20
 1087.7952232352
  10
 530.10410587131
  20
 1087.7952232352
  10
 530.10410587131
  20
 1084.7952232352
  10
 1354.6041058713
  20
 1084.7952232352
   0
LINE
   5
5FD
 100
AcDbEntity
   8
LEVEL001
 370
30
 100
AcDbLine
   6
CONTINUOUS
  62
7
  10
 528.60410587131
  20
 1416.7952232352
  30
0.0
  11
 528.60410587131
  21
 855.79522323518
  31
0.0
   0
LINE
   5
5FE
 100
AcDbEntity
   8
LEVEL001
 370
30
 100
AcDbLine
   6
CONTINUOUS
  62
7
  10
 629.60410587131
  20
 1084.7952232352
  30
0.0
  11
 528.60410587131
  21
 1084.7952232352
  31
0.0
   0
LINE
   5
5FF
 100
AcDbEntity
   8
LEVEL001
 370
30
 100
AcDbLine
   6
CONTINUOUS
  62
7
  10
 528.60410587131
  20
 1084.7952232352
  30
0.0
  11
 528.60410587131
  21
 851.79522323518
  31
0.0
   0
LINE
   5
600
 100
AcDbEntity
   8
LEVEL001
 370
30
 100
AcDbLine
   6
CONTINUOUS
  62
7
  10
 528.60410587131
  20
 851.79522323518
  30
0.0
  11
 629.60410587131
  21
 851.79522323518
  31
0.0
   0
LINE
   5
601
 100
AcDbEntity
   8
LEVEL001
 370
30
 100
AcDbLine
   6
CONTINUOUS
  62
7
  10
 530.60410587131
  20
 1418.7952232352
  30
0.0
  11
 624.60410587131
  21
 1418.7952232352
  31
0.0
   0
LINE
   5
602
 100
AcDbEntity
   8
LEVEL001
 370
30
 100
AcDbLine
   6
CONTINUOUS
  62
7
  10
 1447.6041058713
  20
 1236.7280343070
  30
0.0
  11
 1447.6041058713
  21
 1047.7952232352
  31
0.0
   0
ARC
   5
603
 100
AcDbEntity
   8
LEVEL001
 370
30
   6
CONTINUOUS
  62
7
 100
AcDbCircle
  10
 1454.6041058713
  20
 1047.7952232352
  30
0.0
  40
 7.0000000000000
 100
AcDbArc
  50
 180.00000000000
  51
 270.00000000000
   0
POINT
   5
604
 100
AcDbEntity
   8
LEVEL001
 100
AcDbPoint
  62
7
  10
 1447.6041058713
  20
 1040.7952232352
  30
0.0
   0
LINE
   5
605
 100
AcDbEntity
   8
LEVEL001
 370
30
 100
AcDbLine
   6
CONTINUOUS
  62
7
  10
 1454.6041058713
  20
 1040.7952232352
  30
0.0
  11
 1583.6041058713
  21
 1040.7952232352
  31
0.0
   0
ARC
   5
606
 100
AcDbEntity
   8
LEVEL001
 370
30
   6
CONTINUOUS
  62
7
 100
AcDbCircle
  10
 624.40410587140
  20
 832.99522323517
  30
0.0
  40
 2.0000000000000
 100
AcDbArc
  50
 270.00000000000
  51
0.0
   0
ARC
   5
607
 100
AcDbEntity
   8
LEVEL001
 370
30
   6
CONTINUOUS
  62
7
 100
AcDbCircle
  10
 624.40410587140
  20
 832.99522323518
  30
0.0
  40
 5.2000000000000
 100
AcDbArc
  50
 269.99999999999
  51
0.0
   0
LINE
   5
608
 100
AcDbEntity
   8
LEVEL001
 370
30
 100
AcDbLine
   6
CONTINUOUS
  62
7
  10
 604.60410587131
  20
 830.99522323517
  30
0.0
  11
 604.60410587131
  21
 827.79522323518
  31
0.0
   0
LINE
   5
609
 100
AcDbEntity
   8
LEVEL001
 370
30
 100
AcDbLine
   6
CONTINUOUS
  62
7
  10
 624.40410587140
  20
 830.99522323517
  30
0.0
  11
 604.60410587131
  21
 830.99522323517
  31
0.0
   0
ARC
   5
60A
 100
AcDbEntity
   8
LEVEL001
 370
30
   6
CONTINUOUS
  62
7
 100
AcDbCircle
  10
 1359.8041058712
  20
 832.99522323517
  30
0.0
  40
 2.0000000000000
 100
AcDbArc
  50
 180.00000000000
  51
 270.00000000000
   0
ARC
   5
60B
 100
AcDbEntity
   8
LEVEL001
 370
30
   6
CONTINUOUS
  62
7
 100
AcDbCircle
  10
 1359.8041058712
  20
 832.99522323518
  30
0.0
  40
 5.2000000000000
 100
AcDbArc
  50
 180.00000000001
  51
 270.00000000001
   0
LINE
   5
60C
 100
AcDbEntity
   8
LEVEL001
 370
30
 100
AcDbLine
   6
CONTINUOUS
  62
7
  10
 1379.6041058713
  20
 830.99522323517
  30
0.0
  11
 1379.6041058713
  21
 827.79522323518
  31
0.0
   0
LINE
   5
60D
 100
AcDbEntity
   8
LEVEL001
 370
30
 100
AcDbLine
   6
CONTINUOUS
  62
7
  10
 1359.8041058712
  20
 830.99522323517
  30
0.0
  11
 1379.6041058713
  21
 830.99522323517
  31
0.0
   0
LWPOLYLINE
   5
60E
 100
AcDbEntity
   8
LEVEL001
 370
30
   6
CONTINUOUS
  62
7
 100
AcDbPolyline
  90
4
  70
1
  10
 1633.6041058713
  20
 827.79522323518
  10
 523.60410587131
  20
 827.79522323518
  10
 523.60410587131
  20
 798.79522323518
  10
 1633.6041058713
  20
 798.79522323518
   0
LINE
   5
60F
 100
AcDbEntity
   8
LEVEL001
 370
30
 100
AcDbLine
   6
CONTINUOUS
  62
7
  10
 1633.6041058713
  20
 798.79522323518
  30
0.0
  11
 1633.6041058713
  21
 167.79522323518
  31
0.0
   0
LINE
   5
610
 100
AcDbEntity
   8
LEVEL001
 370
30
 100
AcDbLine
   6
CONTINUOUS
  62
7
  10
 1604.6041058713
  20
 167.79522323518
  30
0.0
  11
 1604.6041058713
  21
 798.79522323518
  31
0.0
   0
LINE
   5
611
 100
AcDbEntity
   8
LEVEL001
 370
30
 100
AcDbLine
   6
CONTINUOUS
  62
7
  10
 1354.6041058713
  20
 1084.7952232352
  30
0.0
  11
 1354.6041058713
  21
 1418.7952232352
  31
0.0
   0
LINE
   5
612
 100
AcDbEntity
   8
LEVEL001
 370
30
 100
AcDbLine
   6
CONTINUOUS
  62
7
  10
 1353.6041058713
  20
 1387.4182745349
  30
0.0
  11
 1353.6041058713
  21
 1452.8898155075
  31
0.0
   0
LINE
   5
613
 100
AcDbEntity
   8
LEVEL001
 370
30
 100
AcDbLine
   6
CONTINUOUS
  62
7
  10
 829.60410587131
  20
 1452.8898155075
  30
0.0
  11
 1353.6041058713
  21
 1452.8898155075
  31
0.0
   0
LINE
   5
614
 100
AcDbEntity
   8
LEVEL001
 370
30
 100
AcDbLine
   6
CONTINUOUS
  62
7
  10
 630.10410587131
  20
 1432.6471544618
  30
0.0
  11
 1354.1041058713
  21
 1432.6471544618
  31
0.0
   0
LINE
   5
615
 100
AcDbEntity
   8
LEVEL001
 370
30
 100
AcDbLine
   6
CONTINUOUS
  62
7
  10
 1354.1041058713
  20
 1432.0173719061
  30
0.0
  11
 630.10410587131
  21
 1432.0173719061
  31
0.0
   0
LINE
   5
616
 100
AcDbEntity
   8
LEVEL001
 370
30
 100
AcDbLine
   6
CONTINUOUS
  62
7
  10
 1354.1041058713
  20
 1315.5452232353
  30
0.0
  11
 1354.1041058713
  21
 1442.5360697599
  31
0.0
   0
LINE
   5
617
 100
AcDbEntity
   8
LEVEL001
 370
30
 100
AcDbLine
   6
CONTINUOUS
  62
7
  10
 630.10410587131
  20
 1315.5452232353
  30
0.0
  11
 630.10410587131
  21
 1442.5360697599
  31
0.0
   0
LINE
   5
618
 100
AcDbEntity
   8
LEVEL001
 370
30
 100
AcDbLine
   6
CONTINUOUS
  62
7
  10
 628.60410587131
  20
 1442.5360697599
  30
0.0
  11
 628.60410587131
  21
 1315.0629901882
  31
0.0
   0
LINE
   5
619
 100
AcDbEntity
   8
LEVEL001
 370
30
 100
AcDbLine
   6
CONTINUOUS
  62
7
  10
 629.60410587131
  20
 1442.5360697599
  30
0.0
  11
 629.60410587131
  21
 1418.7952232352
  31
0.0
   0
LINE
   5
61A
 100
AcDbEntity
   8
LEVEL001
 370
30
 100
AcDbLine
   6
CONTINUOUS
  62
7
  10
 846.60410587131
  20
 1452.8898155075
  30
0.0
  11
 846.60410587131
  21
 1442.5360697599
  31
0.0
   0
LINE
   5
61B
 100
AcDbEntity
   8
LEVEL001
 370
30
 100
AcDbLine
   6
CONTINUOUS
  62
7
  10
 829.60410587131
  20
 1442.5360697599
  30
0.0
  11
 829.60410587131
  21
 1452.8898155075
  31
0.0
   0
LINE
   5
61C
 100
AcDbEntity
   8
LEVEL001
 370
30
 100
AcDbLine
   6
CONTINUOUS
  62
7
  10
 1353.6041058713
  20
 1434.5128668072
  30
0.0
  11
 1353.6041058713
  21
 1442.5360697599
  31
0.0
   0
LINE
   5
61D
 100
AcDbEntity
   8
LEVEL001
 370
30
 100
AcDbLine
   6
CONTINUOUS
  62
7
  10
 1336.6041058713
  20
 1442.5360697599
  30
0.0
  11
 1336.6041058713
  21
 1452.8898155075
  31
0.0
   0
LINE
   5
61E
 100
AcDbEntity
   8
LEVEL001
 370
30
 100
AcDbLine
   6
CONTINUOUS
  62
7
  10
 628.60410587131
  20
 1442.5360697599
  30
0.0
  11
 1354.1041058713
  21
 1442.5360697599
  31
0.0
   0
LINE
   5
61F
 100
AcDbEntity
   8
LEVEL001
 370
30
 100
AcDbLine
   6
CONTINUOUS
  62
7
  10
 1352.1041058713
  20
 1297.8349119219
  30
0.0
  11
 1352.1041058713
  21
 1336.9968384550
  31
0.0
   0
LINE
   5
620
 100
AcDbEntity
   8
LEVEL001
 370
30
 100
AcDbLine
   6
CONTINUOUS
  62
7
  10
 632.10410587131
  20
 1306.5028219465
  30
0.0
  11
 632.10410587131
  21
 1336.9968384550
  31
0.0
   0
LINE
   5
621
 100
AcDbEntity
   8
LEVEL001
 370
30
 100
AcDbLine
   6
CONTINUOUS
  62
7
  10
 631.60410587131
  20
 1356.0146601349
  30
0.0
  11
 631.60410587131
  21
 1336.9968384550
  31
0.0
   0
LINE
   5
622
 100
AcDbEntity
   8
LEVEL001
 370
30
 100
AcDbLine
   6
CONTINUOUS
  62
7
  10
 631.60410587131
  20
 1336.9968384550
  30
0.0
  11
 1354.1041058713
  21
 1336.9968384550
  31
0.0
   0
LINE
   5
623
 100
AcDbEntity
   8
LEVEL001
 370
30
 100
AcDbLine
   6
CONTINUOUS
  62
7
  10
 604.60410587131
  20
 1419.7952232352
  30
0.0
  11
 629.60410587131
  21
 1419.7952232352
  31
0.0
   0
LINE
   5
624
 100
AcDbEntity
   8
LEVEL001
 370
30
 100
AcDbLine
   6
CONTINUOUS
  62
7
  10
 644.60410587131
  20
 1442.5360697599
  30
0.0
  11
 644.60410587131
  21
 1432.0173719061
  31
0.0
   0
LINE
   5
625
 100
AcDbEntity
   8
LEVEL001
 370
30
 100
AcDbLine
   6
CONTINUOUS
  62
7
  10
 624.60410587131
  20
 1418.7952232352
  30
0.0
  11
 629.60410587131
  21
 1418.7952232352
  31
0.0
   0
DIMENSION
   5
626
 100
AcDbEntity
   8
LEVEL001
 370
30
   6
CONTINUOUS
  62
7
 100
AcDbDimension
   2
*D3
  10
 1633.6041058713
  20
 1527.9779343454
  30
0.0
  11
 1078.6041058713
  21
 1527.9779343454
  31
0.0
  70
0
   3
GMM001
 100
AcDbAlignedDimension
  13
 523.60410587131
  23
 1409.7821785604
  33
0.0
  14
 1633.6041058713
  24
 1260.7952232352
  34
0.0
 100
AcDbRotatedDimension
   0
MTEXT
   5
628
 100
AcDbEntity
   8
LEVEL001
 370
9
  62
1
 100
AcDbMText
  10
 820.47173096466
  20
 973.83069746968
  30
0.0
  40
 32.000000000000
  41
0.0
  71
5
  72
1
   1
\T1.000000;さぬき一番
   7
GMM001
  44
 0.79999984000003
   0
INSERT
   5
629
 100
AcDbEntity
   8
0
 100
AcDbBlockReference
   2
BLOCK004
  10
0.0
  20
0.0
  30
0.0
   0
INSERT
   5
62A
 100
AcDbEntity
   8
0
 100
AcDbBlockReference
   2
BLOCK005
  10
0.0
  20
0.0
  30
0.0
   0
MTEXT
   5
62C
 100
AcDbEntity
   8
LEVEL001
 370
9
  62
1
 100
AcDbMText
  10
 827.58921391387
  20
 532.75857265434
  30
0.0
  40
 32.000000000000
  41
0.0
  71
2
  72
1
   1
{\T1.000000;スーパーニーダー}\P{\T1.000000;　ＳＮ－６Ｐ}
   7
GMM001
  44
 0.79999984000003
   0
MTEXT
   5
62E
 100
AcDbEntity
   8
LEVEL001
 370
9
  62
1
 100
AcDbMText
  10
 1075.5459481387
  20
 452.17828518364
  30
0.0
  40
 32.000000000000
  41
0.0
  71
4
  72
1
   1
{\W1.000000;\T1.000000;ローリングプレス}\P{\W0.500000;\T1.000000;  \W1.000000;\T1.000000;ＲＰ－３Ｋ}
   7
GMM001
  44
 0.79999984000003
   0
ELLIPSE
   5
62F
 100
AcDbEntity
   8
LEVEL001
 370
30
   6
CONTINUOUS
  62
7
 100
AcDbEllipse
  10
 554.71369865815
  20
 1402.7952232352
  30
0.0
  11
-20.000000000000
  21
0.0
  31
0.0
  40
 0.80000000000000
  41
0.0
  42
 6.2831853071796
   0
ELLIPSE
   5
630
 100
AcDbEntity
   8
LEVEL001
 370
30
   6
CONTINUOUS
  62
7
 100
AcDbEllipse
  10
 554.71369865815
  20
 1398.5525825481
  30
0.0
  11
-20.000000000000
  21
0.0
  31
0.0
  40
 0.80000000000000
  41
 2.1300060570812
  42
-3.0086186017183
   0
ELLIPSE
   5
631
 100
AcDbEntity
   8
LEVEL001
 370
30
   6
CONTINUOUS
  62
7
 100
AcDbEllipse
  10
 554.71369865815
  20
 1385.4711070960
  30
0.0
  11
-15.200000000000
  21
0.0
  31
0.0
  40
 0.65789473684211
  41
 2.9382869978772
  42
-2.9084871995546
   0
ELLIPSE
   5
632
 100
AcDbEntity
   8
LEVEL001
 370
30
   6
CONTINUOUS
  62
7
 100
AcDbEllipse
  10
 554.71369865815
  20
 1398.5525825481
  30
0.0
  11
-20.000000000000
  21
0.0
  31
0.0
  40
 0.80000000000000
  41
-0.13297405187152
  42
 2.1300060570812
   0
ELLIPSE
   5
633
 100
AcDbEntity
   8
LEVEL001
 370
30
   6
CONTINUOUS
  62
7
 100
AcDbEllipse
  10
 554.71369865815
  20
 1385.4711070960
  30
0.0
  11
-15.200000000000
  21
0.0
  31
0.0
  40
 0.65789473684211
  41
-0.23310545403521
  42
 2.9382869978772
   0
ELLIPSE
   5
634
 100
AcDbEntity
   8
LEVEL001
 370
30
   6
CONTINUOUS
  62
7
 100
AcDbEllipse
  10
 554.71369865815
  20
 1350.5647647840
  30
0.0
  11
-14.500000000000
  21
0.0
  31
0.0
  40
 0.66670774868224
  41
 2.8545248247758
  42
 0.99109122164060
   0
LINE
   5
635
 100
AcDbEntity
   8
LEVEL001
 370
30
 100
AcDbLine
   6
CONTINUOUS
  62
7
  10
 540.21369865815
  20
 1340.7866012638
  30
0.0
  11
 540.21369865815
  21
 1350.5647647840
  31
0.0
   0
ELLIPSE
   5
636
 100
AcDbEntity
   8
LEVEL001
 370
30
   6
CONTINUOUS
  62
7
 100
AcDbEllipse
  10
 554.71369865815
  20
 1340.7866012638
  30
0.0
  11
-14.500000000000
  21
0.0
  31
0.0
  40
 0.66670774868224
  41
-0.24492127076448E-15
  42
 0.58894374887801
   0
LINE
   5
637
 100
AcDbEntity
   8
LEVEL001
 370
30
 100
AcDbLine
   6
CONTINUOUS
  62
7
  10
 569.21369865815
  20
 1347.5953522235
  30
0.0
  11
 569.21369865815
  21
 1350.5647647840
  31
0.0
   0
LINE
   5
638
 100
AcDbEntity
   8
LEVEL001
 370
30
 100
AcDbLine
   6
CONTINUOUS
  62
7
  10
 1906.7152326749
  20
 167.79522323518
  30
0.0
  11
 3466.9868095079
  21
 167.79522323518
  31
0.0
   0
LWPOLYLINE
   5
639
 100
AcDbEntity
   8
LEVEL001
 370
9
   6
DIVIDE
  62
1
 100
AcDbPolyline
  90
3
  70
0
  10
 2696.9868095079
  20
 777.29522323518
  10
 1971.9868095079
  20
 777.29522323518
  10
 1971.9868095079
  20
 167.79522323518
   0
DIMENSION
   5
63A
 100
AcDbEntity
   8
LEVEL001
 370
30
   6
CONTINUOUS
  62
7
 100
AcDbDimension
   2
*D4
  10
 1633.6041058713
  20
 65.280214788198
  30
0.0
  11
 1078.6041058713
  21
 73.280214788198
  31
0.0
  70
128
   3
GMM003
 100
AcDbAlignedDimension
  13
 523.60410587131
  23
 180.79522323518
  33
0.0
  14
 1633.6041058713
  24
 180.79522323518
  34
0.0
 100
AcDbRotatedDimension
   0
DIMENSION
   5
63B
 100
AcDbEntity
   8
LEVEL001
 370
30
   6
CONTINUOUS
  62
7
 100
AcDbDimension
   2
*D5
  10
 3421.9868095079
  20
 65.280214788198
  30
0.0
  11
 2696.9868095079
  21
 65.280214788198
  31
0.0
  70
0
   3
GMM001
 100
AcDbAlignedDimension
  13
 1971.9868095079
  23
 167.79522323518
  33
0.0
  14
 3421.9868095079
  24
 167.79522323518
  34
0.0
 100
AcDbRotatedDimension
   0
LINE
   5
63C
 100
AcDbEntity
   8
LEVEL001
 370
30
 100
AcDbLine
   6
CONTINUOUS
  62
7
  10
 3421.9868095079
  20
 834.44838694458
  30
0.0
  11
 3421.9868095079
  21
 167.79522323518
  31
0.0
   0
DIMENSION
   5
63D
 100
AcDbEntity
   8
LEVEL001
 370
30
   6
CONTINUOUS
  62
7
 100
AcDbDimension
   2
*D6
  10
 356.13793103448
  20
 827.79522323518
  30
0.0
  11
 356.13793103448
  21
 497.79522323518
  31
0.0
  70
0
   3
GMM001
 100
AcDbAlignedDimension
  13
 488.60410587131
  23
 167.79522323518
  33
0.0
  14
 518.79187309454
  24
 827.79522323518
  34
0.0
  50
 90.000000000000
 100
AcDbRotatedDimension
   0
DIMENSION
   5
63E
 100
AcDbEntity
   8
LEVEL001
 370
30
   6
CONTINUOUS
  62
7
 100
AcDbDimension
   2
*D7
  10
 356.13793103448
  20
 1457.7952232352
  30
0.0
  11
 356.13793103448
  21
 1142.7952232352
  31
0.0
  70
0
   3
GMM001
 100
AcDbAlignedDimension
  13
 518.79187309454
  23
 827.79522323518
  33
0.0
  14
 491.12969293091
  24
 1457.7952232352
  34
0.0
  50
 90.000000000000
 100
AcDbRotatedDimension
   0
DIMENSION
   5
63F
 100
AcDbEntity
   8
LEVEL001
 370
30
   6
CONTINUOUS
  62
7
 100
AcDbDimension
   2
*D8
  10
 275.03448275862
  20
 167.79522323518
  30
0.0
  11
 275.03448275862
  21
 812.79522323518
  31
0.0
  70
0
   3
GMM001
 100
AcDbAlignedDimension
  13
 491.12969293091
  23
 1457.7952232352
  33
0.0
  14
 488.60410587131
  24
 167.79522323518
  34
0.0
  50
 270.00000000000
 100
AcDbRotatedDimension
   0
MTEXT
   5
641
 100
AcDbEntity
   8
LEVEL001
 370
30
  62
7
 100
AcDbMText
  10
 3710.1932373619
  20
 224.00000000000
  30
0.0
  40
 32.000000000000
  41
0.0
  71
7
  72
1
   1
\W1.000000;\T1.000000;さぬき一番\W0.500000;\T1.000000; AP-6 3K
   7
GMM001
  44
 0.79999984000003
   0
MTEXT
   5
643
 100
AcDbEntity
   8
LEVEL001
 370
30
  62
7
 100
AcDbMText
  10
 4310.1932373619
  20
 224.00000000000
  30
0.0
  40
 32.000000000000
  41
0.0
  71
7
  72
1
   1
\T1.000000;SI-AP6-3K-A
   7
GMM004
  44
 0.79999984000003
   0
MTEXT
   5
645
 100
AcDbEntity
   8
LEVEL001
 370
30
  62
7
 100
AcDbMText
  10
 4278.3448275862
  20
 309.88505747126
  30
0.0
  40
 32.000000000000
  41
0.0
  71
7
  72
1
   1
\W0.500000;\T1.000000;'22.03.17\W1.000000;\T1.000000;　変更　\W0.500000;\T1.000000;H.M
   7
GMM001
  44
 0.79999984000003
   0
LINE
   5
646
 100
AcDbEntity
   8
LEVEL001
 370
30
 100
AcDbLine
   6
CONTINUOUS
  62
7
  10
 3322.1932373619
  20
 2712.1379310345
  30
0.0
  11
 4538.1932373619
  21
 2712.1379310345
  31
0.0
   0
LINE
   5
647
 100
AcDbEntity
   8
LEVEL001
 370
30
 100
AcDbLine
   6
CONTINUOUS
  62
7
  10
 3331.5265706952
  20
 2648.1379310345
  30
0.0
  11
 4538.1932373619
  21
 2648.1379310345
  31
0.0
   0
LINE
   5
648
 100
AcDbEntity
   8
LEVEL001
 370
30
 100
AcDbLine
   6
CONTINUOUS
  62
7
  10
 3322.1932373619
  20
 2584.1379310345
  30
0.0
  11
 4538.1932373619
  21
 2584.1379310345
  31
0.0
   0
LINE
   5
649
 100
AcDbEntity
   8
LEVEL001
 370
30
 100
AcDbLine
   6
CONTINUOUS
  62
7
  10
 3222.1932373619
  20
 2520.1379310345
  30
0.0
  11
 4538.1932373619
  21
 2520.1379310345
  31
0.0
   0
LINE
   5
64A
 100
AcDbEntity
   8
LEVEL001
 370
30
 100
AcDbLine
   6
CONTINUOUS
  62
7
  10
 3222.1932373619
  20
 2520.1379310345
  30
0.0
  11
 3322.1932373619
  21
 2776.1379310345
  31
0.0
   0
LINE
   5
64B
 100
AcDbEntity
   8
LEVEL001
 370
30
 100
AcDbLine
   6
CONTINUOUS
  62
7
  10
 3322.1932373619
  20
 2456.1379310345
  30
0.0
  11
 4538.1932373619
  21
 2456.1379310345
  31
0.0
   0
LINE
   5
64C
 100
AcDbEntity
   8
LEVEL001
 370
30
 100
AcDbLine
   6
CONTINUOUS
  62
7
  10
 3322.1932373619
  20
 2392.1379310345
  30
0.0
  11
 4538.1932373619
  21
 2392.1379310345
  31
0.0
   0
LINE
   5
64D
 100
AcDbEntity
   8
LEVEL001
 370
30
 100
AcDbLine
   6
CONTINUOUS
  62
7
  10
 3322.1932373619
  20
 2328.1379310345
  30
0.0
  11
 4538.1932373619
  21
 2328.1379310345
  31
0.0
   0
LINE
   5
64E
 100
AcDbEntity
   8
LEVEL001
 370
30
 100
AcDbLine
   6
CONTINUOUS
  62
7
  10
 3322.1932373619
  20
 2264.1379310345
  30
0.0
  11
 4538.1932373619
  21
 2264.1379310345
  31
0.0
   0
LINE
   5
64F
 100
AcDbEntity
   8
LEVEL001
 370
30
 100
AcDbLine
   6
CONTINUOUS
  62
7
  10
 3322.1932373619
  20
 2200.1379310345
  30
0.0
  11
 4538.1932373619
  21
 2200.1379310345
  31
0.0
   0
LINE
   5
650
 100
AcDbEntity
   8
LEVEL001
 370
30
 100
AcDbLine
   6
CONTINUOUS
  62
7
  10
 4538.1932373619
  20
 2072.1379310345
  30
0.0
  11
 3222.1932373619
  21
 2072.1379310345
  31
0.0
   0
LINE
   5
651
 100
AcDbEntity
   8
LEVEL001
 370
30
 100
AcDbLine
   6
CONTINUOUS
  62
7
  10
 3222.1932373619
  20
 2840.1379310345
  30
0.0
  11
 4538.1932373619
  21
 2840.1379310345
  31
0.0
   0
LINE
   5
652
 100
AcDbEntity
   8
LEVEL001
 370
30
 100
AcDbLine
   6
CONTINUOUS
  62
7
  10
 3222.1932373619
  20
 2904.1379310345
  30
0.0
  11
 4538.1932373619
  21
 2904.1379310345
  31
0.0
   0
LINE
   5
653
 100
AcDbEntity
   8
LEVEL001
 370
30
 100
AcDbLine
   6
CONTINUOUS
  62
7
  10
 3222.1932373619
  20
 2968.1379310345
  30
0.0
  11
 4538.1932373619
  21
 2968.1379310345
  31
0.0
   0
LINE
   5
654
 100
AcDbEntity
   8
LEVEL001
 370
30
 100
AcDbLine
   6
CONTINUOUS
  62
7
  10
 3222.1932373619
  20
 3032.1379310345
  30
0.0
  11
 4538.1932373619
  21
 3032.1379310345
  31
0.0
   0
LINE
   5
655
 100
AcDbEntity
   8
LEVEL001
 370
30
 100
AcDbLine
   6
CONTINUOUS
  62
7
  10
 3222.1932373619
  20
 2776.1379310345
  30
0.0
  11
 4538.1932373619
  21
 2776.1379310345
  31
0.0
   0
LINE
   5
656
 100
AcDbEntity
   8
LEVEL001
 370
30
 100
AcDbLine
   6
CONTINUOUS
  62
7
  10
 3222.1932373619
  20
 2072.1379310345
  30
0.0
  11
 3222.1932373619
  21
 3032.1379310345
  31
0.0
   0
LINE
   5
657
 100
AcDbEntity
   8
LEVEL001
 370
30
 100
AcDbLine
   6
CONTINUOUS
  62
7
  10
 3322.1932373619
  20
 2776.1379310345
  30
0.0
  11
 3322.1932373619
  21
 2072.1379310345
  31
0.0
   0
LINE
   5
658
 100
AcDbEntity
   8
LEVEL001
 370
30
 100
AcDbLine
   6
CONTINUOUS
  62
7
  10
 3671.5265706952
  20
 3032.1379310345
  30
0.0
  11
 3671.5265706952
  21
 2072.1379310345
  31
0.0
   0
LINE
   5
659
 100
AcDbEntity
   8
LEVEL001
 370
30
 100
AcDbLine
   6
CONTINUOUS
  62
7
  10
 4538.1932373619
  20
 3032.1379310345
  30
0.0
  11
 4538.1932373619
  21
 2072.1379310345
  31
0.0
   0
MTEXT
   5
65B
 100
AcDbEntity
   8
LEVEL001
 370
9
  62
1
 100
AcDbMText
  10
 3331.5265706952
  20
 2338.8045977012
  30
0.0
  40
 32.000000000000
  41
0.0
  71
7
  72
1
   1
\T1.000000;ベルトコンベア－
   7
GMM001
  44
 0.79999984000003
   0
MTEXT
   5
65D
 100
AcDbEntity
   8
LEVEL001
 370
9
  62
1
 100
AcDbMText
  10
 3331.5265706952
  20
 2274.8045977012
  30
0.0
  40
 32.000000000000
  41
0.0
  71
7
  72
1
   1
\T1.000000;包丁刃
   7
GMM001
  44
 0.79999984000003
   0
MTEXT
   5
65F
 100
AcDbEntity
   8
LEVEL001
 370
9
  62
1
 100
AcDbMText
  10
 3679.5265706952
  20
 2273.4712643678
  30
0.0
  40
 32.000000000000
  41
0.0
  71
7
  72
1
   1
\T1.000000;ＳＵＳ　（長さ３６０）
   7
GMM001
  44
 0.79999984000003
   0
MTEXT
   5
661
 100
AcDbEntity
   8
LEVEL001
 370
9
  62
1
 100
AcDbMText
  10
 3280.1932373619
  20
 2601.1379310345
  30
0.0
  40
 32.000000000000
  41
0.0
  71
4
  72
1
   1
{\T1.000000;能}\P{\T1.000000;力}
   7
GMM001
  44
 0.79999984000003
   0
MTEXT
   5
663
 100
AcDbEntity
   8
LEVEL001
 370
9
  62
1
 100
AcDbMText
  10
 3228.1932373619
  20
 2773.1379310345
  30
0.0
  40
 32.000000000000
  41
0.0
  71
1
  72
1
   1
{\T1.000000;消}\P{\T1.000000;費}\P{\T1.000000;電}\P{\T1.000000;力}
   7
GMM001
  44
 0.79999984000003
   0
MTEXT
   5
665
 100
AcDbEntity
   8
LEVEL001
 370
9
  62
1
 100
AcDbMText
  10
 3326.8158154505
  20
 2530.8045977012
  30
0.0
  40
 32.000000000000
  41
0.0
  71
7
  72
1
   1
\T1.000000;（合計）
   7
GMM001
  44
 0.79999984000003
   0
MTEXT
   5
667
 100
AcDbEntity
   8
LEVEL001
 370
9
  62
1
 100
AcDbMText
  10
 3679.5265706952
  20
 2721.4712643678
  30
0.0
  40
 32.000000000000
  41
0.0
  71
7
  72
1
   1
\T1.000000;　１００Ｗ　／　３～６ｋｇ／回（ミキシング）
   7
GMM001
  44
 0.79999984000003
   0
MTEXT
   5
669
 100
AcDbEntity
   8
LEVEL001
 370
9
  62
1
 100
AcDbMText
  10
 3331.5265706952
  20
 2466.8045977012
  30
0.0
  40
 32.000000000000
  41
0.0
  71
7
  72
1
   1
\T1.000000;凹凸ロ－ル、平ロ－ル
   7
GMM001
  44
 0.79999984000003
   0
MTEXT
   5
66B
 100
AcDbEntity
   8
LEVEL001
 370
9
  62
1
 100
AcDbMText
  10
 3679.5265706952
  20
 2465.4712643678
  30
0.0
  40
 32.000000000000
  41
0.0
  71
7
  72
1
   1
\T1.000000;ポリプロピレン　（長さ７２０）
   7
GMM001
  44
 0.79999984000003
   0
MTEXT
   5
66D
 100
AcDbEntity
   8
LEVEL001
 370
9
  62
1
 100
AcDbMText
  10
 3679.5265706952
  20
 2401.4712643678
  30
0.0
  40
 32.000000000000
  41
0.0
  71
7
  72
1
   1
\T1.000000;ＳＵＳ３０４
   7
GMM001
  44
 0.79999984000003
   0
MTEXT
   5
66F
 100
AcDbEntity
   8
LEVEL001
 370
9
  62
1
 100
AcDbMText
  10
 3331.5265706952
  20
 2402.8045977012
  30
0.0
  40
 32.000000000000
  41
0.0
  71
7
  72
1
   1
\T1.000000;凹凸ロ－ル（プレス機）
   7
GMM001
  44
 0.79999984000003
   0
MTEXT
   5
671
 100
AcDbEntity
   8
LEVEL001
 370
9
  62
1
 100
AcDbMText
  10
 3331.5265706952
  20
 2146.8045977012
  30
0.0
  40
 32.000000000000
  41
0.0
  71
7
  72
1
   1
\T1.000000;安全カバ－類
   7
GMM001
  44
 0.79999984000003
   0
MTEXT
   5
673
 100
AcDbEntity
   8
LEVEL001
 370
9
  62
1
 100
AcDbMText
  10
 3331.5265706952
  20
 2082.8045977012
  30
0.0
  40
 32.000000000000
  41
0.0
  71
7
  72
1
   1
\T1.000000;下部台
   7
GMM001
  44
 0.79999984000003
   0
MTEXT
   5
675
 100
AcDbEntity
   8
LEVEL001
 370
9
  62
1
 100
AcDbMText
  10
 3331.5265706952
  20
 2210.8045977012
  30
0.0
  40
 32.000000000000
  41
0.0
  71
7
  72
1
   1
\T1.000000;羽根
   7
GMM001
  44
 0.79999984000003
   0
MTEXT
   5
677
 100
AcDbEntity
   8
LEVEL001
 370
9
  62
1
 100
AcDbMText
  10
 3260.1932373619
  20
 2438.1379310345
  30
0.0
  40
 32.000000000000
  41
0.0
  71
1
  72
1
   1
{\T1.000000;材}\P\P\P\P{\T1.000000;料}
   7
GMM001
  44
 0.79999984000003
   0
MTEXT
   5
679
 100
AcDbEntity
   8
LEVEL001
 370
9
  62
1
 100
AcDbMText
  10
 3679.5265706952
  20
 2081.4712643678
  30
0.0
  40
 32.000000000000
  41
0.0
  71
7
  72
1
   1
\T1.000000;ＳＵＳ４３０
   7
GMM001
  44
 0.79999984000003
   0
MTEXT
   5
67B
 100
AcDbEntity
   8
LEVEL001
 370
9
  62
1
 100
AcDbMText
  10
 3679.5265706952
  20
 2977.4712643678
  30
0.0
  40
 32.000000000000
  41
0.0
  71
7
  72
1
   1
\T1.000000;手打麺機
   7
GMM001
  44
 0.79999984000003
   0
MTEXT
   5
67D
 100
AcDbEntity
   8
LEVEL001
 370
9
  62
1
 100
AcDbMText
  10
 3330.1932373619
  20
 2977.4712643678
  30
0.0
  40
 32.000000000000
  41
0.0
  71
7
  72
1
   1
\T1.000000;製　　品　　名
   7
GMM001
  44
 0.79999984000003
   0
MTEXT
   5
67F
 100
AcDbEntity
   8
LEVEL001
 370
9
  62
1
 100
AcDbMText
  10
 3330.1932373619
  20
 2913.4712643678
  30
0.0
  40
 32.000000000000
  41
0.0
  71
7
  72
1
   1
\T1.000000;型　　　　　式
   7
GMM001
  44
 0.79999984000003
   0
MTEXT
   5
681
 100
AcDbEntity
   8
LEVEL001
 370
9
  62
1
 100
AcDbMText
  10
 3330.1932373619
  20
 2849.4712643678
  30
0.0
  40
 32.000000000000
  41
0.0
  71
7
  72
1
   1
\W1.000000;\T1.000000;寸法\W0.500000;\T1.000000;(\W1.000000;\T1.000000;Ｗ×Ｄ×Ｈ）
   7
GMM001
  44
 0.79999984000003
   0
MTEXT
   5
683
 100
AcDbEntity
   8
LEVEL001
 370
9
  62
1
 100
AcDbMText
  10
 3330.1932373619
  20
 2785.4712643678
  30
0.0
  40
 32.000000000000
  41
0.0
  71
7
  72
1
   1
\T1.000000;電　　　　　源
   7
GMM001
  44
 0.79999984000003
   0
MTEXT
   5
685
 100
AcDbEntity
   8
LEVEL001
 370
9
  62
1
 100
AcDbMText
  10
 3679.5265706952
  20
 2593.4712643678
  30
0.0
  40
 32.000000000000
  41
0.0
  71
7
  72
1
   1
\T1.000000;　３４５Ｗ　／　３００食／時（製麺能力）
   7
GMM001
  44
 0.79999984000003
   0
MTEXT
   5
687
 100
AcDbEntity
   8
LEVEL001
 370
9
  62
1
 100
AcDbMText
  10
 3679.5265706952
  20
 2209.4712643678
  30
0.0
  40
 32.000000000000
  41
0.0
  71
7
  72
1
   1
\T1.000000;ＳＵＳ３０４
   7
GMM001
  44
 0.79999984000003
   0
MTEXT
   5
689
 100
AcDbEntity
   8
LEVEL001
 370
9
  62
1
 100
AcDbMText
  10
 3679.5265706952
  20
 2337.4712643678
  30
0.0
  40
 32.000000000000
  41
0.0
  71
7
  72
1
   1
\T1.000000;樹脂ベルト　ＮＰ４００４
   7
GMM001
  44
 0.79999984000003
   0
MTEXT
   5
68B
 100
AcDbEntity
   8
LEVEL001
 370
9
  62
1
 100
AcDbMText
  10
 3679.5265706952
  20
 2145.4712643678
  30
0.0
  40
 32.000000000000
  41
0.0
  71
7
  72
1
   1
\T1.000000;ＳＵＳ４３０　ＳＵＳ３０４
   7
GMM001
  44
 0.79999984000003
   0
MTEXT
   5
68D
 100
AcDbEntity
   8
LEVEL001
 370
9
  62
1
 100
AcDbMText
  10
 3331.5265706952
  20
 2722.8045977012
  30
0.0
  40
 32.000000000000
  41
0.0
  71
7
  72
1
   1
\T1.000000;ＳＮ－６Ｐ
   7
GMM001
  44
 0.79999984000003
   0
MTEXT
   5
68F
 100
AcDbEntity
   8
LEVEL001
 370
9
  62
1
 100
AcDbMText
  10
 3331.5265706952
  20
 2594.8045977012
  30
0.0
  40
 32.000000000000
  41
0.0
  71
7
  72
1
   1
\T1.000000;さぬき一番
   7
GMM001
  44
 0.79999984000003
   0
MTEXT
   5
691
 100
AcDbEntity
   8
LEVEL001
 370
9
  62
1
 100
AcDbMText
  10
 3679.5265706952
  20
 2849.4712643678
  30
0.0
  40
 32.000000000000
  41
0.0
  71
7
  72
1
   1
\T1.000000;１，１１０×７２５×１，２９０
   7
GMM001
  44
 0.79999984000003
   0
MTEXT
   5
693
 100
AcDbEntity
   8
LEVEL001
 370
9
  62
1
 100
AcDbMText
  10
 3331.5265706952
  20
 2658.8045977012
  30
0.0
  40
 32.000000000000
  41
0.0
  71
7
  72
1
   1
\T1.000000;ＲＰ－３Ｋ
   7
GMM001
  44
 0.79999984000003
   0
MTEXT
   5
695
 100
AcDbEntity
   8
LEVEL001
 370
9
  62
1
 100
AcDbMText
  10
 3679.5265706952
  20
 2657.4712643678
  30
0.0
  40
 32.000000000000
  41
0.0
  71
7
  72
1
   1
\T1.000000;　２００Ｗ　／　３ｋｇ／回（プレス）
   7
GMM001
  44
 0.79999984000003
   0
MTEXT
   5
697
 100
AcDbEntity
   8
LEVEL001
 370
9
  62
1
 100
AcDbMText
  10
 3674.8158154505
  20
 2529.4712643678
  30
0.0
  40
 32.000000000000
  41
0.0
  71
7
  72
1
   1
\T1.000000;（６４５Ｗ）
   7
GMM001
  44
 0.79999984000003
   0
MTEXT
   5
699
 100
AcDbEntity
   8
LEVEL001
 370
9
  62
1
 100
AcDbMText
  10
 3679.5265706952
  20
 2913.4712643678
  30
0.0
  40
 32.000000000000
  41
0.0
  71
7
  72
1
   1
\W1.000000;\T1.000000;さぬき一番ＡＰ－６\W0.500000;\T1.000000;  \W1.000000;\T1.000000;３Ｋ
   7
GMM001
  44
 0.79999984000003
   0
LINE
   5
69A
 100
AcDbEntity
   8
LEVEL001
 370
30
 100
AcDbLine
   6
CONTINUOUS
  62
7
  10
 4538.1932373619
  20
 2136.1379310345
  30
0.0
  11
 3322.1932373619
  21
 2136.1379310345
  31
0.0
   0
MTEXT
   5
69C
 100
AcDbEntity
   8
LEVEL001
 370
9
  62
1
 100
AcDbMText
  10
 3679.5265706952
  20
 2785.4712643678
  30
0.0
  40
 32.000000000000
  41
0.0
  71
7
  72
1
   1
\T1.000000;単相１００Ｖ　５０／６０Ｈｚ
   7
GMM001
  44
 0.79999984000003
   0
ENDSEC
  0
SECTION
  2
OBJECTS
  0
DICTIONARY
  5
C
100
AcDbDictionary
  3
ACAD_GROUP
350
D
  3
ACAD_MLINESTYLE
350
1B
  3
DWGPROPS
350
1C
  0
DICTIONARY
  5
D
102
{ACAD_REACTORS
330
C
102
}
100
AcDbDictionary
  0
DICTIONARY
  5
1B
102
{ACAD_REACTORS
330
C
102
}
100
AcDbDictionary
  3
STANDARD
350
1D
  0
MLINESTYLE
  5
1D
102
{ACAD_REACTORS
330
1B
102
}
100
AcDbMlineStyle
  2
STANDARD
 70
     0
  3

 62
   256
 51
90.0
 52
90.0
 71
     2
 49
0.5
 62
   256
  6
BYLAYER
 49
-0.5
 62
   256
  6
BYLAYER
   0
XRECORD
   5
1C
 102
{ACAD_REACTORS
 330
C
 102
}
 330
C
 100
AcDbXrecord
 280
1
   1
DWGPROPS COOKIE
   2
さぬき一番AP6承認図
   3
さぬき一番AP-6
   4
 
   6
 
   7
SI-AP6-3K-A
   8
 
   9

 300
 = 
 301
 = 
 302
 = 
 303
 = 
 304
 = 
 305
 = 
 306
 = 
 307
 = 
 308
 = 
 309
 = 
  40
0.0
  41
 2457107.5000000
  42
 2459656.5000000
   1

  90
10
   0
ENDSEC
   0
EOF
