   0
SECTION
   2
HEADER
   9
$ACADVER
   1
AC1015
   9
$DWGCODEPAGE
   3
ANSI_932
   9
$LIMMIN
  10
0.0
  20
0.0
   9
$LIMMAX
  10
 4752.0000000000
  20
 3360.0000000000
   9
$EXTMIN
  10
0.0
  20
0.0
  30
0.0
   9
$EXTMAX
  10
 4752.0000000000
  20
 3360.0000000000
  30
0.0
   9
$LTSCALE
  40
 95.040000000000
   9
$HANDSEED
   5
3EC
   0
ENDSEC
   0
SECTION
   2
TABLES
  0
TABLE
  2
VPORT
  5
8
100
AcDbSymbolTable
 70
     1
  0
VPORT
  5
3EB
100
AcDbSymbolTableRecord
100
AcDbViewportTableRecord
  2
*ACTIVE
 70
     0
 10
0.0
 20
0.0
 11
1.0
 21
1.0
  12
 2376.0000000000
  22
 1680.0000000000
 13
0.0
 23
0.0
 14
1.0
 24
1.0
 15
0.0
 25
0.0
 16
0.0
 26
0.0
 36
1.0
 17
0.0
 27
0.0
 37
0.0
  40
 4752.0000000000
  41
 1.4787878787879
 42
50.0
 43
0.0
 44
0.0
 50
0.0
 51
0.0
 71
     0
 72
   100
 73
     1
 74
     1
 75
     0
 76
     0
 77
     0
 78
     0
  0
ENDTAB
  0
TABLE
  2
LTYPE
  5
5
100
AcDbSymbolTable
 70
    25
  0
LTYPE
  5
12
100
AcDbSymbolTableRecord
100
AcDbLinetypeTableRecord
  2
BYBLOCK
 70
     0
  3

 72
    65
 73
     0
 40
0.0
  0
LTYPE
  5
13
100
AcDbSymbolTableRecord
100
AcDbLinetypeTableRecord
  2
BYLAYER
 70
     0
  3

 72
    65
 73
     0
 40
0.0
  0
LTYPE
  5
14
100
AcDbSymbolTableRecord
100
AcDbLinetypeTableRecord
  2
CONTINUOUS
 70
     0
  3
Solid line
 72
    65
 73
     0
 40
0.0
  0
LTYPE
  5
20
100
AcDbSymbolTableRecord
100
AcDbLinetypeTableRecord
  2
BORDER
 70
     0
  3
__ __ . __ __ . __ __ . __ __ . __ __ . __ __ .
 72
    65
 73
     6
 40
1.75
 49
0.5
 74
     0
 49
-0.25
 74
     0
 49
0.5
 74
     0
 49
-0.25
 74
     0
 49
0.0
 74
     0
 49
-0.25
 74
     0
  0
LTYPE
  5
21
100
AcDbSymbolTableRecord
100
AcDbLinetypeTableRecord
  2
BORDER2
 70
     0
  3
__.__.__.__.__.__.__.__.__.__.__.__.__.__.__.__
 72
    65
 73
     6
 40
0.875
 49
0.25
 74
     0
 49
-0.125
 74
     0
 49
0.25
 74
     0
 49
-0.125
 74
     0
 49
0.0
 74
     0
 49
-0.125
 74
     0
  0
LTYPE
  5
22
100
AcDbSymbolTableRecord
100
AcDbLinetypeTableRecord
  2
BORDERX2
 70
     0
  3
____  ____  .  ____  ____  .  ____  ____  .  __
 72
    65
 73
     6
 40
3.5
 49
1.0
 74
     0
 49
-0.5
 74
     0
 49
1.0
 74
     0
 49
-0.5
 74
     0
 49
0.0
 74
     0
 49
-0.5
 74
     0
  0
LTYPE
  5
23
100
AcDbSymbolTableRecord
100
AcDbLinetypeTableRecord
  2
CENTER
 70
     0
  3
____ _ ____ _ ____ _ ____ _ ____ _ ____ _ ____ 
 72
    65
 73
     4
 40
2.0
 49
1.25
 74
     0
 49
-0.25
 74
     0
 49
0.25
 74
     0
 49
-0.25
 74
     0
  0
LTYPE
  5
24
100
AcDbSymbolTableRecord
100
AcDbLinetypeTableRecord
  2
CENTER2
 70
     0
  3
___ _ ___ _ ___ _ ___ _ ___ _ ___ _ ___ _ ___ _
 72
    65
 73
     4
 40
1.125
 49
0.75
 74
     0
 49
-0.125
 74
     0
 49
0.125
 74
     0
 49
-0.125
 74
     0
  0
LTYPE
  5
25
100
AcDbSymbolTableRecord
100
AcDbLinetypeTableRecord
  2
CENTERX2
 70
     0
  3
________  __  ________  __  ________  __  _____
 72
    65
 73
     4
 40
4.0
 49
2.5
 74
     0
 49
-0.5
 74
     0
 49
0.5
 74
     0
 49
-0.5
 74
     0
  0
LTYPE
  5
26
100
AcDbSymbolTableRecord
100
AcDbLinetypeTableRecord
  2
DASHDOT
 70
     0
  3
__ . __ . __ . __ . __ . __ . __ . __ . __ . __
 72
    65
 73
     4
 40
1.0
 49
0.5
 74
     0
 49
-0.25
 74
     0
 49
0.0
 74
     0
 49
-0.25
 74
     0
  0
LTYPE
  5
27
100
AcDbSymbolTableRecord
100
AcDbLinetypeTableRecord
  2
DASHDOT2
 70
     0
  3
_._._._._._._._._._._._._._._._._._._._._._._._
 72
    65
 73
     4
 40
0.5
 49
0.25
 74
     0
 49
-0.125
 74
     0
 49
0.0
 74
     0
 49
-0.125
 74
     0
  0
LTYPE
  5
28
100
AcDbSymbolTableRecord
100
AcDbLinetypeTableRecord
  2
DASHDOTX2
 70
     0
  3
____  .  ____  .  ____  .  ____  .  ____  .  __
 72
    65
 73
     4
 40
2.0
 49
1.0
 74
     0
 49
-0.5
 74
     0
 49
0.0
 74
     0
 49
-0.5
 74
     0
  0
LTYPE
  5
29
100
AcDbSymbolTableRecord
100
AcDbLinetypeTableRecord
  2
DASHED
 70
     0
  3
__ __ __ __ __ __ __ __ __ __ __ __ __ __ __ __
 72
    65
 73
     2
 40
0.75
 49
0.5
 74
     0
 49
-0.25
 74
     0
  0
LTYPE
  5
2A
100
AcDbSymbolTableRecord
100
AcDbLinetypeTableRecord
  2
DASHED2
 70
     0
  3
_ _ _ _ _ _ _ _ _ _ _ _ _ _ _ _ _ _ _ _ _ _ _ _
 72
    65
 73
     2
 40
0.375
 49
0.25
 74
     0
 49
-0.125
 74
     0
  0
LTYPE
  5
2B
100
AcDbSymbolTableRecord
100
AcDbLinetypeTableRecord
  2
DASHEDX2
 70
     0
  3
____  ____  ____  ____  ____  ____  ____  ____ 
 72
    65
 73
     2
 40
1.5
 49
1.0
 74
     0
 49
-0.5
 74
     0
  0
LTYPE
  5
2C
100
AcDbSymbolTableRecord
100
AcDbLinetypeTableRecord
  2
DIVIDE
 70
     0
  3
____ . . ____ . . ____ . . ____ . . ____ . . __
 72
    65
 73
     6
 40
1.25
 49
0.5
 74
     0
 49
-0.25
 74
     0
 49
0.0
 74
     0
 49
-0.25
 74
     0
 49
0.0
 74
     0
 49
-0.25
 74
     0
  0
LTYPE
  5
2D
100
AcDbSymbolTableRecord
100
AcDbLinetypeTableRecord
  2
DIVIDE2
 70
     0
  3
__..__..__..__..__..__..__..__..__..__..__..__.
 72
    65
 73
     6
 40
0.625
 49
0.25
 74
     0
 49
-0.125
 74
     0
 49
0.0
 74
     0
 49
-0.125
 74
     0
 49
0.0
 74
     0
 49
-0.125
 74
     0
  0
LTYPE
  5
2E
100
AcDbSymbolTableRecord
100
AcDbLinetypeTableRecord
  2
DIVIDEX2
 70
     0
  3
________  .  .  ________  .  .  ________  .  . 
 72
    65
 73
     6
 40
2.5
 49
1.0
 74
     0
 49
-0.5
 74
     0
 49
0.0
 74
     0
 49
-0.5
 74
     0
 49
0.0
 74
     0
 49
-0.5
 74
     0
  0
LTYPE
  5
2F
100
AcDbSymbolTableRecord
100
AcDbLinetypeTableRecord
  2
DOT
 70
     0
  3
. . . . . . . . . . . . . . . . . . . . . . . .
 72
    65
 73
     2
 40
0.25
 49
0.0
 74
     0
 49
-0.25
 74
     0
  0
LTYPE
  5
30
100
AcDbSymbolTableRecord
100
AcDbLinetypeTableRecord
  2
DOT2
 70
     0
  3
...............................................
 72
    65
 73
     2
 40
0.125
 49
0.0
 74
     0
 49
-0.125
 74
     0
  0
LTYPE
  5
31
100
AcDbSymbolTableRecord
100
AcDbLinetypeTableRecord
  2
DOTX2
 70
     0
  3
.  .  .  .  .  .  .  .  .  .  .  .  .  .  .  . 
 72
    65
 73
     2
 40
0.5
 49
0.0
 74
     0
 49
-0.5
 74
     0
  0
LTYPE
  5
32
100
AcDbSymbolTableRecord
100
AcDbLinetypeTableRecord
  2
HIDDEN
 70
     0
  3
__ __ __ __ __ __ __ __ __ __ __ __ __ __ __ __
 72
    65
 73
     2
 40
0.375
 49
0.25
 74
     0
 49
-0.125
 74
     0
  0
LTYPE
  5
33
100
AcDbSymbolTableRecord
100
AcDbLinetypeTableRecord
  2
HIDDEN2
 70
     0
  3
_ _ _ _ _ _ _ _ _ _ _ _ _ _ _ _ _ _ _ _ _ _ _ _
 72
    65
 73
     2
 40
0.1875
 49
0.125
 74
     0
 49
-0.0625
 74
     0
  0
LTYPE
  5
34
100
AcDbSymbolTableRecord
100
AcDbLinetypeTableRecord
  2
HIDDENX2
 70
     0
  3
____ ____ ____ ____ ____ ____ ____ ____ ____ __
 72
    65
 73
     2
 40
0.75
 49
0.5
 74
     0
 49
-0.25
 74
     0
  0
LTYPE
  5
35
100
AcDbSymbolTableRecord
100
AcDbLinetypeTableRecord
  2
PHANTOM
 70
     0
  3
______  __  __  ______  __  __  ______  __  __ 
 72
    65
 73
     6
 40
2.5
 49
1.25
 74
     0
 49
-0.25
 74
     0
 49
0.25
 74
     0
 49
-0.25
 74
     0
 49
0.25
 74
     0
 49
-0.25
 74
     0
  0
LTYPE
  5
36
100
AcDbSymbolTableRecord
100
AcDbLinetypeTableRecord
  2
PHANTOM2
 70
     0
  3
___ _ _ ___ _ _ ___ _ _ ___ _ _ ___ _ _ ___ _ _
 72
    65
 73
     6
 40
1.25
 49
0.625
 74
     0
 49
-0.125
 74
     0
 49
0.125
 74
     0
 49
-0.125
 74
     0
 49
0.125
 74
     0
 49
-0.125
 74
     0
  0
LTYPE
  5
37
100
AcDbSymbolTableRecord
100
AcDbLinetypeTableRecord
  2
PHANTOMX2
 70
     0
  3
____________    ____    ____    ____________   
 72
    65
 73
     6
 40
5.0
 49
2.5
 74
     0
 49
-0.5
 74
     0
 49
0.5
 74
     0
 49
-0.5
 74
     0
 49
0.5
 74
     0
 49
-0.5
 74
     0
  0
ENDTAB
   0
TABLE
   2
LAYER
   5
2
 100
AcDbSymbolTable
  70
5
   0
LAYER
   5
E
 100
AcDbSymbolTableRecord
 100
AcDbLayerTableRecord
   2
0
  70
0
  62
7
   6
CONTINUOUS
 390
30
   0
LAYER
   5
39
 100
AcDbSymbolTableRecord
 100
AcDbLayerTableRecord
   2
LEVEL001
  70
0
  62
7
   6
CONTINUOUS
 390
30
   0
LAYER
   5
3A
 100
AcDbSymbolTableRecord
 100
AcDbLayerTableRecord
   2
内図枠(作図領域)
  70
0
  62
7
   6
CONTINUOUS
 390
30
   0
LAYER
   5
3B
 100
AcDbSymbolTableRecord
 100
AcDbLayerTableRecord
   2
外図枠(出力紙領域)
  70
0
  62
7
   6
CONTINUOUS
 390
30
   0
LAYER
   5
3C
 100
AcDbSymbolTableRecord
 100
AcDbLayerTableRecord
   2
部品表金額表示用
  70
0
  62
7
   6
CONTINUOUS
 390
30
   0
ENDTAB
  0
TABLE
  2
STYLE
  5
3
100
AcDbSymbolTable
  70
6
  0
STYLE
  5
F
100
AcDbSymbolTableRecord
100
AcDbTextStyleTableRecord
  2
STANDARD
 70
     0
 40
0.0
 41
1.0
 50
0.0
 71
     0
 42
0.2
  3
TXT
  4
BIGFONT
  0
STYLE
  5
38
100
AcDbSymbolTableRecord
100
AcDbTextStyleTableRecord
  2
STANDARD1
 70
     4
 40
0.0
 41
1.0
 50
0.0
 71
     0
 42
0.2
  3
TXT
  4
BIGFONT
   0
STYLE
   5
3D
 100
AcDbSymbolTableRecord
 100
AcDbTextStyleTableRecord
   2
GMM001
  70
0
  40
0.0
  41
 1.0000000000000
  50
0.0
  71
     0
  42
1.0
   3
txt.shx
   4
bigfont.shx
   0
STYLE
   5
3E
 100
AcDbSymbolTableRecord
 100
AcDbTextStyleTableRecord
   2
GMM002
  70
4
  40
0.0
  41
 1.0000000000000
  50
0.0
  71
     0
  42
1.0
   3
txt.shx
   4
bigfont.shx
   0
STYLE
   5
3F
 100
AcDbSymbolTableRecord
 100
AcDbTextStyleTableRecord
   2
GMM003
  70
0
  40
0.0
  41
 0.80000001192093
  50
0.0
  71
     0
  42
1.0
   3
txt.shx
   4
bigfont.shx
   0
STYLE
   5
40
 100
AcDbSymbolTableRecord
 100
AcDbTextStyleTableRecord
   2
GMM004
  70
0
  40
0.0
  41
 0.50000000000000
  50
0.0
  71
     0
  42
1.0
   3
txt.shx
   4
bigfont.shx
   0
ENDTAB
  0
TABLE
  2
VIEW
  5
6
100
AcDbSymbolTable
 70
     0
  0
ENDTAB
  0
TABLE
  2
UCS
  5
7
100
AcDbSymbolTable
 70
     0
  0
ENDTAB
  0
TABLE
  2
APPID
  5
9
100
AcDbSymbolTable
 70
     1
  0
APPID
  5
10
100
AcDbSymbolTableRecord
100
AcDbRegAppTableRecord
  2
ACAD
 70
     0
  0
ENDTAB
   0
TABLE
   2
DIMSTYLE
   5
A
 100
AcDbSymbolTable
  70
5
 100
AcDbDimStyleTable
  0
DIMSTYLE
105
1D
100
AcDbSymbolTableRecord
100
AcDbDimStyleTableRecord
  2
STANDARD
 70
     0
  3

  4

  5

  6

  7

 40
1.0
 41
0.18
 42
0.0625
 43
0.38
 44
0.18
 45
0.0
 46
0.0
 47
0.0
 48
0.0
140
0.18
141
0.09
142
0.0
143
25.4
144
1.0
145
0.0
146
1.0
147
0.09
 71
     0
 72
     0
 73
     1
 74
     1
 75
     0
 76
     0
 77
     0
 78
     0
170
     0
171
     2
172
     0
173
     0
174
     0
175
     0
176
     0
177
     0
178
     0
270
     2
271
     4
272
     4
273
     2
274
     2
340
F
275
     0
280
     0
281
     0
282
     0
283
     1
284
     0
285
     0
286
     0
287
     3
288
     0
   0
DIMSTYLE
 105
41
 100
AcDbSymbolTableRecord
 100
AcDbDimStyleTableRecord
   2
GMM001
  70
0
   3

   4

   5

   6
_OPEN30
   7
_OPEN30
  40
 1.0000000000000
  41
 24.000000000000
  42
0.0
  43
 64.000000000000
  44
 16.000000000000
  45
0.0
  46
0.0
  47
0.0
  48
0.0
 140
 32.000000000000
 141
 8.0000000000000
 142
0.0
 143
 0.39400000000000E-1
 144
 1.0000000000000
 145
0.0
 146
 0.62500000000000
 147
 13.714285714286
  71
0
  72
0
  73
0
  74
0
  75
0
  76
0
  77
3
  78
8
 170
0
 171
2
 172
1
 173
1
 174
0
 175
0
 176
1
 177
1
 178
7
 270
2
 271
6
 272
0
 273
2
 274
2
 340
3D
 275
0
 280
0
 281
0
 282
0
 283
1
 284
0
 285
0
 286
0
 287
5
 288
1
   0
DIMSTYLE
 105
42
 100
AcDbSymbolTableRecord
 100
AcDbDimStyleTableRecord
   2
GMM002
  70
0
   3

   4

   5

   6
_OPEN30
   7
_OPEN30
  40
 1.0000000000000
  41
 24.000000000000
  42
0.0
  43
 64.000000000000
  44
 16.000000000000
  45
0.0
  46
0.0
  47
0.0
  48
0.0
 140
 32.000000000000
 141
 8.0000000000000
 142
0.0
 143
 0.39400000000000E-1
 144
 1.0000000000000
 145
0.0
 146
 0.62500000000000
 147
 8.0000000000000
  71
0
  72
0
  73
0
  74
0
  75
0
  76
0
  77
3
  78
8
 170
0
 171
2
 172
1
 173
1
 174
0
 175
0
 176
1
 177
1
 178
7
 270
2
 271
6
 272
0
 273
2
 274
2
 340
3D
 275
1
 280
0
 281
0
 282
0
 283
1
 284
0
 285
0
 286
0
 287
3
 288
0
   0
DIMSTYLE
 105
43
 100
AcDbSymbolTableRecord
 100
AcDbDimStyleTableRecord
   2
GMM003
  70
0
   3

   4

   5

   6
_OPEN30
   7
_OPEN30
  40
 1.0000000000000
  41
 24.000000000000
  42
0.0
  43
 64.000000000000
  44
 16.000000000000
  45
0.0
  46
0.0
  47
0.0
  48
0.0
 140
 32.000000000000
 141
 8.0000000000000
 142
0.0
 143
 0.39400000000000E-1
 144
 1.0000000000000
 145
0.0
 146
 0.62500000000000
 147
 8.0000000000000
  71
0
  72
0
  73
0
  74
0
  75
0
  76
0
  77
3
  78
8
 170
0
 171
2
 172
1
 173
1
 174
0
 175
0
 176
1
 177
1
 178
7
 270
2
 271
6
 272
0
 273
2
 274
2
 340
3D
 275
0
 280
0
 281
0
 282
0
 283
1
 284
0
 285
0
 286
0
 287
5
 288
1
   0
ENDTAB
  0
TABLE
  2
BLOCK_RECORD
  5
1
100
AcDbSymbolTable
 70
     0
  0
BLOCK_RECORD
  5
18
100
AcDbSymbolTableRecord
100
AcDbBlockTableRecord
  2
*MODEL_SPACE
  0
BLOCK_RECORD
  5
15
100
AcDbSymbolTableRecord
100
AcDbBlockTableRecord
  2
*PAPER_SPACE
   0
BLOCK_RECORD
   5
44
 100
AcDbSymbolTableRecord
 100
AcDbBlockTableRecord
   2
BLOCK001
   0
BLOCK_RECORD
   5
45
 100
AcDbSymbolTableRecord
 100
AcDbBlockTableRecord
   2
BLOCK002
   0
BLOCK_RECORD
   5
46
 100
AcDbSymbolTableRecord
 100
AcDbBlockTableRecord
   2
BLOCK003
   0
BLOCK_RECORD
   5
47
 100
AcDbSymbolTableRecord
 100
AcDbBlockTableRecord
   2
GMM001
   0
BLOCK_RECORD
   5
48
 100
AcDbSymbolTableRecord
 100
AcDbBlockTableRecord
   2
*D1
   0
BLOCK_RECORD
   5
49
 100
AcDbSymbolTableRecord
 100
AcDbBlockTableRecord
   2
BLOCK004
   0
BLOCK_RECORD
   5
4A
 100
AcDbSymbolTableRecord
 100
AcDbBlockTableRecord
   2
BLOCK005
   0
BLOCK_RECORD
   5
4B
 100
AcDbSymbolTableRecord
 100
AcDbBlockTableRecord
   2
*D2
   0
BLOCK_RECORD
   5
4C
 100
AcDbSymbolTableRecord
 100
AcDbBlockTableRecord
   2
*D3
   0
BLOCK_RECORD
   5
4D
 100
AcDbSymbolTableRecord
 100
AcDbBlockTableRecord
   2
*D4
   0
BLOCK_RECORD
   5
4E
 100
AcDbSymbolTableRecord
 100
AcDbBlockTableRecord
   2
*D5
   0
BLOCK_RECORD
   5
4F
 100
AcDbSymbolTableRecord
 100
AcDbBlockTableRecord
   2
*D6
   0
BLOCK_RECORD
   5
50
 100
AcDbSymbolTableRecord
 100
AcDbBlockTableRecord
   2
*D7
   0
BLOCK_RECORD
   5
51
 100
AcDbSymbolTableRecord
 100
AcDbBlockTableRecord
   2
*D8
   0
BLOCK_RECORD
   5
52
 100
AcDbSymbolTableRecord
 100
AcDbBlockTableRecord
   2
_ARCHTICK
   0
BLOCK_RECORD
   5
53
 100
AcDbSymbolTableRecord
 100
AcDbBlockTableRecord
   2
_BOXBLANK
   0
BLOCK_RECORD
   5
54
 100
AcDbSymbolTableRecord
 100
AcDbBlockTableRecord
   2
_BOXFILLED
   0
BLOCK_RECORD
   5
55
 100
AcDbSymbolTableRecord
 100
AcDbBlockTableRecord
   2
_CLOSED
   0
BLOCK_RECORD
   5
56
 100
AcDbSymbolTableRecord
 100
AcDbBlockTableRecord
   2
_CLOSEDBLANK
   0
BLOCK_RECORD
   5
57
 100
AcDbSymbolTableRecord
 100
AcDbBlockTableRecord
   2
_DATUMBLANK
   0
BLOCK_RECORD
   5
58
 100
AcDbSymbolTableRecord
 100
AcDbBlockTableRecord
   2
_DATUMFILLED
   0
BLOCK_RECORD
   5
59
 100
AcDbSymbolTableRecord
 100
AcDbBlockTableRecord
   2
_DOT
   0
BLOCK_RECORD
   5
5A
 100
AcDbSymbolTableRecord
 100
AcDbBlockTableRecord
   2
_DOTBLANK
   0
BLOCK_RECORD
   5
5B
 100
AcDbSymbolTableRecord
 100
AcDbBlockTableRecord
   2
_DOTSMALL
   0
BLOCK_RECORD
   5
5C
 100
AcDbSymbolTableRecord
 100
AcDbBlockTableRecord
   2
_INTEGRAL
   0
BLOCK_RECORD
   5
5D
 100
AcDbSymbolTableRecord
 100
AcDbBlockTableRecord
   2
_NONE
   0
BLOCK_RECORD
   5
5E
 100
AcDbSymbolTableRecord
 100
AcDbBlockTableRecord
   2
_OBLIQUE
   0
BLOCK_RECORD
   5
5F
 100
AcDbSymbolTableRecord
 100
AcDbBlockTableRecord
   2
_OPEN
   0
BLOCK_RECORD
   5
60
 100
AcDbSymbolTableRecord
 100
AcDbBlockTableRecord
   2
_OPEN30
   0
BLOCK_RECORD
   5
61
 100
AcDbSymbolTableRecord
 100
AcDbBlockTableRecord
   2
_OPEN90
   0
BLOCK_RECORD
   5
62
 100
AcDbSymbolTableRecord
 100
AcDbBlockTableRecord
   2
_ORIGIN
   0
ENDTAB
   0
ENDSEC
  0
SECTION
  2
BLOCKS
  0
BLOCK
  5
19
100
AcDbEntity
  8
0
100
AcDbBlockBegin
  2
*MODEL_SPACE
 70
     0
 10
0.0
 20
0.0
 30
0.0
  3
*MODEL_SPACE
  1

  0
ENDBLK
  5
1A
100
AcDbEntity
  8
0
100
AcDbBlockEnd
  0
BLOCK
  5
16
100
AcDbEntity
 67
     1
  8
0
100
AcDbBlockBegin
  2
*PAPER_SPACE
 70
     0
 10
0.0
 20
0.0
 30
0.0
  3
*PAPER_SPACE
  1

  0
ENDBLK
  5
17
100
AcDbEntity
 67
     1
  8
0
100
AcDbBlockEnd
   0
BLOCK
   5
63
 100
AcDbEntity
   8
0
 100
AcDbBlockBegin
   2
_ARCHTICK
  70
0
  10
0.0
  20
0.0
  30
0.0
   3
_ARCHTICK
   0
POLYLINE
   5
64
 100
AcDbEntity
   8
0
 370
-2
   6
BYBLOCK
  62
0
 100
AcDb2dPolyline
  66
1
  10
0.0
  20
0.0
  30
0.0
  70
1
  40
 0.15000000000000
  41
 0.15000000000000
   0
VERTEX
   5
65
 100
AcDbEntity
   8
0
   6
BYBLOCK
  62
0
 100
AcDbVertex
 100
AcDb2dVertex
  10
-0.50000000000000
  20
-0.50000000000000
  30
0.0
  40
 0.15000000000000
  41
 0.15000000000000
   0
VERTEX
   5
66
 100
AcDbEntity
   8
0
   6
BYBLOCK
  62
0
 100
AcDbVertex
 100
AcDb2dVertex
  10
 0.50000000000000
  20
 0.50000000000000
  30
0.0
  40
 0.15000000000000
  41
 0.15000000000000
   0
SEQEND
   5
67
 100
AcDbEntity
   8
0
   6
BYBLOCK
  62
0
   0
ENDBLK
   5
68
 100
AcDbEntity
   8
0
 100
AcDbBlockEnd
   0
BLOCK
   5
69
 100
AcDbEntity
   8
0
 100
AcDbBlockBegin
   2
_OBLIQUE
  70
0
  10
0.0
  20
0.0
  30
0.0
   3
_OBLIQUE
   0
LINE
   5
6A
 100
AcDbEntity
   8
0
 370
-2
 100
AcDbLine
   6
BYBLOCK
  62
0
  10
-0.50000000000000
  20
-0.50000000000000
  30
0.0
  11
 0.50000000000000
  21
 0.50000000000000
  31
0.0
   0
ENDBLK
   5
6B
 100
AcDbEntity
   8
0
 100
AcDbBlockEnd
   0
BLOCK
   5
6C
 100
AcDbEntity
   8
0
 100
AcDbBlockBegin
   2
_BOXBLANK
  70
0
  10
0.0
  20
0.0
  30
0.0
   3
_BOXBLANK
   0
LINE
   5
6D
 100
AcDbEntity
   8
0
 370
-2
 100
AcDbLine
   6
BYBLOCK
  62
0
  10
-0.50000000000000
  20
-0.50000000000000
  30
0.0
  11
 0.50000000000000
  21
-0.50000000000000
  31
0.0
   0
LINE
   5
6E
 100
AcDbEntity
   8
0
 370
-2
 100
AcDbLine
   6
BYBLOCK
  62
0
  10
 0.50000000000000
  20
-0.50000000000000
  30
0.0
  11
 0.50000000000000
  21
 0.50000000000000
  31
0.0
   0
LINE
   5
6F
 100
AcDbEntity
   8
0
 370
-2
 100
AcDbLine
   6
BYBLOCK
  62
0
  10
 0.50000000000000
  20
 0.50000000000000
  30
0.0
  11
-0.50000000000000
  21
 0.50000000000000
  31
0.0
   0
LINE
   5
70
 100
AcDbEntity
   8
0
 370
-2
 100
AcDbLine
   6
BYBLOCK
  62
0
  10
-0.50000000000000
  20
 0.50000000000000
  30
0.0
  11
-0.50000000000000
  21
-0.50000000000000
  31
0.0
   0
LINE
   5
71
 100
AcDbEntity
   8
0
 370
-2
 100
AcDbLine
   6
BYBLOCK
  62
0
  10
-0.50000000000000
  20
0.0
  30
0.0
  11
-1.0000000000000
  21
0.0
  31
0.0
   0
ENDBLK
   5
72
 100
AcDbEntity
   8
0
 100
AcDbBlockEnd
   0
BLOCK
   5
73
 100
AcDbEntity
   8
0
 100
AcDbBlockBegin
   2
_BOXFILLED
  70
0
  10
0.0
  20
0.0
  30
0.0
   3
_BOXFILLED
   0
SOLID
   5
74
 100
AcDbEntity
   8
0
 100
AcDbTrace
   6
BYBLOCK
  62
0
  10
-0.50000000000000
  20
 0.50000000000000
  30
0.0
  11
 0.50000000000000
  21
 0.50000000000000
  31
0.0
  12
-0.50000000000000
  22
-0.50000000000000
  32
0.0
  13
 0.50000000000000
  23
-0.50000000000000
  33
0.0
   0
LINE
   5
75
 100
AcDbEntity
   8
0
 370
-2
 100
AcDbLine
   6
BYBLOCK
  62
0
  10
-0.50000000000000
  20
0.0
  30
0.0
  11
-1.0000000000000
  21
0.0
  31
0.0
   0
ENDBLK
   5
76
 100
AcDbEntity
   8
0
 100
AcDbBlockEnd
   0
BLOCK
   5
77
 100
AcDbEntity
   8
0
 100
AcDbBlockBegin
   2
_CLOSED
  70
0
  10
0.0
  20
0.0
  30
0.0
   3
_CLOSED
   0
LINE
   5
78
 100
AcDbEntity
   8
0
 370
-2
 100
AcDbLine
   6
BYBLOCK
  62
0
  10
-1.0000000000000
  20
 0.16666666666667
  30
0.0
  11
0.0
  21
0.0
  31
0.0
   0
LINE
   5
79
 100
AcDbEntity
   8
0
 370
-2
 100
AcDbLine
   6
BYBLOCK
  62
0
  10
0.0
  20
0.0
  30
0.0
  11
-1.0000000000000
  21
-0.16666666666667
  31
0.0
   0
LINE
   5
7A
 100
AcDbEntity
   8
0
 370
-2
 100
AcDbLine
   6
BYBLOCK
  62
0
  10
-1.0000000000000
  20
 0.16666666666667
  30
0.0
  11
-1.0000000000000
  21
-0.16666666666667
  31
0.0
   0
LINE
   5
7B
 100
AcDbEntity
   8
0
 370
-2
 100
AcDbLine
   6
BYBLOCK
  62
0
  10
0.0
  20
0.0
  30
0.0
  11
-1.0000000000000
  21
0.0
  31
0.0
   0
ENDBLK
   5
7C
 100
AcDbEntity
   8
0
 100
AcDbBlockEnd
   0
BLOCK
   5
7D
 100
AcDbEntity
   8
0
 100
AcDbBlockBegin
   2
_OPEN
  70
0
  10
0.0
  20
0.0
  30
0.0
   3
_OPEN
   0
LINE
   5
7E
 100
AcDbEntity
   8
0
 370
-2
 100
AcDbLine
   6
BYBLOCK
  62
0
  10
-1.0000000000000
  20
 0.16666666666667
  30
0.0
  11
0.0
  21
0.0
  31
0.0
   0
LINE
   5
7F
 100
AcDbEntity
   8
0
 370
-2
 100
AcDbLine
   6
BYBLOCK
  62
0
  10
0.0
  20
0.0
  30
0.0
  11
-1.0000000000000
  21
-0.16666666666667
  31
0.0
   0
LINE
   5
80
 100
AcDbEntity
   8
0
 370
-2
 100
AcDbLine
   6
BYBLOCK
  62
0
  10
0.0
  20
0.0
  30
0.0
  11
-1.0000000000000
  21
0.0
  31
0.0
   0
ENDBLK
   5
81
 100
AcDbEntity
   8
0
 100
AcDbBlockEnd
   0
BLOCK
   5
82
 100
AcDbEntity
   8
0
 100
AcDbBlockBegin
   2
_OPEN30
  70
0
  10
0.0
  20
0.0
  30
0.0
   3
_OPEN30
   0
LINE
   5
83
 100
AcDbEntity
   8
0
 370
-2
 100
AcDbLine
   6
BYBLOCK
  62
0
  10
-1.0000000000000
  20
 0.26794919243110
  30
0.0
  11
0.0
  21
0.0
  31
0.0
   0
LINE
   5
84
 100
AcDbEntity
   8
0
 370
-2
 100
AcDbLine
   6
BYBLOCK
  62
0
  10
0.0
  20
0.0
  30
0.0
  11
-1.0000000000000
  21
-0.26794919243110
  31
0.0
   0
LINE
   5
85
 100
AcDbEntity
   8
0
 370
-2
 100
AcDbLine
   6
BYBLOCK
  62
0
  10
0.0
  20
0.0
  30
0.0
  11
-1.0000000000000
  21
0.0
  31
0.0
   0
ENDBLK
   5
86
 100
AcDbEntity
   8
0
 100
AcDbBlockEnd
   0
BLOCK
   5
87
 100
AcDbEntity
   8
0
 100
AcDbBlockBegin
   2
_OPEN90
  70
0
  10
0.0
  20
0.0
  30
0.0
   3
_OPEN90
   0
LINE
   5
88
 100
AcDbEntity
   8
0
 370
-2
 100
AcDbLine
   6
BYBLOCK
  62
0
  10
-0.50000000000000
  20
 0.50000000000000
  30
0.0
  11
0.0
  21
0.0
  31
0.0
   0
LINE
   5
89
 100
AcDbEntity
   8
0
 370
-2
 100
AcDbLine
   6
BYBLOCK
  62
0
  10
0.0
  20
0.0
  30
0.0
  11
-0.50000000000000
  21
-0.50000000000000
  31
0.0
   0
LINE
   5
8A
 100
AcDbEntity
   8
0
 370
-2
 100
AcDbLine
   6
BYBLOCK
  62
0
  10
0.0
  20
0.0
  30
0.0
  11
-1.0000000000000
  21
0.0
  31
0.0
   0
ENDBLK
   5
8B
 100
AcDbEntity
   8
0
 100
AcDbBlockEnd
   0
BLOCK
   5
8C
 100
AcDbEntity
   8
0
 100
AcDbBlockBegin
   2
_CLOSEDBLANK
  70
0
  10
0.0
  20
0.0
  30
0.0
   3
_CLOSEDBLANK
   0
LINE
   5
8D
 100
AcDbEntity
   8
0
 370
-2
 100
AcDbLine
   6
BYBLOCK
  62
0
  10
-1.0000000000000
  20
 0.16666666666667
  30
0.0
  11
0.0
  21
0.0
  31
0.0
   0
LINE
   5
8E
 100
AcDbEntity
   8
0
 370
-2
 100
AcDbLine
   6
BYBLOCK
  62
0
  10
0.0
  20
0.0
  30
0.0
  11
-1.0000000000000
  21
-0.16666666666667
  31
0.0
   0
LINE
   5
8F
 100
AcDbEntity
   8
0
 370
-2
 100
AcDbLine
   6
BYBLOCK
  62
0
  10
-1.0000000000000
  20
 0.16666666666667
  30
0.0
  11
-1.0000000000000
  21
-0.16666666666667
  31
0.0
   0
ENDBLK
   5
90
 100
AcDbEntity
   8
0
 100
AcDbBlockEnd
   0
BLOCK
   5
91
 100
AcDbEntity
   8
0
 100
AcDbBlockBegin
   2
_DOT
  70
0
  10
0.0
  20
0.0
  30
0.0
   3
_DOT
   0
POLYLINE
   5
92
 100
AcDbEntity
   8
0
 370
-2
   6
BYBLOCK
  62
0
 100
AcDb2dPolyline
  66
1
  10
0.0
  20
0.0
  30
0.0
  70
1
  40
 0.50000000000000
  41
 0.50000000000000
   0
VERTEX
   5
93
 100
AcDbEntity
   8
0
   6
BYBLOCK
  62
0
 100
AcDbVertex
 100
AcDb2dVertex
  10
-0.25000000000000
  20
0.0
  30
0.0
  42
 1.0000000000000
  40
 0.50000000000000
  41
 0.50000000000000
   0
VERTEX
   5
94
 100
AcDbEntity
   8
0
   6
BYBLOCK
  62
0
 100
AcDbVertex
 100
AcDb2dVertex
  10
 0.25000000000000
  20
0.0
  30
0.0
  42
 1.0000000000000
  40
 0.50000000000000
  41
 0.50000000000000
   0
SEQEND
   5
95
 100
AcDbEntity
   8
0
   6
BYBLOCK
  62
0
   0
LINE
   5
96
 100
AcDbEntity
   8
0
 370
-2
 100
AcDbLine
   6
BYBLOCK
  62
0
  10
-0.50000000000000
  20
0.0
  30
0.0
  11
-1.0000000000000
  21
0.0
  31
0.0
   0
ENDBLK
   5
97
 100
AcDbEntity
   8
0
 100
AcDbBlockEnd
   0
BLOCK
   5
98
 100
AcDbEntity
   8
0
 100
AcDbBlockBegin
   2
_DOTSMALL
  70
0
  10
0.0
  20
0.0
  30
0.0
   3
_DOTSMALL
   0
POLYLINE
   5
99
 100
AcDbEntity
   8
0
 370
-2
   6
BYBLOCK
  62
0
 100
AcDb2dPolyline
  66
1
  10
0.0
  20
0.0
  30
0.0
  70
1
  40
 0.50000000000000
  41
 0.50000000000000
   0
VERTEX
   5
9A
 100
AcDbEntity
   8
0
   6
BYBLOCK
  62
0
 100
AcDbVertex
 100
AcDb2dVertex
  10
-0.62500000000000E-1
  20
0.0
  30
0.0
  42
 1.0000000000000
  40
 0.50000000000000
  41
 0.50000000000000
   0
VERTEX
   5
9B
 100
AcDbEntity
   8
0
   6
BYBLOCK
  62
0
 100
AcDbVertex
 100
AcDb2dVertex
  10
 0.62500000000000E-1
  20
0.0
  30
0.0
  42
 1.0000000000000
  40
 0.50000000000000
  41
 0.50000000000000
   0
SEQEND
   5
9C
 100
AcDbEntity
   8
0
   6
BYBLOCK
  62
0
   0
ENDBLK
   5
9D
 100
AcDbEntity
   8
0
 100
AcDbBlockEnd
   0
BLOCK
   5
9E
 100
AcDbEntity
   8
0
 100
AcDbBlockBegin
   2
_DATUMBLANK
  70
0
  10
0.0
  20
0.0
  30
0.0
   3
_DATUMBLANK
   0
LINE
   5
9F
 100
AcDbEntity
   8
0
 370
-2
 100
AcDbLine
   6
BYBLOCK
  62
0
  10
0.0
  20
 0.57735027000000
  30
0.0
  11
-1.0000000000000
  21
0.0
  31
0.0
   0
LINE
   5
A0
 100
AcDbEntity
   8
0
 370
-2
 100
AcDbLine
   6
BYBLOCK
  62
0
  10
-1.0000000000000
  20
0.0
  30
0.0
  11
0.0
  21
-0.57735027000000
  31
0.0
   0
LINE
   5
A1
 100
AcDbEntity
   8
0
 370
-2
 100
AcDbLine
   6
BYBLOCK
  62
0
  10
0.0
  20
-0.57735027000000
  30
0.0
  11
0.0
  21
 0.57735027000000
  31
0.0
   0
ENDBLK
   5
A2
 100
AcDbEntity
   8
0
 100
AcDbBlockEnd
   0
BLOCK
   5
A3
 100
AcDbEntity
   8
0
 100
AcDbBlockBegin
   2
_DATUMFILLED
  70
0
  10
0.0
  20
0.0
  30
0.0
   3
_DATUMFILLED
   0
SOLID
   5
A4
 100
AcDbEntity
   8
0
 100
AcDbTrace
   6
BYBLOCK
  62
0
  10
0.0
  20
 0.57735027000000
  30
0.0
  11
-1.0000000000000
  21
0.0
  31
0.0
  12
0.0
  22
-0.57735027000000
  32
0.0
  13
0.0
  23
-0.57735027000000
  33
0.0
   0
ENDBLK
   5
A5
 100
AcDbEntity
   8
0
 100
AcDbBlockEnd
   0
BLOCK
   5
A6
 100
AcDbEntity
   8
0
 100
AcDbBlockBegin
   2
_ORIGIN
  70
0
  10
0.0
  20
0.0
  30
0.0
   3
_ORIGIN
   0
CIRCLE
   5
A7
 100
AcDbEntity
   8
0
 370
-2
 100
AcDbCircle
   6
BYBLOCK
  62
0
  10
0.0
  20
0.0
  30
0.0
  40
 0.50000000000000
   0
LINE
   5
A8
 100
AcDbEntity
   8
0
 370
-2
 100
AcDbLine
   6
BYBLOCK
  62
0
  10
0.0
  20
0.0
  30
0.0
  11
-1.0000000000000
  21
0.0
  31
0.0
   0
ENDBLK
   5
A9
 100
AcDbEntity
   8
0
 100
AcDbBlockEnd
   0
BLOCK
   5
AA
 100
AcDbEntity
   8
0
 100
AcDbBlockBegin
   2
_NONE
  70
0
  10
0.0
  20
0.0
  30
0.0
   3
_NONE
   0
CIRCLE
   5
AB
 100
AcDbEntity
   8
0
 370
-2
 100
AcDbCircle
   6
BYBLOCK
  62
0
  10
0.0
  20
0.0
  30
0.0
  40
 0.25000000000000
   0
ENDBLK
   5
AC
 100
AcDbEntity
   8
0
 100
AcDbBlockEnd
   0
BLOCK
   5
AD
 100
AcDbEntity
   8
0
 100
AcDbBlockBegin
   2
_DOTBLANK
  70
0
  10
0.0
  20
0.0
  30
0.0
   3
_DOTBLANK
   0
CIRCLE
   5
AE
 100
AcDbEntity
   8
0
 370
-2
 100
AcDbCircle
   6
BYBLOCK
  62
0
  10
0.0
  20
0.0
  30
0.0
  40
 0.50000000000000
   0
LINE
   5
AF
 100
AcDbEntity
   8
0
 370
-2
 100
AcDbLine
   6
BYBLOCK
  62
0
  10
-0.50000000000000
  20
0.0
  30
0.0
  11
-1.0000000000000
  21
0.0
  31
0.0
   0
ENDBLK
   5
B0
 100
AcDbEntity
   8
0
 100
AcDbBlockEnd
   0
BLOCK
   5
B1
 100
AcDbEntity
   8
0
 100
AcDbBlockBegin
   2
_INTEGRAL
  70
0
  10
0.0
  20
0.0
  30
0.0
   3
_INTEGRAL
   0
ARC
   5
B2
 100
AcDbEntity
   8
0
 370
-2
   6
BYBLOCK
  62
0
 100
AcDbCircle
  10
 0.44488800000000
  20
-0.91335000000000E-1
  30
0.0
  40
 0.45416700000000
 100
AcDbArc
  50
 102.00000000000
  51
 168.00000000000
   0
ARC
   5
B3
 100
AcDbEntity
   8
0
 370
-2
   6
BYBLOCK
  62
0
 100
AcDbCircle
  10
-0.44488800000000
  20
 0.91335000000000E-1
  30
0.0
  40
 0.45416700000000
 100
AcDbArc
  50
 282.00000000000
  51
 348.00000000000
   0
ENDBLK
   5
B4
 100
AcDbEntity
   8
0
 100
AcDbBlockEnd
   0
BLOCK
   5
B5
 100
AcDbEntity
   8
0
 100
AcDbBlockBegin
   2
BLOCK001
  70
64
  10
0.0
  20
0.0
  30
0.0
   3
BLOCK001
   0
LINE
   5
B6
 100
AcDbEntity
   8
LEVEL001
 370
30
 100
AcDbLine
   6
CONTINUOUS
  62
7
  10
 3558.2151991965
  20
 288.00000000000
  30
0.0
  11
 4646.2151991965
  21
 288.00000000000
  31
0.0
   0
LINE
   5
B7
 100
AcDbEntity
   8
LEVEL001
 370
30
 100
AcDbLine
   6
CONTINUOUS
  62
7
  10
 3558.2151991965
  20
 192.00000000000
  30
0.0
  11
 4646.2151991965
  21
 192.00000000000
  31
0.0
   0
LINE
   5
B8
 100
AcDbEntity
   8
LEVEL001
 370
30
 100
AcDbLine
   6
CONTINUOUS
  62
7
  10
 3558.2151991965
  20
 288.00000000000
  30
0.0
  11
 3558.2151991965
  21
 192.00000000000
  31
0.0
   0
LINE
   5
B9
 100
AcDbEntity
   8
LEVEL001
 370
30
 100
AcDbLine
   6
CONTINUOUS
  62
7
  10
 3622.2151991965
  20
 288.00000000000
  30
0.0
  11
 3622.2151991965
  21
 192.00000000000
  31
0.0
   0
LINE
   5
BA
 100
AcDbEntity
   8
LEVEL001
 370
30
 100
AcDbLine
   6
CONTINUOUS
  62
7
  10
 4102.2151991965
  20
 288.00000000000
  30
0.0
  11
 4102.2151991965
  21
 192.00000000000
  31
0.0
   0
LINE
   5
BB
 100
AcDbEntity
   8
LEVEL001
 370
30
 100
AcDbLine
   6
CONTINUOUS
  62
7
  10
 4166.2151991965
  20
 288.00000000000
  30
0.0
  11
 4166.2151991965
  21
 192.00000000000
  31
0.0
   0
LINE
   5
BC
 100
AcDbEntity
   8
LEVEL001
 370
30
 100
AcDbLine
   6
CONTINUOUS
  62
7
  10
 4646.2151991965
  20
 288.00000000000
  30
0.0
  11
 4646.2151991965
  21
 192.00000000000
  31
0.0
   0
ENDBLK
   5
BD
 100
AcDbEntity
   8
0
 100
AcDbBlockEnd
   0
BLOCK
   5
BE
 100
AcDbEntity
   8
0
 100
AcDbBlockBegin
   2
BLOCK002
  70
64
  10
0.0
  20
0.0
  30
0.0
   3
BLOCK002
   0
LINE
   5
BF
 100
AcDbEntity
   8
LEVEL001
 370
30
 100
AcDbLine
   6
CONTINUOUS
  62
7
  10
 3558.2151991965
  20
 192.00000000000
  30
0.0
  11
 4646.2151991965
  21
 192.00000000000
  31
0.0
   0
LINE
   5
C0
 100
AcDbEntity
   8
LEVEL001
 370
30
 100
AcDbLine
   6
CONTINUOUS
  62
7
  10
 3862.2151991965
  20
 128.00000000000
  30
0.0
  11
 4646.2151991965
  21
 128.00000000000
  31
0.0
   0
LINE
   5
C1
 100
AcDbEntity
   8
LEVEL001
 370
30
 100
AcDbLine
   6
CONTINUOUS
  62
7
  10
 3558.2151991965
  20
 64.000000000000
  30
0.0
  11
 4646.2151991965
  21
 64.000000000000
  31
0.0
   0
LINE
   5
C2
 100
AcDbEntity
   8
LEVEL001
 370
30
 100
AcDbLine
   6
CONTINUOUS
  62
7
  10
 3558.2151991965
  20
0.0
  30
0.0
  11
 4646.2151991965
  21
0.0
  31
0.0
   0
LINE
   5
C3
 100
AcDbEntity
   8
LEVEL001
 370
30
 100
AcDbLine
   6
CONTINUOUS
  62
7
  10
 3558.2151991965
  20
 192.00000000000
  30
0.0
  11
 3558.2151991965
  21
0.0
  31
0.0
   0
LINE
   5
C4
 100
AcDbEntity
   8
LEVEL001
 370
30
 100
AcDbLine
   6
CONTINUOUS
  62
7
  10
 3622.2151991965
  20
 192.00000000000
  30
0.0
  11
 3622.2151991965
  21
 64.000000000000
  31
0.0
   0
LINE
   5
C5
 100
AcDbEntity
   8
LEVEL001
 370
30
 100
AcDbLine
   6
CONTINUOUS
  62
7
  10
 3862.2151991965
  20
 192.00000000000
  30
0.0
  11
 3862.2151991965
  21
 64.000000000000
  31
0.0
   0
LINE
   5
C6
 100
AcDbEntity
   8
LEVEL001
 370
30
 100
AcDbLine
   6
CONTINUOUS
  62
7
  10
 4102.2151991965
  20
 192.00000000000
  30
0.0
  11
 4102.2151991965
  21
 64.000000000000
  31
0.0
   0
LINE
   5
C7
 100
AcDbEntity
   8
LEVEL001
 370
30
 100
AcDbLine
   6
CONTINUOUS
  62
7
  10
 4166.2151991965
  20
 192.00000000000
  30
0.0
  11
 4166.2151991965
  21
 64.000000000000
  31
0.0
   0
LINE
   5
C8
 100
AcDbEntity
   8
LEVEL001
 370
30
 100
AcDbLine
   6
CONTINUOUS
  62
7
  10
 4326.2151991965
  20
 192.00000000000
  30
0.0
  11
 4326.2151991965
  21
 64.000000000000
  31
0.0
   0
LINE
   5
C9
 100
AcDbEntity
   8
LEVEL001
 370
30
 100
AcDbLine
   6
CONTINUOUS
  62
7
  10
 4382.2151991965
  20
 192.00000000000
  30
0.0
  11
 4382.2151991965
  21
 64.000000000000
  31
0.0
   0
LINE
   5
CA
 100
AcDbEntity
   8
LEVEL001
 370
30
 100
AcDbLine
   6
CONTINUOUS
  62
7
  10
 4430.2151991965
  20
 192.00000000000
  30
0.0
  11
 4430.2151991965
  21
 64.000000000000
  31
0.0
   0
LINE
   5
CB
 100
AcDbEntity
   8
LEVEL001
 370
30
 100
AcDbLine
   6
CONTINUOUS
  62
7
  10
 4486.2151991965
  20
 192.00000000000
  30
0.0
  11
 4486.2151991965
  21
 64.000000000000
  31
0.0
   0
LINE
   5
CC
 100
AcDbEntity
   8
LEVEL001
 370
30
 100
AcDbLine
   6
CONTINUOUS
  62
7
  10
 4646.2151991965
  20
 192.00000000000
  30
0.0
  11
 4646.2151991965
  21
0.0
  31
0.0
   0
ENDBLK
   5
CD
 100
AcDbEntity
   8
0
 100
AcDbBlockEnd
   0
BLOCK
   5
CE
 100
AcDbEntity
   8
0
 100
AcDbBlockBegin
   2
BLOCK003
  70
64
  10
0.0
  20
0.0
  30
0.0
   3
BLOCK003
   0
MTEXT
   5
D0
 100
AcDbEntity
   8
LEVEL001
 370
30
  62
7
 100
AcDbMText
  10
 3855.8152358176
  20
 16.000000000000
  30
0.0
  40
 32.000000000000
  41
0.0
  71
7
  72
1
   1
\T1.800000;さぬき麺機株式会社
   7
GMM001
  44
 0.79999984000003
   0
TEXT
   5
D1
 100
AcDbEntity
   8
LEVEL001
 370
30
  62
7
 100
AcDbText
  10
 3576.2151991965
  20
 280.88885498047
  30
0.0
  40
 4.0000000000000
   1
名称
   7
STANDARD1
 100
AcDbText
   0
TEXT
   5
D2
 100
AcDbEntity
   8
LEVEL001
 370
30
  62
7
 100
AcDbText
  10
 4120.2151991965
  20
 280.88879394531
  30
0.0
  40
 4.0000000000000
   1
図番
   7
STANDARD1
 100
AcDbText
   0
TEXT
   5
D3
 100
AcDbEntity
   8
LEVEL001
 370
30
  62
7
 100
AcDbText
  10
 3576.2151991965
  20
 174.22222264608
  30
0.0
  40
 4.0000000000000
   1
画法
   7
STANDARD1
 100
AcDbText
   0
MTEXT
   5
D5
 100
AcDbEntity
   8
LEVEL001
 370
30
  62
7
 100
AcDbMText
  10
 3644.6151997687
  20
 112.00000000000
  30
0.0
  40
 32.000000000000
  41
0.0
  71
7
  72
1
   1
\T1.700000;第三角法
   7
GMM001
  44
 0.79999984000003
   0
MTEXT
   5
D7
 100
AcDbEntity
   8
LEVEL001
 370
30
  62
7
 100
AcDbMText
  10
 3884.6151997687
  20
 144.00000000000
  30
0.0
  40
 32.000000000000
  41
0.0
  71
7
  72
1
   1
\T1.700000;共通機種
   7
GMM001
  44
 0.79999984000003
   0
MTEXT
   5
D9
 100
AcDbEntity
   8
LEVEL001
 370
30
  62
7
 100
AcDbMText
  10
 4108.6151988190
  20
 144.00000000000
  30
0.0
  40
 32.000000000000
  41
0.0
  71
7
  72
1
   1
\T1.000000;個数
   7
GMM003
  44
 0.79999984000003
   0
MTEXT
   5
DB
 100
AcDbEntity
   8
LEVEL001
 370
30
  62
7
 100
AcDbMText
  10
 4198.2151991965
  20
 144.00000000000
  30
0.0
  40
 32.000000000000
  41
0.0
  71
7
  72
1
   1
\T2.000000;尺度
   7
GMM001
  44
 0.79999984000003
   0
MTEXT
   5
DD
 100
AcDbEntity
   8
LEVEL001
 370
30
  62
7
 100
AcDbMText
  10
 4342.2151991965
  20
 144.00000000000
  30
0.0
  40
 32.000000000000
  41
0.0
  71
7
  72
1
   1
\T1.500000;年月日
   7
GMM001
  44
 0.79999984000003
   0
MTEXT
   5
DF
 100
AcDbEntity
   8
LEVEL001
 370
30
  62
7
 100
AcDbMText
  10
 4518.2151991965
  20
 144.00000000000
  30
0.0
  40
 32.000000000000
  41
0.0
  71
7
  72
1
   1
\T2.000000;製図
   7
GMM001
  44
 0.79999984000003
   0
ENDBLK
   5
E0
 100
AcDbEntity
   8
0
 100
AcDbBlockEnd
   0
BLOCK
   5
E1
 100
AcDbEntity
   8
0
 100
AcDbBlockBegin
   2
GMM001
  70
64
  10
0.0
  20
0.0
  30
0.0
   3
GMM001
   0
LWPOLYLINE
   5
E2
 100
AcDbEntity
   8
LEVEL001
 370
30
   6
CONTINUOUS
  62
7
 100
AcDbPolyline
  90
4
  70
1
  10
-568.00000000000
  20
 394.00000000000
  10
-568.00000000000
  20
0.0
  10
0.0
  20
0.0
  10
0.0
  20
 394.00000000000
   0
ENDBLK
   5
E3
 100
AcDbEntity
   8
0
 100
AcDbBlockEnd
   0
BLOCK
   5
E4
 100
AcDbEntity
   8
0
 100
AcDbBlockBegin
   2
*D1
  70
65
  10
0.0
  20
0.0
  30
0.0
   3
*D1
   0
LINE
   5
E5
 100
AcDbEntity
   8
LEVEL001
 370
9
 100
AcDbLine
   6
CONTINUOUS
  62
1
  10
 3409.1930857734
  20
 944.66235859953
  30
0.0
  11
 3409.1930857734
  21
 1636.8450697098
  31
0.0
   0
LINE
   5
E6
 100
AcDbEntity
   8
LEVEL001
 370
9
 100
AcDbLine
   6
CONTINUOUS
  62
1
  10
 2684.1930857734
  20
 917.66235859950
  30
0.0
  11
 2684.1930857734
  21
 1636.8450697098
  31
0.0
   0
LINE
   5
E7
 100
AcDbEntity
   8
LEVEL001
 370
9
 100
AcDbLine
   6
CONTINUOUS
  62
1
  10
 3409.1930857734
  20
 1620.8450697098
  30
0.0
  11
 3046.6930857734
  21
 1620.8450697098
  31
0.0
   0
LINE
   5
E8
 100
AcDbEntity
   8
LEVEL001
 370
9
 100
AcDbLine
   6
CONTINUOUS
  62
1
  10
 2684.1930857734
  20
 1620.8450697098
  30
0.0
  11
 3046.6930857734
  21
 1620.8450697098
  31
0.0
   0
INSERT
   5
E9
 100
AcDbEntity
   8
LEVEL001
   6
CONTINUOUS
  62
1
 100
AcDbBlockReference
   2
_OPEN30
  10
 3409.1930857734
  20
 1620.8450697098
  30
0.0
  41
 24.000000000000
  42
 24.000000000000
  43
 24.000000000000
  50
0.0
   0
INSERT
   5
EA
 100
AcDbEntity
   8
LEVEL001
   6
CONTINUOUS
  62
1
 100
AcDbBlockReference
   2
_OPEN30
  10
 2684.1930857734
  20
 1620.8450697098
  30
0.0
  41
 24.000000000000
  42
 24.000000000000
  43
 24.000000000000
  50
 180.00000000000
   0
MTEXT
   5
EB
 100
AcDbEntity
   8
LEVEL001
 370
30
  62
7
 100
AcDbMText
  10
 3046.6930857734
  20
 1634.5593554240
  30
0.0
  40
 32.000000000000
  41
0.0
  71
8
  72
1
   1
\A1;725
   7
GMM001
   0
ENDBLK
   5
EC
 100
AcDbEntity
   8
0
 100
AcDbBlockEnd
   0
BLOCK
   5
ED
 100
AcDbEntity
   8
0
 100
AcDbBlockBegin
   2
BLOCK004
  70
64
  10
0.0
  20
0.0
  30
0.0
   3
BLOCK004
   0
LWPOLYLINE
   5
EE
 100
AcDbEntity
   8
LEVEL001
 370
30
   6
CONTINUOUS
  62
7
 100
AcDbPolyline
  90
4
  70
1
  10
 1706.5035749462
  20
 698.86235859953
  10
 1566.5035749462
  20
 698.86235859953
  10
 1566.5035749462
  20
 723.86235859953
  10
 1706.5035749462
  20
 723.86235859953
   0
LWPOLYLINE
   5
EF
 100
AcDbEntity
   8
LEVEL001
 370
30
   6
CONTINUOUS
  62
7
 100
AcDbPolyline
  90
4
  70
1
  10
 1779.7407805299
  20
 325.66235859953
  10
 1469.7407805299
  20
 325.66235859953
  10
 1469.7407805299
  20
 330.16235859953
  10
 1779.7407805299
  20
 330.16235859953
   0
ARC
   5
F0
 100
AcDbEntity
   8
LEVEL001
 370
30
   6
CONTINUOUS
  62
7
 100
AcDbCircle
  10
 1754.7407805299
  20
 310.66235859953
  30
0.0
  40
 12.000000000000
 100
AcDbArc
  50
0.0
  51
 180.00000000000
   0
LWPOLYLINE
   5
F1
 100
AcDbEntity
   8
LEVEL001
 370
30
   6
CONTINUOUS
  62
7
 100
AcDbPolyline
  90
4
  70
0
  10
 1766.7407805299
  20
 310.66235859953
  10
 1766.7407805299
  20
 278.16235859953
  10
 1768.7407805299
  20
 278.16235859953
  10
 1768.7407805299
  20
 325.66235859953
   0
LWPOLYLINE
   5
F2
 100
AcDbEntity
   8
LEVEL001
 370
30
   6
CONTINUOUS
  62
7
 100
AcDbPolyline
  90
4
  70
0
  10
 1740.7407805299
  20
 325.66235859953
  10
 1740.7407805299
  20
 278.16235859953
  10
 1742.7407805299
  20
 278.16235859953
  10
 1742.7407805299
  20
 310.66235859953
   0
ARC
   5
F3
 100
AcDbEntity
   8
LEVEL001
 370
30
   6
CONTINUOUS
  62
7
 100
AcDbCircle
  10
 1494.7407805299
  20
 310.66235859953
  30
0.0
  40
 12.000000000000
 100
AcDbArc
  50
0.0
  51
 180.00000000000
   0
LWPOLYLINE
   5
F4
 100
AcDbEntity
   8
LEVEL001
 370
30
   6
CONTINUOUS
  62
7
 100
AcDbPolyline
  90
4
  70
0
  10
 1506.7407805299
  20
 310.66235859953
  10
 1506.7407805299
  20
 278.16235859953
  10
 1508.7407805299
  20
 278.16235859953
  10
 1508.7407805299
  20
 325.66235859953
   0
LWPOLYLINE
   5
F5
 100
AcDbEntity
   8
LEVEL001
 370
30
   6
CONTINUOUS
  62
7
 100
AcDbPolyline
  90
4
  70
0
  10
 1480.7407805299
  20
 325.66235859953
  10
 1480.7407805299
  20
 278.16235859953
  10
 1482.7407805299
  20
 278.16235859953
  10
 1482.7407805299
  20
 310.66235859953
   0
LWPOLYLINE
   5
F6
 100
AcDbEntity
   8
LEVEL001
 370
30
   6
CONTINUOUS
  62
7
 100
AcDbPolyline
  90
4
  70
1
  10
 1765.2407805299
  20
 260.66235859953
  10
 1744.2407805299
  20
 260.66235859953
  10
 1744.2407805299
  20
 310.66235859953
  10
 1765.2407805299
  20
 310.66235859953
   0
LWPOLYLINE
   5
F7
 100
AcDbEntity
   8
LEVEL001
 370
30
   6
CONTINUOUS
  62
7
 100
AcDbPolyline
  90
4
  70
1
  10
 1505.2407805299
  20
 260.66235859953
  10
 1484.2407805299
  20
 260.66235859953
  10
 1484.2407805299
  20
 310.66235859953
  10
 1505.2407805299
  20
 310.66235859953
   0
CIRCLE
   5
F8
 100
AcDbEntity
   8
LEVEL001
 370
30
 100
AcDbCircle
   6
CONTINUOUS
  62
7
  10
 1669.7144474881
  20
 855.87671859923
  30
0.0
  40
 7.7000000000000
   0
LINE
   5
F9
 100
AcDbEntity
   8
LEVEL001
 370
30
 100
AcDbLine
   6
CONTINUOUS
  62
7
  10
 1699.7434155773
  20
 840.27988957867
  30
0.0
  11
 1668.0929813952
  21
 844.99688184910
  31
0.0
   0
LINE
   5
FA
 100
AcDbEntity
   8
LEVEL001
 370
30
 100
AcDbLine
   6
CONTINUOUS
  62
7
  10
 1698.7115735182
  20
 833.35635710132
  30
0.0
  11
 1667.0611393360
  21
 838.07334937175
  31
0.0
   0
ARC
   5
FB
 100
AcDbEntity
   8
LEVEL001
 370
30
   6
CONTINUOUS
  62
7
 100
AcDbCircle
  10
 1696.7952954083
  20
 820.49836821481
  30
0.0
  40
 20.000000000000
 100
AcDbArc
  50
 351.52336925826
  51
 81.523369258261
   0
ARC
   5
FC
 100
AcDbEntity
   8
LEVEL001
 370
30
   6
CONTINUOUS
  62
7
 100
AcDbCircle
  10
 1696.7952954083
  20
 820.49836821481
  30
0.0
  40
 13.000000000000
 100
AcDbArc
  50
 351.52336925826
  51
 81.523369258262
   0
ARC
   5
FD
 100
AcDbEntity
   8
LEVEL001
 370
30
   6
CONTINUOUS
  62
7
 100
AcDbCircle
  10
 1669.7144474881
  20
 855.87671859923
  30
0.0
  40
 18.000000000000
 100
AcDbArc
  50
 81.523369258262
  51
 261.52336925826
   0
ARC
   5
FE
 100
AcDbEntity
   8
LEVEL001
 370
30
   6
CONTINUOUS
  62
7
 100
AcDbCircle
  10
 1669.7144474881
  20
 855.87671859923
  30
0.0
  40
 11.000000000000
 100
AcDbArc
  50
 81.523369258263
  51
 261.52336925826
   0
LINE
   5
FF
 100
AcDbEntity
   8
LEVEL001
 370
30
 100
AcDbLine
   6
CONTINUOUS
  62
7
  10
 1672.3677556402
  20
 873.68008782671
  30
0.0
  11
 1756.4392214367
  21
 861.15057710837
  31
0.0
   0
LINE
   5
100
 100
AcDbEntity
   8
LEVEL001
 370
30
 100
AcDbLine
   6
CONTINUOUS
  62
7
  10
 1671.3359135811
  20
 866.75655534935
  30
0.0
  11
 1755.4073793775
  21
 854.22704463102
  31
0.0
   0
ARC
   5
101
 100
AcDbEntity
   8
LEVEL001
 370
30
   6
CONTINUOUS
  62
7
 100
AcDbCircle
  10
 1753.4911012676
  20
 841.36905574450
  30
0.0
  40
 20.000000000000
 100
AcDbArc
  50
 351.52336925826
  51
 81.523369258261
   0
ARC
   5
102
 100
AcDbEntity
   8
LEVEL001
 370
30
   6
CONTINUOUS
  62
7
 100
AcDbCircle
  10
 1753.4911012676
  20
 841.36905574450
  30
0.0
  40
 13.000000000000
 100
AcDbArc
  50
 351.52336925826
  51
 81.523369258262
   0
LWPOLYLINE
   5
103
 100
AcDbEntity
   8
LEVEL001
 370
30
   6
CONTINUOUS
  62
7
 100
AcDbPolyline
  90
4
  70
0
  10
 1455.2407805299
  20
 642.96235859953
  10
 1453.2407805299
  20
 642.96235859953
  10
 1453.2407805299
  20
 625.96235859953
  10
 1455.2407805299
  20
 625.96235859953
   0
LWPOLYLINE
   5
104
 100
AcDbEntity
   8
LEVEL001
 370
30
   6
CONTINUOUS
  62
7
 100
AcDbPolyline
  90
4
  70
0
  10
 1455.2407805299
  20
 619.96235859953
  10
 1453.2407805299
  20
 619.96235859953
  10
 1453.2407805299
  20
 602.96235859953
  10
 1455.2407805299
  20
 602.96235859953
   0
LWPOLYLINE
   5
105
 100
AcDbEntity
   8
LEVEL001
 370
30
   6
CONTINUOUS
  62
7
 100
AcDbPolyline
  90
4
  70
0
  10
 1463.2407805299
  20
 680.96235859953
  10
 1455.2407805299
  20
 680.96235859953
  10
 1455.2407805299
  20
 580.96235859953
  10
 1463.2407805299
  20
 580.96235859953
   0
CIRCLE
   5
106
 100
AcDbEntity
   8
LEVEL001
 370
30
 100
AcDbCircle
   6
CONTINUOUS
  62
7
  10
 1669.7144474881
  20
 855.87671859923
  30
0.0
  40
 6.3000000000000
   0
LWPOLYLINE
   5
107
 100
AcDbEntity
   8
LEVEL001
 370
30
   6
CONTINUOUS
  62
7
 100
AcDbPolyline
  90
6
  70
1
  10
 1669.7144474881
  20
 863.38227209867
  10
 1663.2144474881
  20
 859.62949534891
  10
 1663.2144474881
  20
 852.12394184955
  10
 1669.7144474881
  20
 848.37116509979
  10
 1676.2144474881
  20
 852.12394184955
  10
 1676.2144474881
  20
 859.62949534891
   0
LWPOLYLINE
   5
108
 100
AcDbEntity
   8
LEVEL001
 370
30
   6
CONTINUOUS
  62
7
 100
AcDbPolyline
  90
3
  70
0
  10
 1701.2496242974
  20
 807.96235859953
  10
 1612.2407805299
  20
 807.96235859953
  10
 1612.2407805299
  20
 731.96235859953
   0
LWPOLYLINE
   5
109
 100
AcDbEntity
   8
LEVEL001
 370
30
   6
CONTINUOUS
  62
7
 100
AcDbPolyline
  90
3
  70
0
  10
 1774.2407805299
  20
 731.96235859953
  10
 1774.2407805299
  20
 807.96235859953
  10
 1701.2496242974
  20
 807.96235859953
   0
ARC
   5
10A
 100
AcDbEntity
   8
LEVEL001
 370
30
   6
CONTINUOUS
  62
7
 100
AcDbCircle
  10
 1731.3656418843
  20
 760.74980216898
  30
0.0
  40
 56.000000000000
 100
AcDbArc
  50
 329.06525556234
  51
 40.037152615580
   0
LINE
   5
10B
 100
AcDbEntity
   8
LEVEL001
 370
30
 100
AcDbLine
   6
CONTINUOUS
  62
7
  10
 1773.2726226315
  20
 838.42093557549
  30
0.0
  11
 1768.7332576630
  21
 807.96235859953
  31
0.0
   0
LINE
   5
10C
 100
AcDbEntity
   8
LEVEL001
 370
30
 100
AcDbLine
   6
CONTINUOUS
  62
7
  10
 1766.3490901542
  20
 839.45277763464
  30
0.0
  11
 1761.6559455885
  21
 807.96235859953
  31
0.0
   0
LINE
   5
10D
 100
AcDbEntity
   8
LEVEL001
 370
30
 100
AcDbLine
   6
CONTINUOUS
  62
7
  10
 1708.0705827389
  20
 807.96235859953
  30
0.0
  11
 1709.6532842948
  21
 818.58209010494
  31
0.0
   0
LINE
   5
10E
 100
AcDbEntity
   8
LEVEL001
 370
30
 100
AcDbLine
   6
CONTINUOUS
  62
7
  10
 1715.1478948134
  20
 807.96235859953
  30
0.0
  11
 1716.5768167722
  21
 817.55024804579
  31
0.0
   0
ARC
   5
10F
 100
AcDbEntity
   8
LEVEL001
 370
30
   6
CONTINUOUS
  62
7
 100
AcDbCircle
  10
 1731.3656418843
  20
 760.74980216898
  30
0.0
  40
 56.000000000000
 100
AcDbArc
  50
 113.91573474411
  51
 121.62285607261
   0
ARC
   5
110
 100
AcDbEntity
   8
LEVEL001
 370
30
   6
CONTINUOUS
  62
7
 100
AcDbCircle
  10
 1630.7407805299
  20
 684.96235859953
  30
0.0
  40
 57.500000000000
 100
AcDbArc
  50
 108.76813277386
  51
 125.17550049715
   0
LWPOLYLINE
   5
111
 100
AcDbEntity
   8
LEVEL001
 370
30
   6
CONTINUOUS
  62
7
 100
AcDbPolyline
  90
3
  70
0
  10
 1784.7407805299
  20
 349.96235859953
  10
 1786.2407805299
  20
 349.96235859953
  10
 1786.2407805299
  20
 363.96235859953
   0
LWPOLYLINE
   5
112
 100
AcDbEntity
   8
LEVEL001
 370
30
   6
CONTINUOUS
  62
7
 100
AcDbPolyline
  90
3
  70
0
  10
 1463.2407805299
  20
 363.96235859953
  10
 1463.2407805299
  20
 349.96235859953
  10
 1464.7407805299
  20
 349.96235859953
   0
LWPOLYLINE
   5
113
 100
AcDbEntity
   8
LEVEL001
 370
30
   6
CONTINUOUS
  62
7
 100
AcDbPolyline
  90
3
  70
0
  10
 1786.2407805299
  20
 363.96235859953
  10
 1786.2407805299
  20
 731.96235859953
  10
 1463.2407805299
  20
 731.96235859953
   0
LINE
   5
114
 100
AcDbEntity
   8
LEVEL001
 370
30
 100
AcDbLine
   6
CONTINUOUS
  62
7
  10
 1463.2407805299
  20
 731.96235859953
  30
0.0
  11
 1463.2407805299
  21
 363.96235859953
  31
0.0
   0
LWPOLYLINE
   5
115
 100
AcDbEntity
   8
LEVEL001
 370
30
   6
CONTINUOUS
  62
7
 100
AcDbPolyline
  90
4
  70
0
  10
 1464.7407805299
  20
 349.96235859953
  10
 1464.7407805299
  20
 330.16235859953
  10
 1784.7407805299
  20
 330.16235859953
  10
 1784.7407805299
  20
 349.96235859953
   0
LINE
   5
116
 100
AcDbEntity
   8
LEVEL001
 370
30
 100
AcDbLine
   6
CONTINUOUS
  62
7
  10
 1464.7407805299
  20
 349.96235859953
  30
0.0
  11
 1784.7407805299
  21
 349.96235859953
  31
0.0
   0
ENDBLK
   5
117
 100
AcDbEntity
   8
0
 100
AcDbBlockEnd
   0
BLOCK
   5
118
 100
AcDbEntity
   8
0
 100
AcDbBlockBegin
   2
BLOCK005
  70
64
  10
0.0
  20
0.0
  30
0.0
   3
BLOCK005
   0
LWPOLYLINE
   5
119
 100
AcDbEntity
   8
LEVEL001
 370
30
   6
CONTINUOUS
  62
7
 100
AcDbPolyline
  90
4
  70
1
  10
 807.94078052993
  20
 305.66235859953
  10
 807.94078052993
  20
 330.16235859953
  10
 1357.9407805299
  20
 330.16235859953
  10
 1357.9407805299
  20
 305.66235859953
   0
LWPOLYLINE
   5
11A
 100
AcDbEntity
   8
LEVEL001
 370
30
   6
CONTINUOUS
  62
7
 100
AcDbPolyline
  90
7
  70
0
  10
 1440.5407805299
  20
 331.16235859953
  10
 1327.5407805299
  20
 331.16235859953
  10
 1327.5407805299
  20
 870.16235859953
  10
 1441.5407805299
  20
 870.16235859953
  10
 1441.5407805299
  20
 330.16235859953
  10
 1354.5407805299
  20
 330.16235859953
  10
 1354.5407805299
  20
 331.16235859953
   0
LWPOLYLINE
   5
11B
 100
AcDbEntity
   8
LEVEL001
 370
30
   6
CONTINUOUS
  62
7
 100
AcDbPolyline
  90
7
  70
0
  10
 798.94078052993
  20
 334.16235859953
  10
 894.94078052993
  20
 334.16235859953
  10
 894.94078052993
  20
 841.16235859953
  10
 797.94078052993
  20
 841.16235859953
  10
 797.94078052993
  20
 333.16235859953
  10
 812.94078052993
  20
 333.16235859953
  10
 812.94078052993
  20
 334.16235859953
   0
LWPOLYLINE
   5
11C
 100
AcDbEntity
   8
LEVEL001
 370
30
   6
CONTINUOUS
  62
7
 100
AcDbPolyline
  90
4
  70
0
  10
 928.74078052993
  20
 768.66235859953
  10
 926.24078052993
  20
 768.66235859953
  10
 926.24078052993
  20
 743.66235859953
  10
 928.74078052993
  20
 743.66235859953
   0
LINE
   5
11D
 100
AcDbEntity
   8
LEVEL001
 370
30
 100
AcDbLine
   6
CONTINUOUS
  62
7
  10
 926.24078052993
  20
 751.16235859953
  30
0.0
  11
 920.94078052993
  21
 751.16235859953
  31
0.0
   0
LINE
   5
11E
 100
AcDbEntity
   8
LEVEL001
 370
30
 100
AcDbLine
   6
CONTINUOUS
  62
7
  10
 920.94078052993
  20
 761.16235859953
  30
0.0
  11
 926.24078052993
  21
 761.16235859953
  31
0.0
   0
LWPOLYLINE
   5
11F
 100
AcDbEntity
   8
LEVEL001
 370
30
   6
CONTINUOUS
  62
7
 100
AcDbPolyline
  90
4
  70
0
  10
 896.94078052993
  20
 768.66235859953
  10
 920.94078052993
  20
 768.66235859953
  10
 920.94078052993
  20
 743.66235859953
  10
 896.94078052993
  20
 743.66235859953
   0
LWPOLYLINE
   5
120
 100
AcDbEntity
   8
LEVEL001
 370
30
   6
CONTINUOUS
  62
7
 100
AcDbPolyline
  90
4
  70
0
  10
 928.74078052993
  20
 653.71439679989
  10
 923.44078052993
  20
 653.71439679989
  10
 923.44078052993
  20
 628.71439679989
  10
 928.74078052993
  20
 628.71439679989
   0
LWPOLYLINE
   5
121
 100
AcDbEntity
   8
LEVEL001
 370
30
   6
CONTINUOUS
  62
7
 100
AcDbPolyline
  90
4
  70
0
  10
 928.74078052993
  20
 593.61032039910
  10
 923.44078052993
  20
 593.61032039910
  10
 923.44078052993
  20
 568.61032039910
  10
 928.74078052993
  20
 568.61032039910
   0
LWPOLYLINE
   5
122
 100
AcDbEntity
   8
LEVEL001
 370
30
   6
CONTINUOUS
  62
7
 100
AcDbPolyline
  90
8
  70
0
  10
 896.94078052993
  20
 641.41235859953
  10
 912.44078052993
  20
 641.41235859953
  10
 912.44078052993
  20
 664.16235859953
  10
 923.44078052993
  20
 664.16235859953
  10
 923.44078052993
  20
 558.16235859953
  10
 912.44078052993
  20
 558.16235859953
  10
 912.44078052993
  20
 580.91235859953
  10
 896.94078052993
  20
 580.91235859953
   0
LWPOLYLINE
   5
123
 100
AcDbEntity
   8
LEVEL001
 370
30
   6
CONTINUOUS
  62
7
 100
AcDbPolyline
  90
3
  70
0
  10
 1325.5407805299
  20
 330.16235859953
  10
 1325.5407805299
  20
 565.16235859953
  10
 1327.5407805299
  20
 565.16235859953
   0
LWPOLYLINE
   5
124
 100
AcDbEntity
   8
LEVEL001
 370
30
   6
CONTINUOUS
  62
7
 100
AcDbPolyline
  90
3
  70
0
  10
 896.94078052993
  20
 330.16235859953
  10
 896.94078052993
  20
 840.16235859953
  10
 894.94078052993
  20
 840.16235859953
   0
LINE
   5
125
 100
AcDbEntity
   8
LEVEL001
 370
30
 100
AcDbLine
   6
CONTINUOUS
  62
7
  10
 896.94078052993
  20
 390.16235859953
  30
0.0
  11
 1325.5407805299
  21
 390.16235859953
  31
0.0
   0
LINE
   5
126
 100
AcDbEntity
   8
LEVEL001
 370
30
 100
AcDbLine
   6
CONTINUOUS
  62
7
  10
 896.94078052993
  20
 525.73704203415
  30
0.0
  11
 928.74078052993
  21
 525.73704203415
  31
0.0
   0
LINE
   5
127
 100
AcDbEntity
   8
LEVEL001
 370
30
 100
AcDbLine
   6
CONTINUOUS
  62
7
  10
 1293.7407805299
  20
 525.73704203415
  30
0.0
  11
 1325.5407805299
  21
 525.73704203415
  31
0.0
   0
LINE
   5
128
 100
AcDbEntity
   8
LEVEL001
 370
30
 100
AcDbLine
   6
CONTINUOUS
  62
7
  10
 1301.2407805299
  20
 870.16235859953
  30
0.0
  11
 1301.2407805299
  21
 835.16235859953
  31
0.0
   0
LINE
   5
129
 100
AcDbEntity
   8
LEVEL001
 370
30
 100
AcDbLine
   6
CONTINUOUS
  62
7
  10
 1230.2407805299
  20
 803.16235859953
  30
0.0
  11
 1232.7407805299
  21
 803.16235859953
  31
0.0
   0
LINE
   5
12A
 100
AcDbEntity
   8
LEVEL001
 370
30
 100
AcDbLine
   6
CONTINUOUS
  62
7
  10
 1232.7407805299
  20
 793.16235859953
  30
0.0
  11
 1230.2407805299
  21
 793.16235859953
  31
0.0
   0
LWPOLYLINE
   5
12B
 100
AcDbEntity
   8
LEVEL001
 370
30
   6
CONTINUOUS
  62
7
 100
AcDbPolyline
  90
3
  70
0
  10
 1230.2407805299
  20
 806.16235859953
  10
 1178.2407805299
  20
 806.16235859953
  10
 1178.2407805299
  20
 790.16235859953
   0
CIRCLE
   5
12C
 100
AcDbEntity
   8
LEVEL001
 370
30
 100
AcDbCircle
   6
CONTINUOUS
  62
7
  10
 1166.2407805299
  20
 798.16235859953
  30
0.0
  40
 5.0000000000000
   0
LINE
   5
12D
 100
AcDbEntity
   8
LEVEL001
 370
30
 100
AcDbLine
   6
CONTINUOUS
  62
7
  10
 1166.2407805299
  20
 803.16235859953
  30
0.0
  11
 1178.2407805299
  21
 803.16235859953
  31
0.0
   0
LINE
   5
12E
 100
AcDbEntity
   8
LEVEL001
 370
30
 100
AcDbLine
   6
CONTINUOUS
  62
7
  10
 1166.2407805299
  20
 793.16235859953
  30
0.0
  11
 1178.2407805299
  21
 793.16235859953
  31
0.0
   0
LINE
   5
12F
 100
AcDbEntity
   8
LEVEL001
 370
30
 100
AcDbLine
   6
CONTINUOUS
  62
7
  10
 992.24078052993
  20
 803.16235859953
  30
0.0
  11
 989.74078052993
  21
 803.16235859953
  31
0.0
   0
LINE
   5
130
 100
AcDbEntity
   8
LEVEL001
 370
30
 100
AcDbLine
   6
CONTINUOUS
  62
7
  10
 989.74078052993
  20
 793.16235859953
  30
0.0
  11
 992.24078052993
  21
 793.16235859953
  31
0.0
   0
LWPOLYLINE
   5
131
 100
AcDbEntity
   8
LEVEL001
 370
30
   6
CONTINUOUS
  62
7
 100
AcDbPolyline
  90
3
  70
0
  10
 992.24078052993
  20
 806.16235859953
  10
 1044.2407805299
  20
 806.16235859953
  10
 1044.2407805299
  20
 790.16235859953
   0
CIRCLE
   5
132
 100
AcDbEntity
   8
LEVEL001
 370
30
 100
AcDbCircle
   6
CONTINUOUS
  62
7
  10
 1056.2407805299
  20
 798.16235859953
  30
0.0
  40
 5.0000000000000
   0
LINE
   5
133
 100
AcDbEntity
   8
LEVEL001
 370
30
 100
AcDbLine
   6
CONTINUOUS
  62
7
  10
 1056.2407805299
  20
 803.16235859953
  30
0.0
  11
 1044.2407805299
  21
 803.16235859953
  31
0.0
   0
LINE
   5
134
 100
AcDbEntity
   8
LEVEL001
 370
30
 100
AcDbLine
   6
CONTINUOUS
  62
7
  10
 1056.2407805299
  20
 793.16235859953
  30
0.0
  11
 1044.2407805299
  21
 793.16235859953
  31
0.0
   0
LWPOLYLINE
   5
135
 100
AcDbEntity
   8
LEVEL001
 370
30
   6
CONTINUOUS
  62
7
 100
AcDbPolyline
  90
12
  70
1
  10
 928.74078052993
  20
 811.16235859953
  10
 928.74078052993
  20
 813.16235859953
  10
 946.24078052993
  20
 813.16235859953
  10
 946.24078052993
  20
 826.16235859953
  10
 1276.2407805299
  20
 826.16235859953
  10
 1276.2407805299
  20
 813.16235859953
  10
 1293.7407805299
  20
 813.16235859953
  10
 1293.7407805299
  20
 811.16235859953
  10
 1230.2407805299
  20
 811.16235859953
  10
 1230.2407805299
  20
 788.16235859953
  10
 992.24078052993
  20
 788.16235859953
  10
 992.24078052993
  20
 811.16235859953
   0
LINE
   5
136
 100
AcDbEntity
   8
LEVEL001
 370
30
 100
AcDbLine
   6
CONTINUOUS
  62
7
  10
 992.24078052993
  20
 790.16235859953
  30
0.0
  11
 1230.2407805299
  21
 790.16235859953
  31
0.0
   0
LWPOLYLINE
   5
137
 100
AcDbEntity
   8
LEVEL001
 370
30
   6
CONTINUOUS
  62
7
 100
AcDbPolyline
  90
4
  70
1
  10
 1232.7407805299
  20
 771.16235859953
  10
 1272.7407805299
  20
 771.16235859953
  10
 1272.7407805299
  20
 809.16235859953
  10
 1232.7407805299
  20
 809.16235859953
   0
LWPOLYLINE
   5
138
 100
AcDbEntity
   8
LEVEL001
 370
30
   6
CONTINUOUS
  62
7
 100
AcDbPolyline
  90
3
  70
0
  10
 1232.7407805299
  20
 783.16235859953
  10
 1252.7407805299
  20
 783.16235859953
  10
 1252.7407805299
  20
 809.16235859953
   0
LWPOLYLINE
   5
139
 100
AcDbEntity
   8
LEVEL001
 370
30
   6
CONTINUOUS
  62
7
 100
AcDbPolyline
  90
4
  70
1
  10
 989.74078052993
  20
 771.16235859953
  10
 949.74078052993
  20
 771.16235859953
  10
 949.74078052993
  20
 809.16235859953
  10
 989.74078052993
  20
 809.16235859953
   0
LWPOLYLINE
   5
13A
 100
AcDbEntity
   8
LEVEL001
 370
30
   6
CONTINUOUS
  62
7
 100
AcDbPolyline
  90
3
  70
0
  10
 989.74078052993
  20
 783.16235859953
  10
 969.74078052993
  20
 783.16235859953
  10
 969.74078052993
  20
 809.16235859953
   0
POINT
   5
13B
 100
AcDbEntity
   8
LEVEL001
 100
AcDbPoint
  62
7
  10
 959.74078052993
  20
 799.16235859953
  30
0.0
   0
POINT
   5
13C
 100
AcDbEntity
   8
LEVEL001
 100
AcDbPoint
  62
7
  10
 959.74078052993
  20
 795.16235859953
  30
0.0
   0
POINT
   5
13D
 100
AcDbEntity
   8
LEVEL001
 100
AcDbPoint
  62
7
  10
 959.74078052993
  20
 783.16235859953
  30
0.0
   0
POINT
   5
13E
 100
AcDbEntity
   8
LEVEL001
 100
AcDbPoint
  62
7
  10
 959.74078052993
  20
 779.16235859953
  30
0.0
   0
POINT
   5
13F
 100
AcDbEntity
   8
LEVEL001
 100
AcDbPoint
  62
7
  10
 1262.7407805299
  20
 799.16235859953
  30
0.0
   0
POINT
   5
140
 100
AcDbEntity
   8
LEVEL001
 100
AcDbPoint
  62
7
  10
 1262.7407805299
  20
 795.16235859953
  30
0.0
   0
POINT
   5
141
 100
AcDbEntity
   8
LEVEL001
 100
AcDbPoint
  62
7
  10
 1262.7407805299
  20
 783.16235859953
  30
0.0
   0
POINT
   5
142
 100
AcDbEntity
   8
LEVEL001
 100
AcDbPoint
  62
7
  10
 1262.7407805299
  20
 779.16235859953
  30
0.0
   0
LWPOLYLINE
   5
143
 100
AcDbEntity
   8
LEVEL001
 370
30
   6
CONTINUOUS
  62
7
 100
AcDbPolyline
  90
4
  70
0
  10
 928.74078052993
  20
 811.16235859953
  10
 928.74078052993
  20
 489.16235859953
  10
 1293.7407805299
  20
 489.16235859953
  10
 1293.7407805299
  20
 811.16235859953
   0
LINE
   5
144
 100
AcDbEntity
   8
LEVEL001
 370
30
 100
AcDbLine
   6
CONTINUOUS
  62
7
  10
 928.74078052993
  20
 773.16235859953
  30
0.0
  11
 949.74078052993
  21
 773.16235859953
  31
0.0
   0
LINE
   5
145
 100
AcDbEntity
   8
LEVEL001
 370
30
 100
AcDbLine
   6
CONTINUOUS
  62
7
  10
 989.74078052993
  20
 773.16235859953
  30
0.0
  11
 1232.7407805299
  21
 773.16235859953
  31
0.0
   0
LINE
   5
146
 100
AcDbEntity
   8
LEVEL001
 370
30
 100
AcDbLine
   6
CONTINUOUS
  62
7
  10
 1272.7407805299
  20
 773.16235859953
  30
0.0
  11
 1293.7407805299
  21
 773.16235859953
  31
0.0
   0
LINE
   5
147
 100
AcDbEntity
   8
LEVEL001
 370
30
 100
AcDbLine
   6
CONTINUOUS
  62
7
  10
 1293.7407805299
  20
 668.16235859953
  30
0.0
  11
 1327.5407805299
  21
 668.16235859953
  31
0.0
   0
LINE
   5
148
 100
AcDbEntity
   8
LEVEL001
 370
30
 100
AcDbLine
   6
CONTINUOUS
  62
7
  10
 1325.5407805299
  20
 565.16235859953
  30
0.0
  11
 1293.7407805299
  21
 565.16235859953
  31
0.0
   0
LWPOLYLINE
   5
149
 100
AcDbEntity
   8
LEVEL001
 370
30
   6
CONTINUOUS
  62
7
 100
AcDbPolyline
  90
4
  70
0
  10
 1299.0407805299
  20
 565.16235859953
  10
 1299.0407805299
  20
 558.16235859953
  10
 1310.0407805299
  20
 558.16235859953
  10
 1310.0407805299
  20
 565.16235859953
   0
CIRCLE
   5
14A
 100
AcDbEntity
   8
LEVEL001
 370
30
 100
AcDbCircle
   6
CONTINUOUS
  62
7
  10
 833.94078052993
  20
 804.16235859953
  30
0.0
  40
 12.500000000000
   0
CIRCLE
   5
14B
 100
AcDbEntity
   8
LEVEL001
 370
30
 100
AcDbCircle
   6
CONTINUOUS
  62
7
  10
 833.94078052993
  20
 804.16235859953
  30
0.0
  40
 16.250000000000
   0
LWPOLYLINE
   5
14C
 100
AcDbEntity
   8
LEVEL001
 370
30
   6
CONTINUOUS
  62
7
 100
AcDbPolyline
  90
4
  70
1
  10
 1337.0407805299
  20
 659.66235859953
  10
 1432.0407805299
  20
 659.66235859953
  10
 1432.0407805299
  20
 865.66235859953
  10
 1337.0407805299
  20
 865.66235859953
   0
POINT
   5
14D
 100
AcDbEntity
   8
LEVEL001
 100
AcDbPoint
  62
7
  10
 1342.5407805299
  20
 860.16235859953
  30
0.0
   0
POINT
   5
14E
 100
AcDbEntity
   8
LEVEL001
 100
AcDbPoint
  62
7
  10
 1426.5407805299
  20
 860.16235859953
  30
0.0
   0
POINT
   5
14F
 100
AcDbEntity
   8
LEVEL001
 100
AcDbPoint
  62
7
  10
 1342.5407805299
  20
 665.16235859953
  30
0.0
   0
POINT
   5
150
 100
AcDbEntity
   8
LEVEL001
 100
AcDbPoint
  62
7
  10
 1426.5407805299
  20
 665.16235859953
  30
0.0
   0
CIRCLE
   5
151
 100
AcDbEntity
   8
LEVEL001
 370
30
 100
AcDbCircle
   6
CONTINUOUS
  62
7
  10
 1364.5407805299
  20
 709.66235859953
  30
0.0
  40
 12.500000000000
   0
CIRCLE
   5
152
 100
AcDbEntity
   8
LEVEL001
 370
30
 100
AcDbCircle
   6
CONTINUOUS
  62
7
  10
 1364.5407805299
  20
 709.66235859953
  30
0.0
  40
 16.250000000000
   0
CIRCLE
   5
153
 100
AcDbEntity
   8
LEVEL001
 370
30
 100
AcDbCircle
   6
CONTINUOUS
  62
7
  10
 1404.5407805299
  20
 709.66235859953
  30
0.0
  40
 16.250000000000
   0
CIRCLE
   5
154
 100
AcDbEntity
   8
LEVEL001
 370
30
 100
AcDbCircle
   6
CONTINUOUS
  62
7
  10
 1404.5407805299
  20
 709.66235859953
  30
0.0
  40
 12.500000000000
   0
LWPOLYLINE
   5
155
 100
AcDbEntity
   8
LEVEL001
 370
30
   6
CONTINUOUS
  62
7
 100
AcDbPolyline
  90
7
  70
0
  10
 1256.2407805299
  20
 826.16235859953
  10
 1256.2407805299
  20
 828.16235859953
  10
 1280.2407805299
  20
 828.16235859953
  10
 1280.2407805299
  20
 870.16235859953
  10
 1282.2407805299
  20
 870.16235859953
  10
 1282.2407805299
  20
 826.16235859953
  10
 1276.2407805299
  20
 826.16235859953
   0
LWPOLYLINE
   5
156
 100
AcDbEntity
   8
LEVEL001
 370
30
   6
CONTINUOUS
  62
7
 100
AcDbPolyline
  90
4
  70
0
  10
 1282.2407805299
  20
 870.16235859953
  10
 1307.2407805299
  20
 870.16235859953
  10
 1307.2407805299
  20
 835.16235859953
  10
 1282.2407805299
  20
 835.16235859953
   0
ARC
   5
157
 100
AcDbEntity
   8
LEVEL001
 370
30
   6
CONTINUOUS
  62
7
 100
AcDbCircle
  10
 833.94078052993
  20
 804.16235859953
  30
0.0
  40
 17.500000000000
 100
AcDbArc
  50
 180.00000000000
  51
0.0
   0
LWPOLYLINE
   5
158
 100
AcDbEntity
   8
LEVEL001
 370
30
   6
CONTINUOUS
  62
7
 100
AcDbPolyline
  90
4
  70
0
  10
 816.44078052993
  20
 804.16235859953
  10
 816.44078052993
  20
 831.66235859953
  10
 851.44078052993
  20
 831.66235859953
  10
 851.44078052993
  20
 804.16235859953
   0
LWPOLYLINE
   5
159
 100
AcDbEntity
   8
LEVEL001
 370
30
   6
CONTINUOUS
  62
7
 100
AcDbPolyline
  90
4
  70
1
  10
 1353.0407805299
  20
 739.66235859953
  10
 1416.0407805299
  20
 739.66235859953
  10
 1416.0407805299
  20
 823.66235859953
  10
 1353.0407805299
  20
 823.66235859953
   0
LWPOLYLINE
   5
15A
 100
AcDbEntity
   8
LEVEL001
 370
30
   6
CONTINUOUS
  62
7
 100
AcDbPolyline
  90
4
  70
0
  10
 838.44078052993
  20
 305.66235859953
  10
 838.44078052993
  20
 278.16235859953
  10
 836.44078052993
  20
 278.16235859953
  10
 836.44078052993
  20
 305.66235859953
   0
LWPOLYLINE
   5
15B
 100
AcDbEntity
   8
LEVEL001
 370
30
   6
CONTINUOUS
  62
7
 100
AcDbPolyline
  90
4
  70
0
  10
 864.44078052993
  20
 305.66235859953
  10
 864.44078052993
  20
 278.16235859953
  10
 862.44078052993
  20
 278.16235859953
  10
 862.44078052993
  20
 305.66235859953
   0
LWPOLYLINE
   5
15C
 100
AcDbEntity
   8
LEVEL001
 370
30
   6
CONTINUOUS
  62
7
 100
AcDbPolyline
  90
4
  70
0
  10
 839.94078052993
  20
 305.66235859953
  10
 839.94078052993
  20
 260.66235859953
  10
 860.94078052993
  20
 260.66235859953
  10
 860.94078052993
  20
 305.66235859953
   0
LWPOLYLINE
   5
15D
 100
AcDbEntity
   8
LEVEL001
 370
30
   6
CONTINUOUS
  62
7
 100
AcDbPolyline
  90
4
  70
0
  10
 1295.5407805299
  20
 305.66235859953
  10
 1295.5407805299
  20
 278.16235859953
  10
 1293.5407805299
  20
 278.16235859953
  10
 1293.5407805299
  20
 305.66235859953
   0
LWPOLYLINE
   5
15E
 100
AcDbEntity
   8
LEVEL001
 370
30
   6
CONTINUOUS
  62
7
 100
AcDbPolyline
  90
4
  70
0
  10
 1321.5407805299
  20
 305.66235859953
  10
 1321.5407805299
  20
 278.16235859953
  10
 1319.5407805299
  20
 278.16235859953
  10
 1319.5407805299
  20
 305.66235859953
   0
LWPOLYLINE
   5
15F
 100
AcDbEntity
   8
LEVEL001
 370
30
   6
CONTINUOUS
  62
7
 100
AcDbPolyline
  90
4
  70
0
  10
 1297.0407805299
  20
 305.66235859953
  10
 1297.0407805299
  20
 260.66235859953
  10
 1318.0407805299
  20
 260.66235859953
  10
 1318.0407805299
  20
 305.66235859953
   0
LWPOLYLINE
   5
160
 100
AcDbEntity
   8
LEVEL001
 370
30
   6
CONTINUOUS
  62
7
 100
AcDbPolyline
  90
4
  70
1
  10
 767.94078052993
  20
 672.66235859953
  10
 797.94078052993
  20
 672.66235859953
  10
 797.94078052993
  20
 697.66235859953
  10
 767.94078052993
  20
 697.66235859953
   0
ARC
   5
161
 100
AcDbEntity
   8
LEVEL001
 370
30
   6
CONTINUOUS
  62
7
 100
AcDbCircle
  10
 764.24078052993
  20
 756.16235859953
  30
0.0
  40
 5.0000000000000
 100
AcDbArc
  50
 180.00000000000
  51
 270.00000000000
   0
LINE
   5
162
 100
AcDbEntity
   8
LEVEL001
 370
30
 100
AcDbLine
   6
CONTINUOUS
  62
7
  10
 797.94078052993
  20
 751.16235859953
  30
0.0
  11
 764.24078052993
  21
 751.16235859953
  31
0.0
   0
LINE
   5
163
 100
AcDbEntity
   8
LEVEL001
 370
30
 100
AcDbLine
   6
CONTINUOUS
  62
7
  10
 769.24078052993
  20
 761.16235859953
  30
0.0
  11
 797.94078052993
  21
 761.16235859953
  31
0.0
   0
LINE
   5
164
 100
AcDbEntity
   8
LEVEL001
 370
30
 100
AcDbLine
   6
CONTINUOUS
  62
7
  10
 759.24078052993
  20
 756.16235859953
  30
0.0
  11
 759.24078052993
  21
 796.16235859953
  31
0.0
   0
ARC
   5
165
 100
AcDbEntity
   8
LEVEL001
 370
30
   6
CONTINUOUS
  62
7
 100
AcDbCircle
  10
 764.24078052993
  20
 796.16235859953
  30
0.0
  40
 5.0000000000000
 100
AcDbArc
  50
 90.000000000000
  51
 180.00000000000
   0
POINT
   5
166
 100
AcDbEntity
   8
LEVEL001
 100
AcDbPoint
  62
7
  10
 759.24078052993
  20
 801.16235859953
  30
0.0
   0
ARC
   5
167
 100
AcDbEntity
   8
LEVEL001
 370
30
   6
CONTINUOUS
  62
7
 100
AcDbCircle
  10
 764.24078052993
  20
 796.16235859953
  30
0.0
  40
 5.0000000000000
 100
AcDbArc
  50
0.0
  51
 90.000000000000
   0
POINT
   5
168
 100
AcDbEntity
   8
LEVEL001
 100
AcDbPoint
  62
7
  10
 769.24078052993
  20
 801.16235859953
  30
0.0
   0
LINE
   5
169
 100
AcDbEntity
   8
LEVEL001
 370
30
 100
AcDbLine
   6
CONTINUOUS
  62
7
  10
 769.24078052993
  20
 796.16235859953
  30
0.0
  11
 769.24078052993
  21
 761.16235859953
  31
0.0
   0
ENDBLK
   5
16A
 100
AcDbEntity
   8
0
 100
AcDbBlockEnd
   0
BLOCK
   5
16B
 100
AcDbEntity
   8
0
 100
AcDbBlockBegin
   2
*D2
  70
65
  10
0.0
  20
0.0
  30
0.0
   3
*D2
   0
LINE
   5
16C
 100
AcDbEntity
   8
LEVEL001
 370
9
 100
AcDbLine
   6
CONTINUOUS
  62
1
  10
 715.24078052993
  20
 1502.6493139248
  30
0.0
  11
 715.24078052993
  21
 1636.8450697098
  31
0.0
   0
LINE
   5
16D
 100
AcDbEntity
   8
LEVEL001
 370
9
 100
AcDbLine
   6
CONTINUOUS
  62
1
  10
 1825.2407805299
  20
 1353.6623585995
  30
0.0
  11
 1825.2407805299
  21
 1636.8450697098
  31
0.0
   0
LINE
   5
16E
 100
AcDbEntity
   8
LEVEL001
 370
9
 100
AcDbLine
   6
CONTINUOUS
  62
1
  10
 715.24078052993
  20
 1620.8450697098
  30
0.0
  11
 1270.2407805299
  21
 1620.8450697098
  31
0.0
   0
LINE
   5
16F
 100
AcDbEntity
   8
LEVEL001
 370
9
 100
AcDbLine
   6
CONTINUOUS
  62
1
  10
 1825.2407805299
  20
 1620.8450697098
  30
0.0
  11
 1270.2407805299
  21
 1620.8450697098
  31
0.0
   0
INSERT
   5
170
 100
AcDbEntity
   8
LEVEL001
   6
CONTINUOUS
  62
1
 100
AcDbBlockReference
   2
_OPEN30
  10
 715.24078052993
  20
 1620.8450697098
  30
0.0
  41
 24.000000000000
  42
 24.000000000000
  43
 24.000000000000
  50
 180.00000000000
   0
INSERT
   5
171
 100
AcDbEntity
   8
LEVEL001
   6
CONTINUOUS
  62
1
 100
AcDbBlockReference
   2
_OPEN30
  10
 1825.2407805299
  20
 1620.8450697098
  30
0.0
  41
 24.000000000000
  42
 24.000000000000
  43
 24.000000000000
  50
0.0
   0
MTEXT
   5
172
 100
AcDbEntity
   8
LEVEL001
 370
30
  62
7
 100
AcDbMText
  10
 1270.2407805299
  20
 1628.8450697098
  30
0.0
  40
 32.000000000000
  41
0.0
  71
8
  72
1
   1
\A1;1110
   7
GMM001
   0
ENDBLK
   5
173
 100
AcDbEntity
   8
0
 100
AcDbBlockEnd
   0
BLOCK
   5
174
 100
AcDbEntity
   8
0
 100
AcDbBlockBegin
   2
*D3
  70
65
  10
0.0
  20
0.0
  30
0.0
   3
*D3
   0
LINE
   5
175
 100
AcDbEntity
   8
LEVEL001
 370
9
 100
AcDbLine
   6
CONTINUOUS
  62
1
  10
 715.24078052993
  20
 273.66235859953
  30
0.0
  11
 715.24078052993
  21
 97.234814830175
  31
0.0
   0
LINE
   5
176
 100
AcDbEntity
   8
LEVEL001
 370
9
 100
AcDbLine
   6
CONTINUOUS
  62
1
  10
 1825.2407805299
  20
 273.66235859953
  30
0.0
  11
 1825.2407805299
  21
 97.234814830175
  31
0.0
   0
LINE
   5
177
 100
AcDbEntity
   8
LEVEL001
 370
9
 100
AcDbLine
   6
CONTINUOUS
  62
1
  10
 715.24078052993
  20
 113.23481483018
  30
0.0
  11
 1270.2407805299
  21
 113.23481483018
  31
0.0
   0
LINE
   5
178
 100
AcDbEntity
   8
LEVEL001
 370
9
 100
AcDbLine
   6
CONTINUOUS
  62
1
  10
 1825.2407805299
  20
 113.23481483018
  30
0.0
  11
 1270.2407805299
  21
 113.23481483018
  31
0.0
   0
INSERT
   5
179
 100
AcDbEntity
   8
LEVEL001
   6
CONTINUOUS
  62
1
 100
AcDbBlockReference
   2
_OPEN30
  10
 715.24078052993
  20
 113.23481483018
  30
0.0
  41
 24.000000000000
  42
 24.000000000000
  43
 24.000000000000
  50
 180.00000000000
   0
INSERT
   5
17A
 100
AcDbEntity
   8
LEVEL001
   6
CONTINUOUS
  62
1
 100
AcDbBlockReference
   2
_OPEN30
  10
 1825.2407805299
  20
 113.23481483018
  30
0.0
  41
 24.000000000000
  42
 24.000000000000
  43
 24.000000000000
  50
0.0
   0
MTEXT
   5
17B
 100
AcDbEntity
   8
LEVEL001
 370
30
  62
7
 100
AcDbMText
  10
 1270.2407805299
  20
 121.23481483018
  30
0.0
  40
 32.000000000000
  41
0.0
  71
8
  72
1
   1
\A1;1110
   7
GMM001
   0
ENDBLK
   5
17C
 100
AcDbEntity
   8
0
 100
AcDbBlockEnd
   0
BLOCK
   5
17D
 100
AcDbEntity
   8
0
 100
AcDbBlockBegin
   2
*D4
  70
65
  10
0.0
  20
0.0
  30
0.0
   3
*D4
   0
LINE
   5
17E
 100
AcDbEntity
   8
LEVEL001
 370
9
 100
AcDbLine
   6
CONTINUOUS
  62
1
  10
 680.24078052993
  20
 260.66235859953
  30
0.0
  11
 462.99788441378
  21
 260.66235859953
  31
0.0
   0
LINE
   5
17F
 100
AcDbEntity
   8
LEVEL001
 370
9
 100
AcDbLine
   6
CONTINUOUS
  62
1
  10
 478.99788441378
  20
 260.66235859953
  30
0.0
  11
 478.99788441378
  21
 590.66235859953
  31
0.0
   0
LINE
   5
180
 100
AcDbEntity
   8
LEVEL001
 370
9
 100
AcDbLine
   6
CONTINUOUS
  62
1
  10
 478.99788441378
  20
 920.66235859953
  30
0.0
  11
 478.99788441378
  21
 590.66235859953
  31
0.0
   0
INSERT
   5
181
 100
AcDbEntity
   8
LEVEL001
   6
CONTINUOUS
  62
1
 100
AcDbBlockReference
   2
_OPEN30
  10
 478.99788441378
  20
 260.66235859953
  30
0.0
  41
 24.000000000000
  42
 24.000000000000
  43
 24.000000000000
  50
 270.00000000000
   0
INSERT
   5
182
 100
AcDbEntity
   8
LEVEL001
   6
CONTINUOUS
  62
1
 100
AcDbBlockReference
   2
_OPEN30
  10
 478.99788441378
  20
 920.66235859953
  30
0.0
  41
 24.000000000000
  42
 24.000000000000
  43
 24.000000000000
  50
 90.000000000000
   0
MTEXT
   5
183
 100
AcDbEntity
   8
LEVEL001
 370
30
  62
7
 100
AcDbMText
  10
 470.99788441378
  20
 590.66235859953
  30
0.0
  40
 32.000000000000
  41
0.0
  71
8
  72
1
   1
\A1;660
   7
GMM001
  11
0.0
  21
 1.0000000000000
  31
0.0
   0
ENDBLK
   5
184
 100
AcDbEntity
   8
0
 100
AcDbBlockEnd
   0
BLOCK
   5
185
 100
AcDbEntity
   8
0
 100
AcDbBlockBegin
   2
*D5
  70
65
  10
0.0
  20
0.0
  30
0.0
   3
*D5
   0
LINE
   5
186
 100
AcDbEntity
   8
LEVEL001
 370
9
 100
AcDbLine
   6
CONTINUOUS
  62
1
  10
 710.42854775316
  20
 920.66235859953
  30
0.0
  11
 462.99788441378
  21
 920.66235859953
  31
0.0
   0
LINE
   5
187
 100
AcDbEntity
   8
LEVEL001
 370
9
 100
AcDbLine
   6
CONTINUOUS
  62
1
  10
 682.76636758953
  20
 1550.6623585995
  30
0.0
  11
 462.99788441378
  21
 1550.6623585995
  31
0.0
   0
LINE
   5
188
 100
AcDbEntity
   8
LEVEL001
 370
9
 100
AcDbLine
   6
CONTINUOUS
  62
1
  10
 478.99788441378
  20
 920.66235859953
  30
0.0
  11
 478.99788441378
  21
 1235.6623585995
  31
0.0
   0
LINE
   5
189
 100
AcDbEntity
   8
LEVEL001
 370
9
 100
AcDbLine
   6
CONTINUOUS
  62
1
  10
 478.99788441378
  20
 1550.6623585995
  30
0.0
  11
 478.99788441378
  21
 1235.6623585995
  31
0.0
   0
INSERT
   5
18A
 100
AcDbEntity
   8
LEVEL001
   6
CONTINUOUS
  62
1
 100
AcDbBlockReference
   2
_OPEN30
  10
 478.99788441378
  20
 920.66235859953
  30
0.0
  41
 24.000000000000
  42
 24.000000000000
  43
 24.000000000000
  50
 270.00000000000
   0
INSERT
   5
18B
 100
AcDbEntity
   8
LEVEL001
   6
CONTINUOUS
  62
1
 100
AcDbBlockReference
   2
_OPEN30
  10
 478.99788441378
  20
 1550.6623585995
  30
0.0
  41
 24.000000000000
  42
 24.000000000000
  43
 24.000000000000
  50
 90.000000000000
   0
MTEXT
   5
18C
 100
AcDbEntity
   8
LEVEL001
 370
30
  62
7
 100
AcDbMText
  10
 470.99788441378
  20
 1235.6623585995
  30
0.0
  40
 32.000000000000
  41
0.0
  71
8
  72
1
   1
\A1;630
   7
GMM001
  11
0.0
  21
 1.0000000000000
  31
0.0
   0
ENDBLK
   5
18D
 100
AcDbEntity
   8
0
 100
AcDbBlockEnd
   0
BLOCK
   5
18E
 100
AcDbEntity
   8
0
 100
AcDbBlockBegin
   2
*D6
  70
65
  10
0.0
  20
0.0
  30
0.0
   3
*D6
   0
LINE
   5
18F
 100
AcDbEntity
   8
LEVEL001
 370
9
 100
AcDbLine
   6
CONTINUOUS
  62
1
  10
 682.76636758953
  20
 1550.6623585995
  30
0.0
  11
 403.78983399264
  21
 1550.6623585995
  31
0.0
   0
LINE
   5
190
 100
AcDbEntity
   8
LEVEL001
 370
9
 100
AcDbLine
   6
CONTINUOUS
  62
1
  10
 680.24078052993
  20
 260.66235859953
  30
0.0
  11
 403.78983399264
  21
 260.66235859953
  31
0.0
   0
LINE
   5
191
 100
AcDbEntity
   8
LEVEL001
 370
9
 100
AcDbLine
   6
CONTINUOUS
  62
1
  10
 419.78983399264
  20
 1550.6623585995
  30
0.0
  11
 419.78983399264
  21
 905.66235859953
  31
0.0
   0
LINE
   5
192
 100
AcDbEntity
   8
LEVEL001
 370
9
 100
AcDbLine
   6
CONTINUOUS
  62
1
  10
 419.78983399264
  20
 260.66235859953
  30
0.0
  11
 419.78983399264
  21
 905.66235859953
  31
0.0
   0
INSERT
   5
193
 100
AcDbEntity
   8
LEVEL001
   6
CONTINUOUS
  62
1
 100
AcDbBlockReference
   2
_OPEN30
  10
 419.78983399264
  20
 1550.6623585995
  30
0.0
  41
 24.000000000000
  42
 24.000000000000
  43
 24.000000000000
  50
 90.000000000000
   0
INSERT
   5
194
 100
AcDbEntity
   8
LEVEL001
   6
CONTINUOUS
  62
1
 100
AcDbBlockReference
   2
_OPEN30
  10
 419.78983399264
  20
 260.66235859953
  30
0.0
  41
 24.000000000000
  42
 24.000000000000
  43
 24.000000000000
  50
 270.00000000000
   0
MTEXT
   5
195
 100
AcDbEntity
   8
LEVEL001
 370
30
  62
7
 100
AcDbMText
  10
 411.78983399264
  20
 905.66235859953
  30
0.0
  40
 32.000000000000
  41
0.0
  71
8
  72
1
   1
\A1;1290
   7
GMM001
  11
0.0
  21
 1.0000000000000
  31
0.0
   0
ENDBLK
   5
196
 100
AcDbEntity
   8
0
 100
AcDbBlockEnd
   0
BLOCK
   5
197
 100
AcDbEntity
   8
0
 100
AcDbBlockBegin
   2
*D7
  70
65
  10
0.0
  20
0.0
  30
0.0
   3
*D7
   0
LINE
   5
198
 100
AcDbEntity
   8
LEVEL001
 370
9
 100
AcDbLine
   6
CONTINUOUS
  62
1
  10
 2209.1930857734
  20
 260.66235859953
  30
0.0
  11
 2209.1930857734
  21
 97.234814830175
  31
0.0
   0
LINE
   5
199
 100
AcDbEntity
   8
LEVEL001
 370
9
 100
AcDbLine
   6
CONTINUOUS
  62
1
  10
 3409.1930857734
  20
 260.66235859953
  30
0.0
  11
 3409.1930857734
  21
 97.234814830175
  31
0.0
   0
LINE
   5
19A
 100
AcDbEntity
   8
LEVEL001
 370
9
 100
AcDbLine
   6
CONTINUOUS
  62
1
  10
 2209.1930857734
  20
 113.23481483018
  30
0.0
  11
 2809.1930857734
  21
 113.23481483018
  31
0.0
   0
LINE
   5
19B
 100
AcDbEntity
   8
LEVEL001
 370
9
 100
AcDbLine
   6
CONTINUOUS
  62
1
  10
 3409.1930857734
  20
 113.23481483018
  30
0.0
  11
 2809.1930857734
  21
 113.23481483018
  31
0.0
   0
INSERT
   5
19C
 100
AcDbEntity
   8
LEVEL001
   6
CONTINUOUS
  62
1
 100
AcDbBlockReference
   2
_OPEN30
  10
 2209.1930857734
  20
 113.23481483018
  30
0.0
  41
 24.000000000000
  42
 24.000000000000
  43
 24.000000000000
  50
 180.00000000000
   0
INSERT
   5
19D
 100
AcDbEntity
   8
LEVEL001
   6
CONTINUOUS
  62
1
 100
AcDbBlockReference
   2
_OPEN30
  10
 3409.1930857734
  20
 113.23481483018
  30
0.0
  41
 24.000000000000
  42
 24.000000000000
  43
 24.000000000000
  50
0.0
   0
MTEXT
   5
19E
 100
AcDbEntity
   8
LEVEL001
 370
30
  62
7
 100
AcDbMText
  10
 2809.1930857734
  20
 121.23481483018
  30
0.0
  40
 32.000000000000
  41
0.0
  71
8
  72
1
   1
\A1;1200
   7
GMM001
   0
ENDBLK
   5
19F
 100
AcDbEntity
   8
0
 100
AcDbBlockEnd
   0
BLOCK
   5
1A0
 100
AcDbEntity
   8
0
 100
AcDbBlockBegin
   2
*D8
  70
65
  10
0.0
  20
0.0
  30
0.0
   3
*D8
   0
LINE
   5
1A1
 100
AcDbEntity
   8
LEVEL001
 370
9
 100
AcDbLine
   6
CONTINUOUS
  62
1
  10
 1824.3503733168
  20
 3022.9891220576
  30
0.0
  11
 2069.8139160872
  21
 3022.9891220576
  31
0.0
   0
LINE
   5
1A2
 100
AcDbEntity
   8
LEVEL001
 370
9
 100
AcDbLine
   6
CONTINUOUS
  62
1
  10
 1786.2407805299
  20
 1822.9891220576
  30
0.0
  11
 2069.8139160872
  21
 1822.9891220576
  31
0.0
   0
LINE
   5
1A3
 100
AcDbEntity
   8
LEVEL001
 370
9
 100
AcDbLine
   6
CONTINUOUS
  62
1
  10
 2053.8139160872
  20
 3022.9891220576
  30
0.0
  11
 2053.8139160872
  21
 2422.9891220576
  31
0.0
   0
LINE
   5
1A4
 100
AcDbEntity
   8
LEVEL001
 370
9
 100
AcDbLine
   6
CONTINUOUS
  62
1
  10
 2053.8139160872
  20
 1822.9891220576
  30
0.0
  11
 2053.8139160872
  21
 2422.9891220576
  31
0.0
   0
INSERT
   5
1A5
 100
AcDbEntity
   8
LEVEL001
   6
CONTINUOUS
  62
1
 100
AcDbBlockReference
   2
_OPEN30
  10
 2053.8139160872
  20
 3022.9891220576
  30
0.0
  41
 24.000000000000
  42
 24.000000000000
  43
 24.000000000000
  50
 90.000000000000
   0
INSERT
   5
1A6
 100
AcDbEntity
   8
LEVEL001
   6
CONTINUOUS
  62
1
 100
AcDbBlockReference
   2
_OPEN30
  10
 2053.8139160872
  20
 1822.9891220576
  30
0.0
  41
 24.000000000000
  42
 24.000000000000
  43
 24.000000000000
  50
 270.00000000000
   0
MTEXT
   5
1A7
 100
AcDbEntity
   8
LEVEL001
 370
30
  62
7
 100
AcDbMText
  10
 2045.8139160872
  20
 2422.9891220576
  30
0.0
  40
 32.000000000000
  41
0.0
  71
8
  72
1
   1
\A1;1200
   7
GMM001
  11
0.0
  21
 1.0000000000000
  31
0.0
   0
ENDBLK
   5
1A8
 100
AcDbEntity
   8
0
 100
AcDbBlockEnd
   0
ENDSEC
   0
SECTION
   2
ENTITIES
   0
MTEXT
   5
1AA
 100
AcDbEntity
   8
LEVEL001
 370
30
  62
7
 100
AcDbMText
  10
 4534.2151991965
  20
 80.000000000000
  30
0.0
  40
 32.000000000000
  41
0.0
  71
7
  72
1
   1
\T1.000000;井上
   7
GMM001
  44
 0.79999984000003
   0
INSERT
   5
1AB
 100
AcDbEntity
   8
LEVEL001
 100
AcDbBlockReference
   2
BLOCK001
  10
0.0
  20
0.0
  30
0.0
   0
INSERT
   5
1AC
 100
AcDbEntity
   8
LEVEL001
 100
AcDbBlockReference
   2
BLOCK002
  10
0.0
  20
0.0
  30
0.0
   0
INSERT
   5
1AD
 100
AcDbEntity
   8
0
 100
AcDbBlockReference
   2
BLOCK003
  10
0.0
  20
0.0
  30
0.0
   0
MTEXT
   5
1AF
 100
AcDbEntity
   8
LEVEL001
 370
30
  62
7
 100
AcDbMText
  10
 4342.2151991965
  20
 80.000000000000
  30
0.0
  40
 32.000000000000
  41
0.0
  71
7
  72
1
   1
\T1.000000;27
   7
GMM004
  44
 0.79999984000003
   0
MTEXT
   5
1B1
 100
AcDbEntity
   8
LEVEL001
 370
30
  62
7
 100
AcDbMText
  10
 4394.8256243073
  20
 80.000000000000
  30
0.0
  40
 32.000000000000
  41
0.0
  71
7
  72
1
   1
\T1.000000; 3
   7
GMM004
  44
 0.79999984000003
   0
LINE
   5
1B2
 100
AcDbEntity
   8
LEVEL001
 370
30
 100
AcDbLine
   6
CONTINUOUS
  62
7
  10
 3330.2151991965
  20
 2604.0000000000
  30
0.0
  11
 4546.2151991965
  21
 2604.0000000000
  31
0.0
   0
LINE
   5
1B3
 100
AcDbEntity
   8
LEVEL001
 370
30
 100
AcDbLine
   6
CONTINUOUS
  62
7
  10
 3339.5485325299
  20
 2540.0000000000
  30
0.0
  11
 4546.2151991965
  21
 2540.0000000000
  31
0.0
   0
LINE
   5
1B4
 100
AcDbEntity
   8
LEVEL001
 370
30
 100
AcDbLine
   6
CONTINUOUS
  62
7
  10
 3330.2151991965
  20
 2476.0000000000
  30
0.0
  11
 4546.2151991965
  21
 2476.0000000000
  31
0.0
   0
LINE
   5
1B5
 100
AcDbEntity
   8
LEVEL001
 370
30
 100
AcDbLine
   6
CONTINUOUS
  62
7
  10
 3230.2151991965
  20
 2412.0000000000
  30
0.0
  11
 4546.2151991965
  21
 2412.0000000000
  31
0.0
   0
LINE
   5
1B6
 100
AcDbEntity
   8
LEVEL001
 370
30
 100
AcDbLine
   6
CONTINUOUS
  62
7
  10
 3230.2151991965
  20
 2412.0000000000
  30
0.0
  11
 3330.2151991965
  21
 2668.0000000000
  31
0.0
   0
LINE
   5
1B7
 100
AcDbEntity
   8
LEVEL001
 370
30
 100
AcDbLine
   6
CONTINUOUS
  62
7
  10
 3330.2151991965
  20
 2348.0000000000
  30
0.0
  11
 4546.2151991965
  21
 2348.0000000000
  31
0.0
   0
LINE
   5
1B8
 100
AcDbEntity
   8
LEVEL001
 370
30
 100
AcDbLine
   6
CONTINUOUS
  62
7
  10
 3330.2151991965
  20
 2284.0000000000
  30
0.0
  11
 4546.2151991965
  21
 2284.0000000000
  31
0.0
   0
LINE
   5
1B9
 100
AcDbEntity
   8
LEVEL001
 370
30
 100
AcDbLine
   6
CONTINUOUS
  62
7
  10
 3330.2151991965
  20
 2220.0000000000
  30
0.0
  11
 4546.2151991965
  21
 2220.0000000000
  31
0.0
   0
LINE
   5
1BA
 100
AcDbEntity
   8
LEVEL001
 370
30
 100
AcDbLine
   6
CONTINUOUS
  62
7
  10
 3330.2151991965
  20
 2156.0000000000
  30
0.0
  11
 4546.2151991965
  21
 2156.0000000000
  31
0.0
   0
LINE
   5
1BB
 100
AcDbEntity
   8
LEVEL001
 370
30
 100
AcDbLine
   6
CONTINUOUS
  62
7
  10
 3330.2151991965
  20
 2092.0000000000
  30
0.0
  11
 4546.2151991965
  21
 2092.0000000000
  31
0.0
   0
LINE
   5
1BC
 100
AcDbEntity
   8
LEVEL001
 370
30
 100
AcDbLine
   6
CONTINUOUS
  62
7
  10
 4546.2151991965
  20
 1964.0000000000
  30
0.0
  11
 3230.2151991965
  21
 1964.0000000000
  31
0.0
   0
LINE
   5
1BD
 100
AcDbEntity
   8
LEVEL001
 370
30
 100
AcDbLine
   6
CONTINUOUS
  62
7
  10
 3230.2151991965
  20
 2732.0000000000
  30
0.0
  11
 4546.2151991965
  21
 2732.0000000000
  31
0.0
   0
LINE
   5
1BE
 100
AcDbEntity
   8
LEVEL001
 370
30
 100
AcDbLine
   6
CONTINUOUS
  62
7
  10
 3230.2151991965
  20
 2796.0000000000
  30
0.0
  11
 4546.2151991965
  21
 2796.0000000000
  31
0.0
   0
LINE
   5
1BF
 100
AcDbEntity
   8
LEVEL001
 370
30
 100
AcDbLine
   6
CONTINUOUS
  62
7
  10
 3230.2151991965
  20
 2860.0000000000
  30
0.0
  11
 4546.2151991965
  21
 2860.0000000000
  31
0.0
   0
LINE
   5
1C0
 100
AcDbEntity
   8
LEVEL001
 370
30
 100
AcDbLine
   6
CONTINUOUS
  62
7
  10
 3230.2151991965
  20
 2924.0000000000
  30
0.0
  11
 4546.2151991965
  21
 2924.0000000000
  31
0.0
   0
LINE
   5
1C1
 100
AcDbEntity
   8
LEVEL001
 370
30
 100
AcDbLine
   6
CONTINUOUS
  62
7
  10
 3230.2151991965
  20
 2668.0000000000
  30
0.0
  11
 4546.2151991965
  21
 2668.0000000000
  31
0.0
   0
LINE
   5
1C2
 100
AcDbEntity
   8
LEVEL001
 370
30
 100
AcDbLine
   6
CONTINUOUS
  62
7
  10
 3230.2151991965
  20
 1964.0000000000
  30
0.0
  11
 3230.2151991965
  21
 2924.0000000000
  31
0.0
   0
LINE
   5
1C3
 100
AcDbEntity
   8
LEVEL001
 370
30
 100
AcDbLine
   6
CONTINUOUS
  62
7
  10
 3330.2151991965
  20
 2668.0000000000
  30
0.0
  11
 3330.2151991965
  21
 1964.0000000000
  31
0.0
   0
LINE
   5
1C4
 100
AcDbEntity
   8
LEVEL001
 370
30
 100
AcDbLine
   6
CONTINUOUS
  62
7
  10
 3679.5485325299
  20
 2924.0000000000
  30
0.0
  11
 3679.5485325299
  21
 1964.0000000000
  31
0.0
   0
LINE
   5
1C5
 100
AcDbEntity
   8
LEVEL001
 370
30
 100
AcDbLine
   6
CONTINUOUS
  62
7
  10
 4546.2151991965
  20
 2924.0000000000
  30
0.0
  11
 4546.2151991965
  21
 1964.0000000000
  31
0.0
   0
MTEXT
   5
1C7
 100
AcDbEntity
   8
LEVEL001
 370
9
  62
1
 100
AcDbMText
  10
 3339.5485325299
  20
 2230.6666666667
  30
0.0
  40
 32.000000000000
  41
0.0
  71
7
  72
1
   1
\T1.000000;ベルトコンベア－
   7
GMM001
  44
 0.79999984000003
   0
MTEXT
   5
1C9
 100
AcDbEntity
   8
LEVEL001
 370
9
  62
1
 100
AcDbMText
  10
 3339.5485325299
  20
 2166.6666666667
  30
0.0
  40
 32.000000000000
  41
0.0
  71
7
  72
1
   1
\T1.000000;包丁刃
   7
GMM001
  44
 0.79999984000003
   0
MTEXT
   5
1CB
 100
AcDbEntity
   8
LEVEL001
 370
9
  62
1
 100
AcDbMText
  10
 3687.5485325299
  20
 2165.3333333333
  30
0.0
  40
 32.000000000000
  41
0.0
  71
7
  72
1
   1
\T1.000000;ＳＵＳ　（長さ３６０）
   7
GMM001
  44
 0.79999984000003
   0
MTEXT
   5
1CD
 100
AcDbEntity
   8
LEVEL001
 370
9
  62
1
 100
AcDbMText
  10
 3288.2151991965
  20
 2493.0000000000
  30
0.0
  40
 32.000000000000
  41
0.0
  71
4
  72
1
   1
{\T1.000000;能}\P{\T1.000000;力}
   7
GMM001
  44
 0.79999984000003
   0
MTEXT
   5
1CF
 100
AcDbEntity
   8
LEVEL001
 370
9
  62
1
 100
AcDbMText
  10
 3236.2151991965
  20
 2665.0000000000
  30
0.0
  40
 32.000000000000
  41
0.0
  71
1
  72
1
   1
{\T1.000000;消}\P{\T1.000000;費}\P{\T1.000000;電}\P{\T1.000000;力}
   7
GMM001
  44
 0.79999984000003
   0
MTEXT
   5
1D1
 100
AcDbEntity
   8
LEVEL001
 370
9
  62
1
 100
AcDbMText
  10
 3334.8377772851
  20
 2422.6666666667
  30
0.0
  40
 32.000000000000
  41
0.0
  71
7
  72
1
   1
\T1.000000;（合計）
   7
GMM001
  44
 0.79999984000003
   0
MTEXT
   5
1D3
 100
AcDbEntity
   8
LEVEL001
 370
9
  62
1
 100
AcDbMText
  10
 3687.5485325299
  20
 2613.3333333333
  30
0.0
  40
 32.000000000000
  41
0.0
  71
7
  72
1
   1
\T1.000000;　１００Ｗ　／　３～６ｋｇ／回（ミキシング）
   7
GMM001
  44
 0.79999984000003
   0
MTEXT
   5
1D5
 100
AcDbEntity
   8
LEVEL001
 370
9
  62
1
 100
AcDbMText
  10
 3339.5485325299
  20
 2358.6666666667
  30
0.0
  40
 32.000000000000
  41
0.0
  71
7
  72
1
   1
\T1.000000;凹凸ロ－ル、平ロ－ル
   7
GMM001
  44
 0.79999984000003
   0
MTEXT
   5
1D7
 100
AcDbEntity
   8
LEVEL001
 370
9
  62
1
 100
AcDbMText
  10
 3687.5485325299
  20
 2357.3333333333
  30
0.0
  40
 32.000000000000
  41
0.0
  71
7
  72
1
   1
\T1.000000;ポリプロピレン　（長さ７２０）
   7
GMM001
  44
 0.79999984000003
   0
MTEXT
   5
1D9
 100
AcDbEntity
   8
LEVEL001
 370
9
  62
1
 100
AcDbMText
  10
 3687.5485325299
  20
 2293.3333333333
  30
0.0
  40
 32.000000000000
  41
0.0
  71
7
  72
1
   1
\T1.000000;ＳＵＳ３０４
   7
GMM001
  44
 0.79999984000003
   0
MTEXT
   5
1DB
 100
AcDbEntity
   8
LEVEL001
 370
9
  62
1
 100
AcDbMText
  10
 3339.5485325299
  20
 2294.6666666667
  30
0.0
  40
 32.000000000000
  41
0.0
  71
7
  72
1
   1
\T1.000000;凹凸ロ－ル（プレス機）
   7
GMM001
  44
 0.79999984000003
   0
MTEXT
   5
1DD
 100
AcDbEntity
   8
LEVEL001
 370
9
  62
1
 100
AcDbMText
  10
 3339.5485325299
  20
 2038.6666666667
  30
0.0
  40
 32.000000000000
  41
0.0
  71
7
  72
1
   1
\T1.000000;安全カバ－類
   7
GMM001
  44
 0.79999984000003
   0
MTEXT
   5
1DF
 100
AcDbEntity
   8
LEVEL001
 370
9
  62
1
 100
AcDbMText
  10
 3339.5485325299
  20
 1974.6666666667
  30
0.0
  40
 32.000000000000
  41
0.0
  71
7
  72
1
   1
\T1.000000;下部台
   7
GMM001
  44
 0.79999984000003
   0
MTEXT
   5
1E1
 100
AcDbEntity
   8
LEVEL001
 370
9
  62
1
 100
AcDbMText
  10
 3339.5485325299
  20
 2102.6666666667
  30
0.0
  40
 32.000000000000
  41
0.0
  71
7
  72
1
   1
\T1.000000;羽根
   7
GMM001
  44
 0.79999984000003
   0
MTEXT
   5
1E3
 100
AcDbEntity
   8
LEVEL001
 370
9
  62
1
 100
AcDbMText
  10
 3268.2151991965
  20
 2330.0000000000
  30
0.0
  40
 32.000000000000
  41
0.0
  71
1
  72
1
   1
{\T1.000000;材}\P\P\P\P{\T1.000000;料}
   7
GMM001
  44
 0.79999984000003
   0
MTEXT
   5
1E5
 100
AcDbEntity
   8
LEVEL001
 370
9
  62
1
 100
AcDbMText
  10
 3687.5485325299
  20
 1973.3333333333
  30
0.0
  40
 32.000000000000
  41
0.0
  71
7
  72
1
   1
\T1.000000;ＳＵＳ４３０
   7
GMM001
  44
 0.79999984000003
   0
MTEXT
   5
1E7
 100
AcDbEntity
   8
LEVEL001
 370
9
  62
1
 100
AcDbMText
  10
 3687.5485325299
  20
 2869.3333333333
  30
0.0
  40
 32.000000000000
  41
0.0
  71
7
  72
1
   1
\T1.000000;手打麺機
   7
GMM001
  44
 0.79999984000003
   0
MTEXT
   5
1E9
 100
AcDbEntity
   8
LEVEL001
 370
9
  62
1
 100
AcDbMText
  10
 3338.2151991965
  20
 2869.3333333333
  30
0.0
  40
 32.000000000000
  41
0.0
  71
7
  72
1
   1
\T1.000000;製　　品　　名
   7
GMM001
  44
 0.79999984000003
   0
MTEXT
   5
1EB
 100
AcDbEntity
   8
LEVEL001
 370
9
  62
1
 100
AcDbMText
  10
 3338.2151991965
  20
 2805.3333333333
  30
0.0
  40
 32.000000000000
  41
0.0
  71
7
  72
1
   1
\T1.000000;型　　　　　式
   7
GMM001
  44
 0.79999984000003
   0
MTEXT
   5
1ED
 100
AcDbEntity
   8
LEVEL001
 370
9
  62
1
 100
AcDbMText
  10
 3338.2151991965
  20
 2741.3333333333
  30
0.0
  40
 32.000000000000
  41
0.0
  71
7
  72
1
   1
\W1.000000;\T1.000000;寸法\W0.500000;\T1.000000;(\W1.000000;\T1.000000;Ｗ×Ｄ×Ｈ）
   7
GMM001
  44
 0.79999984000003
   0
MTEXT
   5
1EF
 100
AcDbEntity
   8
LEVEL001
 370
9
  62
1
 100
AcDbMText
  10
 3338.2151991965
  20
 2677.3333333333
  30
0.0
  40
 32.000000000000
  41
0.0
  71
7
  72
1
   1
\T1.000000;電　　　　　源
   7
GMM001
  44
 0.79999984000003
   0
MTEXT
   5
1F1
 100
AcDbEntity
   8
LEVEL001
 370
9
  62
1
 100
AcDbMText
  10
 3687.5485325299
  20
 2485.3333333333
  30
0.0
  40
 32.000000000000
  41
0.0
  71
7
  72
1
   1
\T1.000000;　３４５Ｗ　／　３００食／時（製麺能力）
   7
GMM001
  44
 0.79999984000003
   0
MTEXT
   5
1F3
 100
AcDbEntity
   8
LEVEL001
 370
9
  62
1
 100
AcDbMText
  10
 3687.5485325299
  20
 2549.3333333333
  30
0.0
  40
 32.000000000000
  41
0.0
  71
7
  72
1
   1
\T1.000000;　１００Ｗ　／　１ｋｇ／回（プレス）
   7
GMM001
  44
 0.79999984000003
   0
MTEXT
   5
1F5
 100
AcDbEntity
   8
LEVEL001
 370
9
  62
1
 100
AcDbMText
  10
 3687.5485325299
  20
 2101.3333333333
  30
0.0
  40
 32.000000000000
  41
0.0
  71
7
  72
1
   1
\T1.000000;ＳＵＳ３０４
   7
GMM001
  44
 0.79999984000003
   0
MTEXT
   5
1F7
 100
AcDbEntity
   8
LEVEL001
 370
9
  62
1
 100
AcDbMText
  10
 3687.5485325299
  20
 2229.3333333333
  30
0.0
  40
 32.000000000000
  41
0.0
  71
7
  72
1
   1
\T1.000000;樹脂ベルト　ＮＰ４００４
   7
GMM001
  44
 0.79999984000003
   0
MTEXT
   5
1F9
 100
AcDbEntity
   8
LEVEL001
 370
9
  62
1
 100
AcDbMText
  10
 3687.5485325299
  20
 2037.3333333333
  30
0.0
  40
 32.000000000000
  41
0.0
  71
7
  72
1
   1
\T1.000000;ＳＵＳ４３０　ＳＵＳ３０４
   7
GMM001
  44
 0.79999984000003
   0
MTEXT
   5
1FB
 100
AcDbEntity
   8
LEVEL001
 370
9
  62
1
 100
AcDbMText
  10
 3339.5485325299
  20
 2614.6666666667
  30
0.0
  40
 32.000000000000
  41
0.0
  71
7
  72
1
   1
\T1.000000;ＳＮ－６Ｐ
   7
GMM001
  44
 0.79999984000003
   0
MTEXT
   5
1FD
 100
AcDbEntity
   8
LEVEL001
 370
9
  62
1
 100
AcDbMText
  10
 3339.5485325299
  20
 2550.6666666667
  30
0.0
  40
 32.000000000000
  41
0.0
  71
7
  72
1
   1
\T1.000000;ＲＰ－１Ｐ
   7
GMM001
  44
 0.79999984000003
   0
MTEXT
   5
1FF
 100
AcDbEntity
   8
LEVEL001
 370
9
  62
1
 100
AcDbMText
  10
 3339.5485325299
  20
 2486.6666666667
  30
0.0
  40
 32.000000000000
  41
0.0
  71
7
  72
1
   1
\T1.000000;さぬき一番
   7
GMM001
  44
 0.79999984000003
   0
MTEXT
   5
201
 100
AcDbEntity
   8
LEVEL001
 370
9
  62
1
 100
AcDbMText
  10
 3682.8377772851
  20
 2421.3333333333
  30
0.0
  40
 32.000000000000
  41
0.0
  71
7
  72
1
   1
\T1.000000;（５４５Ｗ）
   7
GMM001
  44
 0.79999984000003
   0
MTEXT
   5
203
 100
AcDbEntity
   8
LEVEL001
 370
9
  62
1
 100
AcDbMText
  10
 3687.5485325299
  20
 2805.3333333333
  30
0.0
  40
 32.000000000000
  41
0.0
  71
7
  72
1
   1
\W1.000000;\T1.000000;さぬき一番ＡＰ－６\W0.500000;\T1.000000;  \W1.000000;\T1.000000;１Ｋ
   7
GMM001
  44
 0.79999984000003
   0
MTEXT
   5
205
 100
AcDbEntity
   8
LEVEL001
 370
9
  62
1
 100
AcDbMText
  10
 3687.5485325299
  20
 2741.3333333333
  30
0.0
  40
 32.000000000000
  41
0.0
  71
7
  72
1
   1
\T1.000000;１，１１０×７２５×１，２９０
   7
GMM001
  44
 0.79999984000003
   0
MTEXT
   5
207
 100
AcDbEntity
   8
LEVEL001
 370
30
  62
7
 100
AcDbMText
  10
 3649.2205456932
  20
 224.00000000000
  30
0.0
  40
 32.000000000000
  41
0.0
  71
7
  72
1
   1
\W1.000000;\T1.000000;さぬき一番\W0.500000;\T1.000000; AP-6 1K
   7
GMM001
  44
 0.79999984000003
   0
MTEXT
   5
209
 100
AcDbEntity
   8
LEVEL001
 370
30
  62
7
 100
AcDbMText
  10
 4439.0662090595
  20
 80.000000000000
  30
0.0
  40
 32.000000000000
  41
0.0
  71
7
  72
1
   1
\T1.000000;26
   7
GMM004
  44
 0.79999984000003
   0
LINE
   5
20A
 100
AcDbEntity
   8
LEVEL001
 370
30
 100
AcDbLine
   6
CONTINUOUS
  62
7
  10
 4546.2151991965
  20
 2028.0000000000
  30
0.0
  11
 3330.2151991965
  21
 2028.0000000000
  31
0.0
   0
INSERT
   5
20B
 100
AcDbEntity
   8
0
 100
AcDbBlockReference
   2
GMM001
  10
 4646.2151991965
  20
0.0
  30
0.0
  41
 8.0000000000000
  42
 8.0000000000000
   0
MTEXT
   5
20D
 100
AcDbEntity
   8
LEVEL001
 370
9
  62
1
 100
AcDbMText
  10
 3687.5485325299
  20
 2677.3333333333
  30
0.0
  40
 32.000000000000
  41
0.0
  71
7
  72
1
   1
\T1.000000;単相１００Ｖ　５０／６０Ｈｚ
   7
GMM001
  44
 0.79999984000003
   0
LINE
   5
20E
 100
AcDbEntity
   8
LEVEL001
 370
30
 100
AcDbLine
   6
CONTINUOUS
  62
7
  10
 2725.7930857734
  20
 920.66235859953
  30
0.0
  11
 3385.7930857735
  21
 920.66235859953
  31
0.0
   0
LINE
   5
20F
 100
AcDbEntity
   8
LEVEL001
 370
30
 100
AcDbLine
   6
CONTINUOUS
  62
7
  10
 3409.1930857734
  20
 891.66235859953
  30
0.0
  11
 3409.1930857734
  21
 920.66235859953
  31
0.0
   0
LINE
   5
210
 100
AcDbEntity
   8
LEVEL001
 370
30
 100
AcDbLine
   6
CONTINUOUS
  62
7
  10
 3409.1930857734
  20
 891.66235859953
  30
0.0
  11
 3409.1930857734
  21
 260.66235859953
  31
0.0
   0
LINE
   5
211
 100
AcDbEntity
   8
LEVEL001
 370
30
 100
AcDbLine
   6
CONTINUOUS
  62
7
  10
 2684.1930857734
  20
 891.66235859953
  30
0.0
  11
 3409.1930857734
  21
 891.66235859953
  31
0.0
   0
LINE
   5
212
 100
AcDbEntity
   8
LEVEL001
 370
30
 100
AcDbLine
   6
CONTINUOUS
  62
7
  10
 3409.1930857734
  20
 920.66235859953
  30
0.0
  11
 2684.1930857734
  21
 920.66235859953
  31
0.0
   0
LINE
   5
213
 100
AcDbEntity
   8
LEVEL001
 370
30
 100
AcDbLine
   6
CONTINUOUS
  62
7
  10
 2684.1930857734
  20
 920.66235859953
  30
0.0
  11
 2684.1930857734
  21
 891.66235859953
  31
0.0
   0
LINE
   5
214
 100
AcDbEntity
   8
LEVEL001
 370
30
 100
AcDbLine
   6
CONTINUOUS
  62
7
  10
 2684.1930857734
  20
 891.66235859953
  30
0.0
  11
 2684.1930857734
  21
 260.66235859953
  31
0.0
   0
POINT
   5
215
 100
AcDbEntity
   8
LEVEL001
 100
AcDbPoint
  62
7
  10
 2704.1162383394
  20
 1393.6773567166
  30
0.0
   0
POINT
   5
216
 100
AcDbEntity
   8
LEVEL001
 100
AcDbPoint
  62
7
  10
 2764.0371220170
  20
 1497.6460423028
  30
0.0
   0
LWPOLYLINE
   5
217
 100
AcDbEntity
   8
LEVEL001
 370
30
   6
CONTINUOUS
  62
7
 100
AcDbPolyline
  90
4
  70
1
  10
 2701.6195348428
  20
 1389.3453281330
  10
 2766.5338257567
  20
 1501.9780713081
  10
 2765.2342171816
  20
 1502.7270823571
  10
 2700.3199262677
  20
 1390.0943391820
   0
LINE
   5
218
 100
AcDbEntity
   8
LEVEL001
 370
30
 100
AcDbLine
   6
CONTINUOUS
  62
7
  10
 2717.1930857734
  20
 1115.6623585995
  30
0.0
  11
 3107.1930857734
  21
 1115.6623585995
  31
0.0
   0
LINE
   5
219
 100
AcDbEntity
   8
LEVEL001
 370
30
 100
AcDbLine
   6
CONTINUOUS
  62
7
  10
 3107.1930857734
  20
 1353.6623585995
  30
0.0
  11
 2717.1930857734
  21
 1353.6623585995
  31
0.0
   0
LINE
   5
21A
 100
AcDbEntity
   8
LEVEL001
 370
30
 100
AcDbLine
   6
CONTINUOUS
  62
7
  10
 2717.1930857734
  20
 1353.6623585995
  30
0.0
  11
 2717.1930857734
  21
 1115.6623585995
  31
0.0
   0
LINE
   5
21B
 100
AcDbEntity
   8
LEVEL001
 370
30
 100
AcDbLine
   6
CONTINUOUS
  62
7
  10
 3107.1930857734
  20
 1115.6623585995
  30
0.0
  11
 3107.1930857734
  21
 1353.6623585995
  31
0.0
   0
ARC
   5
21C
 100
AcDbEntity
   8
LEVEL001
 370
20
   6
DIVIDE
  62
4
 100
AcDbCircle
  10
 2696.8111227735
  20
 1146.8986285006
  30
0.0
  40
 1.0000000000000
 100
AcDbArc
  50
 94.891173000116
  51
 184.89117300002
   0
LINE
   5
21D
 100
AcDbEntity
   8
LEVEL001
 370
20
 100
AcDbLine
   6
DIVIDE
  62
4
  10
 2696.1930857734
  20
 1081.7993275006
  30
0.0
  11
 2696.1930857734
  21
 1109.7993275006
  31
0.0
   0
LWPOLYLINE
   5
21E
 100
AcDbEntity
   8
LEVEL001
 370
30
   6
CONTINUOUS
  62
7
 100
AcDbPolyline
  90
5
  70
1
  10
 2696.1930857734
  20
 944.66235859953
  10
 2696.1930857734
  20
 1379.9298999465
  10
 2772.1152279743
  20
 1511.6623585995
  10
 3160.2930857735
  20
 1511.6623585995
  10
 3160.2930857735
  20
 944.66235859953
   0
LINE
   5
21F
 100
AcDbEntity
   8
LEVEL001
 370
30
 100
AcDbLine
   6
CONTINUOUS
  62
7
  10
 3141.2009394617
  20
 1511.6623585995
  30
0.0
  11
 3142.2009394617
  21
 1512.6623585995
  31
0.0
   0
LINE
   5
220
 100
AcDbEntity
   8
LEVEL001
 370
30
 100
AcDbLine
   6
CONTINUOUS
  62
7
  10
 2696.1930857734
  20
 997.16235859954
  30
0.0
  11
 2696.1930857734
  21
 1172.1623585995
  31
0.0
   0
LINE
   5
221
 100
AcDbEntity
   8
LEVEL001
 370
30
 100
AcDbLine
   6
CONTINUOUS
  62
7
  10
 3398.1930857734
  20
 1509.6623585995
  30
0.0
  11
 3398.1930857734
  21
 1469.6623585995
  31
0.0
   0
LINE
   5
222
 100
AcDbEntity
   8
LEVEL001
 370
30
 100
AcDbLine
   6
CONTINUOUS
  62
7
  10
 3398.1930857734
  20
 1509.6623585995
  30
0.0
  11
 3397.1930857734
  21
 1509.6623585995
  31
0.0
   0
LINE
   5
223
 100
AcDbEntity
   8
LEVEL001
 370
30
 100
AcDbLine
   6
CONTINUOUS
  62
7
  10
 3398.1930857734
  20
 1469.6623585995
  30
0.0
  11
 3398.1930857734
  21
 1509.6623585995
  31
0.0
   0
LINE
   5
224
 100
AcDbEntity
   8
LEVEL001
 370
30
 100
AcDbLine
   6
CONTINUOUS
  62
7
  10
 3397.1930857734
  20
 944.66235859953
  30
0.0
  11
 3160.2930857735
  21
 944.66235859953
  31
0.0
   0
LWPOLYLINE
   5
225
 100
AcDbEntity
   8
LEVEL001
 370
30
   6
CONTINUOUS
  62
7
 100
AcDbPolyline
  90
4
  70
0
  10
 2729.1930857734
  20
 944.66235859953
  10
 2729.1930857734
  20
 920.66235859953
  10
 3397.1930857734
  20
 920.66235859953
  10
 3397.1930857734
  20
 945.66235859953
   0
LINE
   5
226
 100
AcDbEntity
   8
LEVEL001
 370
30
 100
AcDbLine
   6
CONTINUOUS
  62
7
  10
 3160.2930857735
  20
 1511.6623585995
  30
0.0
  11
 3397.1930857734
  21
 1511.6623585995
  31
0.0
   0
ARC
   5
227
 100
AcDbEntity
   8
LEVEL001
 370
30
   6
CONTINUOUS
  62
7
 100
AcDbCircle
  10
 3397.1930857734
  20
 1510.6623585995
  30
0.0
  40
 1.0000000000000
 100
AcDbArc
  50
0.0
  51
 90.000000000000
   0
POINT
   5
228
 100
AcDbEntity
   8
LEVEL001
 100
AcDbPoint
  62
7
  10
 3398.1930857734
  20
 1511.6623585995
  30
0.0
   0
ARC
   5
229
 100
AcDbEntity
   8
LEVEL001
 370
30
   6
CONTINUOUS
  62
7
 100
AcDbCircle
  10
 3397.1930857734
  20
 1510.6623585995
  30
0.0
  40
 2.0000000000000
 100
AcDbArc
  50
0.0
  51
 90.000000000000
   0
POINT
   5
22A
 100
AcDbEntity
   8
LEVEL001
 100
AcDbPoint
  62
7
  10
 3399.1930857734
  20
 1512.6623585995
  30
0.0
   0
ARC
   5
22B
 100
AcDbEntity
   8
LEVEL001
 370
30
   6
CONTINUOUS
  62
7
 100
AcDbCircle
  10
 3397.1930857734
  20
 1510.6623585995
  30
0.0
  40
 1.0000000000000
 100
AcDbArc
  50
0.0
  51
 90.000000000000
   0
POINT
   5
22C
 100
AcDbEntity
   8
LEVEL001
 100
AcDbPoint
  62
7
  10
 3398.1930857734
  20
 1511.6623585995
  30
0.0
   0
ARC
   5
22D
 100
AcDbEntity
   8
LEVEL001
 370
30
   6
CONTINUOUS
  62
7
 100
AcDbCircle
  10
 3397.1930857734
  20
 1510.6623585995
  30
0.0
  40
 2.0000000000000
 100
AcDbArc
  50
0.0
  51
 90.000000000000
   0
POINT
   5
22E
 100
AcDbEntity
   8
LEVEL001
 100
AcDbPoint
  62
7
  10
 3399.1930857734
  20
 1512.6623585995
  30
0.0
   0
LINE
   5
22F
 100
AcDbEntity
   8
LEVEL001
 370
30
 100
AcDbLine
   6
CONTINUOUS
  62
7
  10
 3398.1930857734
  20
 1470.6623585995
  30
0.0
  11
 3399.1930857734
  21
 1470.6623585995
  31
0.0
   0
LINE
   5
230
 100
AcDbEntity
   8
LEVEL001
 370
30
 100
AcDbLine
   6
CONTINUOUS
  62
7
  10
 3399.1930857734
  20
 1470.6623585995
  30
0.0
  11
 3399.1930857734
  21
 1510.6623585995
  31
0.0
   0
LINE
   5
231
 100
AcDbEntity
   8
LEVEL001
 370
30
 100
AcDbLine
   6
CONTINUOUS
  62
7
  10
 3399.1930857734
  20
 1470.6623585995
  30
0.0
  11
 3398.1930857734
  21
 1470.6623585995
  31
0.0
   0
LINE
   5
232
 100
AcDbEntity
   8
LEVEL001
 370
30
 100
AcDbLine
   6
CONTINUOUS
  62
7
  10
 3399.1930857734
  20
 1470.6623585995
  30
0.0
  11
 3399.1930857734
  21
 1510.6623585995
  31
0.0
   0
LINE
   5
233
 100
AcDbEntity
   8
LEVEL001
 370
30
 100
AcDbLine
   6
CONTINUOUS
  62
7
  10
 3398.1930857734
  20
 1066.6623585995
  30
0.0
  11
 3398.1930857734
  21
 1510.6623585995
  31
0.0
   0
LINE
   5
234
 100
AcDbEntity
   8
LEVEL001
 370
30
 100
AcDbLine
   6
CONTINUOUS
  62
7
  10
 3397.1930857734
  20
 944.66235859953
  30
0.0
  11
 3397.1930857734
  21
 1511.6623585995
  31
0.0
   0
LINE
   5
235
 100
AcDbEntity
   8
LEVEL001
 370
30
 100
AcDbLine
   6
CONTINUOUS
  62
7
  10
 3142.2009394617
  20
 1512.6623585995
  30
0.0
  11
 3397.1930857734
  21
 1512.6623585995
  31
0.0
   0
LINE
   5
236
 100
AcDbEntity
   8
LEVEL001
 370
30
 100
AcDbLine
   6
CONTINUOUS
  62
7
  10
 2694.1930857734
  20
 1172.1623585995
  30
0.0
  11
 2696.1930857734
  21
 1172.1623585995
  31
0.0
   0
LINE
   5
237
 100
AcDbEntity
   8
LEVEL001
 370
30
 100
AcDbLine
   6
CONTINUOUS
  62
7
  10
 2694.1930857734
  20
 1172.1623585995
  30
0.0
  11
 2694.1930857734
  21
 997.16235859954
  31
0.0
   0
LINE
   5
238
 100
AcDbEntity
   8
LEVEL001
 370
30
 100
AcDbLine
   6
CONTINUOUS
  62
7
  10
 2694.1930857734
  20
 997.16235859954
  30
0.0
  11
 2696.1930857734
  21
 997.16235859954
  31
0.0
   0
LINE
   5
239
 100
AcDbEntity
   8
LEVEL001
 370
30
 100
AcDbLine
   6
CONTINUOUS
  62
7
  10
 2729.1930857734
  20
 923.86235859953
  30
0.0
  11
 3397.1930857734
  21
 923.86235859953
  31
0.0
   0
POINT
   5
23A
 100
AcDbEntity
   8
LEVEL001
 100
AcDbPoint
  62
1
  10
 3398.1930857735
  20
 1511.6623585995
  30
0.0
   0
POINT
   5
23B
 100
AcDbEntity
   8
LEVEL001
 100
AcDbPoint
  62
1
  10
 3399.1930857735
  20
 1512.6623585995
  30
0.0
   0
LINE
   5
23C
 100
AcDbEntity
   8
LEVEL001
 370
30
 100
AcDbLine
   6
CONTINUOUS
  62
7
  10
 3161.4321339619
  20
 1545.6966434926
  30
0.0
  11
 3252.1930857735
  21
 1512.6623585995
  31
0.0
   0
ARC
   5
23D
 100
AcDbEntity
   8
LEVEL001
 370
30
   6
CONTINUOUS
  62
7
 100
AcDbCircle
  10
 3161.0901138186
  20
 1544.7569508718
  30
0.0
  40
 1.0000000000000
 100
AcDbArc
  50
 70.000000000040
  51
 114.99987896019
   0
POINT
   5
23E
 100
AcDbEntity
   8
LEVEL001
 100
AcDbPoint
  62
7
  10
 3161.0429016968
  20
 1545.8383124513
  30
0.0
   0
LINE
   5
23F
 100
AcDbEntity
   8
LEVEL001
 370
30
 100
AcDbLine
   6
CONTINUOUS
  62
7
  10
 3141.6350147189
  20
 1536.7883183710
  30
0.0
  11
 3160.6674974714
  21
 1545.6632595517
  31
0.0
   0
LINE
   5
240
 100
AcDbEntity
   8
LEVEL001
 370
30
 100
AcDbLine
   6
CONTINUOUS
  62
7
  10
 3141.1513357375
  20
 1535.4593653119
  30
0.0
  11
 3141.1513232342
  21
 1535.4593921253
  31
0.0
   0
ARC
   5
241
 100
AcDbEntity
   8
LEVEL001
 370
30
   6
CONTINUOUS
  62
7
 100
AcDbCircle
  10
 3142.0576323404
  20
 1535.8820102854
  30
0.0
  40
 1.0000000000000
 100
AcDbArc
  50
 204.99996278017
  51
 294.99995952453
   0
ARC
   5
242
 100
AcDbEntity
   8
LEVEL001
 370
30
   6
CONTINUOUS
  62
7
 100
AcDbCircle
  10
 3142.0576198371
  20
 1535.8820370989
  30
0.0
  40
 1.0000000000000
 100
AcDbArc
  50
 114.99989348489
  51
 204.99996278007
   0
LINE
   5
243
 100
AcDbEntity
   8
LEVEL001
 370
30
 100
AcDbLine
   6
CONTINUOUS
  62
7
  10
 3141.1513242788
  20
 1535.4593926124
  30
0.0
  11
 3141.1513117755
  21
 1535.4594194259
  31
0.0
   0
LINE
   5
244
 100
AcDbEntity
   8
LEVEL001
 370
30
 100
AcDbLine
   6
CONTINUOUS
  62
7
  10
 3151.5433308693
  20
 1539.2018784389
  30
0.0
  11
 3142.4802499618
  21
 1534.9757021998
  31
0.0
   0
LINE
   5
245
 100
AcDbEntity
   8
LEVEL001
 370
30
 100
AcDbLine
   6
CONTINUOUS
  62
7
  10
 3069.5339593223
  20
 1526.4786896086
  30
0.0
  11
 3068.3848926577
  21
 1527.4428710231
  31
0.0
   0
LINE
   5
246
 100
AcDbEntity
   8
LEVEL001
 370
30
 100
AcDbLine
   6
CONTINUOUS
  62
7
  10
 3068.3848926577
  20
 1527.4428710231
  30
0.0
  11
 3074.1699811448
  21
 1534.3372710112
  31
0.0
   0
ARC
   5
247
 100
AcDbEntity
   8
LEVEL001
 370
30
   6
CONTINUOUS
  62
7
 100
AcDbCircle
  10
 3076.4681144742
  20
 1532.4089081821
  30
0.0
  40
 3.0000000000000
 100
AcDbArc
  50
 50.000000000010
  51
 140.00000000001
   0
POINT
   5
248
 100
AcDbEntity
   8
LEVEL001
 100
AcDbPoint
  62
7
  10
 3076.0983439739
  20
 1536.6354043405
  30
0.0
   0
LINE
   5
249
 100
AcDbEntity
   8
LEVEL001
 370
30
 100
AcDbLine
   6
CONTINUOUS
  62
7
  10
 3075.3190389756
  20
 1533.3730790688
  30
0.0
  11
 3069.5339593223
  21
 1526.4786896086
  31
0.0
   0
ARC
   5
24A
 100
AcDbEntity
   8
LEVEL001
 370
30
   6
CONTINUOUS
  62
7
 100
AcDbCircle
  10
 3076.4681056403
  20
 1532.4088976543
  30
0.0
  40
 1.5000000000000
 100
AcDbArc
  50
 50.000000000025
  51
 140.00000000004
   0
POINT
   5
24B
 100
AcDbEntity
   8
LEVEL001
 100
AcDbPoint
  62
7
  10
 3076.2832203901
  20
 1534.5221457335
  30
0.0
   0
LINE
   5
24C
 100
AcDbEntity
   8
LEVEL001
 370
30
 100
AcDbLine
   6
CONTINUOUS
  62
7
  10
 3069.5339593223
  20
 1526.4786896086
  30
0.0
  11
 3073.9533293566
  21
 1511.6623585995
  31
0.0
   0
LINE
   5
24D
 100
AcDbEntity
   8
LEVEL001
 370
20
 100
AcDbLine
   6
DASHDOT
  62
6
  10
 3105.8600576057
  20
 1511.6623585995
  30
0.0
  11
 3104.4419868024
  21
 1512.8522609149
  31
0.0
   0
LINE
   5
24E
 100
AcDbEntity
   8
LEVEL001
 370
9
 100
AcDbLine
   6
DASHDOT
  62
1
  10
 3105.8600576057
  20
 1511.6623585995
  30
0.0
  11
 3104.4419868024
  21
 1512.8522609149
  31
0.0
   0
LINE
   5
24F
 100
AcDbEntity
   8
LEVEL001
 370
30
 100
AcDbLine
   6
CONTINUOUS
  62
7
  10
 3078.3964773032
  20
 1534.7070415115
  30
0.0
  11
 3105.8600609538
  21
 1511.6623585995
  31
0.0
   0
LINE
   5
250
 100
AcDbEntity
   8
LEVEL001
 370
30
 100
AcDbLine
   6
CONTINUOUS
  62
7
  10
 3103.5264752135
  20
 1511.6623585995
  30
0.0
  11
 3077.4322958887
  21
 1533.5579748468
  31
0.0
   0
LINE
   5
251
 100
AcDbEntity
   8
LEVEL001
 370
30
 100
AcDbLine
   6
CONTINUOUS
  62
7
  10
 3161.0901148421
  20
 1544.7569504993
  30
0.0
  11
 3142.0576438505
  21
 1535.8819830088
  31
0.0
   0
LINE
   5
252
 100
AcDbEntity
   8
LEVEL001
 370
30
 100
AcDbLine
   6
CONTINUOUS
  62
7
  10
 3151.1207132478
  20
 1540.1081865244
  30
0.0
  11
 3151.5433308693
  21
 1539.2018784389
  31
0.0
   0
LINE
   5
253
 100
AcDbEntity
   8
LEVEL001
 370
30
 100
AcDbLine
   6
CONTINUOUS
  62
7
  10
 3123.0246495484
  20
 1511.6623585995
  30
0.0
  11
 3142.6553998316
  21
 1535.0573757748
  31
0.0
   0
LINE
   5
254
 100
AcDbEntity
   8
LEVEL001
 370
30
 100
AcDbLine
   6
CONTINUOUS
  62
7
  10
 3249.2692813733
  20
 1512.6623585995
  30
0.0
  11
 3161.0901148421
  21
 1544.7569504993
  31
0.0
   0
LINE
   5
255
 100
AcDbEntity
   8
LEVEL001
 370
30
 100
AcDbLine
   6
CONTINUOUS
  62
7
  10
 3123.0246495484
  20
 1511.6623585995
  30
0.0
  11
 3142.9297330558
  21
 1535.3843133804
  31
0.0
   0
DIMENSION
   5
256
 100
AcDbEntity
   8
LEVEL001
 370
30
   6
CONTINUOUS
  62
7
 100
AcDbDimension
   2
*D1
  10
 2684.1930857734
  20
 1620.8450697098
  30
0.0
  11
 3046.6930857734
  21
 1634.5593554240
  31
0.0
  70
128
   3
GMM001
 100
AcDbAlignedDimension
  13
 3409.1930857734
  23
 944.66235859953
  33
0.0
  14
 2684.1930857734
  24
 917.66235859950
  34
0.0
  50
 180.00000000000
 100
AcDbRotatedDimension
   0
LINE
   5
257
 100
AcDbEntity
   8
LEVEL001
 370
30
 100
AcDbLine
   6
CONTINUOUS
  62
7
  10
 1541.2407805299
  20
 920.66235859953
  30
0.0
  11
 1561.2407805299
  21
 920.66235859953
  31
0.0
   0
LINE
   5
258
 100
AcDbEntity
   8
LEVEL001
 370
30
 100
AcDbLine
   6
CONTINUOUS
  62
7
  10
 816.24078052993
  20
 920.66235859953
  30
0.0
  11
 796.24078052993
  21
 920.66235859953
  31
0.0
   0
LINE
   5
259
 100
AcDbEntity
   8
LEVEL001
 370
30
 100
AcDbLine
   6
CONTINUOUS
  62
7
  10
 715.24078052993
  20
 891.66235859953
  30
0.0
  11
 715.24078052993
  21
 260.66235859953
  31
0.0
   0
LINE
   5
25A
 100
AcDbEntity
   8
LEVEL001
 370
30
 100
AcDbLine
   6
CONTINUOUS
  62
7
  10
 675.24078052993
  20
 260.66235859953
  30
0.0
  11
 1857.3284083185
  21
 260.66235859953
  31
0.0
   0
LINE
   5
25B
 100
AcDbEntity
   8
LEVEL001
 370
30
 100
AcDbLine
   6
CONTINUOUS
  62
7
  10
 744.24078052993
  20
 891.66235859953
  30
0.0
  11
 744.24078052993
  21
 260.66235859953
  31
0.0
   0
LINE
   5
25C
 100
AcDbEntity
   8
LEVEL001
 370
30
 100
AcDbLine
   6
CONTINUOUS
  62
7
  10
 1546.2407805299
  20
 1425.6623581911
  30
0.0
  11
 1543.7407805299
  21
 1425.6623581911
  31
0.0
   0
LINE
   5
25D
 100
AcDbEntity
   8
LEVEL001
 370
30
 100
AcDbLine
   6
CONTINUOUS
  62
7
  10
 823.74078052993
  20
 1425.6623581911
  30
0.0
  11
 821.24078052993
  21
 1425.6623581911
  31
0.0
   0
LINE
   5
25E
 100
AcDbEntity
   8
LEVEL001
 370
30
 100
AcDbLine
   6
CONTINUOUS
  62
7
  10
 823.74078052993
  20
 1417.2020472863
  30
0.0
  11
 824.74078052993
  21
 1418.2020472863
  31
0.0
   0
LINE
   5
25F
 100
AcDbEntity
   8
LEVEL001
 370
30
 100
AcDbLine
   6
CONTINUOUS
  62
7
  10
 824.74078052993
  20
 1418.2020472863
  30
0.0
  11
 1023.7407805299
  21
 1418.2020472863
  31
0.0
   0
ARC
   5
260
 100
AcDbEntity
   8
LEVEL001
 370
30
   6
CONTINUOUS
  62
7
 100
AcDbCircle
  10
 1486.1407805299
  20
 1341.9120472863
  30
0.0
  40
 8.2900000000000
 100
AcDbArc
  50
 49.353726340673
  51
 130.64627365933
   0
ARC
   5
261
 100
AcDbEntity
   8
LEVEL001
 370
30
   6
CONTINUOUS
  62
7
 100
AcDbCircle
  10
 1475.3407805299
  20
 1354.4920472863
  30
0.0
  40
 8.2900000000000
 100
AcDbArc
  50
 229.35372634068
  51
 310.64627365932
   0
ARC
   5
262
 100
AcDbEntity
   8
LEVEL001
 370
30
   6
CONTINUOUS
  62
7
 100
AcDbCircle
  10
 1507.7407805299
  20
 1341.9120472863
  30
0.0
  40
 8.2900000000000
 100
AcDbArc
  50
 49.353726340677
  51
 130.64627365932
   0
ARC
   5
263
 100
AcDbEntity
   8
LEVEL001
 370
30
   6
CONTINUOUS
  62
7
 100
AcDbCircle
  10
 1496.9407805299
  20
 1354.4920472863
  30
0.0
  40
 8.2900000000000
 100
AcDbArc
  50
 229.35372634067
  51
 310.64627365933
   0
ARC
   5
264
 100
AcDbEntity
   8
LEVEL001
 370
30
   6
CONTINUOUS
  62
7
 100
AcDbCircle
  10
 1518.5407805299
  20
 1354.4920472863
  30
0.0
  40
 8.2900000000000
 100
AcDbArc
  50
 229.35372634067
  51
 310.64627365933
   0
ARC
   5
265
 100
AcDbEntity
   8
LEVEL001
 370
30
   6
CONTINUOUS
  62
7
 100
AcDbCircle
  10
 1432.1407805299
  20
 1354.4920472863
  30
0.0
  40
 8.2900000000000
 100
AcDbArc
  50
 229.35372634067
  51
 310.64627365933
   0
ARC
   5
266
 100
AcDbEntity
   8
LEVEL001
 370
30
   6
CONTINUOUS
  62
7
 100
AcDbCircle
  10
 1442.9407805299
  20
 1341.9120472863
  30
0.0
  40
 8.2900000000000
 100
AcDbArc
  50
 49.353726340673
  51
 130.64627365933
   0
ARC
   5
267
 100
AcDbEntity
   8
LEVEL001
 370
30
   6
CONTINUOUS
  62
7
 100
AcDbCircle
  10
 1453.7407805299
  20
 1354.4920472863
  30
0.0
  40
 8.2900000000000
 100
AcDbArc
  50
 229.35372634068
  51
 310.64627365932
   0
ARC
   5
268
 100
AcDbEntity
   8
LEVEL001
 370
30
   6
CONTINUOUS
  62
7
 100
AcDbCircle
  10
 1464.5407805299
  20
 1341.9120472863
  30
0.0
  40
 8.2900000000000
 100
AcDbArc
  50
 49.353726340669
  51
 130.64627365933
   0
ARC
   5
269
 100
AcDbEntity
   8
LEVEL001
 370
30
   6
CONTINUOUS
  62
7
 100
AcDbCircle
  10
 1399.7407805299
  20
 1341.9120472863
  30
0.0
  40
 8.2900000000000
 100
AcDbArc
  50
 49.353726340677
  51
 130.64627365932
   0
ARC
   5
26A
 100
AcDbEntity
   8
LEVEL001
 370
30
   6
CONTINUOUS
  62
7
 100
AcDbCircle
  10
 1410.5407805299
  20
 1354.4920472863
  30
0.0
  40
 8.2900000000000
 100
AcDbArc
  50
 229.35372634067
  51
 310.64627365933
   0
ARC
   5
26B
 100
AcDbEntity
   8
LEVEL001
 370
30
   6
CONTINUOUS
  62
7
 100
AcDbCircle
  10
 1421.3407805299
  20
 1341.9120472863
  30
0.0
  40
 8.2900000000000
 100
AcDbArc
  50
 49.353726340677
  51
 130.64627365932
   0
ARC
   5
26C
 100
AcDbEntity
   8
LEVEL001
 370
30
   6
CONTINUOUS
  62
7
 100
AcDbCircle
  10
 1334.9407805299
  20
 1341.9120472863
  30
0.0
  40
 8.2900000000000
 100
AcDbArc
  50
 49.353726340673
  51
 130.64627365933
   0
ARC
   5
26D
 100
AcDbEntity
   8
LEVEL001
 370
30
   6
CONTINUOUS
  62
7
 100
AcDbCircle
  10
 1324.1407805299
  20
 1354.4920472863
  30
0.0
  40
 8.2900000000000
 100
AcDbArc
  50
 229.35372634067
  51
 310.64627365933
   0
ARC
   5
26E
 100
AcDbEntity
   8
LEVEL001
 370
30
   6
CONTINUOUS
  62
7
 100
AcDbCircle
  10
 1356.5407805299
  20
 1341.9120472863
  30
0.0
  40
 8.2900000000000
 100
AcDbArc
  50
 49.353726340673
  51
 130.64627365933
   0
ARC
   5
26F
 100
AcDbEntity
   8
LEVEL001
 370
30
   6
CONTINUOUS
  62
7
 100
AcDbCircle
  10
 1345.7407805299
  20
 1354.4920472863
  30
0.0
  40
 8.2900000000000
 100
AcDbArc
  50
 229.35372634068
  51
 310.64627365932
   0
ARC
   5
270
 100
AcDbEntity
   8
LEVEL001
 370
30
   6
CONTINUOUS
  62
7
 100
AcDbCircle
  10
 1367.3407805299
  20
 1354.4920472863
  30
0.0
  40
 8.2900000000000
 100
AcDbArc
  50
 229.35372634067
  51
 310.64627365933
   0
ARC
   5
271
 100
AcDbEntity
   8
LEVEL001
 370
30
   6
CONTINUOUS
  62
7
 100
AcDbCircle
  10
 1378.1407805299
  20
 1341.9120472863
  30
0.0
  40
 8.2900000000000
 100
AcDbArc
  50
 49.353726340673
  51
 130.64627365933
   0
ARC
   5
272
 100
AcDbEntity
   8
LEVEL001
 370
30
   6
CONTINUOUS
  62
7
 100
AcDbCircle
  10
 1280.9407805299
  20
 1354.4920472863
  30
0.0
  40
 8.2900000000000
 100
AcDbArc
  50
 229.35372634067
  51
 310.64627365933
   0
ARC
   5
273
 100
AcDbEntity
   8
LEVEL001
 370
30
   6
CONTINUOUS
  62
7
 100
AcDbCircle
  10
 1291.7407805299
  20
 1341.9120472863
  30
0.0
  40
 8.2900000000000
 100
AcDbArc
  50
 49.353726340677
  51
 130.64627365932
   0
ARC
   5
274
 100
AcDbEntity
   8
LEVEL001
 370
30
   6
CONTINUOUS
  62
7
 100
AcDbCircle
  10
 1302.5407805299
  20
 1354.4920472863
  30
0.0
  40
 8.2900000000000
 100
AcDbArc
  50
 229.35372634067
  51
 310.64627365933
   0
ARC
   5
275
 100
AcDbEntity
   8
LEVEL001
 370
30
   6
CONTINUOUS
  62
7
 100
AcDbCircle
  10
 1313.3407805299
  20
 1341.9120472863
  30
0.0
  40
 8.2900000000000
 100
AcDbArc
  50
 49.353726340673
  51
 130.64627365933
   0
ARC
   5
276
 100
AcDbEntity
   8
LEVEL001
 370
30
   6
CONTINUOUS
  62
7
 100
AcDbCircle
  10
 1248.5407805299
  20
 1341.9120472863
  30
0.0
  40
 8.2900000000000
 100
AcDbArc
  50
 49.353726340673
  51
 130.64627365933
   0
ARC
   5
277
 100
AcDbEntity
   8
LEVEL001
 370
30
   6
CONTINUOUS
  62
7
 100
AcDbCircle
  10
 1259.3407805299
  20
 1354.4920472863
  30
0.0
  40
 8.2900000000000
 100
AcDbArc
  50
 229.35372634067
  51
 310.64627365933
   0
ARC
   5
278
 100
AcDbEntity
   8
LEVEL001
 370
30
   6
CONTINUOUS
  62
7
 100
AcDbCircle
  10
 1270.1407805299
  20
 1341.9120472863
  30
0.0
  40
 8.2900000000000
 100
AcDbArc
  50
 49.353726340673
  51
 130.64627365933
   0
ARC
   5
279
 100
AcDbEntity
   8
LEVEL001
 370
30
   6
CONTINUOUS
  62
7
 100
AcDbCircle
  10
 1216.1407805299
  20
 1354.4920472863
  30
0.0
  40
 8.2900000000000
 100
AcDbArc
  50
 229.35372634067
  51
 310.64627365933
   0
ARC
   5
27A
 100
AcDbEntity
   8
LEVEL001
 370
30
   6
CONTINUOUS
  62
7
 100
AcDbCircle
  10
 1226.9407805299
  20
 1341.9120472863
  30
0.0
  40
 8.2900000000000
 100
AcDbArc
  50
 49.353726340673
  51
 130.64627365933
   0
ARC
   5
27B
 100
AcDbEntity
   8
LEVEL001
 370
30
   6
CONTINUOUS
  62
7
 100
AcDbCircle
  10
 1237.7407805299
  20
 1354.4920472863
  30
0.0
  40
 8.2900000000000
 100
AcDbArc
  50
 229.35372634068
  51
 310.64627365932
   0
ARC
   5
27C
 100
AcDbEntity
   8
LEVEL001
 370
30
   6
CONTINUOUS
  62
7
 100
AcDbCircle
  10
 1183.7407805299
  20
 1341.9120472863
  30
0.0
  40
 8.2900000000000
 100
AcDbArc
  50
 49.353726340677
  51
 130.64627365932
   0
ARC
   5
27D
 100
AcDbEntity
   8
LEVEL001
 370
30
   6
CONTINUOUS
  62
7
 100
AcDbCircle
  10
 1194.5407805299
  20
 1354.4920472863
  30
0.0
  40
 8.2900000000000
 100
AcDbArc
  50
 229.35372634067
  51
 310.64627365933
   0
ARC
   5
27E
 100
AcDbEntity
   8
LEVEL001
 370
30
   6
CONTINUOUS
  62
7
 100
AcDbCircle
  10
 1205.3407805299
  20
 1341.9120472863
  30
0.0
  40
 8.2900000000000
 100
AcDbArc
  50
 49.353726340673
  51
 130.64627365933
   0
ARC
   5
27F
 100
AcDbEntity
   8
LEVEL001
 370
30
   6
CONTINUOUS
  62
7
 100
AcDbCircle
  10
 1118.9407805299
  20
 1341.9120472863
  30
0.0
  40
 8.2900000000000
 100
AcDbArc
  50
 49.353726340673
  51
 130.64627365933
   0
ARC
   5
280
 100
AcDbEntity
   8
LEVEL001
 370
30
   6
CONTINUOUS
  62
7
 100
AcDbCircle
  10
 1108.1407805299
  20
 1354.4920472863
  30
0.0
  40
 8.2900000000000
 100
AcDbArc
  50
 229.35372634067
  51
 310.64627365933
   0
ARC
   5
281
 100
AcDbEntity
   8
LEVEL001
 370
30
   6
CONTINUOUS
  62
7
 100
AcDbCircle
  10
 1140.5407805299
  20
 1341.9120472863
  30
0.0
  40
 8.2900000000000
 100
AcDbArc
  50
 49.353726340673
  51
 130.64627365933
   0
ARC
   5
282
 100
AcDbEntity
   8
LEVEL001
 370
30
   6
CONTINUOUS
  62
7
 100
AcDbCircle
  10
 1129.7407805299
  20
 1354.4920472863
  30
0.0
  40
 8.2900000000000
 100
AcDbArc
  50
 229.35372634068
  51
 310.64627365932
   0
ARC
   5
283
 100
AcDbEntity
   8
LEVEL001
 370
30
   6
CONTINUOUS
  62
7
 100
AcDbCircle
  10
 1151.3407805299
  20
 1354.4920472863
  30
0.0
  40
 8.2900000000000
 100
AcDbArc
  50
 229.35372634067
  51
 310.64627365933
   0
ARC
   5
284
 100
AcDbEntity
   8
LEVEL001
 370
30
   6
CONTINUOUS
  62
7
 100
AcDbCircle
  10
 1162.1407805299
  20
 1341.9120472863
  30
0.0
  40
 8.2900000000000
 100
AcDbArc
  50
 49.353726340677
  51
 130.64627365932
   0
ARC
   5
285
 100
AcDbEntity
   8
LEVEL001
 370
30
   6
CONTINUOUS
  62
7
 100
AcDbCircle
  10
 1064.9407805299
  20
 1354.4920472863
  30
0.0
  40
 8.2900000000000
 100
AcDbArc
  50
 229.35372634067
  51
 310.64627365933
   0
ARC
   5
286
 100
AcDbEntity
   8
LEVEL001
 370
30
   6
CONTINUOUS
  62
7
 100
AcDbCircle
  10
 1075.7407805299
  20
 1341.9120472863
  30
0.0
  40
 8.2900000000000
 100
AcDbArc
  50
 49.353726340677
  51
 130.64627365932
   0
ARC
   5
287
 100
AcDbEntity
   8
LEVEL001
 370
30
   6
CONTINUOUS
  62
7
 100
AcDbCircle
  10
 1086.5407805299
  20
 1354.4920472863
  30
0.0
  40
 8.2900000000000
 100
AcDbArc
  50
 229.35372634067
  51
 310.64627365933
   0
ARC
   5
288
 100
AcDbEntity
   8
LEVEL001
 370
30
   6
CONTINUOUS
  62
7
 100
AcDbCircle
  10
 1097.3407805299
  20
 1341.9120472863
  30
0.0
  40
 8.2900000000000
 100
AcDbArc
  50
 49.353726340673
  51
 130.64627365933
   0
ARC
   5
289
 100
AcDbEntity
   8
LEVEL001
 370
30
   6
CONTINUOUS
  62
7
 100
AcDbCircle
  10
 1032.5407805299
  20
 1341.9120472863
  30
0.0
  40
 8.2900000000000
 100
AcDbArc
  50
 49.353726340673
  51
 130.64627365933
   0
ARC
   5
28A
 100
AcDbEntity
   8
LEVEL001
 370
30
   6
CONTINUOUS
  62
7
 100
AcDbCircle
  10
 1043.3407805299
  20
 1354.4920472863
  30
0.0
  40
 8.2900000000000
 100
AcDbArc
  50
 229.35372634067
  51
 310.64627365933
   0
ARC
   5
28B
 100
AcDbEntity
   8
LEVEL001
 370
30
   6
CONTINUOUS
  62
7
 100
AcDbCircle
  10
 1054.1407805299
  20
 1341.9120472863
  30
0.0
  40
 8.2900000000000
 100
AcDbArc
  50
 49.353726340677
  51
 130.64627365932
   0
ARC
   5
28C
 100
AcDbEntity
   8
LEVEL001
 370
30
   6
CONTINUOUS
  62
7
 100
AcDbCircle
  10
 1388.9407805300
  20
 1354.4920472863
  30
0.0
  40
 8.2900000000000
 100
AcDbArc
  50
 229.35372634062
  51
 310.64627365904
   0
ARC
   5
28D
 100
AcDbEntity
   8
LEVEL001
 370
30
   6
CONTINUOUS
  62
7
 100
AcDbCircle
  10
 1172.9407805300
  20
 1354.4920472863
  30
0.0
  40
 8.2900000000000
 100
AcDbArc
  50
 229.35372634061
  51
 310.64627365904
   0
ARC
   5
28E
 100
AcDbEntity
   8
LEVEL001
 370
30
   6
CONTINUOUS
  62
7
 100
AcDbCircle
  10
 1025.7407805299
  20
 1349.6377605210
  30
0.0
  40
 2.0000000000000
 100
AcDbArc
  50
 180.00000000001
  51
 309.48899854629
   0
ARC
   5
28F
 100
AcDbEntity
   8
LEVEL001
 370
30
   6
CONTINUOUS
  62
7
 100
AcDbCircle
  10
 1021.7407805300
  20
 1354.4920472863
  30
0.0
  40
 8.2900000000000
 100
AcDbArc
  50
 309.48899854609
  51
 310.64627365886
   0
LINE
   5
290
 100
AcDbEntity
   8
LEVEL001
 370
30
 100
AcDbLine
   6
CONTINUOUS
  62
7
  10
 823.74078052993
  20
 1364.2020472863
  30
0.0
  11
 824.74078052993
  21
 1363.2020472863
  31
0.0
   0
LINE
   5
291
 100
AcDbEntity
   8
LEVEL001
 370
30
 100
AcDbLine
   6
CONTINUOUS
  62
7
  10
 824.74078052993
  20
 1363.2020472863
  30
0.0
  11
 1023.7407805299
  21
 1363.2020472863
  31
0.0
   0
LINE
   5
292
 100
AcDbEntity
   8
LEVEL001
 370
30
 100
AcDbLine
   6
CONTINUOUS
  62
7
  10
 1023.7407805299
  20
 1349.2798217128
  30
0.0
  11
 1023.7407805299
  21
 1390.7020472863
  31
0.0
   0
LINE
   5
293
 100
AcDbEntity
   8
LEVEL001
 370
30
 100
AcDbLine
   6
CONTINUOUS
  62
7
  10
 823.74078052993
  20
 1417.2020472863
  30
0.0
  11
 823.74078052993
  21
 1390.7020472863
  31
0.0
   0
LINE
   5
294
 100
AcDbEntity
   8
LEVEL001
 370
30
 100
AcDbLine
   6
CONTINUOUS
  62
7
  10
 823.74078052993
  20
 1390.7020472863
  30
0.0
  11
 823.74078052993
  21
 1364.2020472863
  31
0.0
   0
LINE
   5
295
 100
AcDbEntity
   8
LEVEL001
 370
30
 100
AcDbLine
   6
CONTINUOUS
  62
7
  10
 821.24078052993
  20
 1375.7020472863
  30
0.0
  11
 823.74078052993
  21
 1375.7020472863
  31
0.0
   0
LINE
   5
296
 100
AcDbEntity
   8
LEVEL001
 370
30
 100
AcDbLine
   6
CONTINUOUS
  62
7
  10
 823.74078052993
  20
 1405.7020472863
  30
0.0
  11
 821.24078052993
  21
 1405.7020472863
  31
0.0
   0
LINE
   5
297
 100
AcDbEntity
   8
LEVEL001
 370
30
 100
AcDbLine
   6
CONTINUOUS
  62
7
  10
 1543.7407805299
  20
 1375.7020472863
  30
0.0
  11
 1546.2407805299
  21
 1375.7020472863
  31
0.0
   0
LINE
   5
298
 100
AcDbEntity
   8
LEVEL001
 370
30
 100
AcDbLine
   6
CONTINUOUS
  62
7
  10
 1546.2407805299
  20
 1405.7020472863
  30
0.0
  11
 1543.7407805299
  21
 1405.7020472863
  31
0.0
   0
LINE
   5
299
 100
AcDbEntity
   8
LEVEL001
 370
30
 100
AcDbLine
   6
CONTINUOUS
  62
7
  10
 823.74078052993
  20
 1248.0623585995
  30
0.0
  11
 821.24078052993
  21
 1248.0623585995
  31
0.0
   0
LINE
   5
29A
 100
AcDbEntity
   8
LEVEL001
 370
30
 100
AcDbLine
   6
CONTINUOUS
  62
7
  10
 821.24078052993
  20
 1218.0623585995
  30
0.0
  11
 823.74078052993
  21
 1218.0623585995
  31
0.0
   0
LINE
   5
29B
 100
AcDbEntity
   8
LEVEL001
 370
30
 100
AcDbLine
   6
CONTINUOUS
  62
7
  10
 823.74078052993
  20
 1270.7123585995
  30
0.0
  11
 823.74078052993
  21
 1195.4123585995
  31
0.0
   0
LINE
   5
29C
 100
AcDbEntity
   8
LEVEL001
 370
30
 100
AcDbLine
   6
CONTINUOUS
  62
7
  10
 823.74078052993
  20
 1195.4123585995
  30
0.0
  11
 1543.7407805299
  21
 1195.4123585995
  31
0.0
   0
LINE
   5
29D
 100
AcDbEntity
   8
LEVEL001
 370
30
 100
AcDbLine
   6
CONTINUOUS
  62
7
  10
 816.24078052993
  20
 1177.6623585995
  30
0.0
  11
 816.24078052993
  21
 1511.6623585995
  31
0.0
   0
ARC
   5
29E
 100
AcDbEntity
   8
LEVEL001
 370
30
   6
CONTINUOUS
  62
7
 100
AcDbCircle
  10
 784.74078052993
  20
 1378.1623585995
  30
0.0
  40
 7.5000000000000
 100
AcDbArc
  50
0.0
  51
 90.000000000000
   0
ARC
   5
29F
 100
AcDbEntity
   8
LEVEL001
 370
30
   6
CONTINUOUS
  62
7
 100
AcDbCircle
  10
 784.74078052993
  20
 1378.1623585995
  30
0.0
  40
 7.5000000000000
 100
AcDbArc
  50
 270.00000000000
  51
0.0
   0
LINE
   5
2A0
 100
AcDbEntity
   8
LEVEL001
 370
30
 100
AcDbLine
   6
CONTINUOUS
  62
7
  10
 784.74078052993
  20
 1370.6623585995
  30
0.0
  11
 777.24078052993
  21
 1370.6623585995
  31
0.0
   0
ARC
   5
2A1
 100
AcDbEntity
   8
LEVEL001
 370
30
   6
CONTINUOUS
  62
7
 100
AcDbCircle
  10
 777.24078052993
  20
 1368.6623585995
  30
0.0
  40
 2.0000000000000
 100
AcDbArc
  50
 90.000000000000
  51
 180.00000000000
   0
LINE
   5
2A2
 100
AcDbEntity
   8
LEVEL001
 370
30
 100
AcDbLine
   6
CONTINUOUS
  62
7
  10
 775.24078052993
  20
 1368.6623585995
  30
0.0
  11
 775.24078052993
  21
 1357.6623585995
  31
0.0
   0
ARC
   5
2A3
 100
AcDbEntity
   8
LEVEL001
 370
30
   6
CONTINUOUS
  62
7
 100
AcDbCircle
  10
 777.24078052993
  20
 1357.6623585995
  30
0.0
  40
 2.0000000000000
 100
AcDbArc
  50
 180.00000000000
  51
 270.00000000000
   0
LINE
   5
2A4
 100
AcDbEntity
   8
LEVEL001
 370
30
 100
AcDbLine
   6
CONTINUOUS
  62
7
  10
 763.24078052993
  20
 1378.1623585995
  30
0.0
  11
 763.24078052993
  21
 1372.6623585995
  31
0.0
   0
ARC
   5
2A5
 100
AcDbEntity
   8
LEVEL001
 370
30
   6
CONTINUOUS
  62
7
 100
AcDbCircle
  10
 761.24078052993
  20
 1372.6623585995
  30
0.0
  40
 2.0000000000000
 100
AcDbArc
  50
 270.00000000000
  51
0.0
   0
ARC
   5
2A6
 100
AcDbEntity
   8
LEVEL001
 370
30
   6
CONTINUOUS
  62
7
 100
AcDbCircle
  10
 761.24078052993
  20
 1353.6623585995
  30
0.0
  40
 2.0000000000000
 100
AcDbArc
  50
0.0
  51
 90.000000000000
   0
LINE
   5
2A7
 100
AcDbEntity
   8
LEVEL001
 370
30
 100
AcDbLine
   6
CONTINUOUS
  62
7
  10
 763.24078052993
  20
 1353.6623585995
  30
0.0
  11
 763.24078052993
  21
 1342.6623585995
  31
0.0
   0
ARC
   5
2A8
 100
AcDbEntity
   8
LEVEL001
 370
30
   6
CONTINUOUS
  62
7
 100
AcDbCircle
  10
 761.24078052993
  20
 1342.6623585995
  30
0.0
  40
 2.0000000000000
 100
AcDbArc
  50
 270.00000000000
  51
0.0
   0
ARC
   5
2A9
 100
AcDbEntity
   8
LEVEL001
 370
30
   6
CONTINUOUS
  62
7
 100
AcDbCircle
  10
 777.24078052993
  20
 1338.6623585995
  30
0.0
  40
 2.0000000000000
 100
AcDbArc
  50
 90.000000000000
  51
 180.00000000000
   0
LINE
   5
2AA
 100
AcDbEntity
   8
LEVEL001
 370
30
 100
AcDbLine
   6
CONTINUOUS
  62
7
  10
 775.24078052993
  20
 1338.6623585995
  30
0.0
  11
 775.24078052993
  21
 1327.6623585995
  31
0.0
   0
ARC
   5
2AB
 100
AcDbEntity
   8
LEVEL001
 370
30
   6
CONTINUOUS
  62
7
 100
AcDbCircle
  10
 777.24078052993
  20
 1327.6623585995
  30
0.0
  40
 2.0000000000000
 100
AcDbArc
  50
 180.00000000000
  51
 270.00000000000
   0
ARC
   5
2AC
 100
AcDbEntity
   8
LEVEL001
 370
30
   6
CONTINUOUS
  62
7
 100
AcDbCircle
  10
 777.24078052993
  20
 1308.6623585995
  30
0.0
  40
 2.0000000000000
 100
AcDbArc
  50
 90.000000000000
  51
 180.00000000000
   0
LINE
   5
2AD
 100
AcDbEntity
   8
LEVEL001
 370
30
 100
AcDbLine
   6
CONTINUOUS
  62
7
  10
 775.24078052993
  20
 1308.6623585995
  30
0.0
  11
 775.24078052993
  21
 1297.6623585995
  31
0.0
   0
ARC
   5
2AE
 100
AcDbEntity
   8
LEVEL001
 370
30
   6
CONTINUOUS
  62
7
 100
AcDbCircle
  10
 777.24078052993
  20
 1297.6623585995
  30
0.0
  40
 2.0000000000000
 100
AcDbArc
  50
 180.00000000000
  51
 270.00000000000
   0
ARC
   5
2AF
 100
AcDbEntity
   8
LEVEL001
 370
30
   6
CONTINUOUS
  62
7
 100
AcDbCircle
  10
 761.24078052993
  20
 1323.6623585995
  30
0.0
  40
 2.0000000000000
 100
AcDbArc
  50
0.0
  51
 90.000000000000
   0
LINE
   5
2B0
 100
AcDbEntity
   8
LEVEL001
 370
30
 100
AcDbLine
   6
CONTINUOUS
  62
7
  10
 763.24078052993
  20
 1323.6623585995
  30
0.0
  11
 763.24078052993
  21
 1312.6623585995
  31
0.0
   0
ARC
   5
2B1
 100
AcDbEntity
   8
LEVEL001
 370
30
   6
CONTINUOUS
  62
7
 100
AcDbCircle
  10
 761.24078052993
  20
 1312.6623585995
  30
0.0
  40
 2.0000000000000
 100
AcDbArc
  50
 270.00000000000
  51
0.0
   0
ARC
   5
2B2
 100
AcDbEntity
   8
LEVEL001
 370
30
   6
CONTINUOUS
  62
7
 100
AcDbCircle
  10
 783.74078052993
  20
 1349.1623585995
  30
0.0
  40
 8.5000000000000
 100
AcDbArc
  50
 270.00000000000
  51
0.0
   0
LINE
   5
2B3
 100
AcDbEntity
   8
LEVEL001
 370
30
 100
AcDbLine
   6
CONTINUOUS
  62
7
  10
 783.74078052993
  20
 1340.6623585995
  30
0.0
  11
 777.24078052993
  21
 1340.6623585995
  31
0.0
   0
ARC
   5
2B4
 100
AcDbEntity
   8
LEVEL001
 370
30
   6
CONTINUOUS
  62
7
 100
AcDbCircle
  10
 783.74078052993
  20
 1289.1623585995
  30
0.0
  40
 8.5000000000000
 100
AcDbArc
  50
 270.09963562127
  51
 128.75435279189
   0
LINE
   5
2B5
 100
AcDbEntity
   8
LEVEL001
 370
30
 100
AcDbLine
   6
CONTINUOUS
  62
7
  10
 761.24078052993
  20
 1370.6623585995
  30
0.0
  11
 758.21800610498
  21
 1370.6623585995
  31
0.0
   0
LINE
   5
2B6
 100
AcDbEntity
   8
LEVEL001
 370
30
 100
AcDbLine
   6
CONTINUOUS
  62
7
  10
 761.24078052993
  20
 1355.6623585995
  30
0.0
  11
 752.74078052993
  21
 1355.6623585995
  31
0.0
   0
ARC
   5
2B7
 100
AcDbEntity
   8
LEVEL001
 370
30
   6
CONTINUOUS
  62
7
 100
AcDbCircle
  10
 752.74078052993
  20
 1364.1623585995
  30
0.0
  40
 8.5000000000000
 100
AcDbArc
  50
 49.880833101586
  51
 272.67592212630
   0
ARC
   5
2B8
 100
AcDbEntity
   8
LEVEL001
 370
30
   6
CONTINUOUS
  62
7
 100
AcDbCircle
  10
 783.74078052993
  20
 1349.1623585995
  30
0.0
  40
 8.5000000000000
 100
AcDbArc
  50
 0.15326531735617E-11
  51
 130.77316082173
   0
LINE
   5
2B9
 100
AcDbEntity
   8
LEVEL001
 370
30
 100
AcDbLine
   6
CONTINUOUS
  62
7
  10
 778.18972011147
  20
 1355.6623585995
  30
0.0
  11
 777.24078052993
  21
 1355.6623585995
  31
0.0
   0
LINE
   5
2BA
 100
AcDbEntity
   8
LEVEL001
 370
30
 100
AcDbLine
   6
CONTINUOUS
  62
7
  10
 784.45424941190
  20
 1310.6623585995
  30
0.0
  11
 777.24078052993
  21
 1310.6623585995
  31
0.0
   0
ARC
   5
2BB
 100
AcDbEntity
   8
LEVEL001
 370
30
   6
CONTINUOUS
  62
7
 100
AcDbCircle
  10
 783.74078052993
  20
 1319.1623585995
  30
0.0
  40
 8.5000000000000
 100
AcDbArc
  50
 276.93305429917
  51
 130.05255048951
   0
LINE
   5
2BC
 100
AcDbEntity
   8
LEVEL001
 370
30
 100
AcDbLine
   6
CONTINUOUS
  62
7
  10
 778.27111604713
  20
 1325.6623585995
  30
0.0
  11
 777.24078052993
  21
 1325.6623585995
  31
0.0
   0
LINE
   5
2BD
 100
AcDbEntity
   8
LEVEL001
 370
30
 100
AcDbLine
   6
CONTINUOUS
  62
7
  10
 770.74078052993
  20
 1280.6623585995
  30
0.0
  11
 783.75556176445
  21
 1280.6623585995
  31
0.0
   0
LINE
   5
2BE
 100
AcDbEntity
   8
LEVEL001
 370
30
 100
AcDbLine
   6
CONTINUOUS
  62
7
  10
 778.41992742157
  20
 1295.6623585995
  30
0.0
  11
 777.24078052993
  21
 1295.6623585995
  31
0.0
   0
LINE
   5
2BF
 100
AcDbEntity
   8
LEVEL001
 370
30
 100
AcDbLine
   6
CONTINUOUS
  62
7
  10
 761.24078052993
  20
 1310.6623585995
  30
0.0
  11
 758.21800610498
  21
 1310.6623585995
  31
0.0
   0
LINE
   5
2C0
 100
AcDbEntity
   8
LEVEL001
 370
30
 100
AcDbLine
   6
CONTINUOUS
  62
7
  10
 761.24078052993
  20
 1340.6623585995
  30
0.0
  11
 758.21800610498
  21
 1340.6623585995
  31
0.0
   0
ARC
   5
2C1
 100
AcDbEntity
   8
LEVEL001
 370
30
   6
CONTINUOUS
  62
7
 100
AcDbCircle
  10
 752.74078052993
  20
 1334.1623585995
  30
0.0
  40
 8.5000000000000
 100
AcDbArc
  50
 49.880833101584
  51
 270.74783502539
   0
LINE
   5
2C2
 100
AcDbEntity
   8
LEVEL001
 370
30
 100
AcDbLine
   6
CONTINUOUS
  62
7
  10
 761.24078052993
  20
 1325.6623585995
  30
0.0
  11
 752.17309873972
  21
 1325.6623585995
  31
0.0
   0
ARC
   5
2C3
 100
AcDbEntity
   8
LEVEL001
 370
30
   6
CONTINUOUS
  62
7
 100
AcDbCircle
  10
 770.74078052993
  20
 1288.1373363773
  30
0.0
  40
 7.5000000000000
 100
AcDbArc
  50
 180.00000000000
  51
 270.00000000000
   0
ARC
   5
2C4
 100
AcDbEntity
   8
LEVEL001
 370
30
   6
CONTINUOUS
  62
7
 100
AcDbCircle
  10
 752.74078052993
  20
 1304.1373363773
  30
0.0
  40
 8.5000000000000
 100
AcDbArc
  50
 49.471246009424
  51
 269.47614095487
   0
LINE
   5
2C5
 100
AcDbEntity
   8
LEVEL001
 370
30
 100
AcDbLine
   6
CONTINUOUS
  62
7
  10
 761.24629890181
  20
 1295.6428395439
  30
0.0
  11
 752.01582371741
  21
 1295.6683082382
  31
0.0
   0
ARC
   5
2C6
 100
AcDbEntity
   8
LEVEL001
 370
30
   6
CONTINUOUS
  62
7
 100
AcDbCircle
  10
 761.24078052993
  20
 1293.6428471570
  30
0.0
  40
 2.0000000000000
 100
AcDbArc
  50
 0.65137759876373E-11
  51
 89.841910089957
   0
LINE
   5
2C7
 100
AcDbEntity
   8
LEVEL001
 370
30
 100
AcDbLine
   6
CONTINUOUS
  62
7
  10
 763.24078052993
  20
 1293.6428471570
  30
0.0
  11
 763.24078052993
  21
 1288.1373363773
  31
0.0
   0
ARC
   5
2C8
 100
AcDbEntity
   8
LEVEL001
 370
30
   6
CONTINUOUS
  62
7
 100
AcDbCircle
  10
 770.74078052993
  20
 1378.1623585995
  30
0.0
  40
 7.5000000000000
 100
AcDbArc
  50
 124.22697445374
  51
 179.99999999999
   0
LINE
   5
2C9
 100
AcDbEntity
   8
LEVEL001
 370
30
 100
AcDbLine
   6
CONTINUOUS
  62
7
  10
 784.74078052993
  20
 1385.6623585995
  30
0.0
  11
 777.08368476408
  21
 1385.6623585995
  31
0.0
   0
LINE
   5
2CA
 100
AcDbEntity
   8
LEVEL001
 370
30
 100
AcDbLine
   6
CONTINUOUS
  62
7
  10
 757.15011877784
  20
 1402.7572911534
  30
0.0
  11
 775.24078052993
  21
 1367.2523696881
  31
0.0
   0
LINE
   5
2CB
 100
AcDbEntity
   8
LEVEL001
 370
30
 100
AcDbLine
   6
CONTINUOUS
  62
7
  10
 784.72656679514
  20
 1370.6623585995
  30
0.0
  11
 766.06018395037
  21
 1407.2971962869
  31
0.0
   0
ARC
   5
2CC
 100
AcDbEntity
   8
LEVEL001
 370
30
   6
CONTINUOUS
  62
7
 100
AcDbCircle
  10
 753.26594704694
  20
 1421.9563675689
  30
0.0
  40
 20.000000000000
 100
AcDbArc
  50
 316.35314739569
  51
 277.64685435501
   0
LINE
   5
2CD
 100
AcDbEntity
   8
LEVEL001
 370
30
 100
AcDbLine
   6
CONTINUOUS
  62
7
  10
 755.92728554902
  20
 1402.1342264793
  30
0.0
  11
 767.73810095226
  21
 1408.1521377338
  31
0.0
   0
LINE
   5
2CE
 100
AcDbEntity
   8
LEVEL001
 370
30
 100
AcDbLine
   6
CONTINUOUS
  62
7
  10
 766.98059613894
  20
 1405.4907857244
  30
0.0
  11
 816.24078052993
  21
 1405.4907857244
  31
0.0
   0
LINE
   5
2CF
 100
AcDbEntity
   8
LEVEL001
 370
30
 100
AcDbLine
   6
CONTINUOUS
  62
7
  10
 1819.2407805299
  20
 1379.9298999465
  30
0.0
  11
 1547.2407805299
  21
 1379.9298999465
  31
0.0
   0
POINT
   5
2D0
 100
AcDbEntity
   8
LEVEL001
 100
AcDbPoint
  62
7
  10
 1547.2407805299
  20
 1406.4301255526
  30
0.0
   0
LINE
   5
2D1
 100
AcDbEntity
   8
LEVEL001
 370
30
 100
AcDbLine
   6
CONTINUOUS
  62
7
  10
 796.24078052993
  20
 1511.6623585995
  30
0.0
  11
 796.24078052993
  21
 1512.6623585995
  31
0.0
   0
LINE
   5
2D2
 100
AcDbEntity
   8
LEVEL001
 370
30
 100
AcDbLine
   6
CONTINUOUS
  62
7
  10
 823.24078052993
  20
 1448.8817954992
  30
0.0
  11
 821.74078052993
  21
 1448.8817954992
  31
0.0
   0
LINE
   5
2D3
 100
AcDbEntity
   8
LEVEL001
 370
30
 100
AcDbLine
   6
CONTINUOUS
  62
7
  10
 823.74078052993
  20
 1425.6623581911
  30
0.0
  11
 821.74078052993
  21
 1425.6623581911
  31
0.0
   0
ARC
   5
2D4
 100
AcDbEntity
   8
LEVEL001
 370
30
   6
CONTINUOUS
  62
7
 100
AcDbCircle
  10
 818.74078052993
  20
 1407.9301255526
  30
0.0
  40
 1.5000000000000
 100
AcDbArc
  50
 270.00000000000
  51
0.0
   0
ARC
   5
2D5
 100
AcDbEntity
   8
LEVEL001
 370
30
   6
CONTINUOUS
  62
7
 100
AcDbCircle
  10
 818.74078052993
  20
 1408.4123585996
  30
0.0
  40
 3.0000000000000
 100
AcDbArc
  50
 270.00000000000
  51
0.0
   0
LINE
   5
2D6
 100
AcDbEntity
   8
LEVEL001
 370
30
 100
AcDbLine
   6
CONTINUOUS
  62
7
  10
 818.74078052993
  20
 1406.4301255526
  30
0.0
  11
 799.24078052993
  21
 1406.4301255526
  31
0.0
   0
LINE
   5
2D7
 100
AcDbEntity
   8
LEVEL001
 370
30
 100
AcDbLine
   6
CONTINUOUS
  62
7
  10
 799.24078052993
  20
 1405.4123585996
  30
0.0
  11
 818.74078052993
  21
 1405.4123585996
  31
0.0
   0
LINE
   5
2D8
 100
AcDbEntity
   8
LEVEL001
 370
30
 100
AcDbLine
   6
CONTINUOUS
  62
7
  10
 796.24078052993
  20
 1409.4301255526
  30
0.0
  11
 799.24078052993
  21
 1406.4301255526
  31
0.0
   0
LINE
   5
2D9
 100
AcDbEntity
   8
LEVEL001
 370
30
 100
AcDbLine
   6
CONTINUOUS
  62
7
  10
 796.24078052993
  20
 1408.4123585996
  30
0.0
  11
 799.24078052993
  21
 1405.4123585996
  31
0.0
   0
LINE
   5
2DA
 100
AcDbEntity
   8
LEVEL001
 370
30
 100
AcDbLine
   6
CONTINUOUS
  62
7
  10
 799.24078052993
  20
 1406.4301255526
  30
0.0
  11
 799.24078052993
  21
 1405.4123585996
  31
0.0
   0
LINE
   5
2DB
 100
AcDbEntity
   8
LEVEL001
 370
30
 100
AcDbLine
   6
CONTINUOUS
  62
7
  10
 796.24078052993
  20
 1437.3712510494
  30
0.0
  11
 796.24078052993
  21
 1408.4123585996
  31
0.0
   0
LINE
   5
2DC
 100
AcDbEntity
   8
LEVEL001
 370
30
 100
AcDbLine
   6
CONTINUOUS
  62
7
  10
 796.24078052993
  20
 1437.3712510494
  30
0.0
  11
 799.24078052993
  21
 1440.3712510494
  31
0.0
   0
POINT
   5
2DD
 100
AcDbEntity
   8
LEVEL001
 100
AcDbPoint
  62
7
  10
 796.24078052993
  20
 1440.3712510494
  30
0.0
   0
LINE
   5
2DE
 100
AcDbEntity
   8
LEVEL001
 370
30
 100
AcDbLine
   6
CONTINUOUS
  62
7
  10
 820.24078052993
  20
 1440.3712510494
  30
0.0
  11
 799.24078052993
  21
 1440.3712510494
  31
0.0
   0
POINT
   5
2DF
 100
AcDbEntity
   8
LEVEL001
 100
AcDbPoint
  62
7
  10
 1798.2407805299
  20
 1393.6773567166
  30
0.0
   0
POINT
   5
2E0
 100
AcDbEntity
   8
LEVEL001
 100
AcDbPoint
  62
7
  10
 1798.2407805299
  20
 1497.6460423028
  30
0.0
   0
LWPOLYLINE
   5
2E1
 100
AcDbEntity
   8
LEVEL001
 370
30
   6
CONTINUOUS
  62
7
 100
AcDbPolyline
  90
4
  70
1
  10
 1613.2407805299
  20
 1390.0943392087
  10
 1803.2407805299
  20
 1390.0943392087
  10
 1803.2407805299
  20
 1502.7270819271
  10
 1613.2407805299
  20
 1502.7270819271
   0
LWPOLYLINE
   5
2E2
 100
AcDbEntity
   8
LEVEL001
 370
30
   6
CONTINUOUS
  62
7
 100
AcDbPolyline
  90
4
  70
0
  10
 1613.2407805299
  20
 1390.0943392087
  10
 1613.2407805299
  20
 1389.3453281505
  10
 1803.2407805299
  20
 1389.3453281505
  10
 1803.2407805299
  20
 1390.0943392087
   0
POINT
   5
2E3
 100
AcDbEntity
   8
LEVEL001
 100
AcDbPoint
  62
7
  10
 1618.2407805299
  20
 1393.6773567166
  30
0.0
   0
POINT
   5
2E4
 100
AcDbEntity
   8
LEVEL001
 100
AcDbPoint
  62
7
  10
 1618.2407805299
  20
 1497.6460423028
  30
0.0
   0
LINE
   5
2E5
 100
AcDbEntity
   8
LEVEL001
 370
30
 100
AcDbLine
   6
CONTINUOUS
  62
7
  10
 1023.7407805299
  20
 1390.7020472863
  30
0.0
  11
 1023.7407805299
  21
 1429.8639738193
  31
0.0
   0
LINE
   5
2E6
 100
AcDbEntity
   8
LEVEL001
 370
30
 100
AcDbLine
   6
CONTINUOUS
  62
7
  10
 1543.7407805299
  20
 1429.8639738193
  30
0.0
  11
 1543.7407805299
  21
 1399.3399641284
  31
0.0
   0
LINE
   5
2E7
 100
AcDbEntity
   8
LEVEL001
 370
30
 100
AcDbLine
   6
CONTINUOUS
  62
7
  10
 818.04078053002
  20
 943.46235859953
  30
0.0
  11
 818.04078053002
  21
 925.86235859953
  31
0.0
   0
LINE
   5
2E8
 100
AcDbEntity
   8
LEVEL001
 370
30
 100
AcDbLine
   6
CONTINUOUS
  62
7
  10
 1549.4407805298
  20
 943.46235859953
  30
0.0
  11
 1549.4407805298
  21
 925.86235859953
  31
0.0
   0
ARC
   5
2E9
 100
AcDbEntity
   8
LEVEL001
 370
30
   6
CONTINUOUS
  62
7
 100
AcDbCircle
  10
 1551.4407805298
  20
 943.46235859953
  30
0.0
  40
 2.0000000000000
 100
AcDbArc
  50
 143.13010235417
  51
 180.00000000004
   0
LINE
   5
2EA
 100
AcDbEntity
   8
LEVEL001
 370
30
 100
AcDbLine
   6
CONTINUOUS
  62
7
  10
 1546.2407805298
  20
 925.86235859953
  30
0.0
  11
 1546.2407805298
  21
 944.66235859953
  31
0.0
   0
ARC
   5
2EB
 100
AcDbEntity
   8
LEVEL001
 370
30
   6
CONTINUOUS
  62
7
 100
AcDbCircle
  10
 816.04078053002
  20
 943.46235859953
  30
0.0
  40
 2.0000000000000
 100
AcDbArc
  50
0.0
  51
 36.869897645826
   0
LINE
   5
2EC
 100
AcDbEntity
   8
LEVEL001
 370
30
 100
AcDbLine
   6
CONTINUOUS
  62
7
  10
 821.24078053002
  20
 925.86235859953
  30
0.0
  11
 821.24078053002
  21
 944.66235859953
  31
0.0
   0
LINE
   5
2ED
 100
AcDbEntity
   8
LEVEL001
 370
30
 100
AcDbLine
   6
CONTINUOUS
  62
7
  10
 1546.7407805299
  20
 947.66235859953
  30
0.0
  11
 821.24078052993
  21
 947.66235859953
  31
0.0
   0
LINE
   5
2EE
 100
AcDbEntity
   8
LEVEL001
 370
30
 100
AcDbLine
   6
CONTINUOUS
  62
7
  10
 1629.1207805299
  20
 1058.6623585990
  30
0.0
  11
 1630.1207805299
  21
 1058.6623585990
  31
0.0
   0
ARC
   5
2EF
 100
AcDbEntity
   8
LEVEL001
 370
30
   6
CONTINUOUS
  62
7
 100
AcDbCircle
  10
 1631.1207805299
  20
 1000.6623585990
  30
0.0
  40
 1.0000000000000
 100
AcDbArc
  50
 180.00000000000
  51
 270.00000000000
   0
LINE
   5
2F0
 100
AcDbEntity
   8
LEVEL001
 370
30
 100
AcDbLine
   6
CONTINUOUS
  62
7
  10
 1649.1207805299
  20
 1094.6623585990
  30
0.0
  11
 1649.1207805299
  21
 1093.6623585990
  31
0.0
   0
LINE
   5
2F1
 100
AcDbEntity
   8
LEVEL001
 370
30
 100
AcDbLine
   6
CONTINUOUS
  62
7
  10
 1673.1207805298
  20
 1093.6623585990
  30
0.0
  11
 1629.1207805299
  21
 1093.6623585990
  31
0.0
   0
LINE
   5
2F2
 100
AcDbEntity
   8
LEVEL001
 370
30
 100
AcDbLine
   6
CONTINUOUS
  62
7
  10
 1630.1207805299
  20
 1093.6623585990
  30
0.0
  11
 1630.1207805299
  21
 1000.6623585990
  31
0.0
   0
LINE
   5
2F3
 100
AcDbEntity
   8
LEVEL001
 370
30
 100
AcDbLine
   6
CONTINUOUS
  62
7
  10
 1629.1207805299
  20
 1093.6623585990
  30
0.0
  11
 1629.1207805299
  21
 1000.6623585990
  31
0.0
   0
LINE
   5
2F4
 100
AcDbEntity
   8
LEVEL001
 370
30
 100
AcDbLine
   6
CONTINUOUS
  62
7
  10
 1677.1207805298
  20
 1089.6623585990
  30
0.0
  11
 1672.1207805298
  21
 1094.6623585990
  31
0.0
   0
LINE
   5
2F5
 100
AcDbEntity
   8
LEVEL001
 370
30
 100
AcDbLine
   6
CONTINUOUS
  62
7
  10
 1676.1207805298
  20
 1089.6623585990
  30
0.0
  11
 1672.1207805298
  21
 1093.6623585990
  31
0.0
   0
LINE
   5
2F6
 100
AcDbEntity
   8
LEVEL001
 370
30
 100
AcDbLine
   6
CONTINUOUS
  62
7
  10
 1804.2407805299
  20
 1108.6623585995
  30
0.0
  11
 1804.2407805299
  21
 998.66235859953
  31
0.0
   0
LINE
   5
2F7
 100
AcDbEntity
   8
LEVEL001
 370
30
 100
AcDbLine
   6
CONTINUOUS
  62
7
  10
 1804.2407805299
  20
 998.66235859953
  30
0.0
  11
 1504.2407805299
  21
 998.66235859953
  31
0.0
   0
LINE
   5
2F8
 100
AcDbEntity
   8
LEVEL001
 370
30
 100
AcDbLine
   6
CONTINUOUS
  62
7
  10
 1794.1207805299
  20
 1058.6623585990
  30
0.0
  11
 1793.1207805299
  21
 1058.6623585990
  31
0.0
   0
ARC
   5
2F9
 100
AcDbEntity
   8
LEVEL001
 370
30
   6
CONTINUOUS
  62
7
 100
AcDbCircle
  10
 1792.1207805299
  20
 1000.6623585990
  30
0.0
  40
 1.0000000000000
 100
AcDbArc
  50
 269.99999999995
  51
0.0
   0
ARC
   5
2FA
 100
AcDbEntity
   8
LEVEL001
 370
30
   6
CONTINUOUS
  62
7
 100
AcDbCircle
  10
 1792.1207805299
  20
 1000.6623585990
  30
0.0
  40
 2.0000000000000
 100
AcDbArc
  50
 270.00000000000
  51
0.0
   0
LINE
   5
2FB
 100
AcDbEntity
   8
LEVEL001
 370
30
 100
AcDbLine
   6
CONTINUOUS
  62
7
  10
 1792.1207805299
  20
 999.66235859901
  30
0.0
  11
 1631.1207805299
  21
 999.66235859901
  31
0.0
   0
LINE
   5
2FC
 100
AcDbEntity
   8
LEVEL001
 370
30
 100
AcDbLine
   6
CONTINUOUS
  62
7
  10
 1774.1207805299
  20
 1093.6623585990
  30
0.0
  11
 1774.1207805299
  21
 1094.6623585990
  31
0.0
   0
LINE
   5
2FD
 100
AcDbEntity
   8
LEVEL001
 370
30
 100
AcDbLine
   6
CONTINUOUS
  62
7
  10
 1747.1207805300
  20
 1089.6623585990
  30
0.0
  11
 1751.1207805300
  21
 1093.6623585990
  31
0.0
   0
LINE
   5
2FE
 100
AcDbEntity
   8
LEVEL001
 370
30
 100
AcDbLine
   6
CONTINUOUS
  62
7
  10
 1794.1207805299
  20
 1093.6623585990
  30
0.0
  11
 1750.1207805300
  21
 1093.6623585990
  31
0.0
   0
LINE
   5
2FF
 100
AcDbEntity
   8
LEVEL001
 370
30
 100
AcDbLine
   6
CONTINUOUS
  62
7
  10
 1746.1207805300
  20
 1089.6623585990
  30
0.0
  11
 1751.1207805300
  21
 1094.6623585990
  31
0.0
   0
LINE
   5
300
 100
AcDbEntity
   8
LEVEL001
 370
30
 100
AcDbLine
   6
CONTINUOUS
  62
7
  10
 1793.1207805299
  20
 1093.6623585990
  30
0.0
  11
 1793.1207805299
  21
 1000.6623585990
  31
0.0
   0
LINE
   5
301
 100
AcDbEntity
   8
LEVEL001
 370
30
 100
AcDbLine
   6
CONTINUOUS
  62
7
  10
 1794.1207805299
  20
 1093.6623585990
  30
0.0
  11
 1794.1207805299
  21
 1000.6623585990
  31
0.0
   0
LINE
   5
302
 100
AcDbEntity
   8
LEVEL001
 370
30
 100
AcDbLine
   6
CONTINUOUS
  62
7
  10
 1774.1207805299
  20
 1094.6623585990
  30
0.0
  11
 1649.1207805299
  21
 1094.6623585990
  31
0.0
   0
LINE
   5
303
 100
AcDbEntity
   8
LEVEL001
 370
30
 100
AcDbLine
   6
CONTINUOUS
  62
7
  10
 1676.1207805298
  20
 1089.6623585990
  30
0.0
  11
 1747.1207805300
  21
 1089.6623585990
  31
0.0
   0
LINE
   5
304
 100
AcDbEntity
   8
LEVEL001
 370
30
 100
AcDbLine
   6
CONTINUOUS
  62
7
  10
 1804.2407805299
  20
 1108.6623585995
  30
0.0
  11
 1504.2407805299
  21
 1108.6623585995
  31
0.0
   0
LINE
   5
305
 100
AcDbEntity
   8
LEVEL001
 370
30
 100
AcDbLine
   6
CONTINUOUS
  62
7
  10
 1820.2407805299
  20
 1112.6623585995
  30
0.0
  11
 1819.2407805299
  21
 1112.6623585995
  31
0.0
   0
ARC
   5
306
 100
AcDbEntity
   8
LEVEL001
 370
30
   6
CONTINUOUS
  62
7
 100
AcDbCircle
  10
 1529.3407805299
  20
 1341.9120472863
  30
0.0
  40
 8.2900000000000
 100
AcDbArc
  50
 61.936727912985
  51
 130.64627365933
   0
LINE
   5
307
 100
AcDbEntity
   8
LEVEL001
 370
30
 100
AcDbLine
   6
CONTINUOUS
  62
7
  10
 1646.2407805299
  20
 1336.5951696713
  30
0.0
  11
 1775.2407805299
  21
 1336.5951696713
  31
0.0
   0
ARC
   5
308
 100
AcDbEntity
   8
LEVEL001
 370
30
   6
CONTINUOUS
  62
7
 100
AcDbCircle
  10
 1775.2407805299
  20
 1329.5951696713
  30
0.0
  40
 7.0000000000000
 100
AcDbArc
  50
0.0
  51
 90.000000000000
   0
POINT
   5
309
 100
AcDbEntity
   8
LEVEL001
 100
AcDbPoint
  62
7
  10
 1782.2407805299
  20
 1336.5951696713
  30
0.0
   0
ARC
   5
30A
 100
AcDbEntity
   8
LEVEL001
 370
30
   6
CONTINUOUS
  62
7
 100
AcDbCircle
  10
 1775.2407805299
  20
 1140.6623585995
  30
0.0
  40
 7.0000000000000
 100
AcDbArc
  50
 270.00000000000
  51
0.0
   0
POINT
   5
30B
 100
AcDbEntity
   8
LEVEL001
 100
AcDbPoint
  62
7
  10
 1782.2407805299
  20
 1133.6623585995
  30
0.0
   0
LINE
   5
30C
 100
AcDbEntity
   8
LEVEL001
 370
30
 100
AcDbLine
   6
CONTINUOUS
  62
7
  10
 1782.2407805299
  20
 1140.6623585995
  30
0.0
  11
 1782.2407805299
  21
 1329.5951696713
  31
0.0
   0
LINE
   5
30D
 100
AcDbEntity
   8
LEVEL001
 370
30
 100
AcDbLine
   6
CONTINUOUS
  62
7
  10
 1543.7407805299
  20
 1215.6623585995
  30
0.0
  11
 1546.2407805299
  21
 1215.6623585995
  31
0.0
   0
ARC
   5
30E
 100
AcDbEntity
   8
LEVEL001
 370
30
   6
CONTINUOUS
  62
7
 100
AcDbCircle
  10
 1646.2407805299
  20
 1329.6623585995
  30
0.0
  40
 7.0000000000000
 100
AcDbArc
  50
 89.999999999996
  51
 180.00000000000
   0
LINE
   5
30F
 100
AcDbEntity
   8
LEVEL001
 370
30
 100
AcDbLine
   6
CONTINUOUS
  62
7
  10
 1543.7407805299
  20
 1195.4123585995
  30
0.0
  11
 1543.7407805299
  21
 1270.7123585995
  31
0.0
   0
LINE
   5
310
 100
AcDbEntity
   8
LEVEL001
 370
30
 100
AcDbLine
   6
CONTINUOUS
  62
7
  10
 1543.7407805299
  20
 1270.7123585995
  30
0.0
  11
 823.74078052993
  21
 1270.7123585995
  31
0.0
   0
LINE
   5
311
 100
AcDbEntity
   8
LEVEL001
 370
30
 100
AcDbLine
   6
CONTINUOUS
  62
7
  10
 1546.2407805299
  20
 1246.0623585995
  30
0.0
  11
 1543.7407805299
  21
 1246.0623585995
  31
0.0
   0
LINE
   5
312
 100
AcDbEntity
   8
LEVEL001
 370
30
 100
AcDbLine
   6
CONTINUOUS
  62
7
  10
 1543.7407805299
  20
 1347.0244413490
  30
0.0
  11
 1543.7407805299
  21
 1390.7020472863
  31
0.0
   0
ARC
   5
313
 100
AcDbEntity
   8
LEVEL001
 370
30
   6
CONTINUOUS
  62
7
 100
AcDbCircle
  10
 1540.1407805299
  20
 1354.4920472863
  30
0.0
  40
 8.2900000000000
 100
AcDbArc
  50
 229.35372634068
  51
 295.73699109545
   0
ARC
   5
314
 100
AcDbEntity
   8
LEVEL001
 370
30
   6
CONTINUOUS
  62
7
 100
AcDbCircle
  10
 1529.3407805299
  20
 1341.9120472863
  30
0.0
  40
 8.2900000000000
 100
AcDbArc
  50
 49.353726340630
  51
 61.936727912935
   0
LINE
   5
315
 100
AcDbEntity
   8
LEVEL001
 370
30
 100
AcDbLine
   6
CONTINUOUS
  62
7
  10
 1820.2407805299
  20
 1350.6623585995
  30
0.0
  11
 1820.2407805299
  21
 1112.6623585995
  31
0.0
   0
LINE
   5
316
 100
AcDbEntity
   8
LEVEL001
 370
30
 100
AcDbLine
   6
CONTINUOUS
  62
7
  10
 1820.2407805299
  20
 1350.6623585995
  30
0.0
  11
 1819.2407805299
  21
 1350.6623585995
  31
0.0
   0
LWPOLYLINE
   5
317
 100
AcDbEntity
   8
LEVEL001
 370
30
   6
CONTINUOUS
  62
7
 100
AcDbPolyline
  90
4
  70
0
  10
 1546.2407805299
  20
 1353.6623585995
  10
 1533.2407805299
  20
 1353.6623585995
  10
 1533.2407805299
  20
 1350.6623585995
  10
 1540.7407805299
  20
 1350.6623585995
   0
LWPOLYLINE
   5
318
 100
AcDbEntity
   8
LEVEL001
 370
30
   6
CONTINUOUS
  62
7
 100
AcDbPolyline
  90
4
  70
1
  10
 1546.2407805299
  20
 1220.6623585995
  10
 1540.7407805299
  20
 1220.6623585995
  10
 1540.7407805299
  20
 1350.6623585995
  10
 1546.2407805299
  20
 1350.6623585995
   0
LINE
   5
319
 100
AcDbEntity
   8
LEVEL001
 370
30
 100
AcDbLine
   6
CONTINUOUS
  62
7
  10
 1545.2407805299
  20
 1350.6623585995
  30
0.0
  11
 1545.2407805299
  21
 1220.6623585995
  31
0.0
   0
LINE
   5
31A
 100
AcDbEntity
   8
LEVEL001
 370
30
 100
AcDbLine
   6
CONTINUOUS
  62
7
  10
 821.24078052993
  20
 1177.6623585995
  30
0.0
  11
 821.24078052993
  21
 1406.7540462044
  31
0.0
   0
LINE
   5
31B
 100
AcDbEntity
   8
LEVEL001
 370
30
 100
AcDbLine
   6
CONTINUOUS
  62
7
  10
 821.24078052993
  20
 944.66235859953
  30
0.0
  11
 821.24078052993
  21
 997.16235859954
  31
0.0
   0
LINE
   5
31C
 100
AcDbEntity
   8
LEVEL001
 370
30
 100
AcDbLine
   6
CONTINUOUS
  62
7
  10
 1504.2407805299
  20
 997.16235859954
  30
0.0
  11
 1504.2407805299
  21
 1172.1623585995
  31
0.0
   0
LWPOLYLINE
   5
31D
 100
AcDbEntity
   8
LEVEL001
 370
30
   6
CONTINUOUS
  62
7
 100
AcDbPolyline
  90
6
  70
0
  10
 1546.2407805299
  20
 998.66235859953
  10
 1546.2407805299
  20
 944.66235859953
  10
 1819.2407805299
  20
 944.66235859953
  10
 1819.2407805299
  20
 1511.6623585995
  10
 1546.2407805299
  20
 1511.6623585995
  10
 1546.2407805299
  20
 1177.6623585995
   0
LINE
   5
31E
 100
AcDbEntity
   8
LEVEL001
 370
30
 100
AcDbLine
   6
CONTINUOUS
  62
7
  10
 804.24078052993
  20
 1172.1623585995
  30
0.0
  11
 804.24078052993
  21
 997.16235859954
  31
0.0
   0
LINE
   5
31F
 100
AcDbEntity
   8
LEVEL001
 370
30
 100
AcDbLine
   6
CONTINUOUS
  62
7
  10
 1504.2407805299
  20
 1172.1623585995
  30
0.0
  11
 804.24078052993
  21
 1172.1623585995
  31
0.0
   0
LINE
   5
320
 100
AcDbEntity
   8
LEVEL001
 370
30
 100
AcDbLine
   6
CONTINUOUS
  62
7
  10
 1504.2407805299
  20
 997.16235859954
  30
0.0
  11
 804.24078052993
  21
 997.16235859954
  31
0.0
   0
ARC
   5
321
 100
AcDbEntity
   8
LEVEL001
 370
30
   6
CONTINUOUS
  62
7
 100
AcDbCircle
  10
 722.24078052993
  20
 1509.6623585995
  30
0.0
  40
 2.0000000000000
 100
AcDbArc
  50
 90.000000000000
  51
 180.00000000000
   0
LINE
   5
322
 100
AcDbEntity
   8
LEVEL001
 370
30
 100
AcDbLine
   6
CONTINUOUS
  62
7
  10
 721.24078052993
  20
 1405.4907857244
  30
0.0
  11
 741.62659565876
  21
 1405.4907857244
  31
0.0
   0
LWPOLYLINE
   5
323
 100
AcDbEntity
   8
LEVEL001
 370
30
   6
CONTINUOUS
  62
7
 100
AcDbPolyline
  90
4
  70
1
  10
 1546.2407805299
  20
 1180.6623585995
  10
 721.74078052993
  20
 1180.6623585995
  10
 721.74078052993
  20
 1177.6623585995
  10
 1546.2407805299
  20
 1177.6623585995
   0
LINE
   5
324
 100
AcDbEntity
   8
LEVEL001
 370
30
 100
AcDbLine
   6
CONTINUOUS
  62
7
  10
 720.24078052993
  20
 1509.6623585995
  30
0.0
  11
 720.24078052993
  21
 948.66235859953
  31
0.0
   0
LINE
   5
325
 100
AcDbEntity
   8
LEVEL001
 370
30
 100
AcDbLine
   6
CONTINUOUS
  62
7
  10
 821.24078052993
  20
 1177.6623585995
  30
0.0
  11
 720.24078052993
  21
 1177.6623585995
  31
0.0
   0
LINE
   5
326
 100
AcDbEntity
   8
LEVEL001
 370
30
 100
AcDbLine
   6
CONTINUOUS
  62
7
  10
 720.24078052993
  20
 1177.6623585995
  30
0.0
  11
 720.24078052993
  21
 944.66235859953
  31
0.0
   0
LINE
   5
327
 100
AcDbEntity
   8
LEVEL001
 370
30
 100
AcDbLine
   6
CONTINUOUS
  62
7
  10
 720.24078052993
  20
 944.66235859953
  30
0.0
  11
 821.24078052993
  21
 944.66235859953
  31
0.0
   0
LINE
   5
328
 100
AcDbEntity
   8
LEVEL001
 370
30
 100
AcDbLine
   6
CONTINUOUS
  62
7
  10
 722.24078052993
  20
 1511.6623585995
  30
0.0
  11
 816.24078052993
  21
 1511.6623585995
  31
0.0
   0
LINE
   5
329
 100
AcDbEntity
   8
LEVEL001
 370
30
 100
AcDbLine
   6
CONTINUOUS
  62
7
  10
 1639.2407805299
  20
 1329.5951696713
  30
0.0
  11
 1639.2407805299
  21
 1140.6623585995
  31
0.0
   0
ARC
   5
32A
 100
AcDbEntity
   8
LEVEL001
 370
30
   6
CONTINUOUS
  62
7
 100
AcDbCircle
  10
 1646.2407805299
  20
 1140.6623585995
  30
0.0
  40
 7.0000000000000
 100
AcDbArc
  50
 180.00000000000
  51
 270.00000000000
   0
POINT
   5
32B
 100
AcDbEntity
   8
LEVEL001
 100
AcDbPoint
  62
7
  10
 1639.2407805299
  20
 1133.6623585995
  30
0.0
   0
LINE
   5
32C
 100
AcDbEntity
   8
LEVEL001
 370
30
 100
AcDbLine
   6
CONTINUOUS
  62
7
  10
 1646.2407805299
  20
 1133.6623585995
  30
0.0
  11
 1775.2407805299
  21
 1133.6623585995
  31
0.0
   0
ARC
   5
32D
 100
AcDbEntity
   8
LEVEL001
 370
30
   6
CONTINUOUS
  62
7
 100
AcDbCircle
  10
 816.04078053002
  20
 925.86235859953
  30
0.0
  40
 2.0000000000000
 100
AcDbArc
  50
 270.00000000000
  51
0.0
   0
ARC
   5
32E
 100
AcDbEntity
   8
LEVEL001
 370
30
   6
CONTINUOUS
  62
7
 100
AcDbCircle
  10
 816.04078053002
  20
 925.86235859953
  30
0.0
  40
 5.2000000000000
 100
AcDbArc
  50
 269.99999999999
  51
0.0
   0
LINE
   5
32F
 100
AcDbEntity
   8
LEVEL001
 370
30
 100
AcDbLine
   6
CONTINUOUS
  62
7
  10
 796.24078052993
  20
 923.86235859953
  30
0.0
  11
 796.24078052993
  21
 920.66235859953
  31
0.0
   0
LINE
   5
330
 100
AcDbEntity
   8
LEVEL001
 370
30
 100
AcDbLine
   6
CONTINUOUS
  62
7
  10
 816.04078053002
  20
 923.86235859953
  30
0.0
  11
 796.24078052993
  21
 923.86235859953
  31
0.0
   0
ARC
   5
331
 100
AcDbEntity
   8
LEVEL001
 370
30
   6
CONTINUOUS
  62
7
 100
AcDbCircle
  10
 1551.4407805298
  20
 925.86235859953
  30
0.0
  40
 2.0000000000000
 100
AcDbArc
  50
 180.00000000000
  51
 270.00000000000
   0
ARC
   5
332
 100
AcDbEntity
   8
LEVEL001
 370
30
   6
CONTINUOUS
  62
7
 100
AcDbCircle
  10
 1551.4407805298
  20
 925.86235859953
  30
0.0
  40
 5.2000000000000
 100
AcDbArc
  50
 180.00000000001
  51
 270.00000000001
   0
LINE
   5
333
 100
AcDbEntity
   8
LEVEL001
 370
30
 100
AcDbLine
   6
CONTINUOUS
  62
7
  10
 1571.2407805299
  20
 923.86235859953
  30
0.0
  11
 1571.2407805299
  21
 920.66235859953
  31
0.0
   0
LINE
   5
334
 100
AcDbEntity
   8
LEVEL001
 370
30
 100
AcDbLine
   6
CONTINUOUS
  62
7
  10
 1551.4407805298
  20
 923.86235859953
  30
0.0
  11
 1571.2407805299
  21
 923.86235859953
  31
0.0
   0
LWPOLYLINE
   5
335
 100
AcDbEntity
   8
LEVEL001
 370
30
   6
CONTINUOUS
  62
7
 100
AcDbPolyline
  90
4
  70
1
  10
 1825.2407805299
  20
 920.66235859953
  10
 715.24078052993
  20
 920.66235859953
  10
 715.24078052993
  20
 891.66235859953
  10
 1825.2407805299
  20
 891.66235859953
   0
LINE
   5
336
 100
AcDbEntity
   8
LEVEL001
 370
30
 100
AcDbLine
   6
CONTINUOUS
  62
7
  10
 1825.2407805299
  20
 891.66235859953
  30
0.0
  11
 1825.2407805299
  21
 260.66235859953
  31
0.0
   0
LINE
   5
337
 100
AcDbEntity
   8
LEVEL001
 370
30
 100
AcDbLine
   6
CONTINUOUS
  62
7
  10
 1796.2407805299
  20
 260.66235859953
  30
0.0
  11
 1796.2407805299
  21
 891.66235859953
  31
0.0
   0
LINE
   5
338
 100
AcDbEntity
   8
LEVEL001
 370
30
 100
AcDbLine
   6
CONTINUOUS
  62
7
  10
 1546.2407805299
  20
 1177.6623585995
  30
0.0
  11
 1546.2407805299
  21
 1511.6623585995
  31
0.0
   0
LINE
   5
339
 100
AcDbEntity
   8
LEVEL001
 370
30
 100
AcDbLine
   6
CONTINUOUS
  62
7
  10
 1545.2407805299
  20
 1480.2854098993
  30
0.0
  11
 1545.2407805299
  21
 1545.7569508718
  31
0.0
   0
LINE
   5
33A
 100
AcDbEntity
   8
LEVEL001
 370
30
 100
AcDbLine
   6
CONTINUOUS
  62
7
  10
 1021.2407805299
  20
 1545.7569508718
  30
0.0
  11
 1545.2407805299
  21
 1545.7569508718
  31
0.0
   0
LINE
   5
33B
 100
AcDbEntity
   8
LEVEL001
 370
30
 100
AcDbLine
   6
CONTINUOUS
  62
7
  10
 821.74078052993
  20
 1525.5142898262
  30
0.0
  11
 1545.7407805299
  21
 1525.5142898262
  31
0.0
   0
LINE
   5
33C
 100
AcDbEntity
   8
LEVEL001
 370
30
 100
AcDbLine
   6
CONTINUOUS
  62
7
  10
 1545.7407805299
  20
 1524.8845072705
  30
0.0
  11
 821.74078052993
  21
 1524.8845072705
  31
0.0
   0
LINE
   5
33D
 100
AcDbEntity
   8
LEVEL001
 370
30
 100
AcDbLine
   6
CONTINUOUS
  62
7
  10
 1545.7407805299
  20
 1408.4123585996
  30
0.0
  11
 1545.7407805299
  21
 1535.4032051243
  31
0.0
   0
LINE
   5
33E
 100
AcDbEntity
   8
LEVEL001
 370
30
 100
AcDbLine
   6
CONTINUOUS
  62
7
  10
 821.74078052993
  20
 1408.4123585996
  30
0.0
  11
 821.74078052993
  21
 1535.4032051243
  31
0.0
   0
LINE
   5
33F
 100
AcDbEntity
   8
LEVEL001
 370
30
 100
AcDbLine
   6
CONTINUOUS
  62
7
  10
 820.24078052993
  20
 1535.4032051243
  30
0.0
  11
 820.24078052993
  21
 1407.9301255526
  31
0.0
   0
LINE
   5
340
 100
AcDbEntity
   8
LEVEL001
 370
30
 100
AcDbLine
   6
CONTINUOUS
  62
7
  10
 821.24078052993
  20
 1535.4032051243
  30
0.0
  11
 821.24078052993
  21
 1511.6623585995
  31
0.0
   0
LINE
   5
341
 100
AcDbEntity
   8
LEVEL001
 370
30
 100
AcDbLine
   6
CONTINUOUS
  62
7
  10
 1038.2407805299
  20
 1545.7569508718
  30
0.0
  11
 1038.2407805299
  21
 1535.4032051243
  31
0.0
   0
LINE
   5
342
 100
AcDbEntity
   8
LEVEL001
 370
30
 100
AcDbLine
   6
CONTINUOUS
  62
7
  10
 1021.2407805299
  20
 1535.4032051243
  30
0.0
  11
 1021.2407805299
  21
 1545.7569508718
  31
0.0
   0
LINE
   5
343
 100
AcDbEntity
   8
LEVEL001
 370
30
 100
AcDbLine
   6
CONTINUOUS
  62
7
  10
 1545.2407805299
  20
 1527.3800021716
  30
0.0
  11
 1545.2407805299
  21
 1535.4032051243
  31
0.0
   0
LINE
   5
344
 100
AcDbEntity
   8
LEVEL001
 370
30
 100
AcDbLine
   6
CONTINUOUS
  62
7
  10
 1528.2407805299
  20
 1535.4032051243
  30
0.0
  11
 1528.2407805299
  21
 1545.7569508718
  31
0.0
   0
LINE
   5
345
 100
AcDbEntity
   8
LEVEL001
 370
30
 100
AcDbLine
   6
CONTINUOUS
  62
7
  10
 820.24078052993
  20
 1535.4032051243
  30
0.0
  11
 1545.7407805299
  21
 1535.4032051243
  31
0.0
   0
LINE
   5
346
 100
AcDbEntity
   8
LEVEL001
 370
30
 100
AcDbLine
   6
CONTINUOUS
  62
7
  10
 1543.7407805299
  20
 1390.7020472863
  30
0.0
  11
 1543.7407805299
  21
 1429.8639738193
  31
0.0
   0
LINE
   5
347
 100
AcDbEntity
   8
LEVEL001
 370
30
 100
AcDbLine
   6
CONTINUOUS
  62
7
  10
 823.74078052993
  20
 1399.3699573109
  30
0.0
  11
 823.74078052993
  21
 1429.8639738193
  31
0.0
   0
LINE
   5
348
 100
AcDbEntity
   8
LEVEL001
 370
30
 100
AcDbLine
   6
CONTINUOUS
  62
7
  10
 823.24078052993
  20
 1448.8817954992
  30
0.0
  11
 823.24078052993
  21
 1429.8639738193
  31
0.0
   0
LINE
   5
349
 100
AcDbEntity
   8
LEVEL001
 370
30
 100
AcDbLine
   6
CONTINUOUS
  62
7
  10
 823.24078052993
  20
 1429.8639738193
  30
0.0
  11
 1545.7407805299
  21
 1429.8639738193
  31
0.0
   0
LINE
   5
34A
 100
AcDbEntity
   8
LEVEL001
 370
30
 100
AcDbLine
   6
CONTINUOUS
  62
7
  10
 796.24078052993
  20
 1512.6623585995
  30
0.0
  11
 821.24078052993
  21
 1512.6623585995
  31
0.0
   0
LINE
   5
34B
 100
AcDbEntity
   8
LEVEL001
 370
30
 100
AcDbLine
   6
CONTINUOUS
  62
7
  10
 836.24078052993
  20
 1535.4032051243
  30
0.0
  11
 836.24078052993
  21
 1524.8845072705
  31
0.0
   0
LINE
   5
34C
 100
AcDbEntity
   8
LEVEL001
 370
30
 100
AcDbLine
   6
CONTINUOUS
  62
7
  10
 816.24078052993
  20
 1511.6623585995
  30
0.0
  11
 821.24078052993
  21
 1511.6623585995
  31
0.0
   0
INSERT
   5
34D
 100
AcDbEntity
   8
0
 100
AcDbBlockReference
   2
BLOCK004
  10
0.0
  20
0.0
  30
0.0
   0
INSERT
   5
34E
 100
AcDbEntity
   8
0
 100
AcDbBlockReference
   2
BLOCK005
  10
0.0
  20
0.0
  30
0.0
   0
DIMENSION
   5
34F
 100
AcDbEntity
   8
LEVEL001
 370
30
   6
CONTINUOUS
  62
7
 100
AcDbDimension
   2
*D2
  10
 1825.2407805299
  20
 1620.8450697098
  30
0.0
  11
 1270.2407805299
  21
 1620.8450697098
  31
0.0
  70
0
   3
GMM002
 100
AcDbAlignedDimension
  13
 715.24078052993
  23
 1502.6493139248
  33
0.0
  14
 1825.2407805299
  24
 1353.6623585995
  34
0.0
 100
AcDbRotatedDimension
   0
DIMENSION
   5
350
 100
AcDbEntity
   8
LEVEL001
 370
30
   6
CONTINUOUS
  62
7
 100
AcDbDimension
   2
*D3
  10
 1825.2407805299
  20
 113.23481483018
  30
0.0
  11
 1270.2407805299
  21
 121.23481483018
  31
0.0
  70
128
   3
GMM003
 100
AcDbAlignedDimension
  13
 715.24078052993
  23
 273.66235859953
  33
0.0
  14
 1825.2407805299
  24
 273.66235859953
  34
0.0
 100
AcDbRotatedDimension
   0
MTEXT
   5
352
 100
AcDbEntity
   8
LEVEL001
 370
9
  62
1
 100
AcDbMText
  10
 1012.1084056233
  20
 1066.6978328340
  30
0.0
  40
 32.000000000000
  41
0.0
  71
5
  72
1
   1
\T1.000000;さぬき一番
   7
GMM001
  44
 0.79999984000003
   0
MTEXT
   5
354
 100
AcDbEntity
   8
LEVEL001
 370
9
  62
1
 100
AcDbMText
  10
 1110.7214076166
  20
 642.70487157359
  30
0.0
  40
 32.000000000000
  41
0.0
  71
2
  72
1
   1
{\T1.000000;スーパーニーダー}\P{\T1.000000;　ＳＮ－６Ｐ}
   7
GMM001
  44
 0.79999984000003
   0
MTEXT
   5
356
 100
AcDbEntity
   8
LEVEL001
 370
9
  62
1
 100
AcDbMText
  10
 1522.1501358668
  20
 599.94273197443
  30
0.0
  40
 32.000000000000
  41
0.0
  71
4
  72
1
   1
{\W1.000000;\T1.000000;ローリングプレス}\P{\W0.500000;\T1.000000;  \W1.000000;\T1.000000;ＲＰ－１Ｐ}
   7
GMM001
  44
 0.79999984000003
   0
DIMENSION
   5
357
 100
AcDbEntity
   8
LEVEL001
 370
30
   6
CONTINUOUS
  62
7
 100
AcDbDimension
   2
*D4
  10
 478.99788441378
  20
 920.66235859953
  30
0.0
  11
 478.99788441378
  21
 590.66235859953
  31
0.0
  70
0
   3
GMM002
 100
AcDbAlignedDimension
  13
 680.24078052993
  23
 260.66235859953
  33
0.0
  14
 710.42854775316
  24
 920.66235859953
  34
0.0
  50
 90.000000000000
 100
AcDbRotatedDimension
   0
DIMENSION
   5
358
 100
AcDbEntity
   8
LEVEL001
 370
30
   6
CONTINUOUS
  62
7
 100
AcDbDimension
   2
*D5
  10
 478.99788441378
  20
 1550.6623585995
  30
0.0
  11
 478.99788441378
  21
 1235.6623585995
  31
0.0
  70
0
   3
GMM002
 100
AcDbAlignedDimension
  13
 710.42854775316
  23
 920.66235859953
  33
0.0
  14
 682.76636758953
  24
 1550.6623585995
  34
0.0
  50
 90.000000000000
 100
AcDbRotatedDimension
   0
DIMENSION
   5
359
 100
AcDbEntity
   8
LEVEL001
 370
30
   6
CONTINUOUS
  62
7
 100
AcDbDimension
   2
*D6
  10
 419.78983399264
  20
 260.66235859953
  30
0.0
  11
 419.78983399264
  21
 905.66235859953
  31
0.0
  70
0
   3
GMM002
 100
AcDbAlignedDimension
  13
 682.76636758953
  23
 1550.6623585995
  33
0.0
  14
 680.24078052993
  24
 260.66235859953
  34
0.0
  50
 270.00000000000
 100
AcDbRotatedDimension
   0
ELLIPSE
   5
35A
 100
AcDbEntity
   8
LEVEL001
 370
30
   6
CONTINUOUS
  62
7
 100
AcDbEllipse
  10
 746.35037331677
  20
 1495.6623585995
  30
0.0
  11
-20.000000000000
  21
0.0
  31
0.0
  40
 0.80000000000000
  41
0.0
  42
 6.2831853071796
   0
ELLIPSE
   5
35B
 100
AcDbEntity
   8
LEVEL001
 370
30
   6
CONTINUOUS
  62
7
 100
AcDbEllipse
  10
 746.35037331677
  20
 1491.4197179124
  30
0.0
  11
-20.000000000000
  21
0.0
  31
0.0
  40
 0.80000000000000
  41
 2.1300060570812
  42
-3.0086186017183
   0
ELLIPSE
   5
35C
 100
AcDbEntity
   8
LEVEL001
 370
30
   6
CONTINUOUS
  62
7
 100
AcDbEllipse
  10
 746.35037331677
  20
 1478.3382424604
  30
0.0
  11
-15.200000000000
  21
0.0
  31
0.0
  40
 0.65789473684211
  41
 2.9382869978772
  42
-2.9084871995546
   0
ELLIPSE
   5
35D
 100
AcDbEntity
   8
LEVEL001
 370
30
   6
CONTINUOUS
  62
7
 100
AcDbEllipse
  10
 746.35037331677
  20
 1491.4197179124
  30
0.0
  11
-20.000000000000
  21
0.0
  31
0.0
  40
 0.80000000000000
  41
-0.13297405187152
  42
 2.1300060570812
   0
ELLIPSE
   5
35E
 100
AcDbEntity
   8
LEVEL001
 370
30
   6
CONTINUOUS
  62
7
 100
AcDbEllipse
  10
 746.35037331677
  20
 1478.3382424604
  30
0.0
  11
-15.200000000000
  21
0.0
  31
0.0
  40
 0.65789473684211
  41
-0.23310545403521
  42
 2.9382869978772
   0
LINE
   5
35F
 100
AcDbEntity
   8
LEVEL001
 370
30
 100
AcDbLine
   6
CONTINUOUS
  62
7
  10
 731.85037331677
  20
 1433.6537366281
  30
0.0
  11
 731.85037331677
  21
 1443.4319001484
  31
0.0
   0
ELLIPSE
   5
360
 100
AcDbEntity
   8
LEVEL001
 370
30
   6
CONTINUOUS
  62
7
 100
AcDbEllipse
  10
 746.35037331677
  20
 1443.4319001484
  30
0.0
  11
-14.500000000000
  21
0.0
  31
0.0
  40
 0.66670774868224
  41
 2.8545248247758
  42
 0.99109122164060
   0
LINE
   5
361
 100
AcDbEntity
   8
LEVEL001
 370
30
 100
AcDbLine
   6
CONTINUOUS
  62
7
  10
 760.85037331677
  20
 1440.4624875879
  30
0.0
  11
 760.85037331677
  21
 1443.4319001484
  31
0.0
   0
ELLIPSE
   5
362
 100
AcDbEntity
   8
LEVEL001
 370
30
   6
CONTINUOUS
  62
7
 100
AcDbEllipse
  10
 746.35037331677
  20
 1433.6537366281
  30
0.0
  11
-14.500000000000
  21
0.0
  31
0.0
  40
 0.66670774868224
  41
-0.24492127076448E-15
  42
 0.58894374887801
   0
LINE
   5
363
 100
AcDbEntity
   8
LEVEL001
 370
30
 100
AcDbLine
   6
CONTINUOUS
  62
7
  10
 714.35037331677
  20
 3022.9891220576
  30
0.0
  11
 714.35037331677
  21
 2709.3891220576
  31
0.0
   0
LINE
   5
364
 100
AcDbEntity
   8
LEVEL001
 370
30
 100
AcDbLine
   6
CONTINUOUS
  62
7
  10
 794.35037331677
  20
 3022.9891220576
  30
0.0
  11
 714.35037331677
  21
 3022.9891220576
  31
0.0
   0
LINE
   5
365
 100
AcDbEntity
   8
LEVEL001
 370
30
 100
AcDbLine
   6
CONTINUOUS
  62
7
  10
 1824.3503733168
  20
 2778.4891220576
  30
0.0
  11
 1824.3503733168
  21
 3022.9891220576
  31
0.0
   0
LINE
   5
366
 100
AcDbEntity
   8
LEVEL001
 370
30
 100
AcDbLine
   6
CONTINUOUS
  62
7
  10
 1824.3503733168
  20
 3022.9891220576
  30
0.0
  11
 794.35037331677
  21
 3022.9891220576
  31
0.0
   0
LINE
   5
367
 100
AcDbEntity
   8
LEVEL001
 370
30
 100
AcDbLine
   6
CONTINUOUS
  62
7
  10
 714.35037331677
  20
 2297.9891220576
  30
0.0
  11
 714.35037331677
  21
 2709.3891220576
  31
0.0
   0
LINE
   5
368
 100
AcDbEntity
   8
LEVEL001
 370
30
 100
AcDbLine
   6
CONTINUOUS
  62
7
  10
 1824.3503733168
  20
 2297.9891220576
  30
0.0
  11
 1824.3503733168
  21
 2778.4891220576
  31
0.0
   0
LINE
   5
369
 100
AcDbEntity
   8
LEVEL001
 370
30
 100
AcDbLine
   6
CONTINUOUS
  62
7
  10
 714.35037331677
  20
 2297.9891220576
  30
0.0
  11
 1824.3503733168
  21
 2297.9891220576
  31
0.0
   0
POINT
   5
36A
 100
AcDbEntity
   8
LEVEL001
 100
AcDbPoint
  62
7
  10
 1545.3503733168
  20
 2709.9891220576
  30
0.0
   0
LINE
   5
36B
 100
AcDbEntity
   8
LEVEL001
 370
30
 100
AcDbLine
   6
CONTINUOUS
  62
7
  10
 1018.3503733168
  20
 2864.9891220576
  30
0.0
  11
 1018.3503733168
  21
 2865.9891220576
  31
0.0
   0
LINE
   5
36C
 100
AcDbEntity
   8
LEVEL001
 370
30
 100
AcDbLine
   6
CONTINUOUS
  62
7
  10
 1018.3503733168
  20
 2865.9891220576
  30
0.0
  11
 1020.3503733168
  21
 2865.9891220576
  31
0.0
   0
LINE
   5
36D
 100
AcDbEntity
   8
LEVEL001
 370
30
 100
AcDbLine
   6
CONTINUOUS
  62
7
  10
 822.35037331677
  20
 2865.9891220576
  30
0.0
  11
 822.35037331677
  21
 2864.9891220576
  31
0.0
   0
LINE
   5
36E
 100
AcDbEntity
   8
LEVEL001
 370
30
 100
AcDbLine
   6
CONTINUOUS
  62
7
  10
 795.35037331677
  20
 2868.9891220576
  30
0.0
  11
 798.35037331677
  21
 2865.9891220576
  31
0.0
   0
POINT
   5
36F
 100
AcDbEntity
   8
LEVEL001
 100
AcDbPoint
  62
7
  10
 795.35037331677
  20
 2865.9891220576
  30
0.0
   0
LINE
   5
370
 100
AcDbEntity
   8
LEVEL001
 370
30
 100
AcDbLine
   6
CONTINUOUS
  62
7
  10
 798.35037331677
  20
 2865.9891220576
  30
0.0
  11
 822.35037331677
  21
 2865.9891220576
  31
0.0
   0
LINE
   5
371
 100
AcDbEntity
   8
LEVEL001
 370
30
 100
AcDbLine
   6
CONTINUOUS
  62
7
  10
 1550.3503733168
  20
 2708.9891220576
  30
0.0
  11
 1550.3503733168
  21
 2709.2213551047
  31
0.0
   0
POINT
   5
372
 100
AcDbEntity
   8
LEVEL001
 100
AcDbPoint
  62
7
  10
 795.35037331677
  20
 2743.1624806017
  30
0.0
   0
LINE
   5
373
 100
AcDbEntity
   8
LEVEL001
 370
30
 100
AcDbLine
   6
CONTINUOUS
  62
7
  10
 795.35037331677
  20
 2741.2231407735
  30
0.0
  11
 795.35037331677
  21
 2712.2213551047
  31
0.0
   0
LINE
   5
374
 100
AcDbEntity
   8
LEVEL001
 370
30
 100
AcDbLine
   6
CONTINUOUS
  62
7
  10
 795.35037331677
  20
 2741.2231407735
  30
0.0
  11
 798.35037331677
  21
 2744.2231407735
  31
0.0
   0
POINT
   5
375
 100
AcDbEntity
   8
LEVEL001
 100
AcDbPoint
  62
7
  10
 795.35037331677
  20
 2744.2231407735
  30
0.0
   0
LINE
   5
376
 100
AcDbEntity
   8
LEVEL001
 370
30
 100
AcDbLine
   6
CONTINUOUS
  62
7
  10
 819.35037331677
  20
 2744.2231407735
  30
0.0
  11
 798.35037331677
  21
 2744.2231407735
  31
0.0
   0
LINE
   5
377
 100
AcDbEntity
   8
LEVEL001
 370
30
 100
AcDbLine
   6
CONTINUOUS
  62
7
  10
 798.35037331677
  20
 2709.2213551047
  30
0.0
  11
 795.35037331677
  21
 2712.2213551047
  31
0.0
   0
LINE
   5
378
 100
AcDbEntity
   8
LEVEL001
 370
30
 100
AcDbLine
   6
CONTINUOUS
  62
7
  10
 798.35037331677
  20
 2709.2213551047
  30
0.0
  11
 819.35037331677
  21
 2709.2213551047
  31
0.0
   0
LINE
   5
379
 100
AcDbEntity
   8
LEVEL001
 370
30
 100
AcDbLine
   6
CONTINUOUS
  62
7
  10
 815.35037331677
  20
 2708.9891220576
  30
0.0
  11
 815.35037331677
  21
 2709.2213551047
  31
0.0
   0
LWPOLYLINE
   5
37A
 100
AcDbEntity
   8
LEVEL001
 370
30
   6
CONTINUOUS
  62
7
 100
AcDbPolyline
  90
4
  70
0
  10
 741.35037331677
  20
 2353.7891220576
  10
 741.35037331677
  20
 2351.2891220576
  10
 775.35037331677
  20
 2351.2891220576
  10
 775.35037331677
  20
 2353.7891220576
   0
POINT
   5
37B
 100
AcDbEntity
   8
LEVEL001
 100
AcDbPoint
  62
7
  10
 1797.3503733168
  20
 2320.5122736492
  30
0.0
   0
POINT
   5
37C
 100
AcDbEntity
   8
LEVEL001
 100
AcDbPoint
  62
7
  10
 1797.3503733168
  20
 2380.4331575697
  30
0.0
   0
POINT
   5
37D
 100
AcDbEntity
   8
LEVEL001
 100
AcDbPoint
  62
7
  10
 1797.3503733168
  20
 2319.2126650793
  30
0.0
   0
POINT
   5
37E
 100
AcDbEntity
   8
LEVEL001
 100
AcDbPoint
  62
7
  10
 1797.3503733168
  20
 2379.1335497314
  30
0.0
   0
POINT
   5
37F
 100
AcDbEntity
   8
LEVEL001
 100
AcDbPoint
  62
7
  10
 1797.3503733168
  20
 2320.5122736492
  30
0.0
   0
POINT
   5
380
 100
AcDbEntity
   8
LEVEL001
 100
AcDbPoint
  62
7
  10
 1797.3503733168
  20
 2380.4331583012
  30
0.0
   0
LWPOLYLINE
   5
381
 100
AcDbEntity
   8
LEVEL001
 370
30
   6
CONTINUOUS
  62
7
 100
AcDbPolyline
  90
4
  70
0
  10
 1802.3503733168
  20
 2381.6302532585
  10
 1802.3503733168
  20
 2382.9298618284
  10
 1612.3503733168
  20
 2382.9298618284
  10
 1612.3503733168
  20
 2381.6302532585
   0
POINT
   5
382
 100
AcDbEntity
   8
LEVEL001
 100
AcDbPoint
  62
7
  10
 1617.3503733168
  20
 2380.4331575697
  30
0.0
   0
POINT
   5
383
 100
AcDbEntity
   8
LEVEL001
 100
AcDbPoint
  62
7
  10
 1617.3503733168
  20
 2320.5122736492
  30
0.0
   0
POINT
   5
384
 100
AcDbEntity
   8
LEVEL001
 100
AcDbPoint
  62
7
  10
 1617.3503733168
  20
 2319.2126650793
  30
0.0
   0
POINT
   5
385
 100
AcDbEntity
   8
LEVEL001
 100
AcDbPoint
  62
7
  10
 1617.3503733168
  20
 2379.1335497314
  30
0.0
   0
POINT
   5
386
 100
AcDbEntity
   8
LEVEL001
 100
AcDbPoint
  62
7
  10
 1617.3503733168
  20
 2320.5122736492
  30
0.0
   0
POINT
   5
387
 100
AcDbEntity
   8
LEVEL001
 100
AcDbPoint
  62
7
  10
 1617.3503733168
  20
 2380.4331583012
  30
0.0
   0
LINE
   5
388
 100
AcDbEntity
   8
LEVEL001
 370
30
 100
AcDbLine
   6
CONTINUOUS
  62
7
  10
 775.94868999912
  20
 2708.9891220576
  30
0.0
  11
 754.84650612184
  21
 2657.7981034362
  31
0.0
   0
LINE
   5
389
 100
AcDbEntity
   8
LEVEL001
 370
30
 100
AcDbLine
   6
CONTINUOUS
  62
7
  10
 786.76501519155
  20
 2708.9891220576
  30
0.0
  11
 764.09179028452
  21
 2653.9869722720
  31
0.0
   0
LINE
   5
38A
 100
AcDbEntity
   8
LEVEL001
 370
30
 100
AcDbLine
   6
CONTINUOUS
  62
7
  10
 753.05395803889
  20
 2663.9451979833
  30
0.0
  11
 751.14839245676
  21
 2659.3225559020
  31
0.0
   0
LINE
   5
38B
 100
AcDbEntity
   8
LEVEL001
 370
30
 100
AcDbLine
   6
CONTINUOUS
  62
7
  10
 753.05395803889
  20
 2663.9451979833
  30
0.0
  11
 769.69546953173
  21
 2657.0851618876
  31
0.0
   0
LINE
   5
38C
 100
AcDbEntity
   8
LEVEL001
 370
30
 100
AcDbLine
   6
CONTINUOUS
  62
7
  10
 769.69546953173
  20
 2657.0851618876
  30
0.0
  11
 767.78990394959
  21
 2652.4625198063
  31
0.0
   0
LINE
   5
38D
 100
AcDbEntity
   8
LEVEL001
 370
30
 100
AcDbLine
   6
CONTINUOUS
  62
7
  10
 767.78990394959
  20
 2652.4625198063
  30
0.0
  11
 751.14839245676
  21
 2659.3225559020
  31
0.0
   0
ARC
   5
38E
 100
AcDbEntity
   8
LEVEL001
 370
30
   6
CONTINUOUS
  62
7
 100
AcDbCircle
  10
 752.08892443843
  20
 2637.9891220576
  30
0.0
  40
 20.000000000000
 100
AcDbArc
  50
 82.074863481193
  51
 53.119839109335
   0
LWPOLYLINE
   5
38F
 100
AcDbEntity
   8
LEVEL001
 370
30
   6
CONTINUOUS
  62
7
 100
AcDbPolyline
  90
3
  70
0
  10
 741.35037331677
  20
 2703.7891220576
  10
 741.35037331677
  20
 2706.2891220576
  10
 774.83568428048
  20
 2706.2891220576
   0
LWPOLYLINE
   5
390
 100
AcDbEntity
   8
LEVEL001
 370
30
   6
CONTINUOUS
  62
7
 100
AcDbPolyline
  90
3
  70
0
  10
 773.80512342989
  20
 2703.7891220576
  10
 739.35037331677
  20
 2703.7891220576
  10
 739.35037331677
  20
 2653.4075952415
   0
LWPOLYLINE
   5
391
 100
AcDbEntity
   8
LEVEL001
 370
30
   6
CONTINUOUS
  62
7
 100
AcDbPolyline
  90
3
  70
0
  10
 739.35037331677
  20
 2622.5706488738
  10
 739.35037331677
  20
 2353.7891220576
  10
 1543.8503733168
  20
 2353.7891220576
   0
LINE
   5
392
 100
AcDbEntity
   8
LEVEL001
 370
30
 100
AcDbLine
   6
CONTINUOUS
  62
7
  10
 1818.3503733168
  20
 2388.5112642584
  30
0.0
  11
 1545.8503733168
  21
 2388.5112642584
  31
0.0
   0
LINE
   5
393
 100
AcDbEntity
   8
LEVEL001
 370
30
 100
AcDbLine
   6
CONTINUOUS
  62
7
  10
 1545.3503733168
  20
 2732.6150898341
  30
0.0
  11
 1545.3503733168
  21
 2313.7891220576
  31
0.0
   0
LINE
   5
394
 100
AcDbEntity
   8
LEVEL001
 370
30
 100
AcDbLine
   6
CONTINUOUS
  62
7
  10
 1545.3503733168
  20
 2749.5749581676
  30
0.0
  11
 1543.3503733168
  21
 2749.5749581676
  31
0.0
   0
LINE
   5
395
 100
AcDbEntity
   8
LEVEL001
 370
30
 100
AcDbLine
   6
CONTINUOUS
  62
7
  10
 820.85037331677
  20
 2313.7891220576
  30
0.0
  11
 820.85037331677
  21
 2312.5891220576
  31
0.0
   0
LINE
   5
396
 100
AcDbEntity
   8
LEVEL001
 370
30
 100
AcDbLine
   6
CONTINUOUS
  62
7
  10
 820.85037331677
  20
 2312.5891220576
  30
0.0
  11
 1545.3503733168
  21
 2312.5891220576
  31
0.0
   0
LWPOLYLINE
   5
397
 100
AcDbEntity
   8
LEVEL001
 370
30
   6
CONTINUOUS
  62
7
 100
AcDbPolyline
  90
8
  70
0
  10
 1538.3503733168
  20
 2333.5891220576
  10
 1538.3503733168
  20
 2331.5891220576
  10
 1542.8503733168
  20
 2331.5891220576
  10
 1542.8503733168
  20
 2321.5891220576
  10
 1543.8503733168
  20
 2321.5891220576
  10
 1543.8503733168
  20
 2332.5891220576
  10
 1539.3503733168
  20
 2332.5891220576
  10
 1539.3503733168
  20
 2333.5891220576
   0
LWPOLYLINE
   5
398
 100
AcDbEntity
   8
LEVEL001
 370
30
   6
CONTINUOUS
  62
7
 100
AcDbPolyline
  90
8
  70
0
  10
 1538.3503733168
  20
 2723.5891220576
  10
 1538.3503733168
  20
 2725.5891220576
  10
 1542.8503733168
  20
 2725.5891220576
  10
 1542.8503733168
  20
 2735.5891220576
  10
 1543.8503733168
  20
 2735.5891220576
  10
 1543.8503733168
  20
 2724.5891220576
  10
 1539.3503733168
  20
 2724.5891220576
  10
 1539.3503733168
  20
 2723.5891220576
   0
LWPOLYLINE
   5
399
 100
AcDbEntity
   8
LEVEL001
 370
30
   6
CONTINUOUS
  62
7
 100
AcDbPolyline
  90
4
  70
0
  10
 1543.8503733168
  20
 2333.5891220576
  10
 1530.8503733168
  20
 2333.5891220576
  10
 1530.8503733168
  20
 2723.5891220576
  10
 1543.8503733168
  20
 2723.5891220576
   0
LINE
   5
39A
 100
AcDbEntity
   8
LEVEL001
 370
30
 100
AcDbLine
   6
CONTINUOUS
  62
7
  10
 1543.8503733168
  20
 2740.5891220576
  30
0.0
  11
 1527.3503733168
  21
 2740.5891220576
  31
0.0
   0
LINE
   5
39B
 100
AcDbEntity
   8
LEVEL001
 370
30
 100
AcDbLine
   6
CONTINUOUS
  62
7
  10
 1020.3503733168
  20
 2865.9891220576
  30
0.0
  11
 1020.3503733168
  21
 2745.7127872832
  31
0.0
   0
LINE
   5
39C
 100
AcDbEntity
   8
LEVEL001
 370
30
 100
AcDbLine
   6
CONTINUOUS
  62
7
  10
 1543.3503733168
  20
 2749.5749581676
  30
0.0
  11
 1543.3503733168
  21
 2736.9066150315
  31
0.0
   0
LINE
   5
39D
 100
AcDbEntity
   8
LEVEL001
 370
30
 100
AcDbLine
   6
CONTINUOUS
  62
7
  10
 1527.3503733168
  20
 2735.3080390576
  30
0.0
  11
 1527.3503733168
  21
 2760.9323947106
  31
0.0
   0
LINE
   5
39E
 100
AcDbEntity
   8
LEVEL001
 370
30
 100
AcDbLine
   6
CONTINUOUS
  62
7
  10
 1527.3503733168
  20
 2732.3080390576
  30
0.0
  11
 1527.3503733168
  21
 2735.3080390576
  31
0.0
   0
LINE
   5
39F
 100
AcDbEntity
   8
LEVEL001
 370
30
 100
AcDbLine
   6
CONTINUOUS
  62
7
  10
 1545.3503733168
  20
 2746.4199193582
  30
0.0
  11
 1545.3503733168
  21
 2745.7127872832
  31
0.0
   0
LINE
   5
3A0
 100
AcDbEntity
   8
LEVEL001
 370
30
 100
AcDbLine
   6
CONTINUOUS
  62
7
  10
 1527.3503733168
  20
 2746.4199193582
  30
0.0
  11
 1545.3503733168
  21
 2746.4199193582
  31
0.0
   0
LINE
   5
3A1
 100
AcDbEntity
   8
LEVEL001
 370
30
 100
AcDbLine
   6
CONTINUOUS
  62
7
  10
 1527.3503733168
  20
 2745.7127872832
  30
0.0
  11
 1545.3503733168
  21
 2745.7127872832
  31
0.0
   0
LINE
   5
3A2
 100
AcDbEntity
   8
LEVEL001
 370
30
 100
AcDbLine
   6
CONTINUOUS
  62
7
  10
 1545.3503733168
  20
 2762.6227151534
  30
0.0
  11
 1545.3503733168
  21
 2749.5749581676
  31
0.0
   0
LINE
   5
3A3
 100
AcDbEntity
   8
LEVEL001
 370
30
 100
AcDbLine
   6
CONTINUOUS
  62
7
  10
 1567.3503733168
  20
 2762.6227151534
  30
0.0
  11
 1026.2729503235
  21
 2762.6227151534
  31
0.0
   0
LINE
   5
3A4
 100
AcDbEntity
   8
LEVEL001
 370
30
 100
AcDbLine
   6
CONTINUOUS
  62
7
  10
 1567.3503733168
  20
 2762.6227151534
  30
0.0
  11
 1570.3503733168
  21
 2765.6227151534
  31
0.0
   0
POINT
   5
3A5
 100
AcDbEntity
   8
LEVEL001
 100
AcDbPoint
  62
7
  10
 1570.3503733168
  20
 2762.6227151534
  30
0.0
   0
LINE
   5
3A6
 100
AcDbEntity
   8
LEVEL001
 370
30
 100
AcDbLine
   6
CONTINUOUS
  62
7
  10
 1545.3503733168
  20
 2313.5891220576
  30
0.0
  11
 1545.3503733168
  21
 2312.5891220576
  31
0.0
   0
LINE
   5
3A7
 100
AcDbEntity
   8
LEVEL001
 370
30
 100
AcDbLine
   6
CONTINUOUS
  62
7
  10
 1545.3503733168
  20
 2312.5891220576
  30
0.0
  11
 1818.3503733168
  21
 2312.5891220576
  31
0.0
   0
LINE
   5
3A8
 100
AcDbEntity
   8
LEVEL001
 370
30
 100
AcDbLine
   6
CONTINUOUS
  62
7
  10
 1818.3503733168
  20
 2312.5891220576
  30
0.0
  11
 1818.3503733168
  21
 2778.0891220576
  31
0.0
   0
LINE
   5
3A9
 100
AcDbEntity
   8
LEVEL001
 370
30
 100
AcDbLine
   6
CONTINUOUS
  62
7
  10
 1818.3503733168
  20
 2778.0891220576
  30
0.0
  11
 1570.3503733168
  21
 2778.0891220576
  31
0.0
   0
LINE
   5
3AA
 100
AcDbEntity
   8
LEVEL001
 370
30
 100
AcDbLine
   6
CONTINUOUS
  62
7
  10
 1545.3503733168
  20
 2762.6227151534
  30
0.0
  11
 1545.3503733168
  21
 2313.5891220576
  31
0.0
   0
LINE
   5
3AB
 100
AcDbEntity
   8
LEVEL001
 370
30
 100
AcDbLine
   6
CONTINUOUS
  62
7
  10
 1543.8503733168
  20
 2312.5891220576
  30
0.0
  11
 1543.8503733168
  21
 2762.6227151534
  31
0.0
   0
LINE
   5
3AC
 100
AcDbEntity
   8
LEVEL001
 370
30
 100
AcDbLine
   6
CONTINUOUS
  62
7
  10
 795.35037331677
  20
 2748.7127872832
  30
0.0
  11
 798.35037331677
  21
 2745.7127872832
  31
0.0
   0
POINT
   5
3AD
 100
AcDbEntity
   8
LEVEL001
 100
AcDbPoint
  62
7
  10
 795.35037331677
  20
 2745.7127872832
  30
0.0
   0
LINE
   5
3AE
 100
AcDbEntity
   8
LEVEL001
 370
30
 100
AcDbLine
   6
CONTINUOUS
  62
7
  10
 795.35037331677
  20
 2861.9891220576
  30
0.0
  11
 795.35037331677
  21
 2748.7127872832
  31
0.0
   0
LINE
   5
3AF
 100
AcDbEntity
   8
LEVEL001
 370
30
 100
AcDbLine
   6
CONTINUOUS
  62
7
  10
 795.35037331677
  20
 2861.9891220576
  30
0.0
  11
 798.35037331677
  21
 2864.9891220576
  31
0.0
   0
POINT
   5
3B0
 100
AcDbEntity
   8
LEVEL001
 100
AcDbPoint
  62
7
  10
 795.35037331677
  20
 2864.9891220576
  30
0.0
   0
LINE
   5
3B1
 100
AcDbEntity
   8
LEVEL001
 370
30
 100
AcDbLine
   6
CONTINUOUS
  62
7
  10
 798.35037331677
  20
 2864.9891220576
  30
0.0
  11
 1018.3503733168
  21
 2864.9891220576
  31
0.0
   0
LINE
   5
3B2
 100
AcDbEntity
   8
LEVEL001
 370
30
 100
AcDbLine
   6
CONTINUOUS
  62
7
  10
 820.35037331677
  20
 2865.9891220576
  30
0.0
  11
 820.35037331677
  21
 2864.9891220576
  31
0.0
   0
LINE
   5
3B3
 100
AcDbEntity
   8
LEVEL001
 370
30
 100
AcDbLine
   6
CONTINUOUS
  62
7
  10
 815.35037331677
  20
 2744.2231407735
  30
0.0
  11
 815.35037331677
  21
 2745.7127872832
  31
0.0
   0
LINE
   5
3B4
 100
AcDbEntity
   8
LEVEL001
 370
30
 100
AcDbLine
   6
CONTINUOUS
  62
7
  10
 815.35037331677
  20
 2864.9891220576
  30
0.0
  11
 815.35037331677
  21
 2865.9891220576
  31
0.0
   0
LINE
   5
3B5
 100
AcDbEntity
   8
LEVEL001
 370
30
 100
AcDbLine
   6
CONTINUOUS
  62
7
  10
 800.41236660185
  20
 2816.0749084951
  30
0.0
  11
 834.45529346557
  21
 2816.0749084951
  31
0.0
   0
LINE
   5
3B6
 100
AcDbEntity
   8
LEVEL001
 370
30
 100
AcDbLine
   6
CONTINUOUS
  62
7
  10
 1527.3503733168
  20
 2740.5891220576
  30
0.0
  11
 1527.3503733168
  21
 2674.0313551047
  31
0.0
   0
LINE
   5
3B7
 100
AcDbEntity
   8
LEVEL001
 370
30
 100
AcDbLine
   6
CONTINUOUS
  62
7
  10
 1527.3503733168
  20
 2674.0313551047
  30
0.0
  11
 819.35037331677
  21
 2674.0313551047
  31
0.0
   0
LINE
   5
3B8
 100
AcDbEntity
   8
LEVEL001
 370
30
 100
AcDbLine
   6
CONTINUOUS
  62
7
  10
 819.35037331677
  20
 2745.7127872832
  30
0.0
  11
 819.35037331677
  21
 2674.0313551047
  31
0.0
   0
LINE
   5
3B9
 100
AcDbEntity
   8
LEVEL001
 370
30
 100
AcDbLine
   6
CONTINUOUS
  62
7
  10
 835.35037331677
  20
 2745.7127872832
  30
0.0
  11
 835.35037331677
  21
 2864.9891220576
  31
0.0
   0
LINE
   5
3BA
 100
AcDbEntity
   8
LEVEL001
 370
30
 100
AcDbLine
   6
CONTINUOUS
  62
7
  10
 835.35037331677
  20
 2810.2975796880
  30
0.0
  11
 1020.3503733168
  21
 2810.2975796880
  31
0.0
   0
LINE
   5
3BB
 100
AcDbEntity
   8
LEVEL001
 370
30
 100
AcDbLine
   6
CONTINUOUS
  62
7
  10
 798.35037331677
  20
 2745.7127872832
  30
0.0
  11
 835.35037331677
  21
 2745.7127872832
  31
0.0
   0
LINE
   5
3BC
 100
AcDbEntity
   8
LEVEL001
 370
30
 100
AcDbLine
   6
CONTINUOUS
  62
7
  10
 795.35037331677
  20
 3022.9891220576
  30
0.0
  11
 1570.3503733168
  21
 3022.9891220576
  31
0.0
   0
LINE
   5
3BD
 100
AcDbEntity
   8
LEVEL001
 370
30
 100
AcDbLine
   6
CONTINUOUS
  62
7
  10
 795.35037331677
  20
 3022.9891220576
  30
0.0
  11
 795.35037331677
  21
 2868.9891220576
  31
0.0
   0
ARC
   5
3BE
 100
AcDbEntity
   8
LEVEL001
 370
30
   6
CONTINUOUS
  62
7
 100
AcDbCircle
  10
 1816.3503733168
  20
 3018.9891220576
  30
0.0
  40
 2.0000000000000
 100
AcDbArc
  50
0.0
  51
 90.000000000000
   0
POINT
   5
3BF
 100
AcDbEntity
   8
LEVEL001
 100
AcDbPoint
  62
7
  10
 1818.3503733168
  20
 3020.9891220576
  30
0.0
   0
LINE
   5
3C0
 100
AcDbEntity
   8
LEVEL001
 370
30
 100
AcDbLine
   6
CONTINUOUS
  62
7
  10
 1570.3503733168
  20
 3021.9891220576
  30
0.0
  11
 1815.3503733168
  21
 3021.9891220576
  31
0.0
   0
LINE
   5
3C1
 100
AcDbEntity
   8
LEVEL001
 370
30
 100
AcDbLine
   6
CONTINUOUS
  62
7
  10
 1815.3503733168
  20
 3021.9891220576
  30
0.0
  11
 1815.3503733168
  21
 3020.9891220576
  31
0.0
   0
LINE
   5
3C2
 100
AcDbEntity
   8
LEVEL001
 370
30
 100
AcDbLine
   6
CONTINUOUS
  62
7
  10
 1570.3503733168
  20
 3020.9891220576
  30
0.0
  11
 1816.3503733168
  21
 3020.9891220576
  31
0.0
   0
LINE
   5
3C3
 100
AcDbEntity
   8
LEVEL001
 370
30
 100
AcDbLine
   6
CONTINUOUS
  62
7
  10
 1818.3503733168
  20
 3018.9891220576
  30
0.0
  11
 1818.3503733168
  21
 2778.0891220576
  31
0.0
   0
LINE
   5
3C4
 100
AcDbEntity
   8
LEVEL001
 370
30
 100
AcDbLine
   6
CONTINUOUS
  62
7
  10
 1570.3503733168
  20
 2765.6227151534
  30
0.0
  11
 1570.3503733168
  21
 3022.9891220576
  31
0.0
   0
ARC
   5
3C5
 100
AcDbEntity
   8
LEVEL001
 370
30
   6
CONTINUOUS
  62
7
 100
AcDbCircle
  10
 721.35037331677
  20
 2710.9891220576
  30
0.0
  40
 2.0000000000000
 100
AcDbArc
  50
 180.00000000000
  51
 270.00000000000
   0
POINT
   5
3C6
 100
AcDbEntity
   8
LEVEL001
 100
AcDbPoint
  62
7
  10
 719.35037331677
  20
 2708.9891220576
  30
0.0
   0
LWPOLYLINE
   5
3C7
 100
AcDbEntity
   8
LEVEL001
 370
30
   6
CONTINUOUS
  62
7
 100
AcDbPolyline
  90
4
  70
0
  10
 819.85037331677
  20
 2313.7891220576
  10
 819.85037331677
  20
 2312.5891220576
  10
 719.35037331677
  20
 2312.5891220576
  10
 719.35037331677
  20
 2708.9891220576
   0
LWPOLYLINE
   5
3C8
 100
AcDbEntity
   8
LEVEL001
 370
30
   6
CONTINUOUS
  62
7
 100
AcDbPolyline
  90
4
  70
0
  10
 1543.8503733168
  20
 2351.7891220576
  10
 720.85037331677
  20
 2351.7891220576
  10
 720.85037331677
  20
 2313.7891220576
  10
 1545.3503733168
  20
 2313.7891220576
   0
LINE
   5
3C9
 100
AcDbEntity
   8
LEVEL001
 370
30
 100
AcDbLine
   6
CONTINUOUS
  62
7
  10
 731.51888142259
  20
 2816.0749084951
  30
0.0
  11
 790.52151622928
  21
 2816.0749084951
  31
0.0
   0
LINE
   5
3CA
 100
AcDbEntity
   8
LEVEL001
 370
30
 100
AcDbLine
   6
CONTINUOUS
  62
7
  10
 719.35037331677
  20
 3018.9891220576
  30
0.0
  11
 719.35037331677
  21
 2710.9891220576
  31
0.0
   0
ARC
   5
3CB
 100
AcDbEntity
   8
LEVEL001
 370
30
   6
CONTINUOUS
  62
7
 100
AcDbCircle
  10
 721.35037331677
  20
 3018.9891220576
  30
0.0
  40
 2.0000000000000
 100
AcDbArc
  50
 90.000000000000
  51
 180.00000000000
   0
POINT
   5
3CC
 100
AcDbEntity
   8
LEVEL001
 100
AcDbPoint
  62
7
  10
 719.35037331677
  20
 3020.9891220576
  30
0.0
   0
LINE
   5
3CD
 100
AcDbEntity
   8
LEVEL001
 370
30
 100
AcDbLine
   6
CONTINUOUS
  62
7
  10
 795.35037331677
  20
 3021.9891220576
  30
0.0
  11
 722.35037331677
  21
 3021.9891220576
  31
0.0
   0
LINE
   5
3CE
 100
AcDbEntity
   8
LEVEL001
 370
30
 100
AcDbLine
   6
CONTINUOUS
  62
7
  10
 722.35037331677
  20
 3021.9891220576
  30
0.0
  11
 722.35037331677
  21
 3020.9891220576
  31
0.0
   0
LINE
   5
3CF
 100
AcDbEntity
   8
LEVEL001
 370
30
 100
AcDbLine
   6
CONTINUOUS
  62
7
  10
 795.35037331677
  20
 3020.9891220576
  30
0.0
  11
 721.35037331677
  21
 3020.9891220576
  31
0.0
   0
LINE
   5
3D0
 100
AcDbEntity
   8
LEVEL001
 370
30
 100
AcDbLine
   6
CONTINUOUS
  62
7
  10
 739.35037331677
  20
 2622.5706488738
  30
0.0
  11
 739.35037331677
  21
 2351.7891220576
  31
0.0
   0
LINE
   5
3D1
 100
AcDbEntity
   8
LEVEL001
 370
30
 100
AcDbLine
   6
CONTINUOUS
  62
7
  10
 721.35037331677
  20
 2708.9891220576
  30
0.0
  11
 815.35037331677
  21
 2708.9891220576
  31
0.0
   0
LWPOLYLINE
   5
3D2
 100
AcDbEntity
   8
LEVEL001
 370
30
   6
CONTINUOUS
  62
7
 100
AcDbPolyline
  90
4
  70
0
  10
 738.35037331677
  20
 2708.9891220576
  10
 738.35037331677
  20
 2701.5891220576
  10
 739.35037331677
  20
 2701.5891220576
  10
 739.35037331677
  20
 2653.4075952415
   0
LINE
   5
3D3
 100
AcDbEntity
   8
LEVEL001
 370
30
 100
AcDbLine
   6
CONTINUOUS
  62
7
  10
 1802.3503733168
  20
 2316.7159615522
  30
0.0
  11
 1802.3503733168
  21
 2381.6302532585
  31
0.0
   0
LINE
   5
3D4
 100
AcDbEntity
   8
LEVEL001
 370
30
 100
AcDbLine
   6
CONTINUOUS
  62
7
  10
 1802.3503733168
  20
 2381.6302532585
  30
0.0
  11
 1612.3503733168
  21
 2381.6302532585
  31
0.0
   0
LINE
   5
3D5
 100
AcDbEntity
   8
LEVEL001
 370
30
 100
AcDbLine
   6
CONTINUOUS
  62
7
  10
 1612.3503733168
  20
 2381.6302532585
  30
0.0
  11
 1612.3503733168
  21
 2316.7159615522
  31
0.0
   0
LINE
   5
3D6
 100
AcDbEntity
   8
LEVEL001
 370
30
 100
AcDbLine
   6
CONTINUOUS
  62
7
  10
 1612.3503733168
  20
 2316.7159615522
  30
0.0
  11
 1802.3503733168
  21
 2316.7159615522
  31
0.0
   0
LINE
   5
3D7
 100
AcDbEntity
   8
LEVEL001
 370
30
 100
AcDbLine
   6
CONTINUOUS
  62
7
  10
 1020.3503733168
  20
 2746.4199193582
  30
0.0
  11
 1527.3503733168
  21
 2746.4199193582
  31
0.0
   0
LINE
   5
3D8
 100
AcDbEntity
   8
LEVEL001
 370
30
 100
AcDbLine
   6
CONTINUOUS
  62
7
  10
 1020.3503733168
  20
 2745.7127872832
  30
0.0
  11
 1527.3503733168
  21
 2745.7127872832
  31
0.0
   0
ELLIPSE
   5
3D9
 100
AcDbEntity
   8
LEVEL001
 370
30
   6
CONTINUOUS
  62
7
 100
AcDbEllipse
  10
 746.35037331677
  20
 2775.0680720430
  30
0.0
  11
-20.000000000000
  21
0.0
  31
0.0
  40
 0.80000000000000
  41
 3.0086186017185
  42
 0.13297405187129
   0
ELLIPSE
   5
3DA
 100
AcDbEntity
   8
LEVEL001
 370
30
   6
CONTINUOUS
  62
7
 100
AcDbEllipse
  10
 746.35037331677
  20
 2789.5637610575
  30
0.0
  11
-15.200000000000
  21
0.0
  31
0.0
  40
 0.65789473684211
  41
 0.70769736666054E-1
  42
 0.33994986682127
   0
ELLIPSE
   5
3DB
 100
AcDbEntity
   8
LEVEL001
 370
30
   6
CONTINUOUS
  62
7
 100
AcDbEllipse
  10
 746.35037331677
  20
 2789.5637610575
  30
0.0
  11
-15.200000000000
  21
0.0
  31
0.0
  40
 0.65789473684211
  41
 2.8016427867685
  42
 3.0708229169237
   0
ELLIPSE
   5
3DC
 100
AcDbEntity
   8
LEVEL001
 370
30
   6
CONTINUOUS
  62
7
 100
AcDbEllipse
  10
 746.35037331677
  20
 2788.1495474951
  30
0.0
  11
-15.200000000000
  21
0.0
  31
0.0
  40
 0.65789473684211
  41
 2.9084871995546
  42
 0.23310545403521
   0
ELLIPSE
   5
3DD
 100
AcDbEntity
   8
LEVEL001
 370
30
   6
CONTINUOUS
  62
7
 100
AcDbEllipse
  10
 746.35037331677
  20
 2770.8254313559
  30
0.0
  11
-20.000000000000
  21
0.0
  31
0.0
  40
 0.80000000000000
  41
0.0
  42
 6.2831853071796
   0
ELLIPSE
   5
3DE
 100
AcDbEntity
   8
LEVEL001
 370
30
   6
CONTINUOUS
  62
7
 100
AcDbEllipse
  10
 746.35037331677
  20
 2728.8739089748
  30
0.0
  11
-14.500000000000
  21
0.0
  31
0.0
  40
 0.66670774868224
  41
0.0
  42
 6.2831853071796
   0
LINE
   5
3DF
 100
AcDbEntity
   8
LEVEL001
 370
30
 100
AcDbLine
   6
CONTINUOUS
  62
7
  10
 731.85037331677
  20
 2738.6520724951
  30
0.0
  11
 731.85037331677
  21
 2728.8739089748
  31
0.0
   0
LINE
   5
3E0
 100
AcDbEntity
   8
LEVEL001
 370
30
 100
AcDbLine
   6
CONTINUOUS
  62
7
  10
 760.85037331677
  20
 2738.6520724951
  30
0.0
  11
 760.85037331677
  21
 2728.8739089748
  31
0.0
   0
ELLIPSE
   5
3E1
 100
AcDbEntity
   8
LEVEL001
 370
30
   6
CONTINUOUS
  62
7
 100
AcDbEllipse
  10
 746.35037331677
  20
 2738.6520724951
  30
0.0
  11
-14.500000000000
  21
0.0
  31
0.0
  40
 0.66670774868224
  41
 3.1415926535898
  42
-0.24492127076448E-15
   0
LWPOLYLINE
   5
3E2
 100
AcDbEntity
   8
LEVEL001
 370
9
   6
DIVIDE
  62
1
 100
AcDbPolyline
  90
4
  70
0
  10
 797.94078052993
  20
 2297.9891220576
  10
 797.94078052993
  20
 1822.9891220576
  10
 1786.2407805299
  20
 1822.9891220576
  10
 1786.2407805299
  20
 2297.9891220576
   0
LINE
   5
3E3
 100
AcDbEntity
   8
LEVEL001
 370
30
 100
AcDbLine
   6
CONTINUOUS
  62
7
  10
 2157.1368085778
  20
 260.66235859953
  30
0.0
  11
 3454.1930857734
  21
 260.66235859953
  31
0.0
   0
LWPOLYLINE
   5
3E4
 100
AcDbEntity
   8
LEVEL001
 370
9
   6
DIVIDE
  62
1
 100
AcDbPolyline
  90
3
  70
0
  10
 2684.1930857734
  20
 870.16235859953
  10
 2209.1930857734
  20
 870.16235859953
  10
 2209.1930857734
  20
 260.66235859953
   0
DIMENSION
   5
3E5
 100
AcDbEntity
   8
LEVEL001
 370
30
   6
CONTINUOUS
  62
7
 100
AcDbDimension
   2
*D7
  10
 3409.1930857734
  20
 113.23481483018
  30
0.0
  11
 2809.1930857734
  21
 113.23481483018
  31
0.0
  70
0
   3
GMM002
 100
AcDbAlignedDimension
  13
 2209.1930857734
  23
 260.66235859953
  33
0.0
  14
 3409.1930857734
  24
 260.66235859953
  34
0.0
 100
AcDbRotatedDimension
   0
DIMENSION
   5
3E6
 100
AcDbEntity
   8
LEVEL001
 370
30
   6
CONTINUOUS
  62
7
 100
AcDbDimension
   2
*D8
  10
 2053.8139160872
  20
 1822.9891220576
  30
0.0
  11
 2053.8139160872
  21
 2422.9891220576
  31
0.0
  70
0
   3
GMM002
 100
AcDbAlignedDimension
  13
 1824.3503733168
  23
 3022.9891220576
  33
0.0
  14
 1786.2407805299
  24
 1822.9891220576
  34
0.0
  50
 270.00000000000
 100
AcDbRotatedDimension
   0
MTEXT
   5
3E8
 100
AcDbEntity
   8
LEVEL001
 370
30
  62
7
 100
AcDbMText
  10
 3217.0091376990
  20
 11.018967447855
  30
0.0
  40
 32.000000000000
  41
0.0
  71
7
  72
1
   1
\W0.500000;\T1.000000;'22.03.17\W1.000000;\T1.000000;　変更　\W0.500000;\T1.000000;H.M
   7
GMM001
  44
 0.79999984000003
   0
MTEXT
   5
3EA
 100
AcDbEntity
   8
LEVEL001
 370
30
  62
7
 100
AcDbMText
  10
 4318.2151991965
  20
 224.00000000000
  30
0.0
  40
 32.000000000000
  41
0.0
  71
7
  72
1
   1
\T1.000000;SI-AP6-1K-A
   7
GMM004
  44
 0.79999984000003
   0
ENDSEC
  0
SECTION
  2
OBJECTS
  0
DICTIONARY
  5
C
100
AcDbDictionary
  3
ACAD_GROUP
350
D
  3
ACAD_MLINESTYLE
350
1B
  3
DWGPROPS
350
1C
  0
DICTIONARY
  5
D
102
{ACAD_REACTORS
330
C
102
}
100
AcDbDictionary
  0
DICTIONARY
  5
1B
102
{ACAD_REACTORS
330
C
102
}
100
AcDbDictionary
  3
STANDARD
350
1D
  0
MLINESTYLE
  5
1D
102
{ACAD_REACTORS
330
1B
102
}
100
AcDbMlineStyle
  2
STANDARD
 70
     0
  3

 62
   256
 51
90.0
 52
90.0
 71
     2
 49
0.5
 62
   256
  6
BYLAYER
 49
-0.5
 62
   256
  6
BYLAYER
   0
XRECORD
   5
1C
 102
{ACAD_REACTORS
 330
C
 102
}
 330
C
 100
AcDbXrecord
 280
1
   1
DWGPROPS COOKIE
   2
さぬき一番AP6承認図
   3
さぬき一番AP-6
   4
 
   6
 
   7
SI-AP6-1K-A
   8
 
   9

 300
 = 
 301
 = 
 302
 = 
 303
 = 
 304
 = 
 305
 = 
 306
 = 
 307
 = 
 308
 = 
 309
 = 
  40
0.0
  41
 2457107.5000000
  42
 2459656.5000000
   1

  90
10
   0
ENDSEC
   0
EOF
