   0
SECTION
   2
HEADER
   9
$ACADVER
   1
AC1015
   9
$DWGCODEPAGE
   3
ANSI_932
   9
$LIMMIN
  10
0.0
  20
0.0
   9
$LIMMAX
  10
 4752.0000000000
  20
 3360.0000000000
   9
$EXTMIN
  10
0.0
  20
0.0
  30
0.0
   9
$EXTMAX
  10
 4752.0000000000
  20
 3360.0000000000
  30
0.0
   9
$LTSCALE
  40
 95.040000000000
   9
$HANDSEED
   5
59A
   0
ENDSEC
   0
SECTION
   2
TABLES
  0
TABLE
  2
VPORT
  5
8
100
AcDbSymbolTable
 70
     1
  0
VPORT
  5
599
100
AcDbSymbolTableRecord
100
AcDbViewportTableRecord
  2
*ACTIVE
 70
     0
 10
0.0
 20
0.0
 11
1.0
 21
1.0
  12
 2376.0000000000
  22
 1680.0000000000
 13
0.0
 23
0.0
 14
1.0
 24
1.0
 15
0.0
 25
0.0
 16
0.0
 26
0.0
 36
1.0
 17
0.0
 27
0.0
 37
0.0
  40
 4752.0000000000
  41
 1.4787878787879
 42
50.0
 43
0.0
 44
0.0
 50
0.0
 51
0.0
 71
     0
 72
   100
 73
     1
 74
     1
 75
     0
 76
     0
 77
     0
 78
     0
  0
ENDTAB
  0
TABLE
  2
LTYPE
  5
5
100
AcDbSymbolTable
 70
    25
  0
LTYPE
  5
12
100
AcDbSymbolTableRecord
100
AcDbLinetypeTableRecord
  2
BYBLOCK
 70
     0
  3

 72
    65
 73
     0
 40
0.0
  0
LTYPE
  5
13
100
AcDbSymbolTableRecord
100
AcDbLinetypeTableRecord
  2
BYLAYER
 70
     0
  3

 72
    65
 73
     0
 40
0.0
  0
LTYPE
  5
14
100
AcDbSymbolTableRecord
100
AcDbLinetypeTableRecord
  2
CONTINUOUS
 70
     0
  3
Solid line
 72
    65
 73
     0
 40
0.0
  0
LTYPE
  5
20
100
AcDbSymbolTableRecord
100
AcDbLinetypeTableRecord
  2
BORDER
 70
     0
  3
__ __ . __ __ . __ __ . __ __ . __ __ . __ __ .
 72
    65
 73
     6
 40
1.75
 49
0.5
 74
     0
 49
-0.25
 74
     0
 49
0.5
 74
     0
 49
-0.25
 74
     0
 49
0.0
 74
     0
 49
-0.25
 74
     0
  0
LTYPE
  5
21
100
AcDbSymbolTableRecord
100
AcDbLinetypeTableRecord
  2
BORDER2
 70
     0
  3
__.__.__.__.__.__.__.__.__.__.__.__.__.__.__.__
 72
    65
 73
     6
 40
0.875
 49
0.25
 74
     0
 49
-0.125
 74
     0
 49
0.25
 74
     0
 49
-0.125
 74
     0
 49
0.0
 74
     0
 49
-0.125
 74
     0
  0
LTYPE
  5
22
100
AcDbSymbolTableRecord
100
AcDbLinetypeTableRecord
  2
BORDERX2
 70
     0
  3
____  ____  .  ____  ____  .  ____  ____  .  __
 72
    65
 73
     6
 40
3.5
 49
1.0
 74
     0
 49
-0.5
 74
     0
 49
1.0
 74
     0
 49
-0.5
 74
     0
 49
0.0
 74
     0
 49
-0.5
 74
     0
  0
LTYPE
  5
23
100
AcDbSymbolTableRecord
100
AcDbLinetypeTableRecord
  2
CENTER
 70
     0
  3
____ _ ____ _ ____ _ ____ _ ____ _ ____ _ ____ 
 72
    65
 73
     4
 40
2.0
 49
1.25
 74
     0
 49
-0.25
 74
     0
 49
0.25
 74
     0
 49
-0.25
 74
     0
  0
LTYPE
  5
24
100
AcDbSymbolTableRecord
100
AcDbLinetypeTableRecord
  2
CENTER2
 70
     0
  3
___ _ ___ _ ___ _ ___ _ ___ _ ___ _ ___ _ ___ _
 72
    65
 73
     4
 40
1.125
 49
0.75
 74
     0
 49
-0.125
 74
     0
 49
0.125
 74
     0
 49
-0.125
 74
     0
  0
LTYPE
  5
25
100
AcDbSymbolTableRecord
100
AcDbLinetypeTableRecord
  2
CENTERX2
 70
     0
  3
________  __  ________  __  ________  __  _____
 72
    65
 73
     4
 40
4.0
 49
2.5
 74
     0
 49
-0.5
 74
     0
 49
0.5
 74
     0
 49
-0.5
 74
     0
  0
LTYPE
  5
26
100
AcDbSymbolTableRecord
100
AcDbLinetypeTableRecord
  2
DASHDOT
 70
     0
  3
__ . __ . __ . __ . __ . __ . __ . __ . __ . __
 72
    65
 73
     4
 40
1.0
 49
0.5
 74
     0
 49
-0.25
 74
     0
 49
0.0
 74
     0
 49
-0.25
 74
     0
  0
LTYPE
  5
27
100
AcDbSymbolTableRecord
100
AcDbLinetypeTableRecord
  2
DASHDOT2
 70
     0
  3
_._._._._._._._._._._._._._._._._._._._._._._._
 72
    65
 73
     4
 40
0.5
 49
0.25
 74
     0
 49
-0.125
 74
     0
 49
0.0
 74
     0
 49
-0.125
 74
     0
  0
LTYPE
  5
28
100
AcDbSymbolTableRecord
100
AcDbLinetypeTableRecord
  2
DASHDOTX2
 70
     0
  3
____  .  ____  .  ____  .  ____  .  ____  .  __
 72
    65
 73
     4
 40
2.0
 49
1.0
 74
     0
 49
-0.5
 74
     0
 49
0.0
 74
     0
 49
-0.5
 74
     0
  0
LTYPE
  5
29
100
AcDbSymbolTableRecord
100
AcDbLinetypeTableRecord
  2
DASHED
 70
     0
  3
__ __ __ __ __ __ __ __ __ __ __ __ __ __ __ __
 72
    65
 73
     2
 40
0.75
 49
0.5
 74
     0
 49
-0.25
 74
     0
  0
LTYPE
  5
2A
100
AcDbSymbolTableRecord
100
AcDbLinetypeTableRecord
  2
DASHED2
 70
     0
  3
_ _ _ _ _ _ _ _ _ _ _ _ _ _ _ _ _ _ _ _ _ _ _ _
 72
    65
 73
     2
 40
0.375
 49
0.25
 74
     0
 49
-0.125
 74
     0
  0
LTYPE
  5
2B
100
AcDbSymbolTableRecord
100
AcDbLinetypeTableRecord
  2
DASHEDX2
 70
     0
  3
____  ____  ____  ____  ____  ____  ____  ____ 
 72
    65
 73
     2
 40
1.5
 49
1.0
 74
     0
 49
-0.5
 74
     0
  0
LTYPE
  5
2C
100
AcDbSymbolTableRecord
100
AcDbLinetypeTableRecord
  2
DIVIDE
 70
     0
  3
____ . . ____ . . ____ . . ____ . . ____ . . __
 72
    65
 73
     6
 40
1.25
 49
0.5
 74
     0
 49
-0.25
 74
     0
 49
0.0
 74
     0
 49
-0.25
 74
     0
 49
0.0
 74
     0
 49
-0.25
 74
     0
  0
LTYPE
  5
2D
100
AcDbSymbolTableRecord
100
AcDbLinetypeTableRecord
  2
DIVIDE2
 70
     0
  3
__..__..__..__..__..__..__..__..__..__..__..__.
 72
    65
 73
     6
 40
0.625
 49
0.25
 74
     0
 49
-0.125
 74
     0
 49
0.0
 74
     0
 49
-0.125
 74
     0
 49
0.0
 74
     0
 49
-0.125
 74
     0
  0
LTYPE
  5
2E
100
AcDbSymbolTableRecord
100
AcDbLinetypeTableRecord
  2
DIVIDEX2
 70
     0
  3
________  .  .  ________  .  .  ________  .  . 
 72
    65
 73
     6
 40
2.5
 49
1.0
 74
     0
 49
-0.5
 74
     0
 49
0.0
 74
     0
 49
-0.5
 74
     0
 49
0.0
 74
     0
 49
-0.5
 74
     0
  0
LTYPE
  5
2F
100
AcDbSymbolTableRecord
100
AcDbLinetypeTableRecord
  2
DOT
 70
     0
  3
. . . . . . . . . . . . . . . . . . . . . . . .
 72
    65
 73
     2
 40
0.25
 49
0.0
 74
     0
 49
-0.25
 74
     0
  0
LTYPE
  5
30
100
AcDbSymbolTableRecord
100
AcDbLinetypeTableRecord
  2
DOT2
 70
     0
  3
...............................................
 72
    65
 73
     2
 40
0.125
 49
0.0
 74
     0
 49
-0.125
 74
     0
  0
LTYPE
  5
31
100
AcDbSymbolTableRecord
100
AcDbLinetypeTableRecord
  2
DOTX2
 70
     0
  3
.  .  .  .  .  .  .  .  .  .  .  .  .  .  .  . 
 72
    65
 73
     2
 40
0.5
 49
0.0
 74
     0
 49
-0.5
 74
     0
  0
LTYPE
  5
32
100
AcDbSymbolTableRecord
100
AcDbLinetypeTableRecord
  2
HIDDEN
 70
     0
  3
__ __ __ __ __ __ __ __ __ __ __ __ __ __ __ __
 72
    65
 73
     2
 40
0.375
 49
0.25
 74
     0
 49
-0.125
 74
     0
  0
LTYPE
  5
33
100
AcDbSymbolTableRecord
100
AcDbLinetypeTableRecord
  2
HIDDEN2
 70
     0
  3
_ _ _ _ _ _ _ _ _ _ _ _ _ _ _ _ _ _ _ _ _ _ _ _
 72
    65
 73
     2
 40
0.1875
 49
0.125
 74
     0
 49
-0.0625
 74
     0
  0
LTYPE
  5
34
100
AcDbSymbolTableRecord
100
AcDbLinetypeTableRecord
  2
HIDDENX2
 70
     0
  3
____ ____ ____ ____ ____ ____ ____ ____ ____ __
 72
    65
 73
     2
 40
0.75
 49
0.5
 74
     0
 49
-0.25
 74
     0
  0
LTYPE
  5
35
100
AcDbSymbolTableRecord
100
AcDbLinetypeTableRecord
  2
PHANTOM
 70
     0
  3
______  __  __  ______  __  __  ______  __  __ 
 72
    65
 73
     6
 40
2.5
 49
1.25
 74
     0
 49
-0.25
 74
     0
 49
0.25
 74
     0
 49
-0.25
 74
     0
 49
0.25
 74
     0
 49
-0.25
 74
     0
  0
LTYPE
  5
36
100
AcDbSymbolTableRecord
100
AcDbLinetypeTableRecord
  2
PHANTOM2
 70
     0
  3
___ _ _ ___ _ _ ___ _ _ ___ _ _ ___ _ _ ___ _ _
 72
    65
 73
     6
 40
1.25
 49
0.625
 74
     0
 49
-0.125
 74
     0
 49
0.125
 74
     0
 49
-0.125
 74
     0
 49
0.125
 74
     0
 49
-0.125
 74
     0
  0
LTYPE
  5
37
100
AcDbSymbolTableRecord
100
AcDbLinetypeTableRecord
  2
PHANTOMX2
 70
     0
  3
____________    ____    ____    ____________   
 72
    65
 73
     6
 40
5.0
 49
2.5
 74
     0
 49
-0.5
 74
     0
 49
0.5
 74
     0
 49
-0.5
 74
     0
 49
0.5
 74
     0
 49
-0.5
 74
     0
  0
ENDTAB
   0
TABLE
   2
LAYER
   5
2
 100
AcDbSymbolTable
  70
5
   0
LAYER
   5
E
 100
AcDbSymbolTableRecord
 100
AcDbLayerTableRecord
   2
0
  70
0
  62
7
   6
CONTINUOUS
 390
30
   0
LAYER
   5
39
 100
AcDbSymbolTableRecord
 100
AcDbLayerTableRecord
   2
LEVEL001
  70
0
  62
7
   6
CONTINUOUS
 390
30
   0
LAYER
   5
3A
 100
AcDbSymbolTableRecord
 100
AcDbLayerTableRecord
   2
内図枠(作図領域)
  70
0
  62
7
   6
CONTINUOUS
 390
30
   0
LAYER
   5
3B
 100
AcDbSymbolTableRecord
 100
AcDbLayerTableRecord
   2
外図枠(出力紙領域)
  70
0
  62
7
   6
CONTINUOUS
 390
30
   0
LAYER
   5
3C
 100
AcDbSymbolTableRecord
 100
AcDbLayerTableRecord
   2
部品表金額表示用
  70
0
  62
7
   6
CONTINUOUS
 390
30
   0
ENDTAB
  0
TABLE
  2
STYLE
  5
3
100
AcDbSymbolTable
  70
6
  0
STYLE
  5
F
100
AcDbSymbolTableRecord
100
AcDbTextStyleTableRecord
  2
STANDARD
 70
     0
 40
0.0
 41
1.0
 50
0.0
 71
     0
 42
0.2
  3
TXT
  4
BIGFONT
  0
STYLE
  5
38
100
AcDbSymbolTableRecord
100
AcDbTextStyleTableRecord
  2
STANDARD1
 70
     4
 40
0.0
 41
1.0
 50
0.0
 71
     0
 42
0.2
  3
TXT
  4
BIGFONT
   0
STYLE
   5
3D
 100
AcDbSymbolTableRecord
 100
AcDbTextStyleTableRecord
   2
GMM001
  70
0
  40
0.0
  41
 1.0000000000000
  50
0.0
  71
     0
  42
1.0
   3
txt.shx
   4
bigfont.shx
   0
STYLE
   5
3E
 100
AcDbSymbolTableRecord
 100
AcDbTextStyleTableRecord
   2
GMM002
  70
4
  40
0.0
  41
 1.0000000000000
  50
0.0
  71
     0
  42
1.0
   3
txt.shx
   4
bigfont.shx
   0
STYLE
   5
3F
 100
AcDbSymbolTableRecord
 100
AcDbTextStyleTableRecord
   2
GMM003
  70
0
  40
0.0
  41
 0.80000001192093
  50
0.0
  71
     0
  42
1.0
   3
txt.shx
   4
bigfont.shx
   0
STYLE
   5
40
 100
AcDbSymbolTableRecord
 100
AcDbTextStyleTableRecord
   2
GMM004
  70
0
  40
0.0
  41
 0.50000000000000
  50
0.0
  71
     0
  42
1.0
   3
txt.shx
   4
bigfont.shx
   0
ENDTAB
  0
TABLE
  2
VIEW
  5
6
100
AcDbSymbolTable
 70
     0
  0
ENDTAB
  0
TABLE
  2
UCS
  5
7
100
AcDbSymbolTable
 70
     0
  0
ENDTAB
  0
TABLE
  2
APPID
  5
9
100
AcDbSymbolTable
 70
     1
  0
APPID
  5
10
100
AcDbSymbolTableRecord
100
AcDbRegAppTableRecord
  2
ACAD
 70
     0
  0
ENDTAB
   0
TABLE
   2
DIMSTYLE
   5
A
 100
AcDbSymbolTable
  70
5
 100
AcDbDimStyleTable
  0
DIMSTYLE
105
1D
100
AcDbSymbolTableRecord
100
AcDbDimStyleTableRecord
  2
STANDARD
 70
     0
  3

  4

  5

  6

  7

 40
1.0
 41
0.18
 42
0.0625
 43
0.38
 44
0.18
 45
0.0
 46
0.0
 47
0.0
 48
0.0
140
0.18
141
0.09
142
0.0
143
25.4
144
1.0
145
0.0
146
1.0
147
0.09
 71
     0
 72
     0
 73
     1
 74
     1
 75
     0
 76
     0
 77
     0
 78
     0
170
     0
171
     2
172
     0
173
     0
174
     0
175
     0
176
     0
177
     0
178
     0
270
     2
271
     4
272
     4
273
     2
274
     2
340
F
275
     0
280
     0
281
     0
282
     0
283
     1
284
     0
285
     0
286
     0
287
     3
288
     0
   0
DIMSTYLE
 105
41
 100
AcDbSymbolTableRecord
 100
AcDbDimStyleTableRecord
   2
GMM001
  70
0
   3

   4

   5

   6
_OPEN30
   7
_OPEN30
  40
 1.0000000000000
  41
 24.000000000000
  42
0.0
  43
 64.000000000000
  44
 16.000000000000
  45
0.0
  46
0.0
  47
0.0
  48
0.0
 140
 32.000000000000
 141
 8.0000000000000
 142
0.0
 143
 0.39400000000000E-1
 144
 1.0000000000000
 145
0.0
 146
 0.62500000000000
 147
 8.0000000000000
  71
0
  72
0
  73
0
  74
0
  75
0
  76
0
  77
3
  78
8
 170
0
 171
2
 172
1
 173
1
 174
0
 175
0
 176
1
 177
1
 178
7
 270
2
 271
6
 272
0
 273
2
 274
2
 340
3D
 275
1
 280
0
 281
0
 282
0
 283
1
 284
0
 285
0
 286
0
 287
3
 288
0
   0
DIMSTYLE
 105
42
 100
AcDbSymbolTableRecord
 100
AcDbDimStyleTableRecord
   2
GMM002
  70
0
   3

   4

   5

   6
_OPEN30
   7
_OPEN30
  40
 1.0000000000000
  41
 24.000000000000
  42
0.0
  43
 64.000000000000
  44
 16.000000000000
  45
0.0
  46
0.0
  47
0.0
  48
0.0
 140
 32.000000000000
 141
 8.0000000000000
 142
0.0
 143
 0.39400000000000E-1
 144
 1.0000000000000
 145
0.0
 146
 0.62500000000000
 147
 8.0000000000000
  71
0
  72
0
  73
0
  74
0
  75
0
  76
0
  77
3
  78
8
 170
0
 171
2
 172
1
 173
1
 174
0
 175
0
 176
1
 177
1
 178
7
 270
2
 271
6
 272
0
 273
2
 274
2
 340
3D
 275
0
 280
0
 281
0
 282
0
 283
1
 284
0
 285
0
 286
0
 287
5
 288
1
   0
DIMSTYLE
 105
43
 100
AcDbSymbolTableRecord
 100
AcDbDimStyleTableRecord
   2
GMM003
  70
0
   3

   4

   5

   6
_OPEN30
   7
_OPEN30
  40
 1.0000000000000
  41
 24.000000000000
  42
0.0
  43
 64.000000000000
  44
 16.000000000000
  45
0.0
  46
0.0
  47
0.0
  48
0.0
 140
 32.000000000000
 141
 8.0000000000000
 142
0.0
 143
 0.39400000000000E-1
 144
 1.0000000000000
 145
0.0
 146
 0.62500000000000
 147
 13.714285714286
  71
0
  72
0
  73
0
  74
0
  75
0
  76
0
  77
3
  78
8
 170
0
 171
2
 172
1
 173
1
 174
0
 175
0
 176
1
 177
1
 178
7
 270
2
 271
6
 272
0
 273
2
 274
2
 340
3D
 275
0
 280
0
 281
0
 282
0
 283
1
 284
0
 285
0
 286
0
 287
5
 288
1
   0
ENDTAB
  0
TABLE
  2
BLOCK_RECORD
  5
1
100
AcDbSymbolTable
 70
     0
  0
BLOCK_RECORD
  5
18
100
AcDbSymbolTableRecord
100
AcDbBlockTableRecord
  2
*MODEL_SPACE
  0
BLOCK_RECORD
  5
15
100
AcDbSymbolTableRecord
100
AcDbBlockTableRecord
  2
*PAPER_SPACE
   0
BLOCK_RECORD
   5
44
 100
AcDbSymbolTableRecord
 100
AcDbBlockTableRecord
   2
BLOCK001
   0
BLOCK_RECORD
   5
45
 100
AcDbSymbolTableRecord
 100
AcDbBlockTableRecord
   2
BLOCK002
   0
BLOCK_RECORD
   5
46
 100
AcDbSymbolTableRecord
 100
AcDbBlockTableRecord
   2
BLOCK003
   0
BLOCK_RECORD
   5
47
 100
AcDbSymbolTableRecord
 100
AcDbBlockTableRecord
   2
GMM001
   0
BLOCK_RECORD
   5
48
 100
AcDbSymbolTableRecord
 100
AcDbBlockTableRecord
   2
BLOCK004
   0
BLOCK_RECORD
   5
49
 100
AcDbSymbolTableRecord
 100
AcDbBlockTableRecord
   2
BLOCK005
   0
BLOCK_RECORD
   5
4A
 100
AcDbSymbolTableRecord
 100
AcDbBlockTableRecord
   2
BLOCK006
   0
BLOCK_RECORD
   5
4B
 100
AcDbSymbolTableRecord
 100
AcDbBlockTableRecord
   2
BLOCK007
   0
BLOCK_RECORD
   5
4C
 100
AcDbSymbolTableRecord
 100
AcDbBlockTableRecord
   2
*D1
   0
BLOCK_RECORD
   5
4D
 100
AcDbSymbolTableRecord
 100
AcDbBlockTableRecord
   2
*D2
   0
BLOCK_RECORD
   5
4E
 100
AcDbSymbolTableRecord
 100
AcDbBlockTableRecord
   2
*D3
   0
BLOCK_RECORD
   5
4F
 100
AcDbSymbolTableRecord
 100
AcDbBlockTableRecord
   2
*D4
   0
BLOCK_RECORD
   5
50
 100
AcDbSymbolTableRecord
 100
AcDbBlockTableRecord
   2
*D5
   0
BLOCK_RECORD
   5
51
 100
AcDbSymbolTableRecord
 100
AcDbBlockTableRecord
   2
*D6
   0
BLOCK_RECORD
   5
52
 100
AcDbSymbolTableRecord
 100
AcDbBlockTableRecord
   2
*D7
   0
BLOCK_RECORD
   5
53
 100
AcDbSymbolTableRecord
 100
AcDbBlockTableRecord
   2
_ARCHTICK
   0
BLOCK_RECORD
   5
54
 100
AcDbSymbolTableRecord
 100
AcDbBlockTableRecord
   2
_BOXBLANK
   0
BLOCK_RECORD
   5
55
 100
AcDbSymbolTableRecord
 100
AcDbBlockTableRecord
   2
_BOXFILLED
   0
BLOCK_RECORD
   5
56
 100
AcDbSymbolTableRecord
 100
AcDbBlockTableRecord
   2
_CLOSED
   0
BLOCK_RECORD
   5
57
 100
AcDbSymbolTableRecord
 100
AcDbBlockTableRecord
   2
_CLOSEDBLANK
   0
BLOCK_RECORD
   5
58
 100
AcDbSymbolTableRecord
 100
AcDbBlockTableRecord
   2
_DATUMBLANK
   0
BLOCK_RECORD
   5
59
 100
AcDbSymbolTableRecord
 100
AcDbBlockTableRecord
   2
_DATUMFILLED
   0
BLOCK_RECORD
   5
5A
 100
AcDbSymbolTableRecord
 100
AcDbBlockTableRecord
   2
_DOT
   0
BLOCK_RECORD
   5
5B
 100
AcDbSymbolTableRecord
 100
AcDbBlockTableRecord
   2
_DOTBLANK
   0
BLOCK_RECORD
   5
5C
 100
AcDbSymbolTableRecord
 100
AcDbBlockTableRecord
   2
_DOTSMALL
   0
BLOCK_RECORD
   5
5D
 100
AcDbSymbolTableRecord
 100
AcDbBlockTableRecord
   2
_INTEGRAL
   0
BLOCK_RECORD
   5
5E
 100
AcDbSymbolTableRecord
 100
AcDbBlockTableRecord
   2
_NONE
   0
BLOCK_RECORD
   5
5F
 100
AcDbSymbolTableRecord
 100
AcDbBlockTableRecord
   2
_OBLIQUE
   0
BLOCK_RECORD
   5
60
 100
AcDbSymbolTableRecord
 100
AcDbBlockTableRecord
   2
_OPEN
   0
BLOCK_RECORD
   5
61
 100
AcDbSymbolTableRecord
 100
AcDbBlockTableRecord
   2
_OPEN30
   0
BLOCK_RECORD
   5
62
 100
AcDbSymbolTableRecord
 100
AcDbBlockTableRecord
   2
_OPEN90
   0
BLOCK_RECORD
   5
63
 100
AcDbSymbolTableRecord
 100
AcDbBlockTableRecord
   2
_ORIGIN
   0
ENDTAB
   0
ENDSEC
  0
SECTION
  2
BLOCKS
  0
BLOCK
  5
19
100
AcDbEntity
  8
0
100
AcDbBlockBegin
  2
*MODEL_SPACE
 70
     0
 10
0.0
 20
0.0
 30
0.0
  3
*MODEL_SPACE
  1

  0
ENDBLK
  5
1A
100
AcDbEntity
  8
0
100
AcDbBlockEnd
  0
BLOCK
  5
16
100
AcDbEntity
 67
     1
  8
0
100
AcDbBlockBegin
  2
*PAPER_SPACE
 70
     0
 10
0.0
 20
0.0
 30
0.0
  3
*PAPER_SPACE
  1

  0
ENDBLK
  5
17
100
AcDbEntity
 67
     1
  8
0
100
AcDbBlockEnd
   0
BLOCK
   5
64
 100
AcDbEntity
   8
0
 100
AcDbBlockBegin
   2
_ARCHTICK
  70
0
  10
0.0
  20
0.0
  30
0.0
   3
_ARCHTICK
   0
POLYLINE
   5
65
 100
AcDbEntity
   8
0
 370
-2
   6
BYBLOCK
  62
0
 100
AcDb2dPolyline
  66
1
  10
0.0
  20
0.0
  30
0.0
  70
1
  40
 0.15000000000000
  41
 0.15000000000000
   0
VERTEX
   5
66
 100
AcDbEntity
   8
0
   6
BYBLOCK
  62
0
 100
AcDbVertex
 100
AcDb2dVertex
  10
-0.50000000000000
  20
-0.50000000000000
  30
0.0
  40
 0.15000000000000
  41
 0.15000000000000
   0
VERTEX
   5
67
 100
AcDbEntity
   8
0
   6
BYBLOCK
  62
0
 100
AcDbVertex
 100
AcDb2dVertex
  10
 0.50000000000000
  20
 0.50000000000000
  30
0.0
  40
 0.15000000000000
  41
 0.15000000000000
   0
SEQEND
   5
68
 100
AcDbEntity
   8
0
   6
BYBLOCK
  62
0
   0
ENDBLK
   5
69
 100
AcDbEntity
   8
0
 100
AcDbBlockEnd
   0
BLOCK
   5
6A
 100
AcDbEntity
   8
0
 100
AcDbBlockBegin
   2
_OBLIQUE
  70
0
  10
0.0
  20
0.0
  30
0.0
   3
_OBLIQUE
   0
LINE
   5
6B
 100
AcDbEntity
   8
0
 370
-2
 100
AcDbLine
   6
BYBLOCK
  62
0
  10
-0.50000000000000
  20
-0.50000000000000
  30
0.0
  11
 0.50000000000000
  21
 0.50000000000000
  31
0.0
   0
ENDBLK
   5
6C
 100
AcDbEntity
   8
0
 100
AcDbBlockEnd
   0
BLOCK
   5
6D
 100
AcDbEntity
   8
0
 100
AcDbBlockBegin
   2
_BOXBLANK
  70
0
  10
0.0
  20
0.0
  30
0.0
   3
_BOXBLANK
   0
LINE
   5
6E
 100
AcDbEntity
   8
0
 370
-2
 100
AcDbLine
   6
BYBLOCK
  62
0
  10
-0.50000000000000
  20
-0.50000000000000
  30
0.0
  11
 0.50000000000000
  21
-0.50000000000000
  31
0.0
   0
LINE
   5
6F
 100
AcDbEntity
   8
0
 370
-2
 100
AcDbLine
   6
BYBLOCK
  62
0
  10
 0.50000000000000
  20
-0.50000000000000
  30
0.0
  11
 0.50000000000000
  21
 0.50000000000000
  31
0.0
   0
LINE
   5
70
 100
AcDbEntity
   8
0
 370
-2
 100
AcDbLine
   6
BYBLOCK
  62
0
  10
 0.50000000000000
  20
 0.50000000000000
  30
0.0
  11
-0.50000000000000
  21
 0.50000000000000
  31
0.0
   0
LINE
   5
71
 100
AcDbEntity
   8
0
 370
-2
 100
AcDbLine
   6
BYBLOCK
  62
0
  10
-0.50000000000000
  20
 0.50000000000000
  30
0.0
  11
-0.50000000000000
  21
-0.50000000000000
  31
0.0
   0
LINE
   5
72
 100
AcDbEntity
   8
0
 370
-2
 100
AcDbLine
   6
BYBLOCK
  62
0
  10
-0.50000000000000
  20
0.0
  30
0.0
  11
-1.0000000000000
  21
0.0
  31
0.0
   0
ENDBLK
   5
73
 100
AcDbEntity
   8
0
 100
AcDbBlockEnd
   0
BLOCK
   5
74
 100
AcDbEntity
   8
0
 100
AcDbBlockBegin
   2
_BOXFILLED
  70
0
  10
0.0
  20
0.0
  30
0.0
   3
_BOXFILLED
   0
SOLID
   5
75
 100
AcDbEntity
   8
0
 100
AcDbTrace
   6
BYBLOCK
  62
0
  10
-0.50000000000000
  20
 0.50000000000000
  30
0.0
  11
 0.50000000000000
  21
 0.50000000000000
  31
0.0
  12
-0.50000000000000
  22
-0.50000000000000
  32
0.0
  13
 0.50000000000000
  23
-0.50000000000000
  33
0.0
   0
LINE
   5
76
 100
AcDbEntity
   8
0
 370
-2
 100
AcDbLine
   6
BYBLOCK
  62
0
  10
-0.50000000000000
  20
0.0
  30
0.0
  11
-1.0000000000000
  21
0.0
  31
0.0
   0
ENDBLK
   5
77
 100
AcDbEntity
   8
0
 100
AcDbBlockEnd
   0
BLOCK
   5
78
 100
AcDbEntity
   8
0
 100
AcDbBlockBegin
   2
_CLOSED
  70
0
  10
0.0
  20
0.0
  30
0.0
   3
_CLOSED
   0
LINE
   5
79
 100
AcDbEntity
   8
0
 370
-2
 100
AcDbLine
   6
BYBLOCK
  62
0
  10
-1.0000000000000
  20
 0.16666666666667
  30
0.0
  11
0.0
  21
0.0
  31
0.0
   0
LINE
   5
7A
 100
AcDbEntity
   8
0
 370
-2
 100
AcDbLine
   6
BYBLOCK
  62
0
  10
0.0
  20
0.0
  30
0.0
  11
-1.0000000000000
  21
-0.16666666666667
  31
0.0
   0
LINE
   5
7B
 100
AcDbEntity
   8
0
 370
-2
 100
AcDbLine
   6
BYBLOCK
  62
0
  10
-1.0000000000000
  20
 0.16666666666667
  30
0.0
  11
-1.0000000000000
  21
-0.16666666666667
  31
0.0
   0
LINE
   5
7C
 100
AcDbEntity
   8
0
 370
-2
 100
AcDbLine
   6
BYBLOCK
  62
0
  10
0.0
  20
0.0
  30
0.0
  11
-1.0000000000000
  21
0.0
  31
0.0
   0
ENDBLK
   5
7D
 100
AcDbEntity
   8
0
 100
AcDbBlockEnd
   0
BLOCK
   5
7E
 100
AcDbEntity
   8
0
 100
AcDbBlockBegin
   2
_OPEN
  70
0
  10
0.0
  20
0.0
  30
0.0
   3
_OPEN
   0
LINE
   5
7F
 100
AcDbEntity
   8
0
 370
-2
 100
AcDbLine
   6
BYBLOCK
  62
0
  10
-1.0000000000000
  20
 0.16666666666667
  30
0.0
  11
0.0
  21
0.0
  31
0.0
   0
LINE
   5
80
 100
AcDbEntity
   8
0
 370
-2
 100
AcDbLine
   6
BYBLOCK
  62
0
  10
0.0
  20
0.0
  30
0.0
  11
-1.0000000000000
  21
-0.16666666666667
  31
0.0
   0
LINE
   5
81
 100
AcDbEntity
   8
0
 370
-2
 100
AcDbLine
   6
BYBLOCK
  62
0
  10
0.0
  20
0.0
  30
0.0
  11
-1.0000000000000
  21
0.0
  31
0.0
   0
ENDBLK
   5
82
 100
AcDbEntity
   8
0
 100
AcDbBlockEnd
   0
BLOCK
   5
83
 100
AcDbEntity
   8
0
 100
AcDbBlockBegin
   2
_OPEN30
  70
0
  10
0.0
  20
0.0
  30
0.0
   3
_OPEN30
   0
LINE
   5
84
 100
AcDbEntity
   8
0
 370
-2
 100
AcDbLine
   6
BYBLOCK
  62
0
  10
-1.0000000000000
  20
 0.26794919243110
  30
0.0
  11
0.0
  21
0.0
  31
0.0
   0
LINE
   5
85
 100
AcDbEntity
   8
0
 370
-2
 100
AcDbLine
   6
BYBLOCK
  62
0
  10
0.0
  20
0.0
  30
0.0
  11
-1.0000000000000
  21
-0.26794919243110
  31
0.0
   0
LINE
   5
86
 100
AcDbEntity
   8
0
 370
-2
 100
AcDbLine
   6
BYBLOCK
  62
0
  10
0.0
  20
0.0
  30
0.0
  11
-1.0000000000000
  21
0.0
  31
0.0
   0
ENDBLK
   5
87
 100
AcDbEntity
   8
0
 100
AcDbBlockEnd
   0
BLOCK
   5
88
 100
AcDbEntity
   8
0
 100
AcDbBlockBegin
   2
_OPEN90
  70
0
  10
0.0
  20
0.0
  30
0.0
   3
_OPEN90
   0
LINE
   5
89
 100
AcDbEntity
   8
0
 370
-2
 100
AcDbLine
   6
BYBLOCK
  62
0
  10
-0.50000000000000
  20
 0.50000000000000
  30
0.0
  11
0.0
  21
0.0
  31
0.0
   0
LINE
   5
8A
 100
AcDbEntity
   8
0
 370
-2
 100
AcDbLine
   6
BYBLOCK
  62
0
  10
0.0
  20
0.0
  30
0.0
  11
-0.50000000000000
  21
-0.50000000000000
  31
0.0
   0
LINE
   5
8B
 100
AcDbEntity
   8
0
 370
-2
 100
AcDbLine
   6
BYBLOCK
  62
0
  10
0.0
  20
0.0
  30
0.0
  11
-1.0000000000000
  21
0.0
  31
0.0
   0
ENDBLK
   5
8C
 100
AcDbEntity
   8
0
 100
AcDbBlockEnd
   0
BLOCK
   5
8D
 100
AcDbEntity
   8
0
 100
AcDbBlockBegin
   2
_CLOSEDBLANK
  70
0
  10
0.0
  20
0.0
  30
0.0
   3
_CLOSEDBLANK
   0
LINE
   5
8E
 100
AcDbEntity
   8
0
 370
-2
 100
AcDbLine
   6
BYBLOCK
  62
0
  10
-1.0000000000000
  20
 0.16666666666667
  30
0.0
  11
0.0
  21
0.0
  31
0.0
   0
LINE
   5
8F
 100
AcDbEntity
   8
0
 370
-2
 100
AcDbLine
   6
BYBLOCK
  62
0
  10
0.0
  20
0.0
  30
0.0
  11
-1.0000000000000
  21
-0.16666666666667
  31
0.0
   0
LINE
   5
90
 100
AcDbEntity
   8
0
 370
-2
 100
AcDbLine
   6
BYBLOCK
  62
0
  10
-1.0000000000000
  20
 0.16666666666667
  30
0.0
  11
-1.0000000000000
  21
-0.16666666666667
  31
0.0
   0
ENDBLK
   5
91
 100
AcDbEntity
   8
0
 100
AcDbBlockEnd
   0
BLOCK
   5
92
 100
AcDbEntity
   8
0
 100
AcDbBlockBegin
   2
_DOT
  70
0
  10
0.0
  20
0.0
  30
0.0
   3
_DOT
   0
POLYLINE
   5
93
 100
AcDbEntity
   8
0
 370
-2
   6
BYBLOCK
  62
0
 100
AcDb2dPolyline
  66
1
  10
0.0
  20
0.0
  30
0.0
  70
1
  40
 0.50000000000000
  41
 0.50000000000000
   0
VERTEX
   5
94
 100
AcDbEntity
   8
0
   6
BYBLOCK
  62
0
 100
AcDbVertex
 100
AcDb2dVertex
  10
-0.25000000000000
  20
0.0
  30
0.0
  42
 1.0000000000000
  40
 0.50000000000000
  41
 0.50000000000000
   0
VERTEX
   5
95
 100
AcDbEntity
   8
0
   6
BYBLOCK
  62
0
 100
AcDbVertex
 100
AcDb2dVertex
  10
 0.25000000000000
  20
0.0
  30
0.0
  42
 1.0000000000000
  40
 0.50000000000000
  41
 0.50000000000000
   0
SEQEND
   5
96
 100
AcDbEntity
   8
0
   6
BYBLOCK
  62
0
   0
LINE
   5
97
 100
AcDbEntity
   8
0
 370
-2
 100
AcDbLine
   6
BYBLOCK
  62
0
  10
-0.50000000000000
  20
0.0
  30
0.0
  11
-1.0000000000000
  21
0.0
  31
0.0
   0
ENDBLK
   5
98
 100
AcDbEntity
   8
0
 100
AcDbBlockEnd
   0
BLOCK
   5
99
 100
AcDbEntity
   8
0
 100
AcDbBlockBegin
   2
_DOTSMALL
  70
0
  10
0.0
  20
0.0
  30
0.0
   3
_DOTSMALL
   0
POLYLINE
   5
9A
 100
AcDbEntity
   8
0
 370
-2
   6
BYBLOCK
  62
0
 100
AcDb2dPolyline
  66
1
  10
0.0
  20
0.0
  30
0.0
  70
1
  40
 0.50000000000000
  41
 0.50000000000000
   0
VERTEX
   5
9B
 100
AcDbEntity
   8
0
   6
BYBLOCK
  62
0
 100
AcDbVertex
 100
AcDb2dVertex
  10
-0.62500000000000E-1
  20
0.0
  30
0.0
  42
 1.0000000000000
  40
 0.50000000000000
  41
 0.50000000000000
   0
VERTEX
   5
9C
 100
AcDbEntity
   8
0
   6
BYBLOCK
  62
0
 100
AcDbVertex
 100
AcDb2dVertex
  10
 0.62500000000000E-1
  20
0.0
  30
0.0
  42
 1.0000000000000
  40
 0.50000000000000
  41
 0.50000000000000
   0
SEQEND
   5
9D
 100
AcDbEntity
   8
0
   6
BYBLOCK
  62
0
   0
ENDBLK
   5
9E
 100
AcDbEntity
   8
0
 100
AcDbBlockEnd
   0
BLOCK
   5
9F
 100
AcDbEntity
   8
0
 100
AcDbBlockBegin
   2
_DATUMBLANK
  70
0
  10
0.0
  20
0.0
  30
0.0
   3
_DATUMBLANK
   0
LINE
   5
A0
 100
AcDbEntity
   8
0
 370
-2
 100
AcDbLine
   6
BYBLOCK
  62
0
  10
0.0
  20
 0.57735027000000
  30
0.0
  11
-1.0000000000000
  21
0.0
  31
0.0
   0
LINE
   5
A1
 100
AcDbEntity
   8
0
 370
-2
 100
AcDbLine
   6
BYBLOCK
  62
0
  10
-1.0000000000000
  20
0.0
  30
0.0
  11
0.0
  21
-0.57735027000000
  31
0.0
   0
LINE
   5
A2
 100
AcDbEntity
   8
0
 370
-2
 100
AcDbLine
   6
BYBLOCK
  62
0
  10
0.0
  20
-0.57735027000000
  30
0.0
  11
0.0
  21
 0.57735027000000
  31
0.0
   0
ENDBLK
   5
A3
 100
AcDbEntity
   8
0
 100
AcDbBlockEnd
   0
BLOCK
   5
A4
 100
AcDbEntity
   8
0
 100
AcDbBlockBegin
   2
_DATUMFILLED
  70
0
  10
0.0
  20
0.0
  30
0.0
   3
_DATUMFILLED
   0
SOLID
   5
A5
 100
AcDbEntity
   8
0
 100
AcDbTrace
   6
BYBLOCK
  62
0
  10
0.0
  20
 0.57735027000000
  30
0.0
  11
-1.0000000000000
  21
0.0
  31
0.0
  12
0.0
  22
-0.57735027000000
  32
0.0
  13
0.0
  23
-0.57735027000000
  33
0.0
   0
ENDBLK
   5
A6
 100
AcDbEntity
   8
0
 100
AcDbBlockEnd
   0
BLOCK
   5
A7
 100
AcDbEntity
   8
0
 100
AcDbBlockBegin
   2
_ORIGIN
  70
0
  10
0.0
  20
0.0
  30
0.0
   3
_ORIGIN
   0
CIRCLE
   5
A8
 100
AcDbEntity
   8
0
 370
-2
 100
AcDbCircle
   6
BYBLOCK
  62
0
  10
0.0
  20
0.0
  30
0.0
  40
 0.50000000000000
   0
LINE
   5
A9
 100
AcDbEntity
   8
0
 370
-2
 100
AcDbLine
   6
BYBLOCK
  62
0
  10
0.0
  20
0.0
  30
0.0
  11
-1.0000000000000
  21
0.0
  31
0.0
   0
ENDBLK
   5
AA
 100
AcDbEntity
   8
0
 100
AcDbBlockEnd
   0
BLOCK
   5
AB
 100
AcDbEntity
   8
0
 100
AcDbBlockBegin
   2
_NONE
  70
0
  10
0.0
  20
0.0
  30
0.0
   3
_NONE
   0
CIRCLE
   5
AC
 100
AcDbEntity
   8
0
 370
-2
 100
AcDbCircle
   6
BYBLOCK
  62
0
  10
0.0
  20
0.0
  30
0.0
  40
 0.25000000000000
   0
ENDBLK
   5
AD
 100
AcDbEntity
   8
0
 100
AcDbBlockEnd
   0
BLOCK
   5
AE
 100
AcDbEntity
   8
0
 100
AcDbBlockBegin
   2
_DOTBLANK
  70
0
  10
0.0
  20
0.0
  30
0.0
   3
_DOTBLANK
   0
CIRCLE
   5
AF
 100
AcDbEntity
   8
0
 370
-2
 100
AcDbCircle
   6
BYBLOCK
  62
0
  10
0.0
  20
0.0
  30
0.0
  40
 0.50000000000000
   0
LINE
   5
B0
 100
AcDbEntity
   8
0
 370
-2
 100
AcDbLine
   6
BYBLOCK
  62
0
  10
-0.50000000000000
  20
0.0
  30
0.0
  11
-1.0000000000000
  21
0.0
  31
0.0
   0
ENDBLK
   5
B1
 100
AcDbEntity
   8
0
 100
AcDbBlockEnd
   0
BLOCK
   5
B2
 100
AcDbEntity
   8
0
 100
AcDbBlockBegin
   2
_INTEGRAL
  70
0
  10
0.0
  20
0.0
  30
0.0
   3
_INTEGRAL
   0
ARC
   5
B3
 100
AcDbEntity
   8
0
 370
-2
   6
BYBLOCK
  62
0
 100
AcDbCircle
  10
 0.44488800000000
  20
-0.91335000000000E-1
  30
0.0
  40
 0.45416700000000
 100
AcDbArc
  50
 102.00000000000
  51
 168.00000000000
   0
ARC
   5
B4
 100
AcDbEntity
   8
0
 370
-2
   6
BYBLOCK
  62
0
 100
AcDbCircle
  10
-0.44488800000000
  20
 0.91335000000000E-1
  30
0.0
  40
 0.45416700000000
 100
AcDbArc
  50
 282.00000000000
  51
 348.00000000000
   0
ENDBLK
   5
B5
 100
AcDbEntity
   8
0
 100
AcDbBlockEnd
   0
BLOCK
   5
B6
 100
AcDbEntity
   8
0
 100
AcDbBlockBegin
   2
BLOCK001
  70
64
  10
0.0
  20
0.0
  30
0.0
   3
BLOCK001
   0
LINE
   5
B7
 100
AcDbEntity
   8
LEVEL001
 370
30
 100
AcDbLine
   6
CONTINUOUS
  62
7
  10
 3548.7796451289
  20
 288.00000000000
  30
0.0
  11
 4636.7796451289
  21
 288.00000000000
  31
0.0
   0
LINE
   5
B8
 100
AcDbEntity
   8
LEVEL001
 370
30
 100
AcDbLine
   6
CONTINUOUS
  62
7
  10
 3548.7796451289
  20
 192.00000000000
  30
0.0
  11
 4636.7796451289
  21
 192.00000000000
  31
0.0
   0
LINE
   5
B9
 100
AcDbEntity
   8
LEVEL001
 370
30
 100
AcDbLine
   6
CONTINUOUS
  62
7
  10
 3548.7796451289
  20
 288.00000000000
  30
0.0
  11
 3548.7796451289
  21
 192.00000000000
  31
0.0
   0
LINE
   5
BA
 100
AcDbEntity
   8
LEVEL001
 370
30
 100
AcDbLine
   6
CONTINUOUS
  62
7
  10
 3612.7796451289
  20
 288.00000000000
  30
0.0
  11
 3612.7796451289
  21
 192.00000000000
  31
0.0
   0
LINE
   5
BB
 100
AcDbEntity
   8
LEVEL001
 370
30
 100
AcDbLine
   6
CONTINUOUS
  62
7
  10
 4092.7796451289
  20
 288.00000000000
  30
0.0
  11
 4092.7796451289
  21
 192.00000000000
  31
0.0
   0
LINE
   5
BC
 100
AcDbEntity
   8
LEVEL001
 370
30
 100
AcDbLine
   6
CONTINUOUS
  62
7
  10
 4156.7796451289
  20
 288.00000000000
  30
0.0
  11
 4156.7796451289
  21
 192.00000000000
  31
0.0
   0
LINE
   5
BD
 100
AcDbEntity
   8
LEVEL001
 370
30
 100
AcDbLine
   6
CONTINUOUS
  62
7
  10
 4636.7796451289
  20
 288.00000000000
  30
0.0
  11
 4636.7796451289
  21
 192.00000000000
  31
0.0
   0
ENDBLK
   5
BE
 100
AcDbEntity
   8
0
 100
AcDbBlockEnd
   0
BLOCK
   5
BF
 100
AcDbEntity
   8
0
 100
AcDbBlockBegin
   2
BLOCK002
  70
64
  10
0.0
  20
0.0
  30
0.0
   3
BLOCK002
   0
LINE
   5
C0
 100
AcDbEntity
   8
LEVEL001
 370
30
 100
AcDbLine
   6
CONTINUOUS
  62
7
  10
 3548.7796451289
  20
 192.00000000000
  30
0.0
  11
 4636.7796451289
  21
 192.00000000000
  31
0.0
   0
LINE
   5
C1
 100
AcDbEntity
   8
LEVEL001
 370
30
 100
AcDbLine
   6
CONTINUOUS
  62
7
  10
 3852.7796451289
  20
 128.00000000000
  30
0.0
  11
 4636.7796451289
  21
 128.00000000000
  31
0.0
   0
LINE
   5
C2
 100
AcDbEntity
   8
LEVEL001
 370
30
 100
AcDbLine
   6
CONTINUOUS
  62
7
  10
 3548.7796451289
  20
 64.000000000000
  30
0.0
  11
 4636.7796451289
  21
 64.000000000000
  31
0.0
   0
LINE
   5
C3
 100
AcDbEntity
   8
LEVEL001
 370
30
 100
AcDbLine
   6
CONTINUOUS
  62
7
  10
 3548.7796451289
  20
0.0
  30
0.0
  11
 4636.7796451289
  21
0.0
  31
0.0
   0
LINE
   5
C4
 100
AcDbEntity
   8
LEVEL001
 370
30
 100
AcDbLine
   6
CONTINUOUS
  62
7
  10
 3548.7796451289
  20
 192.00000000000
  30
0.0
  11
 3548.7796451289
  21
0.0
  31
0.0
   0
LINE
   5
C5
 100
AcDbEntity
   8
LEVEL001
 370
30
 100
AcDbLine
   6
CONTINUOUS
  62
7
  10
 3612.7796451289
  20
 192.00000000000
  30
0.0
  11
 3612.7796451289
  21
 64.000000000000
  31
0.0
   0
LINE
   5
C6
 100
AcDbEntity
   8
LEVEL001
 370
30
 100
AcDbLine
   6
CONTINUOUS
  62
7
  10
 3852.7796451289
  20
 192.00000000000
  30
0.0
  11
 3852.7796451289
  21
 64.000000000000
  31
0.0
   0
LINE
   5
C7
 100
AcDbEntity
   8
LEVEL001
 370
30
 100
AcDbLine
   6
CONTINUOUS
  62
7
  10
 4092.7796451289
  20
 192.00000000000
  30
0.0
  11
 4092.7796451289
  21
 64.000000000000
  31
0.0
   0
LINE
   5
C8
 100
AcDbEntity
   8
LEVEL001
 370
30
 100
AcDbLine
   6
CONTINUOUS
  62
7
  10
 4156.7796451289
  20
 192.00000000000
  30
0.0
  11
 4156.7796451289
  21
 64.000000000000
  31
0.0
   0
LINE
   5
C9
 100
AcDbEntity
   8
LEVEL001
 370
30
 100
AcDbLine
   6
CONTINUOUS
  62
7
  10
 4316.7796451289
  20
 192.00000000000
  30
0.0
  11
 4316.7796451289
  21
 64.000000000000
  31
0.0
   0
LINE
   5
CA
 100
AcDbEntity
   8
LEVEL001
 370
30
 100
AcDbLine
   6
CONTINUOUS
  62
7
  10
 4372.7796451289
  20
 192.00000000000
  30
0.0
  11
 4372.7796451289
  21
 64.000000000000
  31
0.0
   0
LINE
   5
CB
 100
AcDbEntity
   8
LEVEL001
 370
30
 100
AcDbLine
   6
CONTINUOUS
  62
7
  10
 4420.7796451289
  20
 192.00000000000
  30
0.0
  11
 4420.7796451289
  21
 64.000000000000
  31
0.0
   0
LINE
   5
CC
 100
AcDbEntity
   8
LEVEL001
 370
30
 100
AcDbLine
   6
CONTINUOUS
  62
7
  10
 4476.7796451289
  20
 192.00000000000
  30
0.0
  11
 4476.7796451289
  21
 64.000000000000
  31
0.0
   0
LINE
   5
CD
 100
AcDbEntity
   8
LEVEL001
 370
30
 100
AcDbLine
   6
CONTINUOUS
  62
7
  10
 4636.7796451289
  20
 192.00000000000
  30
0.0
  11
 4636.7796451289
  21
0.0
  31
0.0
   0
ENDBLK
   5
CE
 100
AcDbEntity
   8
0
 100
AcDbBlockEnd
   0
BLOCK
   5
CF
 100
AcDbEntity
   8
0
 100
AcDbBlockBegin
   2
BLOCK003
  70
64
  10
0.0
  20
0.0
  30
0.0
   3
BLOCK003
   0
MTEXT
   5
D1
 100
AcDbEntity
   8
LEVEL001
 370
30
  62
7
 100
AcDbMText
  10
 3846.3796817500
  20
 16.000000000000
  30
0.0
  40
 32.000000000000
  41
0.0
  71
7
  72
1
   1
\T1.800000;さぬき麺機株式会社
   7
GMM001
  44
 0.79999984000003
   0
TEXT
   5
D2
 100
AcDbEntity
   8
LEVEL001
 370
30
  62
7
 100
AcDbText
  10
 3566.7796451289
  20
 280.88885498047
  30
0.0
  40
 4.0000000000000
   1
名称
   7
STANDARD1
 100
AcDbText
   0
TEXT
   5
D3
 100
AcDbEntity
   8
LEVEL001
 370
30
  62
7
 100
AcDbText
  10
 4110.7796451289
  20
 280.88879394531
  30
0.0
  40
 4.0000000000000
   1
図番
   7
STANDARD1
 100
AcDbText
   0
TEXT
   5
D4
 100
AcDbEntity
   8
LEVEL001
 370
30
  62
7
 100
AcDbText
  10
 3566.7796451289
  20
 174.22222264608
  30
0.0
  40
 4.0000000000000
   1
画法
   7
STANDARD1
 100
AcDbText
   0
MTEXT
   5
D6
 100
AcDbEntity
   8
LEVEL001
 370
30
  62
7
 100
AcDbMText
  10
 3635.1796457011
  20
 112.00000000000
  30
0.0
  40
 32.000000000000
  41
0.0
  71
7
  72
1
   1
\T1.700000;第三角法
   7
GMM001
  44
 0.79999984000003
   0
MTEXT
   5
D8
 100
AcDbEntity
   8
LEVEL001
 370
30
  62
7
 100
AcDbMText
  10
 3875.1796457011
  20
 144.00000000000
  30
0.0
  40
 32.000000000000
  41
0.0
  71
7
  72
1
   1
\T1.700000;共通機種
   7
GMM001
  44
 0.79999984000003
   0
MTEXT
   5
DA
 100
AcDbEntity
   8
LEVEL001
 370
30
  62
7
 100
AcDbMText
  10
 4099.1796447513
  20
 144.00000000000
  30
0.0
  40
 32.000000000000
  41
0.0
  71
7
  72
1
   1
\T1.000000;個数
   7
GMM003
  44
 0.79999984000003
   0
MTEXT
   5
DC
 100
AcDbEntity
   8
LEVEL001
 370
30
  62
7
 100
AcDbMText
  10
 4188.7796451289
  20
 144.00000000000
  30
0.0
  40
 32.000000000000
  41
0.0
  71
7
  72
1
   1
\T2.000000;尺度
   7
GMM001
  44
 0.79999984000003
   0
MTEXT
   5
DE
 100
AcDbEntity
   8
LEVEL001
 370
30
  62
7
 100
AcDbMText
  10
 4332.7796451289
  20
 144.00000000000
  30
0.0
  40
 32.000000000000
  41
0.0
  71
7
  72
1
   1
\T1.500000;年月日
   7
GMM001
  44
 0.79999984000003
   0
MTEXT
   5
E0
 100
AcDbEntity
   8
LEVEL001
 370
30
  62
7
 100
AcDbMText
  10
 4508.7796451289
  20
 144.00000000000
  30
0.0
  40
 32.000000000000
  41
0.0
  71
7
  72
1
   1
\T2.000000;製図
   7
GMM001
  44
 0.79999984000003
   0
ENDBLK
   5
E1
 100
AcDbEntity
   8
0
 100
AcDbBlockEnd
   0
BLOCK
   5
E2
 100
AcDbEntity
   8
0
 100
AcDbBlockBegin
   2
GMM001
  70
64
  10
0.0
  20
0.0
  30
0.0
   3
GMM001
   0
LWPOLYLINE
   5
E3
 100
AcDbEntity
   8
LEVEL001
 370
30
   6
CONTINUOUS
  62
7
 100
AcDbPolyline
  90
4
  70
1
  10
-568.00000000000
  20
 394.00000000000
  10
-568.00000000000
  20
0.0
  10
0.0
  20
0.0
  10
0.0
  20
 394.00000000000
   0
ENDBLK
   5
E4
 100
AcDbEntity
   8
0
 100
AcDbBlockEnd
   0
BLOCK
   5
E5
 100
AcDbEntity
   8
0
 100
AcDbBlockBegin
   2
BLOCK004
  70
64
  10
0.0
  20
0.0
  30
0.0
   3
BLOCK004
   0
LWPOLYLINE
   5
E6
 100
AcDbEntity
   8
LEVEL001
 370
30
   6
CONTINUOUS
  62
7
 100
AcDbPolyline
  90
4
  70
1
  10
 1721.2292705588
  20
 686.84564599341
  10
 1581.2292705588
  20
 686.84564599341
  10
 1581.2292705588
  20
 711.84564599341
  10
 1721.2292705588
  20
 711.84564599341
   0
LWPOLYLINE
   5
E7
 100
AcDbEntity
   8
LEVEL001
 370
30
   6
CONTINUOUS
  62
7
 100
AcDbPolyline
  90
4
  70
1
  10
 1794.4664761425
  20
 313.64564599341
  10
 1484.4664761425
  20
 313.64564599341
  10
 1484.4664761425
  20
 318.14564599341
  10
 1794.4664761425
  20
 318.14564599341
   0
ARC
   5
E8
 100
AcDbEntity
   8
LEVEL001
 370
30
   6
CONTINUOUS
  62
7
 100
AcDbCircle
  10
 1769.4664761425
  20
 298.64564599341
  30
0.0
  40
 12.000000000000
 100
AcDbArc
  50
0.0
  51
 180.00000000000
   0
LWPOLYLINE
   5
E9
 100
AcDbEntity
   8
LEVEL001
 370
30
   6
CONTINUOUS
  62
7
 100
AcDbPolyline
  90
4
  70
0
  10
 1781.4664761425
  20
 298.64564599341
  10
 1781.4664761425
  20
 266.14564599341
  10
 1783.4664761425
  20
 266.14564599341
  10
 1783.4664761425
  20
 313.64564599341
   0
LWPOLYLINE
   5
EA
 100
AcDbEntity
   8
LEVEL001
 370
30
   6
CONTINUOUS
  62
7
 100
AcDbPolyline
  90
4
  70
0
  10
 1755.4664761425
  20
 313.64564599341
  10
 1755.4664761425
  20
 266.14564599341
  10
 1757.4664761425
  20
 266.14564599341
  10
 1757.4664761425
  20
 298.64564599341
   0
ARC
   5
EB
 100
AcDbEntity
   8
LEVEL001
 370
30
   6
CONTINUOUS
  62
7
 100
AcDbCircle
  10
 1509.4664761425
  20
 298.64564599341
  30
0.0
  40
 12.000000000000
 100
AcDbArc
  50
0.0
  51
 180.00000000000
   0
LWPOLYLINE
   5
EC
 100
AcDbEntity
   8
LEVEL001
 370
30
   6
CONTINUOUS
  62
7
 100
AcDbPolyline
  90
4
  70
0
  10
 1521.4664761425
  20
 298.64564599341
  10
 1521.4664761425
  20
 266.14564599341
  10
 1523.4664761425
  20
 266.14564599341
  10
 1523.4664761425
  20
 313.64564599341
   0
LWPOLYLINE
   5
ED
 100
AcDbEntity
   8
LEVEL001
 370
30
   6
CONTINUOUS
  62
7
 100
AcDbPolyline
  90
4
  70
0
  10
 1495.4664761425
  20
 313.64564599341
  10
 1495.4664761425
  20
 266.14564599341
  10
 1497.4664761425
  20
 266.14564599341
  10
 1497.4664761425
  20
 298.64564599341
   0
LWPOLYLINE
   5
EE
 100
AcDbEntity
   8
LEVEL001
 370
30
   6
CONTINUOUS
  62
7
 100
AcDbPolyline
  90
4
  70
1
  10
 1779.9664761425
  20
 248.64564599341
  10
 1758.9664761425
  20
 248.64564599341
  10
 1758.9664761425
  20
 298.64564599341
  10
 1779.9664761425
  20
 298.64564599341
   0
LWPOLYLINE
   5
EF
 100
AcDbEntity
   8
LEVEL001
 370
30
   6
CONTINUOUS
  62
7
 100
AcDbPolyline
  90
4
  70
1
  10
 1519.9664761425
  20
 248.64564599341
  10
 1498.9664761425
  20
 248.64564599341
  10
 1498.9664761425
  20
 298.64564599341
  10
 1519.9664761425
  20
 298.64564599341
   0
CIRCLE
   5
F0
 100
AcDbEntity
   8
LEVEL001
 370
30
 100
AcDbCircle
   6
CONTINUOUS
  62
7
  10
 1684.4401431007
  20
 843.86000599310
  30
0.0
  40
 7.7000000000000
   0
LINE
   5
F1
 100
AcDbEntity
   8
LEVEL001
 370
30
 100
AcDbLine
   6
CONTINUOUS
  62
7
  10
 1714.4691111899
  20
 828.26317697255
  30
0.0
  11
 1682.8186770077
  21
 832.98016924298
  31
0.0
   0
LINE
   5
F2
 100
AcDbEntity
   8
LEVEL001
 370
30
 100
AcDbLine
   6
CONTINUOUS
  62
7
  10
 1713.4372691307
  20
 821.33964449519
  30
0.0
  11
 1681.7868349486
  21
 826.05663676563
  31
0.0
   0
ARC
   5
F3
 100
AcDbEntity
   8
LEVEL001
 370
30
   6
CONTINUOUS
  62
7
 100
AcDbCircle
  10
 1711.5209910209
  20
 808.48165560868
  30
0.0
  40
 20.000000000000
 100
AcDbArc
  50
 351.52336925826
  51
 81.523369258261
   0
ARC
   5
F4
 100
AcDbEntity
   8
LEVEL001
 370
30
   6
CONTINUOUS
  62
7
 100
AcDbCircle
  10
 1711.5209910209
  20
 808.48165560868
  30
0.0
  40
 13.000000000000
 100
AcDbArc
  50
 351.52336925827
  51
 81.523369258261
   0
ARC
   5
F5
 100
AcDbEntity
   8
LEVEL001
 370
30
   6
CONTINUOUS
  62
7
 100
AcDbCircle
  10
 1684.4401431007
  20
 843.86000599310
  30
0.0
  40
 18.000000000000
 100
AcDbArc
  50
 81.523369258262
  51
 261.52336925826
   0
ARC
   5
F6
 100
AcDbEntity
   8
LEVEL001
 370
30
   6
CONTINUOUS
  62
7
 100
AcDbCircle
  10
 1684.4401431007
  20
 843.86000599310
  30
0.0
  40
 11.000000000000
 100
AcDbArc
  50
 81.523369258264
  51
 261.52336925826
   0
LINE
   5
F7
 100
AcDbEntity
   8
LEVEL001
 370
30
 100
AcDbLine
   6
CONTINUOUS
  62
7
  10
 1687.0934512528
  20
 861.66337522058
  30
0.0
  11
 1771.1649170492
  21
 849.13386450224
  31
0.0
   0
LINE
   5
F8
 100
AcDbEntity
   8
LEVEL001
 370
30
 100
AcDbLine
   6
CONTINUOUS
  62
7
  10
 1686.0616091936
  20
 854.73984274323
  30
0.0
  11
 1770.1330749901
  21
 842.21033202489
  31
0.0
   0
ARC
   5
F9
 100
AcDbEntity
   8
LEVEL001
 370
30
   6
CONTINUOUS
  62
7
 100
AcDbCircle
  10
 1768.2167968802
  20
 829.35234313838
  30
0.0
  40
 20.000000000000
 100
AcDbArc
  50
 351.52336925826
  51
 81.523369258261
   0
ARC
   5
FA
 100
AcDbEntity
   8
LEVEL001
 370
30
   6
CONTINUOUS
  62
7
 100
AcDbCircle
  10
 1768.2167968802
  20
 829.35234313838
  30
0.0
  40
 13.000000000000
 100
AcDbArc
  50
 351.52336925827
  51
 81.523369258261
   0
LWPOLYLINE
   5
FB
 100
AcDbEntity
   8
LEVEL001
 370
30
   6
CONTINUOUS
  62
7
 100
AcDbPolyline
  90
4
  70
0
  10
 1469.9664761425
  20
 630.94564599341
  10
 1467.9664761425
  20
 630.94564599341
  10
 1467.9664761425
  20
 613.94564599341
  10
 1469.9664761425
  20
 613.94564599341
   0
LWPOLYLINE
   5
FC
 100
AcDbEntity
   8
LEVEL001
 370
30
   6
CONTINUOUS
  62
7
 100
AcDbPolyline
  90
4
  70
0
  10
 1469.9664761425
  20
 607.94564599341
  10
 1467.9664761425
  20
 607.94564599341
  10
 1467.9664761425
  20
 590.94564599341
  10
 1469.9664761425
  20
 590.94564599341
   0
LWPOLYLINE
   5
FD
 100
AcDbEntity
   8
LEVEL001
 370
30
   6
CONTINUOUS
  62
7
 100
AcDbPolyline
  90
4
  70
0
  10
 1477.9664761425
  20
 668.94564599341
  10
 1469.9664761425
  20
 668.94564599341
  10
 1469.9664761425
  20
 568.94564599341
  10
 1477.9664761425
  20
 568.94564599341
   0
CIRCLE
   5
FE
 100
AcDbEntity
   8
LEVEL001
 370
30
 100
AcDbCircle
   6
CONTINUOUS
  62
7
  10
 1684.4401431007
  20
 843.86000599310
  30
0.0
  40
 6.3000000000000
   0
LWPOLYLINE
   5
FF
 100
AcDbEntity
   8
LEVEL001
 370
30
   6
CONTINUOUS
  62
7
 100
AcDbPolyline
  90
6
  70
1
  10
 1684.4401431007
  20
 851.36555949254
  10
 1677.9401431007
  20
 847.61278274279
  10
 1677.9401431007
  20
 840.10722924342
  10
 1684.4401431007
  20
 836.35445249366
  10
 1690.9401431007
  20
 840.10722924342
  10
 1690.9401431007
  20
 847.61278274279
   0
LWPOLYLINE
   5
100
 100
AcDbEntity
   8
LEVEL001
 370
30
   6
CONTINUOUS
  62
7
 100
AcDbPolyline
  90
3
  70
0
  10
 1715.9753199100
  20
 795.94564599341
  10
 1626.9664761425
  20
 795.94564599341
  10
 1626.9664761425
  20
 719.94564599341
   0
LWPOLYLINE
   5
101
 100
AcDbEntity
   8
LEVEL001
 370
30
   6
CONTINUOUS
  62
7
 100
AcDbPolyline
  90
3
  70
0
  10
 1788.9664761425
  20
 719.94564599341
  10
 1788.9664761425
  20
 795.94564599341
  10
 1715.9753199100
  20
 795.94564599341
   0
ARC
   5
102
 100
AcDbEntity
   8
LEVEL001
 370
30
   6
CONTINUOUS
  62
7
 100
AcDbCircle
  10
 1746.0913374968
  20
 748.73308956285
  30
0.0
  40
 56.000000000000
 100
AcDbArc
  50
 329.06525556234
  51
 40.037152615579
   0
LINE
   5
103
 100
AcDbEntity
   8
LEVEL001
 370
30
 100
AcDbLine
   6
CONTINUOUS
  62
7
  10
 1787.9983182441
  20
 826.40422296936
  30
0.0
  11
 1783.4589532756
  21
 795.94564599341
  31
0.0
   0
LINE
   5
104
 100
AcDbEntity
   8
LEVEL001
 370
30
 100
AcDbLine
   6
CONTINUOUS
  62
7
  10
 1781.0747857667
  20
 827.43606502852
  30
0.0
  11
 1776.3816412011
  21
 795.94564599341
  31
0.0
   0
LINE
   5
105
 100
AcDbEntity
   8
LEVEL001
 370
30
 100
AcDbLine
   6
CONTINUOUS
  62
7
  10
 1722.7962783515
  20
 795.94564599341
  30
0.0
  11
 1724.3789799074
  21
 806.56537749882
  31
0.0
   0
LINE
   5
106
 100
AcDbEntity
   8
LEVEL001
 370
30
 100
AcDbLine
   6
CONTINUOUS
  62
7
  10
 1729.8735904260
  20
 795.94564599341
  30
0.0
  11
 1731.3025123847
  21
 805.53353543966
  31
0.0
   0
ARC
   5
107
 100
AcDbEntity
   8
LEVEL001
 370
30
   6
CONTINUOUS
  62
7
 100
AcDbCircle
  10
 1746.0913374968
  20
 748.73308956286
  30
0.0
  40
 56.000000000000
 100
AcDbArc
  50
 113.91573474411
  51
 121.62285607261
   0
ARC
   5
108
 100
AcDbEntity
   8
LEVEL001
 370
30
   6
CONTINUOUS
  62
7
 100
AcDbCircle
  10
 1645.4664761425
  20
 672.94564599341
  30
0.0
  40
 57.500000000000
 100
AcDbArc
  50
 108.76813277386
  51
 125.17550049715
   0
LWPOLYLINE
   5
109
 100
AcDbEntity
   8
LEVEL001
 370
30
   6
CONTINUOUS
  62
7
 100
AcDbPolyline
  90
3
  70
0
  10
 1799.4664761425
  20
 337.94564599341
  10
 1800.9664761425
  20
 337.94564599341
  10
 1800.9664761425
  20
 351.94564599341
   0
LWPOLYLINE
   5
10A
 100
AcDbEntity
   8
LEVEL001
 370
30
   6
CONTINUOUS
  62
7
 100
AcDbPolyline
  90
3
  70
0
  10
 1477.9664761425
  20
 351.94564599341
  10
 1477.9664761425
  20
 337.94564599341
  10
 1479.4664761425
  20
 337.94564599341
   0
LWPOLYLINE
   5
10B
 100
AcDbEntity
   8
LEVEL001
 370
30
   6
CONTINUOUS
  62
7
 100
AcDbPolyline
  90
3
  70
0
  10
 1800.9664761425
  20
 351.94564599341
  10
 1800.9664761425
  20
 719.94564599341
  10
 1477.9664761425
  20
 719.94564599341
   0
LINE
   5
10C
 100
AcDbEntity
   8
LEVEL001
 370
30
 100
AcDbLine
   6
CONTINUOUS
  62
7
  10
 1477.9664761425
  20
 719.94564599341
  30
0.0
  11
 1477.9664761425
  21
 351.94564599341
  31
0.0
   0
LWPOLYLINE
   5
10D
 100
AcDbEntity
   8
LEVEL001
 370
30
   6
CONTINUOUS
  62
7
 100
AcDbPolyline
  90
4
  70
0
  10
 1479.4664761425
  20
 337.94564599341
  10
 1479.4664761425
  20
 318.14564599341
  10
 1799.4664761425
  20
 318.14564599341
  10
 1799.4664761425
  20
 337.94564599341
   0
LINE
   5
10E
 100
AcDbEntity
   8
LEVEL001
 370
30
 100
AcDbLine
   6
CONTINUOUS
  62
7
  10
 1479.4664761425
  20
 337.94564599341
  30
0.0
  11
 1799.4664761425
  21
 337.94564599341
  31
0.0
   0
ENDBLK
   5
10F
 100
AcDbEntity
   8
0
 100
AcDbBlockEnd
   0
BLOCK
   5
110
 100
AcDbEntity
   8
0
 100
AcDbBlockBegin
   2
BLOCK005
  70
64
  10
0.0
  20
0.0
  30
0.0
   3
BLOCK005
   0
LWPOLYLINE
   5
111
 100
AcDbEntity
   8
LEVEL001
 370
30
   6
CONTINUOUS
  62
7
 100
AcDbPolyline
  90
4
  70
1
  10
 761.46647614248
  20
 498.64564599341
  10
 1204.4664761425
  20
 498.64564599341
  10
 1204.4664761425
  20
 889.64564599341
  10
 761.46647614248
  20
 889.64564599341
   0
POINT
   5
112
 100
AcDbEntity
   8
LEVEL001
 100
AcDbPoint
  62
7
  10
 582.96647614248
  20
 878.64564599341
  30
0.0
   0
POINT
   5
113
 100
AcDbEntity
   8
LEVEL001
 100
AcDbPoint
  62
7
  10
 666.96647614248
  20
 878.64564599341
  30
0.0
   0
POINT
   5
114
 100
AcDbEntity
   8
LEVEL001
 100
AcDbPoint
  62
7
  10
 582.96647614248
  20
 683.64564599341
  30
0.0
   0
POINT
   5
115
 100
AcDbEntity
   8
LEVEL001
 100
AcDbPoint
  62
7
  10
 666.96647614248
  20
 683.64564599341
  30
0.0
   0
LINE
   5
116
 100
AcDbEntity
   8
LEVEL001
 370
30
 100
AcDbLine
   6
CONTINUOUS
  62
7
  10
 681.96647614248
  20
 759.64564599341
  30
0.0
  11
 761.46647614248
  21
 759.64564599341
  31
0.0
   0
LINE
   5
117
 100
AcDbEntity
   8
LEVEL001
 370
30
 100
AcDbLine
   6
CONTINUOUS
  62
7
  10
 1204.4664761425
  20
 607.64564599341
  30
0.0
  11
 1283.9664761425
  21
 607.64564599341
  31
0.0
   0
LINE
   5
118
 100
AcDbEntity
   8
LEVEL001
 370
30
 100
AcDbLine
   6
CONTINUOUS
  62
7
  10
 1204.4664761425
  20
 759.64564599341
  30
0.0
  11
 1283.9664761425
  21
 759.64564599341
  31
0.0
   0
LWPOLYLINE
   5
119
 100
AcDbEntity
   8
LEVEL001
 370
30
   6
CONTINUOUS
  62
7
 100
AcDbPolyline
  90
4
  70
0
  10
 735.96647614248
  20
 530.62267263741
  10
 735.96647614248
  20
 322.20814599344
  10
 1229.9664761425
  20
 322.20814599344
  10
 1229.9664761425
  20
 530.62267263741
   0
LINE
   5
11A
 100
AcDbEntity
   8
LEVEL001
 370
30
 100
AcDbLine
   6
CONTINUOUS
  62
7
  10
 735.96647614248
  20
 418.97487972708
  30
0.0
  11
 1229.9664761425
  21
 418.97487972708
  31
0.0
   0
LINE
   5
11B
 100
AcDbEntity
   8
LEVEL001
 370
30
 100
AcDbLine
   6
CONTINUOUS
  62
7
  10
 1232.9664761425
  20
 322.64564599341
  30
0.0
  11
 1232.9664761425
  21
 607.64564599341
  31
0.0
   0
LINE
   5
11C
 100
AcDbEntity
   8
LEVEL001
 370
30
 100
AcDbLine
   6
CONTINUOUS
  62
7
  10
 1229.9664761425
  20
 322.64564599341
  30
0.0
  11
 1283.9664761425
  21
 322.64564599341
  31
0.0
   0
LINE
   5
11D
 100
AcDbEntity
   8
LEVEL001
 370
30
 100
AcDbLine
   6
CONTINUOUS
  62
7
  10
 735.96647614248
  20
 322.64564599341
  30
0.0
  11
 682.96647614248
  21
 322.64564599341
  31
0.0
   0
LWPOLYLINE
   5
11E
 100
AcDbEntity
   8
LEVEL001
 370
30
   6
CONTINUOUS
  62
7
 100
AcDbPolyline
  90
4
  70
1
  10
 1283.9664761425
  20
 321.64564599341
  10
 1378.9664761425
  20
 321.64564599341
  10
 1378.9664761425
  20
 806.64564599341
  10
 1283.9664761425
  20
 806.64564599341
   0
LINE
   5
11F
 100
AcDbEntity
   8
LEVEL001
 370
30
 100
AcDbLine
   6
CONTINUOUS
  62
7
  10
 1232.9664761425
  20
 530.62267263741
  30
0.0
  11
 1204.4664761425
  21
 530.62267263741
  31
0.0
   0
LINE
   5
120
 100
AcDbEntity
   8
LEVEL001
 370
30
 100
AcDbLine
   6
CONTINUOUS
  62
7
  10
 761.46647614248
  20
 530.62267263741
  30
0.0
  11
 732.96647614248
  21
 530.62267263741
  31
0.0
   0
ARC
   5
121
 100
AcDbEntity
   8
LEVEL001
 370
30
   6
CONTINUOUS
  62
7
 100
AcDbCircle
  10
 700.96647614248
  20
 604.64564599341
  30
0.0
  40
 10.000000000000
 100
AcDbArc
  50
 14.999999999752
  51
 180.00000000001
   0
LWPOLYLINE
   5
122
 100
AcDbEntity
   8
LEVEL001
 370
30
   6
CONTINUOUS
  62
7
 100
AcDbPolyline
  90
6
  70
0
  10
 681.96647614248
  20
 623.64564599341
  10
 681.96647614248
  20
 888.64564599341
  10
 567.96647614248
  20
 888.64564599341
  10
 567.96647614248
  20
 321.64564599341
  10
 681.96647614248
  20
 321.64564599341
  10
 681.96647614248
  20
 607.64564599341
   0
LINE
   5
123
 100
AcDbEntity
   8
LEVEL001
 370
30
 100
AcDbLine
   6
CONTINUOUS
  62
7
  10
 710.50586815665
  20
 607.64564599341
  30
0.0
  11
 761.46647614248
  21
 607.64564599341
  31
0.0
   0
LWPOLYLINE
   5
124
 100
AcDbEntity
   8
LEVEL001
 370
30
   6
CONTINUOUS
  62
7
 100
AcDbPolyline
  90
4
  70
0
  10
 761.46647614248
  20
 623.64564599341
  10
 577.46647614248
  20
 623.64564599341
  10
 577.46647614248
  20
 607.64564599341
  10
 691.42708412832
  20
 607.64564599341
   0
LINE
   5
125
 100
AcDbEntity
   8
LEVEL001
 370
30
 100
AcDbLine
   6
CONTINUOUS
  62
7
  10
 732.96647614248
  20
 322.64564599341
  30
0.0
  11
 732.96647614248
  21
 584.64564599341
  31
0.0
   0
LINE
   5
126
 100
AcDbEntity
   8
LEVEL001
 370
30
 100
AcDbLine
   6
CONTINUOUS
  62
7
  10
 732.96647614248
  20
 595.76997267104
  30
0.0
  11
 732.96647614248
  21
 607.64564599341
  31
0.0
   0
CIRCLE
   5
127
 100
AcDbEntity
   8
LEVEL001
 370
30
 100
AcDbCircle
   6
CONTINUOUS
  62
7
  10
 700.96647614248
  20
 594.64564599341
  30
0.0
  40
 10.500000000000
   0
LINE
   5
128
 100
AcDbEntity
   8
LEVEL001
 370
30
 100
AcDbLine
   6
CONTINUOUS
  62
7
  10
 690.96647614248
  20
 604.64564599341
  30
0.0
  11
 690.96647614248
  21
 597.84720811212
  31
0.0
   0
LWPOLYLINE
   5
129
 100
AcDbEntity
   8
LEVEL001
 370
30
   6
CONTINUOUS
  62
7
 100
AcDbPolyline
  90
3
  70
0
  10
 1136.9664761425
  20
 884.64564599341
  10
 1084.9664761425
  20
 884.64564599341
  10
 1084.9664761425
  20
 868.64564599341
   0
CIRCLE
   5
12A
 100
AcDbEntity
   8
LEVEL001
 370
30
 100
AcDbCircle
   6
CONTINUOUS
  62
7
  10
 1072.9664761425
  20
 876.64564599341
  30
0.0
  40
 5.0000000000000
   0
LINE
   5
12B
 100
AcDbEntity
   8
LEVEL001
 370
30
 100
AcDbLine
   6
CONTINUOUS
  62
7
  10
 1072.9664761425
  20
 881.64564599341
  30
0.0
  11
 1084.9664761425
  21
 881.64564599341
  31
0.0
   0
LINE
   5
12C
 100
AcDbEntity
   8
LEVEL001
 370
30
 100
AcDbLine
   6
CONTINUOUS
  62
7
  10
 1072.9664761425
  20
 871.64564599341
  30
0.0
  11
 1084.9664761425
  21
 871.64564599341
  31
0.0
   0
LWPOLYLINE
   5
12D
 100
AcDbEntity
   8
LEVEL001
 370
30
   6
CONTINUOUS
  62
7
 100
AcDbPolyline
  90
4
  70
1
  10
 1138.9664761425
  20
 849.64564599341
  10
 1178.9664761425
  20
 849.64564599341
  10
 1178.9664761425
  20
 887.64564599341
  10
 1138.9664761425
  20
 887.64564599341
   0
LWPOLYLINE
   5
12E
 100
AcDbEntity
   8
LEVEL001
 370
30
   6
CONTINUOUS
  62
7
 100
AcDbPolyline
  90
3
  70
0
  10
 1138.9664761425
  20
 861.64564599341
  10
 1158.9664761425
  20
 861.64564599341
  10
 1158.9664761425
  20
 887.64564599341
   0
LWPOLYLINE
   5
12F
 100
AcDbEntity
   8
LEVEL001
 370
30
   6
CONTINUOUS
  62
7
 100
AcDbPolyline
  90
6
  70
1
  10
 757.96647614248
  20
 870.64564599341
  10
 759.96647614248
  20
 870.64564599341
  10
 759.96647614248
  20
 904.64564599341
  10
 802.96647614248
  20
 904.64564599341
  10
 802.96647614248
  20
 906.64564599341
  10
 757.96647614248
  20
 906.64564599341
   0
LWPOLYLINE
   5
130
 100
AcDbEntity
   8
LEVEL001
 370
30
   6
CONTINUOUS
  62
7
 100
AcDbPolyline
  90
4
  70
1
  10
 757.96647614248
  20
 871.64564599341
  10
 757.96647614248
  20
 906.64564599341
  10
 732.96647614248
  20
 906.64564599341
  10
 732.96647614248
  20
 871.64564599341
   0
LINE
   5
131
 100
AcDbEntity
   8
LEVEL001
 370
30
 100
AcDbLine
   6
CONTINUOUS
  62
7
  10
 738.96647614248
  20
 906.64564599341
  30
0.0
  11
 738.96647614248
  21
 871.64564599341
  31
0.0
   0
LWPOLYLINE
   5
132
 100
AcDbEntity
   8
LEVEL001
 370
30
   6
CONTINUOUS
  62
7
 100
AcDbPolyline
  90
4
  70
1
  10
 826.96647614248
  20
 849.64564599341
  10
 786.96647614248
  20
 849.64564599341
  10
 786.96647614248
  20
 887.64564599341
  10
 826.96647614248
  20
 887.64564599341
   0
LWPOLYLINE
   5
133
 100
AcDbEntity
   8
LEVEL001
 370
30
   6
CONTINUOUS
  62
7
 100
AcDbPolyline
  90
3
  70
0
  10
 826.96647614248
  20
 861.64564599341
  10
 806.96647614248
  20
 861.64564599341
  10
 806.96647614248
  20
 887.64564599341
   0
LWPOLYLINE
   5
134
 100
AcDbEntity
   8
LEVEL001
 370
30
   6
CONTINUOUS
  62
7
 100
AcDbPolyline
  90
3
  70
0
  10
 828.96647614248
  20
 884.64564599341
  10
 880.96647614248
  20
 884.64564599341
  10
 880.96647614248
  20
 868.64564599341
   0
CIRCLE
   5
135
 100
AcDbEntity
   8
LEVEL001
 370
30
 100
AcDbCircle
   6
CONTINUOUS
  62
7
  10
 892.96647614248
  20
 876.64564599341
  30
0.0
  40
 5.0000000000000
   0
LINE
   5
136
 100
AcDbEntity
   8
LEVEL001
 370
30
 100
AcDbLine
   6
CONTINUOUS
  62
7
  10
 892.96647614248
  20
 881.64564599341
  30
0.0
  11
 880.96647614248
  21
 881.64564599341
  31
0.0
   0
LINE
   5
137
 100
AcDbEntity
   8
LEVEL001
 370
30
 100
AcDbLine
   6
CONTINUOUS
  62
7
  10
 892.96647614248
  20
 871.64564599341
  30
0.0
  11
 880.96647614248
  21
 871.64564599341
  31
0.0
   0
LWPOLYLINE
   5
138
 100
AcDbEntity
   8
LEVEL001
 370
30
   6
CONTINUOUS
  62
7
 100
AcDbPolyline
  90
12
  70
1
  10
 761.96647614248
  20
 889.64564599341
  10
 761.96647614248
  20
 891.64564599341
  10
 782.96647614248
  20
 891.64564599341
  10
 782.96647614248
  20
 904.64564599341
  10
 1182.9664761425
  20
 904.64564599341
  10
 1182.9664761425
  20
 891.64564599341
  10
 1203.9664761425
  20
 891.64564599341
  10
 1203.9664761425
  20
 889.64564599341
  10
 1136.9664761425
  20
 889.64564599341
  10
 1136.9664761425
  20
 866.64564599341
  10
 828.96647614248
  20
 866.64564599341
  10
 828.96647614248
  20
 889.64564599341
   0
LWPOLYLINE
   5
139
 100
AcDbEntity
   8
LEVEL001
 370
30
   6
CONTINUOUS
  62
7
 100
AcDbPolyline
  90
4
  70
1
  10
 696.46647614248
  20
 828.14564599341
  10
 698.46647614248
  20
 828.14564599341
  10
 698.46647614248
  20
 888.14564599341
  10
 696.46647614248
  20
 888.14564599341
   0
LWPOLYLINE
   5
13A
 100
AcDbEntity
   8
LEVEL001
 370
30
   6
CONTINUOUS
  62
7
 100
AcDbPolyline
  90
4
  70
1
  10
 698.46647614248
  20
 853.14564599341
  10
 718.46647614248
  20
 853.14564599341
  10
 718.46647614248
  20
 888.14564599341
  10
 698.46647614248
  20
 888.14564599341
   0
LWPOLYLINE
   5
13B
 100
AcDbEntity
   8
LEVEL001
 370
30
   6
CONTINUOUS
  62
7
 100
AcDbPolyline
  90
6
  70
0
  10
 681.96647614248
  20
 887.64564599341
  10
 696.46647614248
  20
 887.64564599341
  10
 696.46647614248
  20
 827.64564599341
  10
 694.46647614248
  20
 827.64564599341
  10
 694.46647614248
  20
 885.64564599341
  10
 681.96647614248
  20
 885.64564599341
   0
LWPOLYLINE
   5
13C
 100
AcDbEntity
   8
LEVEL001
 370
30
   6
CONTINUOUS
  62
7
 100
AcDbPolyline
  90
4
  70
0
  10
 1204.4664761425
  20
 889.64564599341
  10
 1204.4664761425
  20
 908.54564599341
  10
 1172.4664761425
  20
 908.54564599341
  10
 1172.4664761425
  20
 904.64564599341
   0
LWPOLYLINE
   5
13D
 100
AcDbEntity
   8
LEVEL001
 370
30
   6
CONTINUOUS
  62
7
 100
AcDbPolyline
  90
4
  70
0
  10
 761.46647614248
  20
 889.64564599341
  10
 761.46647614248
  20
 908.54564599341
  10
 793.46647614248
  20
 908.54564599341
  10
 793.46647614248
  20
 906.64564599341
   0
LWPOLYLINE
   5
13E
 100
AcDbEntity
   8
LEVEL001
 370
30
   6
CONTINUOUS
  62
7
 100
AcDbPolyline
  90
6
  70
0
  10
 1282.9664761425
  20
 322.64564599341
  10
 1282.9664761425
  20
 284.64564599341
  10
 1273.9664761425
  20
 284.64564599341
  10
 1273.9664761425
  20
 313.64564599341
  10
 1132.9664761425
  20
 313.64564599341
  10
 1132.9664761425
  20
 322.20814599344
   0
LWPOLYLINE
   5
13F
 100
AcDbEntity
   8
LEVEL001
 370
30
   6
CONTINUOUS
  62
7
 100
AcDbPolyline
  90
4
  70
0
  10
 747.96647614248
  20
 322.20814599344
  10
 747.96647614248
  20
 313.64564599341
  10
 682.96647614248
  20
 313.64564599341
  10
 682.96647614248
  20
 322.64564599341
   0
LWPOLYLINE
   5
140
 100
AcDbEntity
   8
LEVEL001
 370
30
   6
CONTINUOUS
  62
7
 100
AcDbPolyline
  90
4
  70
1
  10
 577.46647614248
  20
 678.14564599341
  10
 672.46647614248
  20
 678.14564599341
  10
 672.46647614248
  20
 884.14564599341
  10
 577.46647614248
  20
 884.14564599341
   0
CIRCLE
   5
141
 100
AcDbEntity
   8
LEVEL001
 370
30
 100
AcDbCircle
   6
CONTINUOUS
  62
7
  10
 604.96647614248
  20
 728.14564599341
  30
0.0
  40
 12.500000000000
   0
CIRCLE
   5
142
 100
AcDbEntity
   8
LEVEL001
 370
30
 100
AcDbCircle
   6
CONTINUOUS
  62
7
  10
 604.96647614248
  20
 728.14564599341
  30
0.0
  40
 16.250000000000
   0
CIRCLE
   5
143
 100
AcDbEntity
   8
LEVEL001
 370
30
 100
AcDbCircle
   6
CONTINUOUS
  62
7
  10
 644.96647614248
  20
 728.14564599341
  30
0.0
  40
 16.250000000000
   0
CIRCLE
   5
144
 100
AcDbEntity
   8
LEVEL001
 370
30
 100
AcDbCircle
   6
CONTINUOUS
  62
7
  10
 644.96647614248
  20
 728.14564599341
  30
0.0
  40
 12.500000000000
   0
CIRCLE
   5
145
 100
AcDbEntity
   8
LEVEL001
 370
30
 100
AcDbCircle
   6
CONTINUOUS
  62
7
  10
 1331.9664761425
  20
 756.64564599341
  30
0.0
  40
 12.500000000000
   0
CIRCLE
   5
146
 100
AcDbEntity
   8
LEVEL001
 370
30
 100
AcDbCircle
   6
CONTINUOUS
  62
7
  10
 1331.9664761425
  20
 756.64564599341
  30
0.0
  40
 16.250000000000
   0
ARC
   5
147
 100
AcDbEntity
   8
LEVEL001
 370
30
   6
CONTINUOUS
  62
7
 100
AcDbCircle
  10
 1331.9664761425
  20
 756.64564599341
  30
0.0
  40
 17.500000000000
 100
AcDbArc
  50
 180.00000000000
  51
0.0
   0
LWPOLYLINE
   5
148
 100
AcDbEntity
   8
LEVEL001
 370
30
   6
CONTINUOUS
  62
7
 100
AcDbPolyline
  90
4
  70
0
  10
 1314.4664761425
  20
 756.64564599341
  10
 1314.4664761425
  20
 784.14564599341
  10
 1349.4664761425
  20
 784.14564599341
  10
 1349.4664761425
  20
 756.64564599341
   0
LINE
   5
149
 100
AcDbEntity
   8
LEVEL001
 370
30
 100
AcDbLine
   6
CONTINUOUS
  62
7
  10
 761.46647614248
  20
 851.64564599341
  30
0.0
  11
 786.96647614248
  21
 851.64564599341
  31
0.0
   0
LINE
   5
14A
 100
AcDbEntity
   8
LEVEL001
 370
30
 100
AcDbLine
   6
CONTINUOUS
  62
7
  10
 826.96647614248
  20
 851.64564599341
  30
0.0
  11
 1138.9664761425
  21
 851.64564599341
  31
0.0
   0
LINE
   5
14B
 100
AcDbEntity
   8
LEVEL001
 370
30
 100
AcDbLine
   6
CONTINUOUS
  62
7
  10
 1178.9664761425
  20
 851.64564599341
  30
0.0
  11
 1204.4664761425
  21
 851.64564599341
  31
0.0
   0
LWPOLYLINE
   5
14C
 100
AcDbEntity
   8
LEVEL001
 370
30
   6
CONTINUOUS
  62
7
 100
AcDbPolyline
  90
12
  70
0
  10
 705.96647614248
  20
 298.64564599341
  10
 705.96647614248
  20
 266.14564599341
  10
 703.96647614248
  20
 266.14564599341
  10
 703.96647614248
  20
 311.64564599341
  10
 697.96647614248
  20
 311.64564599341
  10
 697.96647614248
  20
 313.64564599341
  10
 737.96647614248
  20
 313.64564599341
  10
 737.96647614248
  20
 311.64564599341
  10
 731.96647614248
  20
 311.64564599341
  10
 731.96647614248
  20
 266.14564599341
  10
 729.96647614248
  20
 266.14564599341
  10
 729.96647614248
  20
 298.64564599341
   0
ARC
   5
14D
 100
AcDbEntity
   8
LEVEL001
 370
30
   6
CONTINUOUS
  62
7
 100
AcDbCircle
  10
 717.96647614248
  20
 298.64564599341
  30
0.0
  40
 12.000000000000
 100
AcDbArc
  50
0.0
  51
 180.00000000000
   0
LWPOLYLINE
   5
14E
 100
AcDbEntity
   8
LEVEL001
 370
30
   6
CONTINUOUS
  62
7
 100
AcDbPolyline
  90
12
  70
0
  10
 1191.4664761425
  20
 298.64564599341
  10
 1191.4664761425
  20
 266.14564599341
  10
 1189.4664761425
  20
 266.14564599341
  10
 1189.4664761425
  20
 311.64564599341
  10
 1183.4664761425
  20
 311.64564599341
  10
 1183.4664761425
  20
 313.64564599341
  10
 1223.4664761425
  20
 313.64564599341
  10
 1223.4664761425
  20
 311.64564599341
  10
 1217.4664761425
  20
 311.64564599341
  10
 1217.4664761425
  20
 266.14564599341
  10
 1215.4664761425
  20
 266.14564599341
  10
 1215.4664761425
  20
 298.64564599341
   0
ARC
   5
14F
 100
AcDbEntity
   8
LEVEL001
 370
30
   6
CONTINUOUS
  62
7
 100
AcDbCircle
  10
 1203.4664761425
  20
 298.64564599341
  30
0.0
  40
 12.000000000000
 100
AcDbArc
  50
0.0
  51
 180.00000000000
   0
LWPOLYLINE
   5
150
 100
AcDbEntity
   8
LEVEL001
 370
30
   6
CONTINUOUS
  62
7
 100
AcDbPolyline
  90
4
  70
1
  10
 593.46647614248
  20
 758.14564599341
  10
 656.46647614248
  20
 758.14564599341
  10
 656.46647614248
  20
 842.14564599341
  10
 593.46647614248
  20
 842.14564599341
   0
LWPOLYLINE
   5
151
 100
AcDbEntity
   8
LEVEL001
 370
30
   6
CONTINUOUS
  62
7
 100
AcDbPolyline
  90
5
  70
0
  10
 710.62573440537
  20
 607.23383644439
  10
 712.94344404411
  20
 598.58402631541
  10
 740.96647614248
  20
 594.64564599341
  10
 740.96647614248
  20
 584.64564599341
  10
 704.16803826120
  20
 584.64564599341
   0
CIRCLE
   5
152
 100
AcDbEntity
   8
LEVEL001
 370
30
 100
AcDbCircle
   6
CONTINUOUS
  62
7
  10
 700.96647614248
  20
 594.64564599341
  30
0.0
  40
 5.0000000000000
   0
CIRCLE
   5
153
 100
AcDbEntity
   8
LEVEL001
 370
30
 100
AcDbCircle
   6
CONTINUOUS
  62
7
  10
 700.96647614248
  20
 594.64564599341
  30
0.0
  40
 8.2500000000000
   0
LWPOLYLINE
   5
154
 100
AcDbEntity
   8
LEVEL001
 370
30
   6
CONTINUOUS
  62
7
 100
AcDbPolyline
  90
6
  70
1
  10
 700.96647614248
  20
 604.46060056961
  10
 692.46647614248
  20
 599.55312328147
  10
 692.46647614248
  20
 589.73816870535
  10
 700.96647614248
  20
 584.83069141721
  10
 709.46647614248
  20
 589.73816870535
  10
 709.46647614248
  20
 599.55312328147
   0
LWPOLYLINE
   5
155
 100
AcDbEntity
   8
LEVEL001
 370
30
   6
CONTINUOUS
  62
7
 100
AcDbPolyline
  90
4
  70
1
  10
 730.96647614248
  20
 623.64564599341
  10
 730.96647614248
  20
 625.64564599341
  10
 709.96647614248
  20
 625.64564599341
  10
 709.96647614248
  20
 623.64564599341
   0
ARC
   5
156
 100
AcDbEntity
   8
LEVEL001
 370
30
   6
CONTINUOUS
  62
7
 100
AcDbCircle
  10
 720.46647614248
  20
 619.86648069710
  30
0.0
  40
 13.779165296305
 100
AcDbArc
  50
 69.135935634479
  51
 110.86406436552
   0
ARC
   5
157
 100
AcDbEntity
   8
LEVEL001
 370
30
   6
CONTINUOUS
  62
7
 100
AcDbCircle
  10
 713.10526021036
  20
 629.86203206451
  30
0.0
  40
 3.7836139288987
 100
AcDbArc
  50
 49.570103152863
  51
 90.000000000014
   0
LWPOLYLINE
   5
158
 100
AcDbEntity
   8
LEVEL001
 370
30
   6
CONTINUOUS
  62
7
 100
AcDbPolyline
  90
6
  70
1
  10
 730.28143071868
  20
 625.64564599341
  10
 710.65152156629
  20
 625.64564599341
  10
 710.65152156629
  20
 632.74211904749
  10
 712.21647614248
  20
 633.64564599341
  10
 728.71647614248
  20
 633.64564599341
  10
 730.28143071868
  20
 632.74211904749
   0
LINE
   5
159
 100
AcDbEntity
   8
LEVEL001
 370
30
 100
AcDbLine
   6
CONTINUOUS
  62
7
  10
 715.55899885442
  20
 625.64564599341
  30
0.0
  11
 715.55899885442
  21
 632.74211904749
  31
0.0
   0
ARC
   5
15A
 100
AcDbEntity
   8
LEVEL001
 370
30
   6
CONTINUOUS
  62
7
 100
AcDbCircle
  10
 727.82769207461
  20
 629.86203206451
  30
0.0
  40
 3.7836139288987
 100
AcDbArc
  50
 89.999999999986
  51
 130.42989684714
   0
LINE
   5
15B
 100
AcDbEntity
   8
LEVEL001
 370
30
 100
AcDbLine
   6
CONTINUOUS
  62
7
  10
 725.37395343055
  20
 625.64564599341
  30
0.0
  11
 725.37395343055
  21
 632.74211904749
  31
0.0
   0
LWPOLYLINE
   5
15C
 100
AcDbEntity
   8
LEVEL001
 370
30
   6
CONTINUOUS
  62
7
 100
AcDbPolyline
  90
4
  70
1
  10
 707.46647614248
  20
 248.64564599341
  10
 728.46647614248
  20
 248.64564599341
  10
 728.46647614248
  20
 298.64564599341
  10
 707.46647614248
  20
 298.64564599341
   0
LWPOLYLINE
   5
15D
 100
AcDbEntity
   8
LEVEL001
 370
30
   6
CONTINUOUS
  62
7
 100
AcDbPolyline
  90
4
  70
1
  10
 1192.9664761425
  20
 248.64564599341
  10
 1213.9664761425
  20
 248.64564599341
  10
 1213.9664761425
  20
 298.64564599341
  10
 1192.9664761425
  20
 298.64564599341
   0
ENDBLK
   5
15E
 100
AcDbEntity
   8
0
 100
AcDbBlockEnd
   0
BLOCK
   5
15F
 100
AcDbEntity
   8
0
 100
AcDbBlockBegin
   2
BLOCK006
  70
64
  10
0.0
  20
0.0
  30
0.0
   3
BLOCK006
   0
LWPOLYLINE
   5
160
 100
AcDbEntity
   8
LEVEL001
 370
30
   6
CONTINUOUS
  62
7
 100
AcDbPolyline
  90
4
  70
1
  10
 1721.2292705588
  20
 686.84564599341
  10
 1581.2292705588
  20
 686.84564599341
  10
 1581.2292705588
  20
 711.84564599341
  10
 1721.2292705588
  20
 711.84564599341
   0
LWPOLYLINE
   5
161
 100
AcDbEntity
   8
LEVEL001
 370
30
   6
CONTINUOUS
  62
7
 100
AcDbPolyline
  90
4
  70
1
  10
 1794.4664761425
  20
 313.64564599341
  10
 1484.4664761425
  20
 313.64564599341
  10
 1484.4664761425
  20
 318.14564599341
  10
 1794.4664761425
  20
 318.14564599341
   0
ARC
   5
162
 100
AcDbEntity
   8
LEVEL001
 370
30
   6
CONTINUOUS
  62
7
 100
AcDbCircle
  10
 1769.4664761425
  20
 298.64564599341
  30
0.0
  40
 12.000000000000
 100
AcDbArc
  50
0.0
  51
 180.00000000000
   0
LWPOLYLINE
   5
163
 100
AcDbEntity
   8
LEVEL001
 370
30
   6
CONTINUOUS
  62
7
 100
AcDbPolyline
  90
4
  70
0
  10
 1781.4664761425
  20
 298.64564599341
  10
 1781.4664761425
  20
 266.14564599341
  10
 1783.4664761425
  20
 266.14564599341
  10
 1783.4664761425
  20
 313.64564599341
   0
LWPOLYLINE
   5
164
 100
AcDbEntity
   8
LEVEL001
 370
30
   6
CONTINUOUS
  62
7
 100
AcDbPolyline
  90
4
  70
0
  10
 1755.4664761425
  20
 313.64564599341
  10
 1755.4664761425
  20
 266.14564599341
  10
 1757.4664761425
  20
 266.14564599341
  10
 1757.4664761425
  20
 298.64564599341
   0
ARC
   5
165
 100
AcDbEntity
   8
LEVEL001
 370
30
   6
CONTINUOUS
  62
7
 100
AcDbCircle
  10
 1509.4664761425
  20
 298.64564599341
  30
0.0
  40
 12.000000000000
 100
AcDbArc
  50
0.0
  51
 180.00000000000
   0
LWPOLYLINE
   5
166
 100
AcDbEntity
   8
LEVEL001
 370
30
   6
CONTINUOUS
  62
7
 100
AcDbPolyline
  90
4
  70
0
  10
 1521.4664761425
  20
 298.64564599341
  10
 1521.4664761425
  20
 266.14564599341
  10
 1523.4664761425
  20
 266.14564599341
  10
 1523.4664761425
  20
 313.64564599341
   0
LWPOLYLINE
   5
167
 100
AcDbEntity
   8
LEVEL001
 370
30
   6
CONTINUOUS
  62
7
 100
AcDbPolyline
  90
4
  70
0
  10
 1495.4664761425
  20
 313.64564599341
  10
 1495.4664761425
  20
 266.14564599341
  10
 1497.4664761425
  20
 266.14564599341
  10
 1497.4664761425
  20
 298.64564599341
   0
LWPOLYLINE
   5
168
 100
AcDbEntity
   8
LEVEL001
 370
30
   6
CONTINUOUS
  62
7
 100
AcDbPolyline
  90
4
  70
1
  10
 1779.9664761425
  20
 248.64564599341
  10
 1758.9664761425
  20
 248.64564599341
  10
 1758.9664761425
  20
 298.64564599341
  10
 1779.9664761425
  20
 298.64564599341
   0
LWPOLYLINE
   5
169
 100
AcDbEntity
   8
LEVEL001
 370
30
   6
CONTINUOUS
  62
7
 100
AcDbPolyline
  90
4
  70
1
  10
 1519.9664761425
  20
 248.64564599341
  10
 1498.9664761425
  20
 248.64564599341
  10
 1498.9664761425
  20
 298.64564599341
  10
 1519.9664761425
  20
 298.64564599341
   0
CIRCLE
   5
16A
 100
AcDbEntity
   8
LEVEL001
 370
30
 100
AcDbCircle
   6
CONTINUOUS
  62
7
  10
 1684.4401431007
  20
 843.86000599310
  30
0.0
  40
 7.7000000000000
   0
LINE
   5
16B
 100
AcDbEntity
   8
LEVEL001
 370
30
 100
AcDbLine
   6
CONTINUOUS
  62
7
  10
 1714.4691111899
  20
 828.26317697255
  30
0.0
  11
 1682.8186770077
  21
 832.98016924298
  31
0.0
   0
LINE
   5
16C
 100
AcDbEntity
   8
LEVEL001
 370
30
 100
AcDbLine
   6
CONTINUOUS
  62
7
  10
 1713.4372691307
  20
 821.33964449519
  30
0.0
  11
 1681.7868349486
  21
 826.05663676563
  31
0.0
   0
ARC
   5
16D
 100
AcDbEntity
   8
LEVEL001
 370
30
   6
CONTINUOUS
  62
7
 100
AcDbCircle
  10
 1711.5209910209
  20
 808.48165560868
  30
0.0
  40
 20.000000000000
 100
AcDbArc
  50
 351.52336925826
  51
 81.523369258261
   0
ARC
   5
16E
 100
AcDbEntity
   8
LEVEL001
 370
30
   6
CONTINUOUS
  62
7
 100
AcDbCircle
  10
 1711.5209910209
  20
 808.48165560868
  30
0.0
  40
 13.000000000000
 100
AcDbArc
  50
 351.52336925827
  51
 81.523369258261
   0
ARC
   5
16F
 100
AcDbEntity
   8
LEVEL001
 370
30
   6
CONTINUOUS
  62
7
 100
AcDbCircle
  10
 1684.4401431007
  20
 843.86000599310
  30
0.0
  40
 18.000000000000
 100
AcDbArc
  50
 81.523369258262
  51
 261.52336925826
   0
ARC
   5
170
 100
AcDbEntity
   8
LEVEL001
 370
30
   6
CONTINUOUS
  62
7
 100
AcDbCircle
  10
 1684.4401431007
  20
 843.86000599310
  30
0.0
  40
 11.000000000000
 100
AcDbArc
  50
 81.523369258264
  51
 261.52336925826
   0
LINE
   5
171
 100
AcDbEntity
   8
LEVEL001
 370
30
 100
AcDbLine
   6
CONTINUOUS
  62
7
  10
 1687.0934512528
  20
 861.66337522058
  30
0.0
  11
 1771.1649170492
  21
 849.13386450224
  31
0.0
   0
LINE
   5
172
 100
AcDbEntity
   8
LEVEL001
 370
30
 100
AcDbLine
   6
CONTINUOUS
  62
7
  10
 1686.0616091936
  20
 854.73984274323
  30
0.0
  11
 1770.1330749901
  21
 842.21033202489
  31
0.0
   0
ARC
   5
173
 100
AcDbEntity
   8
LEVEL001
 370
30
   6
CONTINUOUS
  62
7
 100
AcDbCircle
  10
 1768.2167968802
  20
 829.35234313838
  30
0.0
  40
 20.000000000000
 100
AcDbArc
  50
 351.52336925826
  51
 81.523369258261
   0
ARC
   5
174
 100
AcDbEntity
   8
LEVEL001
 370
30
   6
CONTINUOUS
  62
7
 100
AcDbCircle
  10
 1768.2167968802
  20
 829.35234313838
  30
0.0
  40
 13.000000000000
 100
AcDbArc
  50
 351.52336925827
  51
 81.523369258261
   0
LWPOLYLINE
   5
175
 100
AcDbEntity
   8
LEVEL001
 370
30
   6
CONTINUOUS
  62
7
 100
AcDbPolyline
  90
4
  70
0
  10
 1469.9664761425
  20
 630.94564599341
  10
 1467.9664761425
  20
 630.94564599341
  10
 1467.9664761425
  20
 613.94564599341
  10
 1469.9664761425
  20
 613.94564599341
   0
LWPOLYLINE
   5
176
 100
AcDbEntity
   8
LEVEL001
 370
30
   6
CONTINUOUS
  62
7
 100
AcDbPolyline
  90
4
  70
0
  10
 1469.9664761425
  20
 607.94564599341
  10
 1467.9664761425
  20
 607.94564599341
  10
 1467.9664761425
  20
 590.94564599341
  10
 1469.9664761425
  20
 590.94564599341
   0
LWPOLYLINE
   5
177
 100
AcDbEntity
   8
LEVEL001
 370
30
   6
CONTINUOUS
  62
7
 100
AcDbPolyline
  90
4
  70
0
  10
 1477.9664761425
  20
 668.94564599341
  10
 1469.9664761425
  20
 668.94564599341
  10
 1469.9664761425
  20
 568.94564599341
  10
 1477.9664761425
  20
 568.94564599341
   0
CIRCLE
   5
178
 100
AcDbEntity
   8
LEVEL001
 370
30
 100
AcDbCircle
   6
CONTINUOUS
  62
7
  10
 1684.4401431007
  20
 843.86000599310
  30
0.0
  40
 6.3000000000000
   0
LWPOLYLINE
   5
179
 100
AcDbEntity
   8
LEVEL001
 370
30
   6
CONTINUOUS
  62
7
 100
AcDbPolyline
  90
6
  70
1
  10
 1684.4401431007
  20
 851.36555949254
  10
 1677.9401431007
  20
 847.61278274279
  10
 1677.9401431007
  20
 840.10722924342
  10
 1684.4401431007
  20
 836.35445249366
  10
 1690.9401431007
  20
 840.10722924342
  10
 1690.9401431007
  20
 847.61278274279
   0
LWPOLYLINE
   5
17A
 100
AcDbEntity
   8
LEVEL001
 370
30
   6
CONTINUOUS
  62
7
 100
AcDbPolyline
  90
3
  70
0
  10
 1715.9753199100
  20
 795.94564599341
  10
 1626.9664761425
  20
 795.94564599341
  10
 1626.9664761425
  20
 719.94564599341
   0
LWPOLYLINE
   5
17B
 100
AcDbEntity
   8
LEVEL001
 370
30
   6
CONTINUOUS
  62
7
 100
AcDbPolyline
  90
3
  70
0
  10
 1788.9664761425
  20
 719.94564599341
  10
 1788.9664761425
  20
 795.94564599341
  10
 1715.9753199100
  20
 795.94564599341
   0
ARC
   5
17C
 100
AcDbEntity
   8
LEVEL001
 370
30
   6
CONTINUOUS
  62
7
 100
AcDbCircle
  10
 1746.0913374968
  20
 748.73308956285
  30
0.0
  40
 56.000000000000
 100
AcDbArc
  50
 329.06525556234
  51
 40.037152615579
   0
LINE
   5
17D
 100
AcDbEntity
   8
LEVEL001
 370
30
 100
AcDbLine
   6
CONTINUOUS
  62
7
  10
 1787.9983182441
  20
 826.40422296936
  30
0.0
  11
 1783.4589532756
  21
 795.94564599341
  31
0.0
   0
LINE
   5
17E
 100
AcDbEntity
   8
LEVEL001
 370
30
 100
AcDbLine
   6
CONTINUOUS
  62
7
  10
 1781.0747857667
  20
 827.43606502852
  30
0.0
  11
 1776.3816412011
  21
 795.94564599341
  31
0.0
   0
LINE
   5
17F
 100
AcDbEntity
   8
LEVEL001
 370
30
 100
AcDbLine
   6
CONTINUOUS
  62
7
  10
 1722.7962783515
  20
 795.94564599341
  30
0.0
  11
 1724.3789799074
  21
 806.56537749882
  31
0.0
   0
LINE
   5
180
 100
AcDbEntity
   8
LEVEL001
 370
30
 100
AcDbLine
   6
CONTINUOUS
  62
7
  10
 1729.8735904260
  20
 795.94564599341
  30
0.0
  11
 1731.3025123847
  21
 805.53353543966
  31
0.0
   0
ARC
   5
181
 100
AcDbEntity
   8
LEVEL001
 370
30
   6
CONTINUOUS
  62
7
 100
AcDbCircle
  10
 1746.0913374968
  20
 748.73308956286
  30
0.0
  40
 56.000000000000
 100
AcDbArc
  50
 113.91573474411
  51
 121.62285607261
   0
ARC
   5
182
 100
AcDbEntity
   8
LEVEL001
 370
30
   6
CONTINUOUS
  62
7
 100
AcDbCircle
  10
 1645.4664761425
  20
 672.94564599341
  30
0.0
  40
 57.500000000000
 100
AcDbArc
  50
 108.76813277386
  51
 125.17550049715
   0
LWPOLYLINE
   5
183
 100
AcDbEntity
   8
LEVEL001
 370
30
   6
CONTINUOUS
  62
7
 100
AcDbPolyline
  90
3
  70
0
  10
 1799.4664761425
  20
 337.94564599341
  10
 1800.9664761425
  20
 337.94564599341
  10
 1800.9664761425
  20
 351.94564599341
   0
LWPOLYLINE
   5
184
 100
AcDbEntity
   8
LEVEL001
 370
30
   6
CONTINUOUS
  62
7
 100
AcDbPolyline
  90
3
  70
0
  10
 1477.9664761425
  20
 351.94564599341
  10
 1477.9664761425
  20
 337.94564599341
  10
 1479.4664761425
  20
 337.94564599341
   0
LWPOLYLINE
   5
185
 100
AcDbEntity
   8
LEVEL001
 370
30
   6
CONTINUOUS
  62
7
 100
AcDbPolyline
  90
3
  70
0
  10
 1800.9664761425
  20
 351.94564599341
  10
 1800.9664761425
  20
 719.94564599341
  10
 1477.9664761425
  20
 719.94564599341
   0
LINE
   5
186
 100
AcDbEntity
   8
LEVEL001
 370
30
 100
AcDbLine
   6
CONTINUOUS
  62
7
  10
 1477.9664761425
  20
 719.94564599341
  30
0.0
  11
 1477.9664761425
  21
 351.94564599341
  31
0.0
   0
LWPOLYLINE
   5
187
 100
AcDbEntity
   8
LEVEL001
 370
30
   6
CONTINUOUS
  62
7
 100
AcDbPolyline
  90
4
  70
0
  10
 1479.4664761425
  20
 337.94564599341
  10
 1479.4664761425
  20
 318.14564599341
  10
 1799.4664761425
  20
 318.14564599341
  10
 1799.4664761425
  20
 337.94564599341
   0
LINE
   5
188
 100
AcDbEntity
   8
LEVEL001
 370
30
 100
AcDbLine
   6
CONTINUOUS
  62
7
  10
 1479.4664761425
  20
 337.94564599341
  30
0.0
  11
 1799.4664761425
  21
 337.94564599341
  31
0.0
   0
ENDBLK
   5
189
 100
AcDbEntity
   8
0
 100
AcDbBlockEnd
   0
BLOCK
   5
18A
 100
AcDbEntity
   8
0
 100
AcDbBlockBegin
   2
BLOCK007
  70
64
  10
0.0
  20
0.0
  30
0.0
   3
BLOCK007
   0
LWPOLYLINE
   5
18B
 100
AcDbEntity
   8
LEVEL001
 370
30
   6
CONTINUOUS
  62
7
 100
AcDbPolyline
  90
4
  70
1
  10
 761.46647614248
  20
 498.64564599341
  10
 1204.4664761425
  20
 498.64564599341
  10
 1204.4664761425
  20
 889.64564599341
  10
 761.46647614248
  20
 889.64564599341
   0
POINT
   5
18C
 100
AcDbEntity
   8
LEVEL001
 100
AcDbPoint
  62
7
  10
 582.96647614248
  20
 878.64564599341
  30
0.0
   0
POINT
   5
18D
 100
AcDbEntity
   8
LEVEL001
 100
AcDbPoint
  62
7
  10
 666.96647614248
  20
 878.64564599341
  30
0.0
   0
POINT
   5
18E
 100
AcDbEntity
   8
LEVEL001
 100
AcDbPoint
  62
7
  10
 582.96647614248
  20
 683.64564599341
  30
0.0
   0
POINT
   5
18F
 100
AcDbEntity
   8
LEVEL001
 100
AcDbPoint
  62
7
  10
 666.96647614248
  20
 683.64564599341
  30
0.0
   0
LINE
   5
190
 100
AcDbEntity
   8
LEVEL001
 370
30
 100
AcDbLine
   6
CONTINUOUS
  62
7
  10
 681.96647614248
  20
 759.64564599341
  30
0.0
  11
 761.46647614248
  21
 759.64564599341
  31
0.0
   0
LINE
   5
191
 100
AcDbEntity
   8
LEVEL001
 370
30
 100
AcDbLine
   6
CONTINUOUS
  62
7
  10
 1204.4664761425
  20
 607.64564599341
  30
0.0
  11
 1283.9664761425
  21
 607.64564599341
  31
0.0
   0
LINE
   5
192
 100
AcDbEntity
   8
LEVEL001
 370
30
 100
AcDbLine
   6
CONTINUOUS
  62
7
  10
 1204.4664761425
  20
 759.64564599341
  30
0.0
  11
 1283.9664761425
  21
 759.64564599341
  31
0.0
   0
LWPOLYLINE
   5
193
 100
AcDbEntity
   8
LEVEL001
 370
30
   6
CONTINUOUS
  62
7
 100
AcDbPolyline
  90
4
  70
0
  10
 735.96647614248
  20
 530.62267263741
  10
 735.96647614248
  20
 322.20814599344
  10
 1229.9664761425
  20
 322.20814599344
  10
 1229.9664761425
  20
 530.62267263741
   0
LINE
   5
194
 100
AcDbEntity
   8
LEVEL001
 370
30
 100
AcDbLine
   6
CONTINUOUS
  62
7
  10
 735.96647614248
  20
 418.97487972708
  30
0.0
  11
 1229.9664761425
  21
 418.97487972708
  31
0.0
   0
LINE
   5
195
 100
AcDbEntity
   8
LEVEL001
 370
30
 100
AcDbLine
   6
CONTINUOUS
  62
7
  10
 1232.9664761425
  20
 322.64564599341
  30
0.0
  11
 1232.9664761425
  21
 607.64564599341
  31
0.0
   0
LINE
   5
196
 100
AcDbEntity
   8
LEVEL001
 370
30
 100
AcDbLine
   6
CONTINUOUS
  62
7
  10
 1229.9664761425
  20
 322.64564599341
  30
0.0
  11
 1283.9664761425
  21
 322.64564599341
  31
0.0
   0
LINE
   5
197
 100
AcDbEntity
   8
LEVEL001
 370
30
 100
AcDbLine
   6
CONTINUOUS
  62
7
  10
 735.96647614248
  20
 322.64564599341
  30
0.0
  11
 682.96647614248
  21
 322.64564599341
  31
0.0
   0
LWPOLYLINE
   5
198
 100
AcDbEntity
   8
LEVEL001
 370
30
   6
CONTINUOUS
  62
7
 100
AcDbPolyline
  90
4
  70
1
  10
 1283.9664761425
  20
 321.64564599341
  10
 1378.9664761425
  20
 321.64564599341
  10
 1378.9664761425
  20
 806.64564599341
  10
 1283.9664761425
  20
 806.64564599341
   0
LINE
   5
199
 100
AcDbEntity
   8
LEVEL001
 370
30
 100
AcDbLine
   6
CONTINUOUS
  62
7
  10
 1232.9664761425
  20
 530.62267263741
  30
0.0
  11
 1204.4664761425
  21
 530.62267263741
  31
0.0
   0
LINE
   5
19A
 100
AcDbEntity
   8
LEVEL001
 370
30
 100
AcDbLine
   6
CONTINUOUS
  62
7
  10
 761.46647614248
  20
 530.62267263741
  30
0.0
  11
 732.96647614248
  21
 530.62267263741
  31
0.0
   0
ARC
   5
19B
 100
AcDbEntity
   8
LEVEL001
 370
30
   6
CONTINUOUS
  62
7
 100
AcDbCircle
  10
 700.96647614248
  20
 604.64564599341
  30
0.0
  40
 10.000000000000
 100
AcDbArc
  50
 14.999999999752
  51
 180.00000000001
   0
LWPOLYLINE
   5
19C
 100
AcDbEntity
   8
LEVEL001
 370
30
   6
CONTINUOUS
  62
7
 100
AcDbPolyline
  90
6
  70
0
  10
 681.96647614248
  20
 623.64564599341
  10
 681.96647614248
  20
 888.64564599341
  10
 567.96647614248
  20
 888.64564599341
  10
 567.96647614248
  20
 321.64564599341
  10
 681.96647614248
  20
 321.64564599341
  10
 681.96647614248
  20
 607.64564599341
   0
LINE
   5
19D
 100
AcDbEntity
   8
LEVEL001
 370
30
 100
AcDbLine
   6
CONTINUOUS
  62
7
  10
 710.50586815665
  20
 607.64564599341
  30
0.0
  11
 761.46647614248
  21
 607.64564599341
  31
0.0
   0
LWPOLYLINE
   5
19E
 100
AcDbEntity
   8
LEVEL001
 370
30
   6
CONTINUOUS
  62
7
 100
AcDbPolyline
  90
4
  70
0
  10
 761.46647614248
  20
 623.64564599341
  10
 577.46647614248
  20
 623.64564599341
  10
 577.46647614248
  20
 607.64564599341
  10
 691.42708412832
  20
 607.64564599341
   0
LINE
   5
19F
 100
AcDbEntity
   8
LEVEL001
 370
30
 100
AcDbLine
   6
CONTINUOUS
  62
7
  10
 732.96647614248
  20
 322.64564599341
  30
0.0
  11
 732.96647614248
  21
 584.64564599341
  31
0.0
   0
LINE
   5
1A0
 100
AcDbEntity
   8
LEVEL001
 370
30
 100
AcDbLine
   6
CONTINUOUS
  62
7
  10
 732.96647614248
  20
 595.76997267104
  30
0.0
  11
 732.96647614248
  21
 607.64564599341
  31
0.0
   0
CIRCLE
   5
1A1
 100
AcDbEntity
   8
LEVEL001
 370
30
 100
AcDbCircle
   6
CONTINUOUS
  62
7
  10
 700.96647614248
  20
 594.64564599341
  30
0.0
  40
 10.500000000000
   0
LINE
   5
1A2
 100
AcDbEntity
   8
LEVEL001
 370
30
 100
AcDbLine
   6
CONTINUOUS
  62
7
  10
 690.96647614248
  20
 604.64564599341
  30
0.0
  11
 690.96647614248
  21
 597.84720811212
  31
0.0
   0
LWPOLYLINE
   5
1A3
 100
AcDbEntity
   8
LEVEL001
 370
30
   6
CONTINUOUS
  62
7
 100
AcDbPolyline
  90
3
  70
0
  10
 1136.9664761425
  20
 884.64564599341
  10
 1084.9664761425
  20
 884.64564599341
  10
 1084.9664761425
  20
 868.64564599341
   0
CIRCLE
   5
1A4
 100
AcDbEntity
   8
LEVEL001
 370
30
 100
AcDbCircle
   6
CONTINUOUS
  62
7
  10
 1072.9664761425
  20
 876.64564599341
  30
0.0
  40
 5.0000000000000
   0
LINE
   5
1A5
 100
AcDbEntity
   8
LEVEL001
 370
30
 100
AcDbLine
   6
CONTINUOUS
  62
7
  10
 1072.9664761425
  20
 881.64564599341
  30
0.0
  11
 1084.9664761425
  21
 881.64564599341
  31
0.0
   0
LINE
   5
1A6
 100
AcDbEntity
   8
LEVEL001
 370
30
 100
AcDbLine
   6
CONTINUOUS
  62
7
  10
 1072.9664761425
  20
 871.64564599341
  30
0.0
  11
 1084.9664761425
  21
 871.64564599341
  31
0.0
   0
LWPOLYLINE
   5
1A7
 100
AcDbEntity
   8
LEVEL001
 370
30
   6
CONTINUOUS
  62
7
 100
AcDbPolyline
  90
4
  70
1
  10
 1138.9664761425
  20
 849.64564599341
  10
 1178.9664761425
  20
 849.64564599341
  10
 1178.9664761425
  20
 887.64564599341
  10
 1138.9664761425
  20
 887.64564599341
   0
LWPOLYLINE
   5
1A8
 100
AcDbEntity
   8
LEVEL001
 370
30
   6
CONTINUOUS
  62
7
 100
AcDbPolyline
  90
3
  70
0
  10
 1138.9664761425
  20
 861.64564599341
  10
 1158.9664761425
  20
 861.64564599341
  10
 1158.9664761425
  20
 887.64564599341
   0
LWPOLYLINE
   5
1A9
 100
AcDbEntity
   8
LEVEL001
 370
30
   6
CONTINUOUS
  62
7
 100
AcDbPolyline
  90
6
  70
1
  10
 757.96647614248
  20
 870.64564599341
  10
 759.96647614248
  20
 870.64564599341
  10
 759.96647614248
  20
 904.64564599341
  10
 802.96647614248
  20
 904.64564599341
  10
 802.96647614248
  20
 906.64564599341
  10
 757.96647614248
  20
 906.64564599341
   0
LWPOLYLINE
   5
1AA
 100
AcDbEntity
   8
LEVEL001
 370
30
   6
CONTINUOUS
  62
7
 100
AcDbPolyline
  90
4
  70
1
  10
 757.96647614248
  20
 871.64564599341
  10
 757.96647614248
  20
 906.64564599341
  10
 732.96647614248
  20
 906.64564599341
  10
 732.96647614248
  20
 871.64564599341
   0
LINE
   5
1AB
 100
AcDbEntity
   8
LEVEL001
 370
30
 100
AcDbLine
   6
CONTINUOUS
  62
7
  10
 738.96647614248
  20
 906.64564599341
  30
0.0
  11
 738.96647614248
  21
 871.64564599341
  31
0.0
   0
LWPOLYLINE
   5
1AC
 100
AcDbEntity
   8
LEVEL001
 370
30
   6
CONTINUOUS
  62
7
 100
AcDbPolyline
  90
4
  70
1
  10
 826.96647614248
  20
 849.64564599341
  10
 786.96647614248
  20
 849.64564599341
  10
 786.96647614248
  20
 887.64564599341
  10
 826.96647614248
  20
 887.64564599341
   0
LWPOLYLINE
   5
1AD
 100
AcDbEntity
   8
LEVEL001
 370
30
   6
CONTINUOUS
  62
7
 100
AcDbPolyline
  90
3
  70
0
  10
 826.96647614248
  20
 861.64564599341
  10
 806.96647614248
  20
 861.64564599341
  10
 806.96647614248
  20
 887.64564599341
   0
LWPOLYLINE
   5
1AE
 100
AcDbEntity
   8
LEVEL001
 370
30
   6
CONTINUOUS
  62
7
 100
AcDbPolyline
  90
3
  70
0
  10
 828.96647614248
  20
 884.64564599341
  10
 880.96647614248
  20
 884.64564599341
  10
 880.96647614248
  20
 868.64564599341
   0
CIRCLE
   5
1AF
 100
AcDbEntity
   8
LEVEL001
 370
30
 100
AcDbCircle
   6
CONTINUOUS
  62
7
  10
 892.96647614248
  20
 876.64564599341
  30
0.0
  40
 5.0000000000000
   0
LINE
   5
1B0
 100
AcDbEntity
   8
LEVEL001
 370
30
 100
AcDbLine
   6
CONTINUOUS
  62
7
  10
 892.96647614248
  20
 881.64564599341
  30
0.0
  11
 880.96647614248
  21
 881.64564599341
  31
0.0
   0
LINE
   5
1B1
 100
AcDbEntity
   8
LEVEL001
 370
30
 100
AcDbLine
   6
CONTINUOUS
  62
7
  10
 892.96647614248
  20
 871.64564599341
  30
0.0
  11
 880.96647614248
  21
 871.64564599341
  31
0.0
   0
LWPOLYLINE
   5
1B2
 100
AcDbEntity
   8
LEVEL001
 370
30
   6
CONTINUOUS
  62
7
 100
AcDbPolyline
  90
12
  70
1
  10
 761.96647614248
  20
 889.64564599341
  10
 761.96647614248
  20
 891.64564599341
  10
 782.96647614248
  20
 891.64564599341
  10
 782.96647614248
  20
 904.64564599341
  10
 1182.9664761425
  20
 904.64564599341
  10
 1182.9664761425
  20
 891.64564599341
  10
 1203.9664761425
  20
 891.64564599341
  10
 1203.9664761425
  20
 889.64564599341
  10
 1136.9664761425
  20
 889.64564599341
  10
 1136.9664761425
  20
 866.64564599341
  10
 828.96647614248
  20
 866.64564599341
  10
 828.96647614248
  20
 889.64564599341
   0
LWPOLYLINE
   5
1B3
 100
AcDbEntity
   8
LEVEL001
 370
30
   6
CONTINUOUS
  62
7
 100
AcDbPolyline
  90
4
  70
1
  10
 696.46647614248
  20
 828.14564599341
  10
 698.46647614248
  20
 828.14564599341
  10
 698.46647614248
  20
 888.14564599341
  10
 696.46647614248
  20
 888.14564599341
   0
LWPOLYLINE
   5
1B4
 100
AcDbEntity
   8
LEVEL001
 370
30
   6
CONTINUOUS
  62
7
 100
AcDbPolyline
  90
4
  70
1
  10
 698.46647614248
  20
 853.14564599341
  10
 718.46647614248
  20
 853.14564599341
  10
 718.46647614248
  20
 888.14564599341
  10
 698.46647614248
  20
 888.14564599341
   0
LWPOLYLINE
   5
1B5
 100
AcDbEntity
   8
LEVEL001
 370
30
   6
CONTINUOUS
  62
7
 100
AcDbPolyline
  90
6
  70
0
  10
 681.96647614248
  20
 887.64564599341
  10
 696.46647614248
  20
 887.64564599341
  10
 696.46647614248
  20
 827.64564599341
  10
 694.46647614248
  20
 827.64564599341
  10
 694.46647614248
  20
 885.64564599341
  10
 681.96647614248
  20
 885.64564599341
   0
LWPOLYLINE
   5
1B6
 100
AcDbEntity
   8
LEVEL001
 370
30
   6
CONTINUOUS
  62
7
 100
AcDbPolyline
  90
4
  70
0
  10
 1204.4664761425
  20
 889.64564599341
  10
 1204.4664761425
  20
 908.54564599341
  10
 1172.4664761425
  20
 908.54564599341
  10
 1172.4664761425
  20
 904.64564599341
   0
LWPOLYLINE
   5
1B7
 100
AcDbEntity
   8
LEVEL001
 370
30
   6
CONTINUOUS
  62
7
 100
AcDbPolyline
  90
4
  70
0
  10
 761.46647614248
  20
 889.64564599341
  10
 761.46647614248
  20
 908.54564599341
  10
 793.46647614248
  20
 908.54564599341
  10
 793.46647614248
  20
 906.64564599341
   0
LWPOLYLINE
   5
1B8
 100
AcDbEntity
   8
LEVEL001
 370
30
   6
CONTINUOUS
  62
7
 100
AcDbPolyline
  90
6
  70
0
  10
 1282.9664761425
  20
 322.64564599341
  10
 1282.9664761425
  20
 284.64564599341
  10
 1273.9664761425
  20
 284.64564599341
  10
 1273.9664761425
  20
 313.64564599341
  10
 1132.9664761425
  20
 313.64564599341
  10
 1132.9664761425
  20
 322.20814599344
   0
LWPOLYLINE
   5
1B9
 100
AcDbEntity
   8
LEVEL001
 370
30
   6
CONTINUOUS
  62
7
 100
AcDbPolyline
  90
4
  70
0
  10
 747.96647614248
  20
 322.20814599344
  10
 747.96647614248
  20
 313.64564599341
  10
 682.96647614248
  20
 313.64564599341
  10
 682.96647614248
  20
 322.64564599341
   0
LWPOLYLINE
   5
1BA
 100
AcDbEntity
   8
LEVEL001
 370
30
   6
CONTINUOUS
  62
7
 100
AcDbPolyline
  90
4
  70
1
  10
 577.46647614248
  20
 678.14564599341
  10
 672.46647614248
  20
 678.14564599341
  10
 672.46647614248
  20
 884.14564599341
  10
 577.46647614248
  20
 884.14564599341
   0
CIRCLE
   5
1BB
 100
AcDbEntity
   8
LEVEL001
 370
30
 100
AcDbCircle
   6
CONTINUOUS
  62
7
  10
 604.96647614248
  20
 728.14564599341
  30
0.0
  40
 12.500000000000
   0
CIRCLE
   5
1BC
 100
AcDbEntity
   8
LEVEL001
 370
30
 100
AcDbCircle
   6
CONTINUOUS
  62
7
  10
 604.96647614248
  20
 728.14564599341
  30
0.0
  40
 16.250000000000
   0
CIRCLE
   5
1BD
 100
AcDbEntity
   8
LEVEL001
 370
30
 100
AcDbCircle
   6
CONTINUOUS
  62
7
  10
 644.96647614248
  20
 728.14564599341
  30
0.0
  40
 16.250000000000
   0
CIRCLE
   5
1BE
 100
AcDbEntity
   8
LEVEL001
 370
30
 100
AcDbCircle
   6
CONTINUOUS
  62
7
  10
 644.96647614248
  20
 728.14564599341
  30
0.0
  40
 12.500000000000
   0
CIRCLE
   5
1BF
 100
AcDbEntity
   8
LEVEL001
 370
30
 100
AcDbCircle
   6
CONTINUOUS
  62
7
  10
 1331.9664761425
  20
 756.64564599341
  30
0.0
  40
 12.500000000000
   0
CIRCLE
   5
1C0
 100
AcDbEntity
   8
LEVEL001
 370
30
 100
AcDbCircle
   6
CONTINUOUS
  62
7
  10
 1331.9664761425
  20
 756.64564599341
  30
0.0
  40
 16.250000000000
   0
ARC
   5
1C1
 100
AcDbEntity
   8
LEVEL001
 370
30
   6
CONTINUOUS
  62
7
 100
AcDbCircle
  10
 1331.9664761425
  20
 756.64564599341
  30
0.0
  40
 17.500000000000
 100
AcDbArc
  50
 180.00000000000
  51
0.0
   0
LWPOLYLINE
   5
1C2
 100
AcDbEntity
   8
LEVEL001
 370
30
   6
CONTINUOUS
  62
7
 100
AcDbPolyline
  90
4
  70
0
  10
 1314.4664761425
  20
 756.64564599341
  10
 1314.4664761425
  20
 784.14564599341
  10
 1349.4664761425
  20
 784.14564599341
  10
 1349.4664761425
  20
 756.64564599341
   0
LINE
   5
1C3
 100
AcDbEntity
   8
LEVEL001
 370
30
 100
AcDbLine
   6
CONTINUOUS
  62
7
  10
 761.46647614248
  20
 851.64564599341
  30
0.0
  11
 786.96647614248
  21
 851.64564599341
  31
0.0
   0
LINE
   5
1C4
 100
AcDbEntity
   8
LEVEL001
 370
30
 100
AcDbLine
   6
CONTINUOUS
  62
7
  10
 826.96647614248
  20
 851.64564599341
  30
0.0
  11
 1138.9664761425
  21
 851.64564599341
  31
0.0
   0
LINE
   5
1C5
 100
AcDbEntity
   8
LEVEL001
 370
30
 100
AcDbLine
   6
CONTINUOUS
  62
7
  10
 1178.9664761425
  20
 851.64564599341
  30
0.0
  11
 1204.4664761425
  21
 851.64564599341
  31
0.0
   0
LWPOLYLINE
   5
1C6
 100
AcDbEntity
   8
LEVEL001
 370
30
   6
CONTINUOUS
  62
7
 100
AcDbPolyline
  90
12
  70
0
  10
 705.96647614248
  20
 298.64564599341
  10
 705.96647614248
  20
 266.14564599341
  10
 703.96647614248
  20
 266.14564599341
  10
 703.96647614248
  20
 311.64564599341
  10
 697.96647614248
  20
 311.64564599341
  10
 697.96647614248
  20
 313.64564599341
  10
 737.96647614248
  20
 313.64564599341
  10
 737.96647614248
  20
 311.64564599341
  10
 731.96647614248
  20
 311.64564599341
  10
 731.96647614248
  20
 266.14564599341
  10
 729.96647614248
  20
 266.14564599341
  10
 729.96647614248
  20
 298.64564599341
   0
ARC
   5
1C7
 100
AcDbEntity
   8
LEVEL001
 370
30
   6
CONTINUOUS
  62
7
 100
AcDbCircle
  10
 717.96647614248
  20
 298.64564599341
  30
0.0
  40
 12.000000000000
 100
AcDbArc
  50
0.0
  51
 180.00000000000
   0
LWPOLYLINE
   5
1C8
 100
AcDbEntity
   8
LEVEL001
 370
30
   6
CONTINUOUS
  62
7
 100
AcDbPolyline
  90
12
  70
0
  10
 1191.4664761425
  20
 298.64564599341
  10
 1191.4664761425
  20
 266.14564599341
  10
 1189.4664761425
  20
 266.14564599341
  10
 1189.4664761425
  20
 311.64564599341
  10
 1183.4664761425
  20
 311.64564599341
  10
 1183.4664761425
  20
 313.64564599341
  10
 1223.4664761425
  20
 313.64564599341
  10
 1223.4664761425
  20
 311.64564599341
  10
 1217.4664761425
  20
 311.64564599341
  10
 1217.4664761425
  20
 266.14564599341
  10
 1215.4664761425
  20
 266.14564599341
  10
 1215.4664761425
  20
 298.64564599341
   0
ARC
   5
1C9
 100
AcDbEntity
   8
LEVEL001
 370
30
   6
CONTINUOUS
  62
7
 100
AcDbCircle
  10
 1203.4664761425
  20
 298.64564599341
  30
0.0
  40
 12.000000000000
 100
AcDbArc
  50
0.0
  51
 180.00000000000
   0
LWPOLYLINE
   5
1CA
 100
AcDbEntity
   8
LEVEL001
 370
30
   6
CONTINUOUS
  62
7
 100
AcDbPolyline
  90
4
  70
1
  10
 593.46647614248
  20
 758.14564599341
  10
 656.46647614248
  20
 758.14564599341
  10
 656.46647614248
  20
 842.14564599341
  10
 593.46647614248
  20
 842.14564599341
   0
LWPOLYLINE
   5
1CB
 100
AcDbEntity
   8
LEVEL001
 370
30
   6
CONTINUOUS
  62
7
 100
AcDbPolyline
  90
5
  70
0
  10
 710.62573440537
  20
 607.23383644439
  10
 712.94344404411
  20
 598.58402631541
  10
 740.96647614248
  20
 594.64564599341
  10
 740.96647614248
  20
 584.64564599341
  10
 704.16803826120
  20
 584.64564599341
   0
CIRCLE
   5
1CC
 100
AcDbEntity
   8
LEVEL001
 370
30
 100
AcDbCircle
   6
CONTINUOUS
  62
7
  10
 700.96647614248
  20
 594.64564599341
  30
0.0
  40
 5.0000000000000
   0
CIRCLE
   5
1CD
 100
AcDbEntity
   8
LEVEL001
 370
30
 100
AcDbCircle
   6
CONTINUOUS
  62
7
  10
 700.96647614248
  20
 594.64564599341
  30
0.0
  40
 8.2500000000000
   0
LWPOLYLINE
   5
1CE
 100
AcDbEntity
   8
LEVEL001
 370
30
   6
CONTINUOUS
  62
7
 100
AcDbPolyline
  90
6
  70
1
  10
 700.96647614248
  20
 604.46060056961
  10
 692.46647614248
  20
 599.55312328147
  10
 692.46647614248
  20
 589.73816870535
  10
 700.96647614248
  20
 584.83069141721
  10
 709.46647614248
  20
 589.73816870535
  10
 709.46647614248
  20
 599.55312328147
   0
LWPOLYLINE
   5
1CF
 100
AcDbEntity
   8
LEVEL001
 370
30
   6
CONTINUOUS
  62
7
 100
AcDbPolyline
  90
4
  70
1
  10
 730.96647614248
  20
 623.64564599341
  10
 730.96647614248
  20
 625.64564599341
  10
 709.96647614248
  20
 625.64564599341
  10
 709.96647614248
  20
 623.64564599341
   0
ARC
   5
1D0
 100
AcDbEntity
   8
LEVEL001
 370
30
   6
CONTINUOUS
  62
7
 100
AcDbCircle
  10
 720.46647614248
  20
 619.86648069710
  30
0.0
  40
 13.779165296305
 100
AcDbArc
  50
 69.135935634479
  51
 110.86406436552
   0
ARC
   5
1D1
 100
AcDbEntity
   8
LEVEL001
 370
30
   6
CONTINUOUS
  62
7
 100
AcDbCircle
  10
 713.10526021036
  20
 629.86203206451
  30
0.0
  40
 3.7836139288987
 100
AcDbArc
  50
 49.570103152863
  51
 90.000000000014
   0
LWPOLYLINE
   5
1D2
 100
AcDbEntity
   8
LEVEL001
 370
30
   6
CONTINUOUS
  62
7
 100
AcDbPolyline
  90
6
  70
1
  10
 730.28143071868
  20
 625.64564599341
  10
 710.65152156629
  20
 625.64564599341
  10
 710.65152156629
  20
 632.74211904749
  10
 712.21647614248
  20
 633.64564599341
  10
 728.71647614248
  20
 633.64564599341
  10
 730.28143071868
  20
 632.74211904749
   0
LINE
   5
1D3
 100
AcDbEntity
   8
LEVEL001
 370
30
 100
AcDbLine
   6
CONTINUOUS
  62
7
  10
 715.55899885442
  20
 625.64564599341
  30
0.0
  11
 715.55899885442
  21
 632.74211904749
  31
0.0
   0
ARC
   5
1D4
 100
AcDbEntity
   8
LEVEL001
 370
30
   6
CONTINUOUS
  62
7
 100
AcDbCircle
  10
 727.82769207461
  20
 629.86203206451
  30
0.0
  40
 3.7836139288987
 100
AcDbArc
  50
 89.999999999986
  51
 130.42989684714
   0
LINE
   5
1D5
 100
AcDbEntity
   8
LEVEL001
 370
30
 100
AcDbLine
   6
CONTINUOUS
  62
7
  10
 725.37395343055
  20
 625.64564599341
  30
0.0
  11
 725.37395343055
  21
 632.74211904749
  31
0.0
   0
LWPOLYLINE
   5
1D6
 100
AcDbEntity
   8
LEVEL001
 370
30
   6
CONTINUOUS
  62
7
 100
AcDbPolyline
  90
4
  70
1
  10
 707.46647614248
  20
 248.64564599341
  10
 728.46647614248
  20
 248.64564599341
  10
 728.46647614248
  20
 298.64564599341
  10
 707.46647614248
  20
 298.64564599341
   0
LWPOLYLINE
   5
1D7
 100
AcDbEntity
   8
LEVEL001
 370
30
   6
CONTINUOUS
  62
7
 100
AcDbPolyline
  90
4
  70
1
  10
 1192.9664761425
  20
 248.64564599341
  10
 1213.9664761425
  20
 248.64564599341
  10
 1213.9664761425
  20
 298.64564599341
  10
 1192.9664761425
  20
 298.64564599341
   0
ENDBLK
   5
1D8
 100
AcDbEntity
   8
0
 100
AcDbBlockEnd
   0
BLOCK
   5
1D9
 100
AcDbEntity
   8
0
 100
AcDbBlockBegin
   2
*D1
  70
65
  10
0.0
  20
0.0
  30
0.0
   3
*D1
   0
LINE
   5
1DA
 100
AcDbEntity
   8
LEVEL001
 370
9
 100
AcDbLine
   6
CONTINUOUS
  62
1
  10
 655.96647614249
  20
 1560.6326013186
  30
0.0
  11
 655.96647614249
  21
 1694.8283571036
  31
0.0
   0
LINE
   5
1DB
 100
AcDbEntity
   8
LEVEL001
 370
9
 100
AcDbLine
   6
CONTINUOUS
  62
1
  10
 1765.9664761425
  20
 1411.6456459934
  30
0.0
  11
 1765.9664761425
  21
 1694.8283571036
  31
0.0
   0
LINE
   5
1DC
 100
AcDbEntity
   8
LEVEL001
 370
9
 100
AcDbLine
   6
CONTINUOUS
  62
1
  10
 655.96647614249
  20
 1678.8283571036
  30
0.0
  11
 1210.9664761425
  21
 1678.8283571036
  31
0.0
   0
LINE
   5
1DD
 100
AcDbEntity
   8
LEVEL001
 370
9
 100
AcDbLine
   6
CONTINUOUS
  62
1
  10
 1765.9664761425
  20
 1678.8283571036
  30
0.0
  11
 1210.9664761425
  21
 1678.8283571036
  31
0.0
   0
INSERT
   5
1DE
 100
AcDbEntity
   8
LEVEL001
   6
CONTINUOUS
  62
1
 100
AcDbBlockReference
   2
_OPEN30
  10
 655.96647614249
  20
 1678.8283571036
  30
0.0
  41
 24.000000000000
  42
 24.000000000000
  43
 24.000000000000
  50
 180.00000000000
   0
INSERT
   5
1DF
 100
AcDbEntity
   8
LEVEL001
   6
CONTINUOUS
  62
1
 100
AcDbBlockReference
   2
_OPEN30
  10
 1765.9664761425
  20
 1678.8283571036
  30
0.0
  41
 24.000000000000
  42
 24.000000000000
  43
 24.000000000000
  50
0.0
   0
MTEXT
   5
1E0
 100
AcDbEntity
   8
LEVEL001
 370
30
  62
7
 100
AcDbMText
  10
 1210.9664761425
  20
 1686.8283571036
  30
0.0
  40
 32.000000000000
  41
0.0
  71
8
  72
1
   1
\A1;1110
   7
GMM001
   0
ENDBLK
   5
1E1
 100
AcDbEntity
   8
0
 100
AcDbBlockEnd
   0
BLOCK
   5
1E2
 100
AcDbEntity
   8
0
 100
AcDbBlockBegin
   2
*D2
  70
65
  10
0.0
  20
0.0
  30
0.0
   3
*D2
   0
LINE
   5
1E3
 100
AcDbEntity
   8
LEVEL001
 370
9
 100
AcDbLine
   6
CONTINUOUS
  62
1
  10
 455.96647614249
  20
 261.64564599341
  30
0.0
  11
 455.96647614249
  21
 85.218102224050
  31
0.0
   0
LINE
   5
1E4
 100
AcDbEntity
   8
LEVEL001
 370
9
 100
AcDbLine
   6
CONTINUOUS
  62
1
  10
 1915.9664761425
  20
 261.64564599341
  30
0.0
  11
 1915.9664761425
  21
 85.218102224050
  31
0.0
   0
LINE
   5
1E5
 100
AcDbEntity
   8
LEVEL001
 370
9
 100
AcDbLine
   6
CONTINUOUS
  62
1
  10
 455.96647614249
  20
 101.21810222405
  30
0.0
  11
 1185.9664761425
  21
 101.21810222405
  31
0.0
   0
LINE
   5
1E6
 100
AcDbEntity
   8
LEVEL001
 370
9
 100
AcDbLine
   6
CONTINUOUS
  62
1
  10
 1915.9664761425
  20
 101.21810222405
  30
0.0
  11
 1185.9664761425
  21
 101.21810222405
  31
0.0
   0
INSERT
   5
1E7
 100
AcDbEntity
   8
LEVEL001
   6
CONTINUOUS
  62
1
 100
AcDbBlockReference
   2
_OPEN30
  10
 455.96647614249
  20
 101.21810222405
  30
0.0
  41
 24.000000000000
  42
 24.000000000000
  43
 24.000000000000
  50
 180.00000000000
   0
INSERT
   5
1E8
 100
AcDbEntity
   8
LEVEL001
   6
CONTINUOUS
  62
1
 100
AcDbBlockReference
   2
_OPEN30
  10
 1915.9664761425
  20
 101.21810222405
  30
0.0
  41
 24.000000000000
  42
 24.000000000000
  43
 24.000000000000
  50
0.0
   0
MTEXT
   5
1E9
 100
AcDbEntity
   8
LEVEL001
 370
30
  62
7
 100
AcDbMText
  10
 1185.9664761425
  20
 109.21810222405
  30
0.0
  40
 32.000000000000
  41
0.0
  71
8
  72
1
   1
\A1;1460
   7
GMM001
   0
ENDBLK
   5
1EA
 100
AcDbEntity
   8
0
 100
AcDbBlockEnd
   0
BLOCK
   5
1EB
 100
AcDbEntity
   8
0
 100
AcDbBlockBegin
   2
*D3
  70
65
  10
0.0
  20
0.0
  30
0.0
   3
*D3
   0
LINE
   5
1EC
 100
AcDbEntity
   8
LEVEL001
 370
9
 100
AcDbLine
   6
CONTINUOUS
  62
1
  10
 420.96647614249
  20
 248.64564599341
  30
0.0
  11
 280.79896188162
  21
 248.64564599341
  31
0.0
   0
LINE
   5
1ED
 100
AcDbEntity
   8
LEVEL001
 370
9
 100
AcDbLine
   6
CONTINUOUS
  62
1
  10
 296.79896188162
  20
 248.64564599341
  30
0.0
  11
 296.79896188162
  21
 613.64564599341
  31
0.0
   0
LINE
   5
1EE
 100
AcDbEntity
   8
LEVEL001
 370
9
 100
AcDbLine
   6
CONTINUOUS
  62
1
  10
 296.79896188162
  20
 978.64564599341
  30
0.0
  11
 296.79896188162
  21
 613.64564599341
  31
0.0
   0
INSERT
   5
1EF
 100
AcDbEntity
   8
LEVEL001
   6
CONTINUOUS
  62
1
 100
AcDbBlockReference
   2
_OPEN30
  10
 296.79896188162
  20
 248.64564599341
  30
0.0
  41
 24.000000000000
  42
 24.000000000000
  43
 24.000000000000
  50
 270.00000000000
   0
INSERT
   5
1F0
 100
AcDbEntity
   8
LEVEL001
   6
CONTINUOUS
  62
1
 100
AcDbBlockReference
   2
_OPEN30
  10
 296.79896188162
  20
 978.64564599341
  30
0.0
  41
 24.000000000000
  42
 24.000000000000
  43
 24.000000000000
  50
 90.000000000000
   0
MTEXT
   5
1F1
 100
AcDbEntity
   8
LEVEL001
 370
30
  62
7
 100
AcDbMText
  10
 288.79896188162
  20
 613.64564599341
  30
0.0
  40
 32.000000000000
  41
0.0
  71
8
  72
1
   1
\A1;730
   7
GMM001
  11
0.0
  21
 1.0000000000000
  31
0.0
   0
ENDBLK
   5
1F2
 100
AcDbEntity
   8
0
 100
AcDbBlockEnd
   0
BLOCK
   5
1F3
 100
AcDbEntity
   8
0
 100
AcDbBlockBegin
   2
*D4
  70
65
  10
0.0
  20
0.0
  30
0.0
   3
*D4
   0
LINE
   5
1F4
 100
AcDbEntity
   8
LEVEL001
 370
9
 100
AcDbLine
   6
CONTINUOUS
  62
1
  10
 451.15424336572
  20
 978.64564599341
  30
0.0
  11
 280.79896188162
  21
 978.64564599341
  31
0.0
   0
LINE
   5
1F5
 100
AcDbEntity
   8
LEVEL001
 370
9
 100
AcDbLine
   6
CONTINUOUS
  62
1
  10
 655.96647614249
  20
 1608.6456459934
  30
0.0
  11
 280.79896188162
  21
 1608.6456459934
  31
0.0
   0
LINE
   5
1F6
 100
AcDbEntity
   8
LEVEL001
 370
9
 100
AcDbLine
   6
CONTINUOUS
  62
1
  10
 296.79896188162
  20
 978.64564599341
  30
0.0
  11
 296.79896188162
  21
 1293.6456459934
  31
0.0
   0
LINE
   5
1F7
 100
AcDbEntity
   8
LEVEL001
 370
9
 100
AcDbLine
   6
CONTINUOUS
  62
1
  10
 296.79896188162
  20
 1608.6456459934
  30
0.0
  11
 296.79896188162
  21
 1293.6456459934
  31
0.0
   0
INSERT
   5
1F8
 100
AcDbEntity
   8
LEVEL001
   6
CONTINUOUS
  62
1
 100
AcDbBlockReference
   2
_OPEN30
  10
 296.79896188162
  20
 978.64564599341
  30
0.0
  41
 24.000000000000
  42
 24.000000000000
  43
 24.000000000000
  50
 270.00000000000
   0
INSERT
   5
1F9
 100
AcDbEntity
   8
LEVEL001
   6
CONTINUOUS
  62
1
 100
AcDbBlockReference
   2
_OPEN30
  10
 296.79896188162
  20
 1608.6456459934
  30
0.0
  41
 24.000000000000
  42
 24.000000000000
  43
 24.000000000000
  50
 90.000000000000
   0
MTEXT
   5
1FA
 100
AcDbEntity
   8
LEVEL001
 370
30
  62
7
 100
AcDbMText
  10
 288.79896188162
  20
 1293.6456459934
  30
0.0
  40
 32.000000000000
  41
0.0
  71
8
  72
1
   1
\A1;630
   7
GMM001
  11
0.0
  21
 1.0000000000000
  31
0.0
   0
ENDBLK
   5
1FB
 100
AcDbEntity
   8
0
 100
AcDbBlockEnd
   0
BLOCK
   5
1FC
 100
AcDbEntity
   8
0
 100
AcDbBlockBegin
   2
*D5
  70
65
  10
0.0
  20
0.0
  30
0.0
   3
*D5
   0
LINE
   5
1FD
 100
AcDbEntity
   8
LEVEL001
 370
9
 100
AcDbLine
   6
CONTINUOUS
  62
1
  10
 655.96647614249
  20
 1608.6456459934
  30
0.0
  11
 192.55738170084
  21
 1608.6456459934
  31
0.0
   0
LINE
   5
1FE
 100
AcDbEntity
   8
LEVEL001
 370
9
 100
AcDbLine
   6
CONTINUOUS
  62
1
  10
 420.96647614249
  20
 248.64564599341
  30
0.0
  11
 192.55738170084
  21
 248.64564599341
  31
0.0
   0
LINE
   5
1FF
 100
AcDbEntity
   8
LEVEL001
 370
9
 100
AcDbLine
   6
CONTINUOUS
  62
1
  10
 208.55738170084
  20
 1608.6456459934
  30
0.0
  11
 208.55738170084
  21
 928.64564599341
  31
0.0
   0
LINE
   5
200
 100
AcDbEntity
   8
LEVEL001
 370
9
 100
AcDbLine
   6
CONTINUOUS
  62
1
  10
 208.55738170084
  20
 248.64564599341
  30
0.0
  11
 208.55738170084
  21
 928.64564599341
  31
0.0
   0
INSERT
   5
201
 100
AcDbEntity
   8
LEVEL001
   6
CONTINUOUS
  62
1
 100
AcDbBlockReference
   2
_OPEN30
  10
 208.55738170084
  20
 1608.6456459934
  30
0.0
  41
 24.000000000000
  42
 24.000000000000
  43
 24.000000000000
  50
 90.000000000000
   0
INSERT
   5
202
 100
AcDbEntity
   8
LEVEL001
   6
CONTINUOUS
  62
1
 100
AcDbBlockReference
   2
_OPEN30
  10
 208.55738170084
  20
 248.64564599341
  30
0.0
  41
 24.000000000000
  42
 24.000000000000
  43
 24.000000000000
  50
 270.00000000000
   0
MTEXT
   5
203
 100
AcDbEntity
   8
LEVEL001
 370
30
  62
7
 100
AcDbMText
  10
 200.55738170084
  20
 928.64564599341
  30
0.0
  40
 32.000000000000
  41
0.0
  71
8
  72
1
   1
\A1;1360
   7
GMM001
  11
0.0
  21
 1.0000000000000
  31
0.0
   0
ENDBLK
   5
204
 100
AcDbEntity
   8
0
 100
AcDbBlockEnd
   0
BLOCK
   5
205
 100
AcDbEntity
   8
0
 100
AcDbBlockBegin
   2
*D6
  70
65
  10
0.0
  20
0.0
  30
0.0
   3
*D6
   0
LINE
   5
206
 100
AcDbEntity
   8
LEVEL001
 370
9
 100
AcDbLine
   6
CONTINUOUS
  62
1
  10
 3421.9868095079
  20
 1002.6456459934
  30
0.0
  11
 3421.9868095079
  21
 1694.8283571036
  31
0.0
   0
LINE
   5
207
 100
AcDbEntity
   8
LEVEL001
 370
9
 100
AcDbLine
   6
CONTINUOUS
  62
1
  10
 2696.9868095079
  20
 975.64564599337
  30
0.0
  11
 2696.9868095079
  21
 1694.8283571036
  31
0.0
   0
LINE
   5
208
 100
AcDbEntity
   8
LEVEL001
 370
9
 100
AcDbLine
   6
CONTINUOUS
  62
1
  10
 3421.9868095079
  20
 1678.8283571036
  30
0.0
  11
 3059.4868095079
  21
 1678.8283571036
  31
0.0
   0
LINE
   5
209
 100
AcDbEntity
   8
LEVEL001
 370
9
 100
AcDbLine
   6
CONTINUOUS
  62
1
  10
 2696.9868095079
  20
 1678.8283571036
  30
0.0
  11
 3059.4868095079
  21
 1678.8283571036
  31
0.0
   0
INSERT
   5
20A
 100
AcDbEntity
   8
LEVEL001
   6
CONTINUOUS
  62
1
 100
AcDbBlockReference
   2
_OPEN30
  10
 3421.9868095079
  20
 1678.8283571036
  30
0.0
  41
 24.000000000000
  42
 24.000000000000
  43
 24.000000000000
  50
0.0
   0
INSERT
   5
20B
 100
AcDbEntity
   8
LEVEL001
   6
CONTINUOUS
  62
1
 100
AcDbBlockReference
   2
_OPEN30
  10
 2696.9868095079
  20
 1678.8283571036
  30
0.0
  41
 24.000000000000
  42
 24.000000000000
  43
 24.000000000000
  50
 180.00000000000
   0
MTEXT
   5
20C
 100
AcDbEntity
   8
LEVEL001
 370
30
  62
7
 100
AcDbMText
  10
 3059.4868095079
  20
 1692.5426428179
  30
0.0
  40
 32.000000000000
  41
0.0
  71
8
  72
1
   1
\A1;725
   7
GMM001
   0
ENDBLK
   5
20D
 100
AcDbEntity
   8
0
 100
AcDbBlockEnd
   0
BLOCK
   5
20E
 100
AcDbEntity
   8
0
 100
AcDbBlockBegin
   2
*D7
  70
65
  10
0.0
  20
0.0
  30
0.0
   3
*D7
   0
LINE
   5
20F
 100
AcDbEntity
   8
LEVEL001
 370
9
 100
AcDbLine
   6
CONTINUOUS
  62
1
  10
 2221.9868095079
  20
 248.64564599341
  30
0.0
  11
 2221.9868095079
  21
 85.218102224050
  31
0.0
   0
LINE
   5
210
 100
AcDbEntity
   8
LEVEL001
 370
9
 100
AcDbLine
   6
CONTINUOUS
  62
1
  10
 3421.9868095079
  20
 248.64564599341
  30
0.0
  11
 3421.9868095079
  21
 85.218102224050
  31
0.0
   0
LINE
   5
211
 100
AcDbEntity
   8
LEVEL001
 370
9
 100
AcDbLine
   6
CONTINUOUS
  62
1
  10
 2221.9868095079
  20
 101.21810222405
  30
0.0
  11
 2821.9868095079
  21
 101.21810222405
  31
0.0
   0
LINE
   5
212
 100
AcDbEntity
   8
LEVEL001
 370
9
 100
AcDbLine
   6
CONTINUOUS
  62
1
  10
 3421.9868095079
  20
 101.21810222405
  30
0.0
  11
 2821.9868095079
  21
 101.21810222405
  31
0.0
   0
INSERT
   5
213
 100
AcDbEntity
   8
LEVEL001
   6
CONTINUOUS
  62
1
 100
AcDbBlockReference
   2
_OPEN30
  10
 2221.9868095079
  20
 101.21810222405
  30
0.0
  41
 24.000000000000
  42
 24.000000000000
  43
 24.000000000000
  50
 180.00000000000
   0
INSERT
   5
214
 100
AcDbEntity
   8
LEVEL001
   6
CONTINUOUS
  62
1
 100
AcDbBlockReference
   2
_OPEN30
  10
 3421.9868095079
  20
 101.21810222405
  30
0.0
  41
 24.000000000000
  42
 24.000000000000
  43
 24.000000000000
  50
0.0
   0
MTEXT
   5
215
 100
AcDbEntity
   8
LEVEL001
 370
30
  62
7
 100
AcDbMText
  10
 2821.9868095079
  20
 109.21810222405
  30
0.0
  40
 32.000000000000
  41
0.0
  71
8
  72
1
   1
\A1;1200
   7
GMM001
   0
ENDBLK
   5
216
 100
AcDbEntity
   8
0
 100
AcDbBlockEnd
   0
ENDSEC
   0
SECTION
   2
ENTITIES
   0
MTEXT
   5
218
 100
AcDbEntity
   8
LEVEL001
 370
30
  62
7
 100
AcDbMText
  10
 4524.7796451289
  20
 80.000000000000
  30
0.0
  40
 32.000000000000
  41
0.0
  71
7
  72
1
   1
\T1.000000;井上
   7
GMM001
  44
 0.79999984000003
   0
INSERT
   5
219
 100
AcDbEntity
   8
LEVEL001
 100
AcDbBlockReference
   2
BLOCK001
  10
0.0
  20
0.0
  30
0.0
   0
INSERT
   5
21A
 100
AcDbEntity
   8
LEVEL001
 100
AcDbBlockReference
   2
BLOCK002
  10
0.0
  20
0.0
  30
0.0
   0
INSERT
   5
21B
 100
AcDbEntity
   8
0
 100
AcDbBlockReference
   2
BLOCK003
  10
0.0
  20
0.0
  30
0.0
   0
MTEXT
   5
21D
 100
AcDbEntity
   8
LEVEL001
 370
30
  62
7
 100
AcDbMText
  10
 4332.7796451289
  20
 80.000000000000
  30
0.0
  40
 32.000000000000
  41
0.0
  71
7
  72
1
   1
\T1.000000;27
   7
GMM004
  44
 0.79999984000003
   0
MTEXT
   5
21F
 100
AcDbEntity
   8
LEVEL001
 370
30
  62
7
 100
AcDbMText
  10
 4385.3900702396
  20
 80.000000000000
  30
0.0
  40
 32.000000000000
  41
0.0
  71
7
  72
1
   1
\T1.000000; 3
   7
GMM004
  44
 0.79999984000003
   0
MTEXT
   5
221
 100
AcDbEntity
   8
LEVEL001
 370
30
  62
7
 100
AcDbMText
  10
 4429.6306549919
  20
 80.000000000000
  30
0.0
  40
 32.000000000000
  41
0.0
  71
7
  72
1
   1
\T1.000000;26
   7
GMM004
  44
 0.79999984000003
   0
INSERT
   5
222
 100
AcDbEntity
   8
0
 100
AcDbBlockReference
   2
GMM001
  10
 4636.7796451289
  20
0.0
  30
0.0
  41
 8.0000000000000
  42
 8.0000000000000
   0
LINE
   5
223
 100
AcDbEntity
   8
LEVEL001
 370
30
 100
AcDbLine
   6
CONTINUOUS
  62
7
  10
 3320.7796451289
  20
 2736.3623702712
  30
0.0
  11
 4536.7796451289
  21
 2736.3623702712
  31
0.0
   0
LINE
   5
224
 100
AcDbEntity
   8
LEVEL001
 370
30
 100
AcDbLine
   6
CONTINUOUS
  62
7
  10
 3330.1129784622
  20
 2672.3623702712
  30
0.0
  11
 4536.7796451289
  21
 2672.3623702712
  31
0.0
   0
LINE
   5
225
 100
AcDbEntity
   8
LEVEL001
 370
30
 100
AcDbLine
   6
CONTINUOUS
  62
7
  10
 3320.7796451289
  20
 2608.3623702712
  30
0.0
  11
 4536.7796451289
  21
 2608.3623702712
  31
0.0
   0
LINE
   5
226
 100
AcDbEntity
   8
LEVEL001
 370
30
 100
AcDbLine
   6
CONTINUOUS
  62
7
  10
 3220.7796451289
  20
 2544.3623702712
  30
0.0
  11
 4536.7796451289
  21
 2544.3623702712
  31
0.0
   0
LINE
   5
227
 100
AcDbEntity
   8
LEVEL001
 370
30
 100
AcDbLine
   6
CONTINUOUS
  62
7
  10
 3220.7796451289
  20
 2544.3623702712
  30
0.0
  11
 3320.7796451289
  21
 2800.3623702712
  31
0.0
   0
LINE
   5
228
 100
AcDbEntity
   8
LEVEL001
 370
30
 100
AcDbLine
   6
CONTINUOUS
  62
7
  10
 3320.7796451289
  20
 2480.3623702712
  30
0.0
  11
 4536.7796451289
  21
 2480.3623702712
  31
0.0
   0
LINE
   5
229
 100
AcDbEntity
   8
LEVEL001
 370
30
 100
AcDbLine
   6
CONTINUOUS
  62
7
  10
 3320.7796451289
  20
 2416.3623702712
  30
0.0
  11
 4536.7796451289
  21
 2416.3623702712
  31
0.0
   0
LINE
   5
22A
 100
AcDbEntity
   8
LEVEL001
 370
30
 100
AcDbLine
   6
CONTINUOUS
  62
7
  10
 3320.7796451289
  20
 2352.3623702712
  30
0.0
  11
 4536.7796451289
  21
 2352.3623702712
  31
0.0
   0
LINE
   5
22B
 100
AcDbEntity
   8
LEVEL001
 370
30
 100
AcDbLine
   6
CONTINUOUS
  62
7
  10
 3320.7796451289
  20
 2288.3623702712
  30
0.0
  11
 4536.7796451289
  21
 2288.3623702712
  31
0.0
   0
LINE
   5
22C
 100
AcDbEntity
   8
LEVEL001
 370
30
 100
AcDbLine
   6
CONTINUOUS
  62
7
  10
 3320.7796451289
  20
 2224.3623702712
  30
0.0
  11
 4536.7796451289
  21
 2224.3623702712
  31
0.0
   0
LINE
   5
22D
 100
AcDbEntity
   8
LEVEL001
 370
30
 100
AcDbLine
   6
CONTINUOUS
  62
7
  10
 4536.7796451289
  20
 2096.3623702712
  30
0.0
  11
 3220.7796451289
  21
 2096.3623702712
  31
0.0
   0
LINE
   5
22E
 100
AcDbEntity
   8
LEVEL001
 370
30
 100
AcDbLine
   6
CONTINUOUS
  62
7
  10
 3220.7796451289
  20
 2864.3623702712
  30
0.0
  11
 4536.7796451289
  21
 2864.3623702712
  31
0.0
   0
LINE
   5
22F
 100
AcDbEntity
   8
LEVEL001
 370
30
 100
AcDbLine
   6
CONTINUOUS
  62
7
  10
 3220.7796451289
  20
 2928.3623702712
  30
0.0
  11
 4536.7796451289
  21
 2928.3623702712
  31
0.0
   0
LINE
   5
230
 100
AcDbEntity
   8
LEVEL001
 370
30
 100
AcDbLine
   6
CONTINUOUS
  62
7
  10
 3220.7796451289
  20
 2992.3623702712
  30
0.0
  11
 4536.7796451289
  21
 2992.3623702712
  31
0.0
   0
LINE
   5
231
 100
AcDbEntity
   8
LEVEL001
 370
30
 100
AcDbLine
   6
CONTINUOUS
  62
7
  10
 3220.7796451289
  20
 3056.3623702712
  30
0.0
  11
 4536.7796451289
  21
 3056.3623702712
  31
0.0
   0
LINE
   5
232
 100
AcDbEntity
   8
LEVEL001
 370
30
 100
AcDbLine
   6
CONTINUOUS
  62
7
  10
 3220.7796451289
  20
 2800.3623702712
  30
0.0
  11
 4536.7796451289
  21
 2800.3623702712
  31
0.0
   0
LINE
   5
233
 100
AcDbEntity
   8
LEVEL001
 370
30
 100
AcDbLine
   6
CONTINUOUS
  62
7
  10
 3220.7796451289
  20
 2096.3623702712
  30
0.0
  11
 3220.7796451289
  21
 3056.3623702712
  31
0.0
   0
LINE
   5
234
 100
AcDbEntity
   8
LEVEL001
 370
30
 100
AcDbLine
   6
CONTINUOUS
  62
7
  10
 3320.7796451289
  20
 2800.3623702712
  30
0.0
  11
 3320.7796451289
  21
 2096.3623702712
  31
0.0
   0
LINE
   5
235
 100
AcDbEntity
   8
LEVEL001
 370
30
 100
AcDbLine
   6
CONTINUOUS
  62
7
  10
 3670.1129784622
  20
 3056.3623702712
  30
0.0
  11
 3670.1129784622
  21
 2096.3623702712
  31
0.0
   0
LINE
   5
236
 100
AcDbEntity
   8
LEVEL001
 370
30
 100
AcDbLine
   6
CONTINUOUS
  62
7
  10
 4536.7796451289
  20
 3056.3623702712
  30
0.0
  11
 4536.7796451289
  21
 2096.3623702712
  31
0.0
   0
MTEXT
   5
238
 100
AcDbEntity
   8
LEVEL001
 370
9
  62
1
 100
AcDbMText
  10
 3330.1129784622
  20
 2363.0290369378
  30
0.0
  40
 32.000000000000
  41
0.0
  71
7
  72
1
   1
\T1.000000;ベルトコンベア－
   7
GMM001
  44
 0.79999984000003
   0
MTEXT
   5
23A
 100
AcDbEntity
   8
LEVEL001
 370
9
  62
1
 100
AcDbMText
  10
 3330.1129784622
  20
 2299.0290369378
  30
0.0
  40
 32.000000000000
  41
0.0
  71
7
  72
1
   1
\T1.000000;包丁刃
   7
GMM001
  44
 0.79999984000003
   0
MTEXT
   5
23C
 100
AcDbEntity
   8
LEVEL001
 370
9
  62
1
 100
AcDbMText
  10
 3678.1129784622
  20
 2297.6957036045
  30
0.0
  40
 32.000000000000
  41
0.0
  71
7
  72
1
   1
\T1.000000;ＳＵＳ　（長さ３６０）
   7
GMM001
  44
 0.79999984000003
   0
MTEXT
   5
23E
 100
AcDbEntity
   8
LEVEL001
 370
9
  62
1
 100
AcDbMText
  10
 3278.7796451289
  20
 2625.3623702712
  30
0.0
  40
 32.000000000000
  41
0.0
  71
4
  72
1
   1
{\T1.000000;能}\P{\T1.000000;力}
   7
GMM001
  44
 0.79999984000003
   0
MTEXT
   5
240
 100
AcDbEntity
   8
LEVEL001
 370
9
  62
1
 100
AcDbMText
  10
 3226.7796451289
  20
 2797.3623702712
  30
0.0
  40
 32.000000000000
  41
0.0
  71
1
  72
1
   1
{\T1.000000;消}\P{\T1.000000;費}\P{\T1.000000;電}\P{\T1.000000;力}
   7
GMM001
  44
 0.79999984000003
   0
MTEXT
   5
242
 100
AcDbEntity
   8
LEVEL001
 370
9
  62
1
 100
AcDbMText
  10
 3325.4022232175
  20
 2555.0290369378
  30
0.0
  40
 32.000000000000
  41
0.0
  71
7
  72
1
   1
\T1.000000;（合計）
   7
GMM001
  44
 0.79999984000003
   0
MTEXT
   5
244
 100
AcDbEntity
   8
LEVEL001
 370
9
  62
1
 100
AcDbMText
  10
 3330.1129784622
  20
 2491.0290369378
  30
0.0
  40
 32.000000000000
  41
0.0
  71
7
  72
1
   1
\T1.000000;凹凸ロ－ル、平ロ－ル
   7
GMM001
  44
 0.79999984000003
   0
MTEXT
   5
246
 100
AcDbEntity
   8
LEVEL001
 370
9
  62
1
 100
AcDbMText
  10
 3678.1129784622
  20
 2489.6957036045
  30
0.0
  40
 32.000000000000
  41
0.0
  71
7
  72
1
   1
\T1.000000;ポリプロピレン　（長さ７２０）
   7
GMM001
  44
 0.79999984000003
   0
MTEXT
   5
248
 100
AcDbEntity
   8
LEVEL001
 370
9
  62
1
 100
AcDbMText
  10
 3678.1129784622
  20
 2425.6957036045
  30
0.0
  40
 32.000000000000
  41
0.0
  71
7
  72
1
   1
\T1.000000;ＳＵＳ３０４
   7
GMM001
  44
 0.79999984000003
   0
MTEXT
   5
24A
 100
AcDbEntity
   8
LEVEL001
 370
9
  62
1
 100
AcDbMText
  10
 3330.1129784622
  20
 2427.0290369378
  30
0.0
  40
 32.000000000000
  41
0.0
  71
7
  72
1
   1
\T1.000000;凹凸ロ－ル（プレス機）
   7
GMM001
  44
 0.79999984000003
   0
MTEXT
   5
24C
 100
AcDbEntity
   8
LEVEL001
 370
9
  62
1
 100
AcDbMText
  10
 3330.1129784622
  20
 2171.0290369378
  30
0.0
  40
 32.000000000000
  41
0.0
  71
7
  72
1
   1
\T1.000000;安全カバ－類
   7
GMM001
  44
 0.79999984000003
   0
MTEXT
   5
24E
 100
AcDbEntity
   8
LEVEL001
 370
9
  62
1
 100
AcDbMText
  10
 3330.1129784622
  20
 2107.0290369378
  30
0.0
  40
 32.000000000000
  41
0.0
  71
7
  72
1
   1
\T1.000000;下部台
   7
GMM001
  44
 0.79999984000003
   0
MTEXT
   5
250
 100
AcDbEntity
   8
LEVEL001
 370
9
  62
1
 100
AcDbMText
  10
 3330.1129784622
  20
 2235.0290369378
  30
0.0
  40
 32.000000000000
  41
0.0
  71
7
  72
1
   1
\T1.000000;羽根
   7
GMM001
  44
 0.79999984000003
   0
MTEXT
   5
252
 100
AcDbEntity
   8
LEVEL001
 370
9
  62
1
 100
AcDbMText
  10
 3258.7796451289
  20
 2462.3623702712
  30
0.0
  40
 32.000000000000
  41
0.0
  71
1
  72
1
   1
{\T1.000000;材}\P\P\P\P{\T1.000000;料}
   7
GMM001
  44
 0.79999984000003
   0
MTEXT
   5
254
 100
AcDbEntity
   8
LEVEL001
 370
9
  62
1
 100
AcDbMText
  10
 3678.1129784622
  20
 2105.6957036045
  30
0.0
  40
 32.000000000000
  41
0.0
  71
7
  72
1
   1
\T1.000000;ＳＵＳ４３０
   7
GMM001
  44
 0.79999984000003
   0
MTEXT
   5
256
 100
AcDbEntity
   8
LEVEL001
 370
9
  62
1
 100
AcDbMText
  10
 3678.1129784622
  20
 3001.6957036045
  30
0.0
  40
 32.000000000000
  41
0.0
  71
7
  72
1
   1
\T1.000000;手打麺機
   7
GMM001
  44
 0.79999984000003
   0
MTEXT
   5
258
 100
AcDbEntity
   8
LEVEL001
 370
9
  62
1
 100
AcDbMText
  10
 3328.7796451289
  20
 3001.6957036045
  30
0.0
  40
 32.000000000000
  41
0.0
  71
7
  72
1
   1
\T1.000000;製　　品　　名
   7
GMM001
  44
 0.79999984000003
   0
MTEXT
   5
25A
 100
AcDbEntity
   8
LEVEL001
 370
9
  62
1
 100
AcDbMText
  10
 3328.7796451289
  20
 2937.6957036045
  30
0.0
  40
 32.000000000000
  41
0.0
  71
7
  72
1
   1
\T1.000000;型　　　　　式
   7
GMM001
  44
 0.79999984000003
   0
MTEXT
   5
25C
 100
AcDbEntity
   8
LEVEL001
 370
9
  62
1
 100
AcDbMText
  10
 3328.7796451289
  20
 2873.6957036045
  30
0.0
  40
 32.000000000000
  41
0.0
  71
7
  72
1
   1
\W1.000000;\T1.000000;寸法\W0.500000;\T1.000000;(\W1.000000;\T1.000000;Ｗ×Ｄ×Ｈ）
   7
GMM001
  44
 0.79999984000003
   0
MTEXT
   5
25E
 100
AcDbEntity
   8
LEVEL001
 370
9
  62
1
 100
AcDbMText
  10
 3328.7796451289
  20
 2809.6957036045
  30
0.0
  40
 32.000000000000
  41
0.0
  71
7
  72
1
   1
\T1.000000;電　　　　　源
   7
GMM001
  44
 0.79999984000003
   0
MTEXT
   5
260
 100
AcDbEntity
   8
LEVEL001
 370
9
  62
1
 100
AcDbMText
  10
 3678.1129784622
  20
 2617.6957036045
  30
0.0
  40
 32.000000000000
  41
0.0
  71
7
  72
1
   1
\T1.000000;　３４５Ｗ　／　３００食／時（製麺能力）
   7
GMM001
  44
 0.79999984000003
   0
MTEXT
   5
262
 100
AcDbEntity
   8
LEVEL001
 370
9
  62
1
 100
AcDbMText
  10
 3678.1129784622
  20
 2233.6957036045
  30
0.0
  40
 32.000000000000
  41
0.0
  71
7
  72
1
   1
\T1.000000;ＳＵＳ３０４
   7
GMM001
  44
 0.79999984000003
   0
MTEXT
   5
264
 100
AcDbEntity
   8
LEVEL001
 370
9
  62
1
 100
AcDbMText
  10
 3678.1129784622
  20
 2361.6957036045
  30
0.0
  40
 32.000000000000
  41
0.0
  71
7
  72
1
   1
\T1.000000;樹脂ベルト　ＮＰ４００４
   7
GMM001
  44
 0.79999984000003
   0
MTEXT
   5
266
 100
AcDbEntity
   8
LEVEL001
 370
9
  62
1
 100
AcDbMText
  10
 3678.1129784622
  20
 2169.6957036045
  30
0.0
  40
 32.000000000000
  41
0.0
  71
7
  72
1
   1
\T1.000000;ＳＵＳ４３０　ＳＵＳ３０４
   7
GMM001
  44
 0.79999984000003
   0
MTEXT
   5
268
 100
AcDbEntity
   8
LEVEL001
 370
9
  62
1
 100
AcDbMText
  10
 3330.1129784622
  20
 2619.0290369378
  30
0.0
  40
 32.000000000000
  41
0.0
  71
7
  72
1
   1
\T1.000000;さぬき一番
   7
GMM001
  44
 0.79999984000003
   0
MTEXT
   5
26A
 100
AcDbEntity
   8
LEVEL001
 370
9
  62
1
 100
AcDbMText
  10
 3673.4022232175
  20
 2553.6957036045
  30
0.0
  40
 32.000000000000
  41
0.0
  71
7
  72
1
   1
\T1.000000;（６４５Ｗ）
   7
GMM001
  44
 0.79999984000003
   0
MTEXT
   5
26C
 100
AcDbEntity
   8
LEVEL001
 370
9
  62
1
 100
AcDbMText
  10
 3678.1129784622
  20
 2937.6957036045
  30
0.0
  40
 32.000000000000
  41
0.0
  71
7
  72
1
   1
\W1.000000;\T1.000000;さぬき一番ＡＰ－１２\W0.500000;\T1.000000;  \W1.000000;\T1.000000;１Ｋ
   7
GMM001
  44
 0.79999984000003
   0
MTEXT
   5
26E
 100
AcDbEntity
   8
LEVEL001
 370
9
  62
1
 100
AcDbMText
  10
 3678.1129784622
  20
 2873.6957036045
  30
0.0
  40
 32.000000000000
  41
0.0
  71
7
  72
1
   1
\T1.000000;１，４６０×７２５×１，３６０
   7
GMM001
  44
 0.79999984000003
   0
MTEXT
   5
270
 100
AcDbEntity
   8
LEVEL001
 370
9
  62
1
 100
AcDbMText
  10
 3678.1129784622
  20
 2681.6957036045
  30
0.0
  40
 32.000000000000
  41
0.0
  71
7
  72
1
   1
\T1.000000;　１００Ｗ　／　１ｋｇ／回（プレス）
   7
GMM001
  44
 0.79999984000003
   0
MTEXT
   5
272
 100
AcDbEntity
   8
LEVEL001
 370
9
  62
1
 100
AcDbMText
  10
 3330.1129784622
  20
 2747.0290369378
  30
0.0
  40
 32.000000000000
  41
0.0
  71
7
  72
1
   1
\T1.000000;ＳＮ－１２Ｐ
   7
GMM001
  44
 0.79999984000003
   0
MTEXT
   5
274
 100
AcDbEntity
   8
LEVEL001
 370
9
  62
1
 100
AcDbMText
  10
 3678.1129784622
  20
 2745.6957036045
  30
0.0
  40
 32.000000000000
  41
0.0
  71
7
  72
1
   1
\T1.000000;　２００Ｗ　／　６～１２ｋｇ／回（ミキシング）
   7
GMM001
  44
 0.79999984000003
   0
MTEXT
   5
276
 100
AcDbEntity
   8
LEVEL001
 370
9
  62
1
 100
AcDbMText
  10
 3330.1129784622
  20
 2683.0290369378
  30
0.0
  40
 32.000000000000
  41
0.0
  71
7
  72
1
   1
\T1.000000;ＲＰ－１Ｐ
   7
GMM001
  44
 0.79999984000003
   0
LINE
   5
277
 100
AcDbEntity
   8
LEVEL001
 370
30
 100
AcDbLine
   6
CONTINUOUS
  62
7
  10
 4536.7796451289
  20
 2160.3623702712
  30
0.0
  11
 3320.7796451289
  21
 2160.3623702712
  31
0.0
   0
POINT
   5
278
 100
AcDbEntity
   8
LEVEL001
 100
AcDbPoint
  62
7
  10
 1486.9664761425
  20
 2731.7709767613
  30
0.0
   0
LINE
   5
279
 100
AcDbEntity
   8
LEVEL001
 370
30
 100
AcDbLine
   6
CONTINUOUS
  62
7
  10
 959.96647614249
  20
 2886.7709767613
  30
0.0
  11
 959.96647614249
  21
 2887.7709767613
  31
0.0
   0
LINE
   5
27A
 100
AcDbEntity
   8
LEVEL001
 370
30
 100
AcDbLine
   6
CONTINUOUS
  62
7
  10
 959.96647614249
  20
 2887.7709767613
  30
0.0
  11
 961.96647614249
  21
 2887.7709767613
  31
0.0
   0
LINE
   5
27B
 100
AcDbEntity
   8
LEVEL001
 370
30
 100
AcDbLine
   6
CONTINUOUS
  62
7
  10
 763.96647614249
  20
 2887.7709767613
  30
0.0
  11
 763.96647614249
  21
 2886.7709767613
  31
0.0
   0
LINE
   5
27C
 100
AcDbEntity
   8
LEVEL001
 370
30
 100
AcDbLine
   6
CONTINUOUS
  62
7
  10
 736.96647614249
  20
 2890.7709767613
  30
0.0
  11
 739.96647614249
  21
 2887.7709767613
  31
0.0
   0
POINT
   5
27D
 100
AcDbEntity
   8
LEVEL001
 100
AcDbPoint
  62
7
  10
 736.96647614249
  20
 2887.7709767613
  30
0.0
   0
LINE
   5
27E
 100
AcDbEntity
   8
LEVEL001
 370
30
 100
AcDbLine
   6
CONTINUOUS
  62
7
  10
 739.96647614249
  20
 2887.7709767613
  30
0.0
  11
 763.96647614249
  21
 2887.7709767613
  31
0.0
   0
LINE
   5
27F
 100
AcDbEntity
   8
LEVEL001
 370
30
 100
AcDbLine
   6
CONTINUOUS
  62
7
  10
 1491.9664761425
  20
 2730.7709767613
  30
0.0
  11
 1491.9664761425
  21
 2731.0032098085
  31
0.0
   0
POINT
   5
280
 100
AcDbEntity
   8
LEVEL001
 100
AcDbPoint
  62
7
  10
 736.96647614249
  20
 2764.9443353054
  30
0.0
   0
LINE
   5
281
 100
AcDbEntity
   8
LEVEL001
 370
30
 100
AcDbLine
   6
CONTINUOUS
  62
7
  10
 736.96647614249
  20
 2763.0049954772
  30
0.0
  11
 736.96647614249
  21
 2734.0032098085
  31
0.0
   0
LINE
   5
282
 100
AcDbEntity
   8
LEVEL001
 370
30
 100
AcDbLine
   6
CONTINUOUS
  62
7
  10
 736.96647614249
  20
 2763.0049954772
  30
0.0
  11
 739.96647614249
  21
 2766.0049954772
  31
0.0
   0
POINT
   5
283
 100
AcDbEntity
   8
LEVEL001
 100
AcDbPoint
  62
7
  10
 736.96647614249
  20
 2766.0049954772
  30
0.0
   0
LINE
   5
284
 100
AcDbEntity
   8
LEVEL001
 370
30
 100
AcDbLine
   6
CONTINUOUS
  62
7
  10
 760.96647614249
  20
 2766.0049954772
  30
0.0
  11
 739.96647614249
  21
 2766.0049954772
  31
0.0
   0
LINE
   5
285
 100
AcDbEntity
   8
LEVEL001
 370
30
 100
AcDbLine
   6
CONTINUOUS
  62
7
  10
 739.96647614249
  20
 2731.0032098085
  30
0.0
  11
 736.96647614249
  21
 2734.0032098085
  31
0.0
   0
LINE
   5
286
 100
AcDbEntity
   8
LEVEL001
 370
30
 100
AcDbLine
   6
CONTINUOUS
  62
7
  10
 739.96647614249
  20
 2731.0032098085
  30
0.0
  11
 760.96647614249
  21
 2731.0032098085
  31
0.0
   0
LINE
   5
287
 100
AcDbEntity
   8
LEVEL001
 370
30
 100
AcDbLine
   6
CONTINUOUS
  62
7
  10
 756.96647614249
  20
 2730.7709767613
  30
0.0
  11
 756.96647614249
  21
 2731.0032098085
  31
0.0
   0
LWPOLYLINE
   5
288
 100
AcDbEntity
   8
LEVEL001
 370
30
   6
CONTINUOUS
  62
7
 100
AcDbPolyline
  90
4
  70
0
  10
 682.96647614249
  20
 2375.5709767613
  10
 682.96647614249
  20
 2373.0709767613
  10
 716.96647614249
  20
 2373.0709767613
  10
 716.96647614249
  20
 2375.5709767613
   0
POINT
   5
289
 100
AcDbEntity
   8
LEVEL001
 100
AcDbPoint
  62
7
  10
 1738.9664761425
  20
 2342.2941283529
  30
0.0
   0
POINT
   5
28A
 100
AcDbEntity
   8
LEVEL001
 100
AcDbPoint
  62
7
  10
 1738.9664761425
  20
 2402.2150122734
  30
0.0
   0
POINT
   5
28B
 100
AcDbEntity
   8
LEVEL001
 100
AcDbPoint
  62
7
  10
 1738.9664761425
  20
 2340.9945197831
  30
0.0
   0
POINT
   5
28C
 100
AcDbEntity
   8
LEVEL001
 100
AcDbPoint
  62
7
  10
 1738.9664761425
  20
 2400.9154044351
  30
0.0
   0
POINT
   5
28D
 100
AcDbEntity
   8
LEVEL001
 100
AcDbPoint
  62
7
  10
 1738.9664761425
  20
 2342.2941283529
  30
0.0
   0
POINT
   5
28E
 100
AcDbEntity
   8
LEVEL001
 100
AcDbPoint
  62
7
  10
 1738.9664761425
  20
 2402.2150130049
  30
0.0
   0
LWPOLYLINE
   5
28F
 100
AcDbEntity
   8
LEVEL001
 370
30
   6
CONTINUOUS
  62
7
 100
AcDbPolyline
  90
4
  70
0
  10
 1743.9664761425
  20
 2403.4121079622
  10
 1743.9664761425
  20
 2404.7117165321
  10
 1553.9664761425
  20
 2404.7117165321
  10
 1553.9664761425
  20
 2403.4121079622
   0
POINT
   5
290
 100
AcDbEntity
   8
LEVEL001
 100
AcDbPoint
  62
7
  10
 1558.9664761425
  20
 2402.2150122734
  30
0.0
   0
POINT
   5
291
 100
AcDbEntity
   8
LEVEL001
 100
AcDbPoint
  62
7
  10
 1558.9664761425
  20
 2342.2941283529
  30
0.0
   0
POINT
   5
292
 100
AcDbEntity
   8
LEVEL001
 100
AcDbPoint
  62
7
  10
 1558.9664761425
  20
 2340.9945197831
  30
0.0
   0
POINT
   5
293
 100
AcDbEntity
   8
LEVEL001
 100
AcDbPoint
  62
7
  10
 1558.9664761425
  20
 2400.9154044351
  30
0.0
   0
POINT
   5
294
 100
AcDbEntity
   8
LEVEL001
 100
AcDbPoint
  62
7
  10
 1558.9664761425
  20
 2342.2941283529
  30
0.0
   0
POINT
   5
295
 100
AcDbEntity
   8
LEVEL001
 100
AcDbPoint
  62
7
  10
 1558.9664761425
  20
 2402.2150130049
  30
0.0
   0
LINE
   5
296
 100
AcDbEntity
   8
LEVEL001
 370
30
 100
AcDbLine
   6
CONTINUOUS
  62
7
  10
 717.56479282483
  20
 2730.7709767613
  30
0.0
  11
 696.46260894755
  21
 2679.5799581400
  31
0.0
   0
LINE
   5
297
 100
AcDbEntity
   8
LEVEL001
 370
30
 100
AcDbLine
   6
CONTINUOUS
  62
7
  10
 728.38111801726
  20
 2730.7709767613
  30
0.0
  11
 705.70789311023
  21
 2675.7688269757
  31
0.0
   0
LINE
   5
298
 100
AcDbEntity
   8
LEVEL001
 370
30
 100
AcDbLine
   6
CONTINUOUS
  62
7
  10
 694.67006086460
  20
 2685.7270526870
  30
0.0
  11
 692.76449528247
  21
 2681.1044106057
  31
0.0
   0
LINE
   5
299
 100
AcDbEntity
   8
LEVEL001
 370
30
 100
AcDbLine
   6
CONTINUOUS
  62
7
  10
 694.67006086460
  20
 2685.7270526870
  30
0.0
  11
 711.31157235744
  21
 2678.8670165913
  31
0.0
   0
LINE
   5
29A
 100
AcDbEntity
   8
LEVEL001
 370
30
 100
AcDbLine
   6
CONTINUOUS
  62
7
  10
 711.31157235744
  20
 2678.8670165913
  30
0.0
  11
 709.40600677531
  21
 2674.2443745100
  31
0.0
   0
LINE
   5
29B
 100
AcDbEntity
   8
LEVEL001
 370
30
 100
AcDbLine
   6
CONTINUOUS
  62
7
  10
 709.40600677531
  20
 2674.2443745100
  30
0.0
  11
 692.76449528247
  21
 2681.1044106057
  31
0.0
   0
ARC
   5
29C
 100
AcDbEntity
   8
LEVEL001
 370
30
   6
CONTINUOUS
  62
7
 100
AcDbCircle
  10
 693.70502726414
  20
 2659.7709767613
  30
0.0
  40
 20.000000000000
 100
AcDbArc
  50
 82.074863481193
  51
 53.119839109335
   0
LWPOLYLINE
   5
29D
 100
AcDbEntity
   8
LEVEL001
 370
30
   6
CONTINUOUS
  62
7
 100
AcDbPolyline
  90
3
  70
0
  10
 682.96647614249
  20
 2725.5709767613
  10
 682.96647614249
  20
 2728.0709767613
  10
 716.45178710619
  20
 2728.0709767613
   0
LWPOLYLINE
   5
29E
 100
AcDbEntity
   8
LEVEL001
 370
30
   6
CONTINUOUS
  62
7
 100
AcDbPolyline
  90
3
  70
0
  10
 715.42122625560
  20
 2725.5709767613
  10
 680.96647614249
  20
 2725.5709767613
  10
 680.96647614249
  20
 2675.1894499452
   0
LWPOLYLINE
   5
29F
 100
AcDbEntity
   8
LEVEL001
 370
30
   6
CONTINUOUS
  62
7
 100
AcDbPolyline
  90
3
  70
0
  10
 680.96647614249
  20
 2644.3525035775
  10
 680.96647614249
  20
 2375.5709767613
  10
 1485.4664761425
  20
 2375.5709767613
   0
LINE
   5
2A0
 100
AcDbEntity
   8
LEVEL001
 370
30
 100
AcDbLine
   6
CONTINUOUS
  62
7
  10
 1759.9664761425
  20
 2410.2931189621
  30
0.0
  11
 1487.4664761425
  21
 2410.2931189621
  31
0.0
   0
LINE
   5
2A1
 100
AcDbEntity
   8
LEVEL001
 370
30
 100
AcDbLine
   6
CONTINUOUS
  62
7
  10
 1486.9664761425
  20
 2754.3969445379
  30
0.0
  11
 1486.9664761425
  21
 2335.5709767613
  31
0.0
   0
LINE
   5
2A2
 100
AcDbEntity
   8
LEVEL001
 370
30
 100
AcDbLine
   6
CONTINUOUS
  62
7
  10
 1486.9664761425
  20
 2771.3568128713
  30
0.0
  11
 1484.9664761425
  21
 2771.3568128713
  31
0.0
   0
LINE
   5
2A3
 100
AcDbEntity
   8
LEVEL001
 370
30
 100
AcDbLine
   6
CONTINUOUS
  62
7
  10
 762.46647614249
  20
 2335.5709767613
  30
0.0
  11
 762.46647614249
  21
 2334.3709767613
  31
0.0
   0
LINE
   5
2A4
 100
AcDbEntity
   8
LEVEL001
 370
30
 100
AcDbLine
   6
CONTINUOUS
  62
7
  10
 762.46647614249
  20
 2334.3709767613
  30
0.0
  11
 1486.9664761425
  21
 2334.3709767613
  31
0.0
   0
LWPOLYLINE
   5
2A5
 100
AcDbEntity
   8
LEVEL001
 370
30
   6
CONTINUOUS
  62
7
 100
AcDbPolyline
  90
8
  70
0
  10
 1479.9664761425
  20
 2355.3709767613
  10
 1479.9664761425
  20
 2353.3709767613
  10
 1484.4664761425
  20
 2353.3709767613
  10
 1484.4664761425
  20
 2343.3709767613
  10
 1485.4664761425
  20
 2343.3709767613
  10
 1485.4664761425
  20
 2354.3709767613
  10
 1480.9664761425
  20
 2354.3709767613
  10
 1480.9664761425
  20
 2355.3709767613
   0
LWPOLYLINE
   5
2A6
 100
AcDbEntity
   8
LEVEL001
 370
30
   6
CONTINUOUS
  62
7
 100
AcDbPolyline
  90
8
  70
0
  10
 1479.9664761425
  20
 2745.3709767613
  10
 1479.9664761425
  20
 2747.3709767613
  10
 1484.4664761425
  20
 2747.3709767613
  10
 1484.4664761425
  20
 2757.3709767613
  10
 1485.4664761425
  20
 2757.3709767613
  10
 1485.4664761425
  20
 2746.3709767613
  10
 1480.9664761425
  20
 2746.3709767613
  10
 1480.9664761425
  20
 2745.3709767613
   0
LWPOLYLINE
   5
2A7
 100
AcDbEntity
   8
LEVEL001
 370
30
   6
CONTINUOUS
  62
7
 100
AcDbPolyline
  90
4
  70
0
  10
 1485.4664761425
  20
 2355.3709767613
  10
 1472.4664761425
  20
 2355.3709767613
  10
 1472.4664761425
  20
 2745.3709767613
  10
 1485.4664761425
  20
 2745.3709767613
   0
LINE
   5
2A8
 100
AcDbEntity
   8
LEVEL001
 370
30
 100
AcDbLine
   6
CONTINUOUS
  62
7
  10
 1485.4664761425
  20
 2762.3709767613
  30
0.0
  11
 1468.9664761425
  21
 2762.3709767613
  31
0.0
   0
LINE
   5
2A9
 100
AcDbEntity
   8
LEVEL001
 370
30
 100
AcDbLine
   6
CONTINUOUS
  62
7
  10
 961.96647614249
  20
 2887.7709767613
  30
0.0
  11
 961.96647614249
  21
 2767.4946419869
  31
0.0
   0
LINE
   5
2AA
 100
AcDbEntity
   8
LEVEL001
 370
30
 100
AcDbLine
   6
CONTINUOUS
  62
7
  10
 1484.9664761425
  20
 2771.3568128713
  30
0.0
  11
 1484.9664761425
  21
 2758.6884697352
  31
0.0
   0
LINE
   5
2AB
 100
AcDbEntity
   8
LEVEL001
 370
30
 100
AcDbLine
   6
CONTINUOUS
  62
7
  10
 1468.9664761425
  20
 2757.0898937613
  30
0.0
  11
 1468.9664761425
  21
 2782.7142494143
  31
0.0
   0
LINE
   5
2AC
 100
AcDbEntity
   8
LEVEL001
 370
30
 100
AcDbLine
   6
CONTINUOUS
  62
7
  10
 1468.9664761425
  20
 2754.0898937613
  30
0.0
  11
 1468.9664761425
  21
 2757.0898937613
  31
0.0
   0
LINE
   5
2AD
 100
AcDbEntity
   8
LEVEL001
 370
30
 100
AcDbLine
   6
CONTINUOUS
  62
7
  10
 1486.9664761425
  20
 2768.2017740619
  30
0.0
  11
 1486.9664761425
  21
 2767.4946419869
  31
0.0
   0
LINE
   5
2AE
 100
AcDbEntity
   8
LEVEL001
 370
30
 100
AcDbLine
   6
CONTINUOUS
  62
7
  10
 1468.9664761425
  20
 2768.2017740619
  30
0.0
  11
 1486.9664761425
  21
 2768.2017740619
  31
0.0
   0
LINE
   5
2AF
 100
AcDbEntity
   8
LEVEL001
 370
30
 100
AcDbLine
   6
CONTINUOUS
  62
7
  10
 1468.9664761425
  20
 2767.4946419869
  30
0.0
  11
 1486.9664761425
  21
 2767.4946419869
  31
0.0
   0
LINE
   5
2B0
 100
AcDbEntity
   8
LEVEL001
 370
30
 100
AcDbLine
   6
CONTINUOUS
  62
7
  10
 1486.9664761425
  20
 2784.4045698571
  30
0.0
  11
 1486.9664761425
  21
 2771.3568128713
  31
0.0
   0
LINE
   5
2B1
 100
AcDbEntity
   8
LEVEL001
 370
30
 100
AcDbLine
   6
CONTINUOUS
  62
7
  10
 1508.9664761425
  20
 2784.4045698571
  30
0.0
  11
 967.88905314918
  21
 2784.4045698571
  31
0.0
   0
LINE
   5
2B2
 100
AcDbEntity
   8
LEVEL001
 370
30
 100
AcDbLine
   6
CONTINUOUS
  62
7
  10
 1508.9664761425
  20
 2784.4045698571
  30
0.0
  11
 1511.9664761425
  21
 2787.4045698571
  31
0.0
   0
POINT
   5
2B3
 100
AcDbEntity
   8
LEVEL001
 100
AcDbPoint
  62
7
  10
 1511.9664761425
  20
 2784.4045698571
  30
0.0
   0
LINE
   5
2B4
 100
AcDbEntity
   8
LEVEL001
 370
30
 100
AcDbLine
   6
CONTINUOUS
  62
7
  10
 1486.9664761425
  20
 2335.3709767613
  30
0.0
  11
 1486.9664761425
  21
 2334.3709767613
  31
0.0
   0
LINE
   5
2B5
 100
AcDbEntity
   8
LEVEL001
 370
30
 100
AcDbLine
   6
CONTINUOUS
  62
7
  10
 1486.9664761425
  20
 2334.3709767613
  30
0.0
  11
 1759.9664761425
  21
 2334.3709767613
  31
0.0
   0
LINE
   5
2B6
 100
AcDbEntity
   8
LEVEL001
 370
30
 100
AcDbLine
   6
CONTINUOUS
  62
7
  10
 1759.9664761425
  20
 2334.3709767613
  30
0.0
  11
 1759.9664761425
  21
 2799.8709767613
  31
0.0
   0
LINE
   5
2B7
 100
AcDbEntity
   8
LEVEL001
 370
30
 100
AcDbLine
   6
CONTINUOUS
  62
7
  10
 1759.9664761425
  20
 2799.8709767613
  30
0.0
  11
 1511.9664761425
  21
 2799.8709767613
  31
0.0
   0
LINE
   5
2B8
 100
AcDbEntity
   8
LEVEL001
 370
30
 100
AcDbLine
   6
CONTINUOUS
  62
7
  10
 1486.9664761425
  20
 2784.4045698571
  30
0.0
  11
 1486.9664761425
  21
 2335.3709767613
  31
0.0
   0
LINE
   5
2B9
 100
AcDbEntity
   8
LEVEL001
 370
30
 100
AcDbLine
   6
CONTINUOUS
  62
7
  10
 1485.4664761425
  20
 2334.3709767613
  30
0.0
  11
 1485.4664761425
  21
 2784.4045698571
  31
0.0
   0
LINE
   5
2BA
 100
AcDbEntity
   8
LEVEL001
 370
30
 100
AcDbLine
   6
CONTINUOUS
  62
7
  10
 736.96647614249
  20
 2770.4946419869
  30
0.0
  11
 739.96647614249
  21
 2767.4946419869
  31
0.0
   0
POINT
   5
2BB
 100
AcDbEntity
   8
LEVEL001
 100
AcDbPoint
  62
7
  10
 736.96647614249
  20
 2767.4946419869
  30
0.0
   0
LINE
   5
2BC
 100
AcDbEntity
   8
LEVEL001
 370
30
 100
AcDbLine
   6
CONTINUOUS
  62
7
  10
 736.96647614249
  20
 2883.7709767613
  30
0.0
  11
 736.96647614249
  21
 2770.4946419869
  31
0.0
   0
LINE
   5
2BD
 100
AcDbEntity
   8
LEVEL001
 370
30
 100
AcDbLine
   6
CONTINUOUS
  62
7
  10
 736.96647614249
  20
 2883.7709767613
  30
0.0
  11
 739.96647614249
  21
 2886.7709767613
  31
0.0
   0
POINT
   5
2BE
 100
AcDbEntity
   8
LEVEL001
 100
AcDbPoint
  62
7
  10
 736.96647614249
  20
 2886.7709767613
  30
0.0
   0
LINE
   5
2BF
 100
AcDbEntity
   8
LEVEL001
 370
30
 100
AcDbLine
   6
CONTINUOUS
  62
7
  10
 739.96647614249
  20
 2886.7709767613
  30
0.0
  11
 959.96647614249
  21
 2886.7709767613
  31
0.0
   0
LINE
   5
2C0
 100
AcDbEntity
   8
LEVEL001
 370
30
 100
AcDbLine
   6
CONTINUOUS
  62
7
  10
 761.96647614249
  20
 2887.7709767613
  30
0.0
  11
 761.96647614249
  21
 2886.7709767613
  31
0.0
   0
LINE
   5
2C1
 100
AcDbEntity
   8
LEVEL001
 370
30
 100
AcDbLine
   6
CONTINUOUS
  62
7
  10
 756.96647614249
  20
 2766.0049954772
  30
0.0
  11
 756.96647614249
  21
 2767.4946419869
  31
0.0
   0
LINE
   5
2C2
 100
AcDbEntity
   8
LEVEL001
 370
30
 100
AcDbLine
   6
CONTINUOUS
  62
7
  10
 756.96647614249
  20
 2886.7709767613
  30
0.0
  11
 756.96647614249
  21
 2887.7709767613
  31
0.0
   0
LINE
   5
2C3
 100
AcDbEntity
   8
LEVEL001
 370
30
 100
AcDbLine
   6
CONTINUOUS
  62
7
  10
 742.02846942756
  20
 2837.8567631988
  30
0.0
  11
 776.07139629129
  21
 2837.8567631988
  31
0.0
   0
LINE
   5
2C4
 100
AcDbEntity
   8
LEVEL001
 370
30
 100
AcDbLine
   6
CONTINUOUS
  62
7
  10
 1468.9664761425
  20
 2762.3709767613
  30
0.0
  11
 1468.9664761425
  21
 2695.8132098085
  31
0.0
   0
LINE
   5
2C5
 100
AcDbEntity
   8
LEVEL001
 370
30
 100
AcDbLine
   6
CONTINUOUS
  62
7
  10
 1468.9664761425
  20
 2695.8132098085
  30
0.0
  11
 760.96647614249
  21
 2695.8132098085
  31
0.0
   0
LINE
   5
2C6
 100
AcDbEntity
   8
LEVEL001
 370
30
 100
AcDbLine
   6
CONTINUOUS
  62
7
  10
 760.96647614249
  20
 2767.4946419869
  30
0.0
  11
 760.96647614249
  21
 2695.8132098085
  31
0.0
   0
LINE
   5
2C7
 100
AcDbEntity
   8
LEVEL001
 370
30
 100
AcDbLine
   6
CONTINUOUS
  62
7
  10
 776.96647614249
  20
 2767.4946419869
  30
0.0
  11
 776.96647614249
  21
 2886.7709767613
  31
0.0
   0
LINE
   5
2C8
 100
AcDbEntity
   8
LEVEL001
 370
30
 100
AcDbLine
   6
CONTINUOUS
  62
7
  10
 776.96647614249
  20
 2832.0794343917
  30
0.0
  11
 961.96647614249
  21
 2832.0794343917
  31
0.0
   0
LINE
   5
2C9
 100
AcDbEntity
   8
LEVEL001
 370
30
 100
AcDbLine
   6
CONTINUOUS
  62
7
  10
 739.96647614249
  20
 2767.4946419869
  30
0.0
  11
 776.96647614249
  21
 2767.4946419869
  31
0.0
   0
LINE
   5
2CA
 100
AcDbEntity
   8
LEVEL001
 370
30
 100
AcDbLine
   6
CONTINUOUS
  62
7
  10
 736.96647614249
  20
 3044.7709767613
  30
0.0
  11
 1511.9664761425
  21
 3044.7709767613
  31
0.0
   0
LINE
   5
2CB
 100
AcDbEntity
   8
LEVEL001
 370
30
 100
AcDbLine
   6
CONTINUOUS
  62
7
  10
 736.96647614249
  20
 3044.7709767613
  30
0.0
  11
 736.96647614249
  21
 2890.7709767613
  31
0.0
   0
ARC
   5
2CC
 100
AcDbEntity
   8
LEVEL001
 370
30
   6
CONTINUOUS
  62
7
 100
AcDbCircle
  10
 1757.9664761425
  20
 3040.7709767613
  30
0.0
  40
 2.0000000000000
 100
AcDbArc
  50
0.0
  51
 90.000000000000
   0
POINT
   5
2CD
 100
AcDbEntity
   8
LEVEL001
 100
AcDbPoint
  62
7
  10
 1759.9664761425
  20
 3042.7709767613
  30
0.0
   0
LINE
   5
2CE
 100
AcDbEntity
   8
LEVEL001
 370
30
 100
AcDbLine
   6
CONTINUOUS
  62
7
  10
 1511.9664761425
  20
 3043.7709767613
  30
0.0
  11
 1756.9664761425
  21
 3043.7709767613
  31
0.0
   0
LINE
   5
2CF
 100
AcDbEntity
   8
LEVEL001
 370
30
 100
AcDbLine
   6
CONTINUOUS
  62
7
  10
 1756.9664761425
  20
 3043.7709767613
  30
0.0
  11
 1756.9664761425
  21
 3042.7709767613
  31
0.0
   0
LINE
   5
2D0
 100
AcDbEntity
   8
LEVEL001
 370
30
 100
AcDbLine
   6
CONTINUOUS
  62
7
  10
 1511.9664761425
  20
 3042.7709767613
  30
0.0
  11
 1757.9664761425
  21
 3042.7709767613
  31
0.0
   0
LINE
   5
2D1
 100
AcDbEntity
   8
LEVEL001
 370
30
 100
AcDbLine
   6
CONTINUOUS
  62
7
  10
 1759.9664761425
  20
 3040.7709767613
  30
0.0
  11
 1759.9664761425
  21
 2799.8709767613
  31
0.0
   0
LINE
   5
2D2
 100
AcDbEntity
   8
LEVEL001
 370
30
 100
AcDbLine
   6
CONTINUOUS
  62
7
  10
 1511.9664761425
  20
 2787.4045698571
  30
0.0
  11
 1511.9664761425
  21
 3044.7709767613
  31
0.0
   0
ARC
   5
2D3
 100
AcDbEntity
   8
LEVEL001
 370
30
   6
CONTINUOUS
  62
7
 100
AcDbCircle
  10
 662.96647614249
  20
 2732.7709767613
  30
0.0
  40
 2.0000000000000
 100
AcDbArc
  50
 180.00000000000
  51
 270.00000000000
   0
POINT
   5
2D4
 100
AcDbEntity
   8
LEVEL001
 100
AcDbPoint
  62
7
  10
 660.96647614249
  20
 2730.7709767613
  30
0.0
   0
LWPOLYLINE
   5
2D5
 100
AcDbEntity
   8
LEVEL001
 370
30
   6
CONTINUOUS
  62
7
 100
AcDbPolyline
  90
4
  70
0
  10
 761.46647614249
  20
 2335.5709767613
  10
 761.46647614249
  20
 2334.3709767613
  10
 660.96647614249
  20
 2334.3709767613
  10
 660.96647614249
  20
 2730.7709767613
   0
LWPOLYLINE
   5
2D6
 100
AcDbEntity
   8
LEVEL001
 370
30
   6
CONTINUOUS
  62
7
 100
AcDbPolyline
  90
4
  70
0
  10
 1485.4664761425
  20
 2373.5709767613
  10
 662.46647614249
  20
 2373.5709767613
  10
 662.46647614249
  20
 2335.5709767613
  10
 1486.9664761425
  20
 2335.5709767613
   0
LINE
   5
2D7
 100
AcDbEntity
   8
LEVEL001
 370
30
 100
AcDbLine
   6
CONTINUOUS
  62
7
  10
 673.13498424830
  20
 2837.8567631988
  30
0.0
  11
 732.13761905499
  21
 2837.8567631988
  31
0.0
   0
LINE
   5
2D8
 100
AcDbEntity
   8
LEVEL001
 370
30
 100
AcDbLine
   6
CONTINUOUS
  62
7
  10
 660.96647614249
  20
 3040.7709767613
  30
0.0
  11
 660.96647614249
  21
 2732.7709767613
  31
0.0
   0
ARC
   5
2D9
 100
AcDbEntity
   8
LEVEL001
 370
30
   6
CONTINUOUS
  62
7
 100
AcDbCircle
  10
 662.96647614249
  20
 3040.7709767613
  30
0.0
  40
 2.0000000000000
 100
AcDbArc
  50
 90.000000000000
  51
 180.00000000000
   0
POINT
   5
2DA
 100
AcDbEntity
   8
LEVEL001
 100
AcDbPoint
  62
7
  10
 660.96647614249
  20
 3042.7709767613
  30
0.0
   0
LINE
   5
2DB
 100
AcDbEntity
   8
LEVEL001
 370
30
 100
AcDbLine
   6
CONTINUOUS
  62
7
  10
 736.96647614249
  20
 3043.7709767613
  30
0.0
  11
 663.96647614249
  21
 3043.7709767613
  31
0.0
   0
LINE
   5
2DC
 100
AcDbEntity
   8
LEVEL001
 370
30
 100
AcDbLine
   6
CONTINUOUS
  62
7
  10
 663.96647614249
  20
 3043.7709767613
  30
0.0
  11
 663.96647614249
  21
 3042.7709767613
  31
0.0
   0
LINE
   5
2DD
 100
AcDbEntity
   8
LEVEL001
 370
30
 100
AcDbLine
   6
CONTINUOUS
  62
7
  10
 736.96647614249
  20
 3042.7709767613
  30
0.0
  11
 662.96647614249
  21
 3042.7709767613
  31
0.0
   0
LINE
   5
2DE
 100
AcDbEntity
   8
LEVEL001
 370
30
 100
AcDbLine
   6
CONTINUOUS
  62
7
  10
 680.96647614249
  20
 2644.3525035775
  30
0.0
  11
 680.96647614249
  21
 2373.5709767613
  31
0.0
   0
LINE
   5
2DF
 100
AcDbEntity
   8
LEVEL001
 370
30
 100
AcDbLine
   6
CONTINUOUS
  62
7
  10
 662.96647614249
  20
 2730.7709767613
  30
0.0
  11
 756.96647614249
  21
 2730.7709767613
  31
0.0
   0
LWPOLYLINE
   5
2E0
 100
AcDbEntity
   8
LEVEL001
 370
30
   6
CONTINUOUS
  62
7
 100
AcDbPolyline
  90
4
  70
0
  10
 679.96647614249
  20
 2730.7709767613
  10
 679.96647614249
  20
 2723.3709767613
  10
 680.96647614249
  20
 2723.3709767613
  10
 680.96647614249
  20
 2675.1894499452
   0
LINE
   5
2E1
 100
AcDbEntity
   8
LEVEL001
 370
30
 100
AcDbLine
   6
CONTINUOUS
  62
7
  10
 1743.9664761425
  20
 2338.4978162559
  30
0.0
  11
 1743.9664761425
  21
 2403.4121079622
  31
0.0
   0
LINE
   5
2E2
 100
AcDbEntity
   8
LEVEL001
 370
30
 100
AcDbLine
   6
CONTINUOUS
  62
7
  10
 1743.9664761425
  20
 2403.4121079622
  30
0.0
  11
 1553.9664761425
  21
 2403.4121079622
  31
0.0
   0
LINE
   5
2E3
 100
AcDbEntity
   8
LEVEL001
 370
30
 100
AcDbLine
   6
CONTINUOUS
  62
7
  10
 1553.9664761425
  20
 2403.4121079622
  30
0.0
  11
 1553.9664761425
  21
 2338.4978162559
  31
0.0
   0
LINE
   5
2E4
 100
AcDbEntity
   8
LEVEL001
 370
30
 100
AcDbLine
   6
CONTINUOUS
  62
7
  10
 1553.9664761425
  20
 2338.4978162559
  30
0.0
  11
 1743.9664761425
  21
 2338.4978162559
  31
0.0
   0
LINE
   5
2E5
 100
AcDbEntity
   8
LEVEL001
 370
30
 100
AcDbLine
   6
CONTINUOUS
  62
7
  10
 961.96647614249
  20
 2768.2017740619
  30
0.0
  11
 1468.9664761425
  21
 2768.2017740619
  31
0.0
   0
LINE
   5
2E6
 100
AcDbEntity
   8
LEVEL001
 370
30
 100
AcDbLine
   6
CONTINUOUS
  62
7
  10
 961.96647614249
  20
 2767.4946419869
  30
0.0
  11
 1468.9664761425
  21
 2767.4946419869
  31
0.0
   0
LINE
   5
2E7
 100
AcDbEntity
   8
LEVEL001
 370
30
 100
AcDbLine
   6
CONTINUOUS
  62
7
  10
 1915.9664761425
  20
 2800.2709767613
  30
0.0
  11
 1915.9664761425
  21
 3044.7709767613
  31
0.0
   0
LINE
   5
2E8
 100
AcDbEntity
   8
LEVEL001
 370
30
 100
AcDbLine
   6
CONTINUOUS
  62
7
  10
 1915.9664761425
  20
 3044.7709767613
  30
0.0
  11
 735.96647614249
  21
 3044.7709767613
  31
0.0
   0
LINE
   5
2E9
 100
AcDbEntity
   8
LEVEL001
 370
30
 100
AcDbLine
   6
CONTINUOUS
  62
7
  10
 1915.9664761425
  20
 2319.7709767613
  30
0.0
  11
 1915.9664761425
  21
 2800.2709767613
  31
0.0
   0
LINE
   5
2EA
 100
AcDbEntity
   8
LEVEL001
 370
30
 100
AcDbLine
   6
CONTINUOUS
  62
7
  10
 455.96647614249
  20
 3044.7709767613
  30
0.0
  11
 455.96647614249
  21
 2731.1709767613
  31
0.0
   0
LINE
   5
2EB
 100
AcDbEntity
   8
LEVEL001
 370
30
 100
AcDbLine
   6
CONTINUOUS
  62
7
  10
 735.96647614249
  20
 3044.7709767613
  30
0.0
  11
 455.96647614249
  21
 3044.7709767613
  31
0.0
   0
LINE
   5
2EC
 100
AcDbEntity
   8
LEVEL001
 370
30
 100
AcDbLine
   6
CONTINUOUS
  62
7
  10
 455.96647614249
  20
 2319.7709767613
  30
0.0
  11
 455.96647614249
  21
 2731.1709767613
  31
0.0
   0
LINE
   5
2ED
 100
AcDbEntity
   8
LEVEL001
 370
30
 100
AcDbLine
   6
CONTINUOUS
  62
7
  10
 455.96647614249
  20
 2319.7709767613
  30
0.0
  11
 1915.9664761425
  21
 2319.7709767613
  31
0.0
   0
ELLIPSE
   5
2EE
 100
AcDbEntity
   8
LEVEL001
 370
30
   6
CONTINUOUS
  62
7
 100
AcDbEllipse
  10
 687.96647614248
  20
 2796.8499267468
  30
0.0
  11
-20.000000000000
  21
0.0
  31
0.0
  40
 0.80000000000000
  41
 3.0086186017185
  42
 0.13297405187129
   0
ELLIPSE
   5
2EF
 100
AcDbEntity
   8
LEVEL001
 370
30
   6
CONTINUOUS
  62
7
 100
AcDbEllipse
  10
 687.96647614248
  20
 2811.3456157612
  30
0.0
  11
-15.200000000000
  21
0.0
  31
0.0
  40
 0.65789473684211
  41
 0.70769736666054E-1
  42
 0.33994986682127
   0
ELLIPSE
   5
2F0
 100
AcDbEntity
   8
LEVEL001
 370
30
   6
CONTINUOUS
  62
7
 100
AcDbEllipse
  10
 687.96647614248
  20
 2811.3456157612
  30
0.0
  11
-15.200000000000
  21
0.0
  31
0.0
  40
 0.65789473684211
  41
 2.8016427867685
  42
 3.0708229169237
   0
ELLIPSE
   5
2F1
 100
AcDbEntity
   8
LEVEL001
 370
30
   6
CONTINUOUS
  62
7
 100
AcDbEllipse
  10
 687.96647614248
  20
 2809.9314021988
  30
0.0
  11
-15.200000000000
  21
0.0
  31
0.0
  40
 0.65789473684211
  41
 2.9084871995546
  42
 0.23310545403521
   0
ELLIPSE
   5
2F2
 100
AcDbEntity
   8
LEVEL001
 370
30
   6
CONTINUOUS
  62
7
 100
AcDbEllipse
  10
 687.96647614248
  20
 2792.6072860596
  30
0.0
  11
-20.000000000000
  21
0.0
  31
0.0
  40
 0.80000000000000
  41
0.0
  42
 6.2831853071796
   0
ELLIPSE
   5
2F3
 100
AcDbEntity
   8
LEVEL001
 370
30
   6
CONTINUOUS
  62
7
 100
AcDbEllipse
  10
 687.96647614248
  20
 2750.6557636786
  30
0.0
  11
-14.500000000000
  21
0.0
  31
0.0
  40
 0.66670774868224
  41
0.0
  42
 6.2831853071796
   0
LINE
   5
2F4
 100
AcDbEntity
   8
LEVEL001
 370
30
 100
AcDbLine
   6
CONTINUOUS
  62
7
  10
 673.46647614248
  20
 2760.4339271988
  30
0.0
  11
 673.46647614248
  21
 2750.6557636786
  31
0.0
   0
LINE
   5
2F5
 100
AcDbEntity
   8
LEVEL001
 370
30
 100
AcDbLine
   6
CONTINUOUS
  62
7
  10
 702.46647614248
  20
 2760.4339271988
  30
0.0
  11
 702.46647614248
  21
 2750.6557636786
  31
0.0
   0
ELLIPSE
   5
2F6
 100
AcDbEntity
   8
LEVEL001
 370
30
   6
CONTINUOUS
  62
7
 100
AcDbEllipse
  10
 687.96647614248
  20
 2760.4339271988
  30
0.0
  11
-14.500000000000
  21
0.0
  31
0.0
  40
 0.66670774868224
  41
 3.1415926535898
  42
-0.24492127076448E-15
   0
LWPOLYLINE
   5
2F7
 100
AcDbEntity
   8
LEVEL001
 370
9
   6
DIVIDE
  62
1
 100
AcDbPolyline
  90
4
  70
0
  10
 567.96647614248
  20
 2319.7709767613
  10
 567.96647614248
  20
 1844.7709767613
  10
 1800.9664761425
  20
 1844.7709767613
  10
 1800.9664761425
  20
 2319.7709767613
   0
LINE
   5
2F8
 100
AcDbEntity
   8
LEVEL001
 370
30
 100
AcDbLine
   6
CONTINUOUS
  62
7
  10
 1481.9664761425
  20
 978.64564599341
  30
0.0
  11
 1501.9664761425
  21
 978.64564599341
  31
0.0
   0
LINE
   5
2F9
 100
AcDbEntity
   8
LEVEL001
 370
30
 100
AcDbLine
   6
CONTINUOUS
  62
7
  10
 756.96647614249
  20
 978.64564599341
  30
0.0
  11
 736.96647614249
  21
 978.64564599341
  31
0.0
   0
ARC
   5
2FA
 100
AcDbEntity
   8
LEVEL001
 370
30
   6
CONTINUOUS
  62
7
 100
AcDbCircle
  10
 756.76647614258
  20
 983.84564599341
  30
0.0
  40
 2.0000000000000
 100
AcDbArc
  50
 270.00000000000
  51
0.0
   0
ARC
   5
2FB
 100
AcDbEntity
   8
LEVEL001
 370
30
   6
CONTINUOUS
  62
7
 100
AcDbCircle
  10
 756.76647614258
  20
 983.84564599341
  30
0.0
  40
 5.2000000000000
 100
AcDbArc
  50
 269.99999999999
  51
0.0
   0
LINE
   5
2FC
 100
AcDbEntity
   8
LEVEL001
 370
30
 100
AcDbLine
   6
CONTINUOUS
  62
7
  10
 736.96647614249
  20
 981.84564599341
  30
0.0
  11
 736.96647614249
  21
 978.64564599341
  31
0.0
   0
LINE
   5
2FD
 100
AcDbEntity
   8
LEVEL001
 370
30
 100
AcDbLine
   6
CONTINUOUS
  62
7
  10
 756.76647614258
  20
 981.84564599341
  30
0.0
  11
 736.96647614249
  21
 981.84564599341
  31
0.0
   0
ARC
   5
2FE
 100
AcDbEntity
   8
LEVEL001
 370
30
   6
CONTINUOUS
  62
7
 100
AcDbCircle
  10
 1492.1664761424
  20
 983.84564599341
  30
0.0
  40
 2.0000000000000
 100
AcDbArc
  50
 180.00000000000
  51
 270.00000000000
   0
ARC
   5
2FF
 100
AcDbEntity
   8
LEVEL001
 370
30
   6
CONTINUOUS
  62
7
 100
AcDbCircle
  10
 1492.1664761424
  20
 983.84564599341
  30
0.0
  40
 5.2000000000000
 100
AcDbArc
  50
 180.00000000001
  51
 270.00000000001
   0
LINE
   5
300
 100
AcDbEntity
   8
LEVEL001
 370
30
 100
AcDbLine
   6
CONTINUOUS
  62
7
  10
 1511.9664761425
  20
 981.84564599341
  30
0.0
  11
 1511.9664761425
  21
 978.64564599341
  31
0.0
   0
LINE
   5
301
 100
AcDbEntity
   8
LEVEL001
 370
30
 100
AcDbLine
   6
CONTINUOUS
  62
7
  10
 1492.1664761424
  20
 981.84564599341
  30
0.0
  11
 1511.9664761425
  21
 981.84564599341
  31
0.0
   0
LWPOLYLINE
   5
302
 100
AcDbEntity
   8
LEVEL001
 370
30
   6
CONTINUOUS
  62
7
 100
AcDbPolyline
  90
4
  70
1
  10
 1915.9664761425
  20
 978.64564599341
  10
 455.96647614249
  20
 978.64564599341
  10
 455.96647614249
  20
 949.64564599341
  10
 1915.9664761425
  20
 949.64564599341
   0
LINE
   5
303
 100
AcDbEntity
   8
LEVEL001
 370
30
 100
AcDbLine
   6
CONTINUOUS
  62
7
  10
 455.96647614249
  20
 949.64564599341
  30
0.0
  11
 455.96647614249
  21
 248.64564599341
  31
0.0
   0
LINE
   5
304
 100
AcDbEntity
   8
LEVEL001
 370
30
 100
AcDbLine
   6
CONTINUOUS
  62
7
  10
 484.96647614249
  20
 949.64564599341
  30
0.0
  11
 484.96647614249
  21
 248.64564599341
  31
0.0
   0
LINE
   5
305
 100
AcDbEntity
   8
LEVEL001
 370
30
 100
AcDbLine
   6
CONTINUOUS
  62
7
  10
 1915.9664761425
  20
 949.64564599341
  30
0.0
  11
 1915.9664761425
  21
 248.64564599341
  31
0.0
   0
LINE
   5
306
 100
AcDbEntity
   8
LEVEL001
 370
30
 100
AcDbLine
   6
CONTINUOUS
  62
7
  10
 1886.9664761425
  20
 248.64564599341
  30
0.0
  11
 1886.9664761425
  21
 949.64564599341
  31
0.0
   0
LINE
   5
307
 100
AcDbEntity
   8
LEVEL001
 370
30
 100
AcDbLine
   6
CONTINUOUS
  62
7
  10
 415.96647614249
  20
 248.64564599341
  30
0.0
  11
 1948.0541039310
  21
 248.64564599341
  31
0.0
   0
INSERT
   5
308
 100
AcDbEntity
   8
0
 100
AcDbBlockReference
   2
BLOCK004
  10
0.0
  20
0.0
  30
0.0
   0
INSERT
   5
309
 100
AcDbEntity
   8
0
 100
AcDbBlockReference
   2
BLOCK005
  10
0.0
  20
0.0
  30
0.0
   0
LINE
   5
30A
 100
AcDbEntity
   8
LEVEL001
 370
30
 100
AcDbLine
   6
CONTINUOUS
  62
7
  10
 1486.9664761425
  20
 1483.6456455850
  30
0.0
  11
 1484.4664761425
  21
 1483.6456455850
  31
0.0
   0
LINE
   5
30B
 100
AcDbEntity
   8
LEVEL001
 370
30
 100
AcDbLine
   6
CONTINUOUS
  62
7
  10
 764.46647614249
  20
 1483.6456455850
  30
0.0
  11
 761.96647614249
  21
 1483.6456455850
  31
0.0
   0
LINE
   5
30C
 100
AcDbEntity
   8
LEVEL001
 370
30
 100
AcDbLine
   6
CONTINUOUS
  62
7
  10
 764.46647614249
  20
 1475.1853346802
  30
0.0
  11
 765.46647614249
  21
 1476.1853346802
  31
0.0
   0
LINE
   5
30D
 100
AcDbEntity
   8
LEVEL001
 370
30
 100
AcDbLine
   6
CONTINUOUS
  62
7
  10
 765.46647614249
  20
 1476.1853346802
  30
0.0
  11
 964.46647614249
  21
 1476.1853346802
  31
0.0
   0
ARC
   5
30E
 100
AcDbEntity
   8
LEVEL001
 370
30
   6
CONTINUOUS
  62
7
 100
AcDbCircle
  10
 1426.8664761425
  20
 1399.8953346802
  30
0.0
  40
 8.2900000000000
 100
AcDbArc
  50
 49.353726340673
  51
 130.64627365933
   0
ARC
   5
30F
 100
AcDbEntity
   8
LEVEL001
 370
30
   6
CONTINUOUS
  62
7
 100
AcDbCircle
  10
 1416.0664761425
  20
 1412.4753346802
  30
0.0
  40
 8.2900000000000
 100
AcDbArc
  50
 229.35372634068
  51
 310.64627365932
   0
ARC
   5
310
 100
AcDbEntity
   8
LEVEL001
 370
30
   6
CONTINUOUS
  62
7
 100
AcDbCircle
  10
 1448.4664761425
  20
 1399.8953346802
  30
0.0
  40
 8.2900000000000
 100
AcDbArc
  50
 49.353726340677
  51
 130.64627365932
   0
ARC
   5
311
 100
AcDbEntity
   8
LEVEL001
 370
30
   6
CONTINUOUS
  62
7
 100
AcDbCircle
  10
 1437.6664761425
  20
 1412.4753346802
  30
0.0
  40
 8.2900000000000
 100
AcDbArc
  50
 229.35372634067
  51
 310.64627365933
   0
ARC
   5
312
 100
AcDbEntity
   8
LEVEL001
 370
30
   6
CONTINUOUS
  62
7
 100
AcDbCircle
  10
 1459.2664761425
  20
 1412.4753346802
  30
0.0
  40
 8.2900000000000
 100
AcDbArc
  50
 229.35372634067
  51
 310.64627365933
   0
ARC
   5
313
 100
AcDbEntity
   8
LEVEL001
 370
30
   6
CONTINUOUS
  62
7
 100
AcDbCircle
  10
 1372.8664761425
  20
 1412.4753346802
  30
0.0
  40
 8.2900000000000
 100
AcDbArc
  50
 229.35372634067
  51
 310.64627365933
   0
ARC
   5
314
 100
AcDbEntity
   8
LEVEL001
 370
30
   6
CONTINUOUS
  62
7
 100
AcDbCircle
  10
 1383.6664761425
  20
 1399.8953346802
  30
0.0
  40
 8.2900000000000
 100
AcDbArc
  50
 49.353726340673
  51
 130.64627365933
   0
ARC
   5
315
 100
AcDbEntity
   8
LEVEL001
 370
30
   6
CONTINUOUS
  62
7
 100
AcDbCircle
  10
 1394.4664761425
  20
 1412.4753346802
  30
0.0
  40
 8.2900000000000
 100
AcDbArc
  50
 229.35372634068
  51
 310.64627365932
   0
ARC
   5
316
 100
AcDbEntity
   8
LEVEL001
 370
30
   6
CONTINUOUS
  62
7
 100
AcDbCircle
  10
 1405.2664761425
  20
 1399.8953346802
  30
0.0
  40
 8.2900000000000
 100
AcDbArc
  50
 49.353726340669
  51
 130.64627365933
   0
ARC
   5
317
 100
AcDbEntity
   8
LEVEL001
 370
30
   6
CONTINUOUS
  62
7
 100
AcDbCircle
  10
 1340.4664761425
  20
 1399.8953346802
  30
0.0
  40
 8.2900000000000
 100
AcDbArc
  50
 49.353726340677
  51
 130.64627365932
   0
ARC
   5
318
 100
AcDbEntity
   8
LEVEL001
 370
30
   6
CONTINUOUS
  62
7
 100
AcDbCircle
  10
 1351.2664761425
  20
 1412.4753346802
  30
0.0
  40
 8.2900000000000
 100
AcDbArc
  50
 229.35372634067
  51
 310.64627365933
   0
ARC
   5
319
 100
AcDbEntity
   8
LEVEL001
 370
30
   6
CONTINUOUS
  62
7
 100
AcDbCircle
  10
 1362.0664761425
  20
 1399.8953346802
  30
0.0
  40
 8.2900000000000
 100
AcDbArc
  50
 49.353726340677
  51
 130.64627365932
   0
ARC
   5
31A
 100
AcDbEntity
   8
LEVEL001
 370
30
   6
CONTINUOUS
  62
7
 100
AcDbCircle
  10
 1275.6664761425
  20
 1399.8953346802
  30
0.0
  40
 8.2900000000000
 100
AcDbArc
  50
 49.353726340673
  51
 130.64627365933
   0
ARC
   5
31B
 100
AcDbEntity
   8
LEVEL001
 370
30
   6
CONTINUOUS
  62
7
 100
AcDbCircle
  10
 1264.8664761425
  20
 1412.4753346802
  30
0.0
  40
 8.2900000000000
 100
AcDbArc
  50
 229.35372634067
  51
 310.64627365933
   0
ARC
   5
31C
 100
AcDbEntity
   8
LEVEL001
 370
30
   6
CONTINUOUS
  62
7
 100
AcDbCircle
  10
 1297.2664761425
  20
 1399.8953346802
  30
0.0
  40
 8.2900000000000
 100
AcDbArc
  50
 49.353726340673
  51
 130.64627365933
   0
ARC
   5
31D
 100
AcDbEntity
   8
LEVEL001
 370
30
   6
CONTINUOUS
  62
7
 100
AcDbCircle
  10
 1286.4664761425
  20
 1412.4753346802
  30
0.0
  40
 8.2900000000000
 100
AcDbArc
  50
 229.35372634068
  51
 310.64627365932
   0
ARC
   5
31E
 100
AcDbEntity
   8
LEVEL001
 370
30
   6
CONTINUOUS
  62
7
 100
AcDbCircle
  10
 1308.0664761425
  20
 1412.4753346802
  30
0.0
  40
 8.2900000000000
 100
AcDbArc
  50
 229.35372634067
  51
 310.64627365933
   0
ARC
   5
31F
 100
AcDbEntity
   8
LEVEL001
 370
30
   6
CONTINUOUS
  62
7
 100
AcDbCircle
  10
 1318.8664761425
  20
 1399.8953346802
  30
0.0
  40
 8.2900000000000
 100
AcDbArc
  50
 49.353726340673
  51
 130.64627365933
   0
ARC
   5
320
 100
AcDbEntity
   8
LEVEL001
 370
30
   6
CONTINUOUS
  62
7
 100
AcDbCircle
  10
 1221.6664761425
  20
 1412.4753346802
  30
0.0
  40
 8.2900000000000
 100
AcDbArc
  50
 229.35372634067
  51
 310.64627365933
   0
ARC
   5
321
 100
AcDbEntity
   8
LEVEL001
 370
30
   6
CONTINUOUS
  62
7
 100
AcDbCircle
  10
 1232.4664761425
  20
 1399.8953346802
  30
0.0
  40
 8.2900000000000
 100
AcDbArc
  50
 49.353726340677
  51
 130.64627365932
   0
ARC
   5
322
 100
AcDbEntity
   8
LEVEL001
 370
30
   6
CONTINUOUS
  62
7
 100
AcDbCircle
  10
 1243.2664761425
  20
 1412.4753346802
  30
0.0
  40
 8.2900000000000
 100
AcDbArc
  50
 229.35372634067
  51
 310.64627365933
   0
ARC
   5
323
 100
AcDbEntity
   8
LEVEL001
 370
30
   6
CONTINUOUS
  62
7
 100
AcDbCircle
  10
 1254.0664761425
  20
 1399.8953346802
  30
0.0
  40
 8.2900000000000
 100
AcDbArc
  50
 49.353726340673
  51
 130.64627365933
   0
ARC
   5
324
 100
AcDbEntity
   8
LEVEL001
 370
30
   6
CONTINUOUS
  62
7
 100
AcDbCircle
  10
 1189.2664761425
  20
 1399.8953346802
  30
0.0
  40
 8.2900000000000
 100
AcDbArc
  50
 49.353726340673
  51
 130.64627365933
   0
ARC
   5
325
 100
AcDbEntity
   8
LEVEL001
 370
30
   6
CONTINUOUS
  62
7
 100
AcDbCircle
  10
 1200.0664761425
  20
 1412.4753346802
  30
0.0
  40
 8.2900000000000
 100
AcDbArc
  50
 229.35372634067
  51
 310.64627365933
   0
ARC
   5
326
 100
AcDbEntity
   8
LEVEL001
 370
30
   6
CONTINUOUS
  62
7
 100
AcDbCircle
  10
 1210.8664761425
  20
 1399.8953346802
  30
0.0
  40
 8.2900000000000
 100
AcDbArc
  50
 49.353726340673
  51
 130.64627365933
   0
ARC
   5
327
 100
AcDbEntity
   8
LEVEL001
 370
30
   6
CONTINUOUS
  62
7
 100
AcDbCircle
  10
 1156.8664761425
  20
 1412.4753346802
  30
0.0
  40
 8.2900000000000
 100
AcDbArc
  50
 229.35372634067
  51
 310.64627365933
   0
ARC
   5
328
 100
AcDbEntity
   8
LEVEL001
 370
30
   6
CONTINUOUS
  62
7
 100
AcDbCircle
  10
 1167.6664761425
  20
 1399.8953346802
  30
0.0
  40
 8.2900000000000
 100
AcDbArc
  50
 49.353726340673
  51
 130.64627365933
   0
ARC
   5
329
 100
AcDbEntity
   8
LEVEL001
 370
30
   6
CONTINUOUS
  62
7
 100
AcDbCircle
  10
 1178.4664761425
  20
 1412.4753346802
  30
0.0
  40
 8.2900000000000
 100
AcDbArc
  50
 229.35372634068
  51
 310.64627365932
   0
ARC
   5
32A
 100
AcDbEntity
   8
LEVEL001
 370
30
   6
CONTINUOUS
  62
7
 100
AcDbCircle
  10
 1124.4664761425
  20
 1399.8953346802
  30
0.0
  40
 8.2900000000000
 100
AcDbArc
  50
 49.353726340677
  51
 130.64627365932
   0
ARC
   5
32B
 100
AcDbEntity
   8
LEVEL001
 370
30
   6
CONTINUOUS
  62
7
 100
AcDbCircle
  10
 1135.2664761425
  20
 1412.4753346802
  30
0.0
  40
 8.2900000000000
 100
AcDbArc
  50
 229.35372634067
  51
 310.64627365933
   0
ARC
   5
32C
 100
AcDbEntity
   8
LEVEL001
 370
30
   6
CONTINUOUS
  62
7
 100
AcDbCircle
  10
 1146.0664761425
  20
 1399.8953346802
  30
0.0
  40
 8.2900000000000
 100
AcDbArc
  50
 49.353726340673
  51
 130.64627365933
   0
ARC
   5
32D
 100
AcDbEntity
   8
LEVEL001
 370
30
   6
CONTINUOUS
  62
7
 100
AcDbCircle
  10
 1059.6664761425
  20
 1399.8953346802
  30
0.0
  40
 8.2900000000000
 100
AcDbArc
  50
 49.353726340673
  51
 130.64627365933
   0
ARC
   5
32E
 100
AcDbEntity
   8
LEVEL001
 370
30
   6
CONTINUOUS
  62
7
 100
AcDbCircle
  10
 1048.8664761425
  20
 1412.4753346802
  30
0.0
  40
 8.2900000000000
 100
AcDbArc
  50
 229.35372634067
  51
 310.64627365933
   0
ARC
   5
32F
 100
AcDbEntity
   8
LEVEL001
 370
30
   6
CONTINUOUS
  62
7
 100
AcDbCircle
  10
 1081.2664761425
  20
 1399.8953346802
  30
0.0
  40
 8.2900000000000
 100
AcDbArc
  50
 49.353726340673
  51
 130.64627365933
   0
ARC
   5
330
 100
AcDbEntity
   8
LEVEL001
 370
30
   6
CONTINUOUS
  62
7
 100
AcDbCircle
  10
 1070.4664761425
  20
 1412.4753346802
  30
0.0
  40
 8.2900000000000
 100
AcDbArc
  50
 229.35372634068
  51
 310.64627365932
   0
ARC
   5
331
 100
AcDbEntity
   8
LEVEL001
 370
30
   6
CONTINUOUS
  62
7
 100
AcDbCircle
  10
 1092.0664761425
  20
 1412.4753346802
  30
0.0
  40
 8.2900000000000
 100
AcDbArc
  50
 229.35372634067
  51
 310.64627365933
   0
ARC
   5
332
 100
AcDbEntity
   8
LEVEL001
 370
30
   6
CONTINUOUS
  62
7
 100
AcDbCircle
  10
 1102.8664761425
  20
 1399.8953346802
  30
0.0
  40
 8.2900000000000
 100
AcDbArc
  50
 49.353726340677
  51
 130.64627365932
   0
ARC
   5
333
 100
AcDbEntity
   8
LEVEL001
 370
30
   6
CONTINUOUS
  62
7
 100
AcDbCircle
  10
 1005.6664761425
  20
 1412.4753346802
  30
0.0
  40
 8.2900000000000
 100
AcDbArc
  50
 229.35372634067
  51
 310.64627365933
   0
ARC
   5
334
 100
AcDbEntity
   8
LEVEL001
 370
30
   6
CONTINUOUS
  62
7
 100
AcDbCircle
  10
 1016.4664761425
  20
 1399.8953346802
  30
0.0
  40
 8.2900000000000
 100
AcDbArc
  50
 49.353726340677
  51
 130.64627365932
   0
ARC
   5
335
 100
AcDbEntity
   8
LEVEL001
 370
30
   6
CONTINUOUS
  62
7
 100
AcDbCircle
  10
 1027.2664761425
  20
 1412.4753346802
  30
0.0
  40
 8.2900000000000
 100
AcDbArc
  50
 229.35372634067
  51
 310.64627365933
   0
ARC
   5
336
 100
AcDbEntity
   8
LEVEL001
 370
30
   6
CONTINUOUS
  62
7
 100
AcDbCircle
  10
 1038.0664761425
  20
 1399.8953346802
  30
0.0
  40
 8.2900000000000
 100
AcDbArc
  50
 49.353726340673
  51
 130.64627365933
   0
ARC
   5
337
 100
AcDbEntity
   8
LEVEL001
 370
30
   6
CONTINUOUS
  62
7
 100
AcDbCircle
  10
 973.26647614248
  20
 1399.8953346802
  30
0.0
  40
 8.2900000000000
 100
AcDbArc
  50
 49.353726340673
  51
 130.64627365933
   0
ARC
   5
338
 100
AcDbEntity
   8
LEVEL001
 370
30
   6
CONTINUOUS
  62
7
 100
AcDbCircle
  10
 984.06647614249
  20
 1412.4753346802
  30
0.0
  40
 8.2900000000000
 100
AcDbArc
  50
 229.35372634067
  51
 310.64627365933
   0
ARC
   5
339
 100
AcDbEntity
   8
LEVEL001
 370
30
   6
CONTINUOUS
  62
7
 100
AcDbCircle
  10
 994.86647614248
  20
 1399.8953346802
  30
0.0
  40
 8.2900000000000
 100
AcDbArc
  50
 49.353726340677
  51
 130.64627365932
   0
ARC
   5
33A
 100
AcDbEntity
   8
LEVEL001
 370
30
   6
CONTINUOUS
  62
7
 100
AcDbCircle
  10
 1329.6664761425
  20
 1412.4753346802
  30
0.0
  40
 8.2900000000000
 100
AcDbArc
  50
 229.35372634062
  51
 310.64627365904
   0
ARC
   5
33B
 100
AcDbEntity
   8
LEVEL001
 370
30
   6
CONTINUOUS
  62
7
 100
AcDbCircle
  10
 1113.6664761425
  20
 1412.4753346802
  30
0.0
  40
 8.2900000000000
 100
AcDbArc
  50
 229.35372634061
  51
 310.64627365904
   0
ARC
   5
33C
 100
AcDbEntity
   8
LEVEL001
 370
30
   6
CONTINUOUS
  62
7
 100
AcDbCircle
  10
 966.46647614249
  20
 1407.6210479148
  30
0.0
  40
 2.0000000000000
 100
AcDbArc
  50
 180.00000000001
  51
 309.48899854629
   0
ARC
   5
33D
 100
AcDbEntity
   8
LEVEL001
 370
30
   6
CONTINUOUS
  62
7
 100
AcDbCircle
  10
 962.46647614254
  20
 1412.4753346802
  30
0.0
  40
 8.2900000000000
 100
AcDbArc
  50
 309.48899854609
  51
 310.64627365886
   0
LINE
   5
33E
 100
AcDbEntity
   8
LEVEL001
 370
30
 100
AcDbLine
   6
CONTINUOUS
  62
7
  10
 764.46647614249
  20
 1422.1853346802
  30
0.0
  11
 765.46647614249
  21
 1421.1853346802
  31
0.0
   0
LINE
   5
33F
 100
AcDbEntity
   8
LEVEL001
 370
30
 100
AcDbLine
   6
CONTINUOUS
  62
7
  10
 765.46647614249
  20
 1421.1853346802
  30
0.0
  11
 964.46647614249
  21
 1421.1853346802
  31
0.0
   0
LINE
   5
340
 100
AcDbEntity
   8
LEVEL001
 370
30
 100
AcDbLine
   6
CONTINUOUS
  62
7
  10
 964.46647614249
  20
 1407.2631091067
  30
0.0
  11
 964.46647614249
  21
 1448.6853346802
  31
0.0
   0
LINE
   5
341
 100
AcDbEntity
   8
LEVEL001
 370
30
 100
AcDbLine
   6
CONTINUOUS
  62
7
  10
 764.46647614249
  20
 1475.1853346802
  30
0.0
  11
 764.46647614249
  21
 1448.6853346802
  31
0.0
   0
LINE
   5
342
 100
AcDbEntity
   8
LEVEL001
 370
30
 100
AcDbLine
   6
CONTINUOUS
  62
7
  10
 764.46647614249
  20
 1448.6853346802
  30
0.0
  11
 764.46647614249
  21
 1422.1853346802
  31
0.0
   0
LINE
   5
343
 100
AcDbEntity
   8
LEVEL001
 370
30
 100
AcDbLine
   6
CONTINUOUS
  62
7
  10
 761.96647614249
  20
 1433.6853346802
  30
0.0
  11
 764.46647614249
  21
 1433.6853346802
  31
0.0
   0
LINE
   5
344
 100
AcDbEntity
   8
LEVEL001
 370
30
 100
AcDbLine
   6
CONTINUOUS
  62
7
  10
 764.46647614249
  20
 1463.6853346802
  30
0.0
  11
 761.96647614249
  21
 1463.6853346802
  31
0.0
   0
LINE
   5
345
 100
AcDbEntity
   8
LEVEL001
 370
30
 100
AcDbLine
   6
CONTINUOUS
  62
7
  10
 1484.4664761425
  20
 1433.6853346802
  30
0.0
  11
 1486.9664761425
  21
 1433.6853346802
  31
0.0
   0
LINE
   5
346
 100
AcDbEntity
   8
LEVEL001
 370
30
 100
AcDbLine
   6
CONTINUOUS
  62
7
  10
 1486.9664761425
  20
 1463.6853346802
  30
0.0
  11
 1484.4664761425
  21
 1463.6853346802
  31
0.0
   0
LINE
   5
347
 100
AcDbEntity
   8
LEVEL001
 370
30
 100
AcDbLine
   6
CONTINUOUS
  62
7
  10
 764.46647614249
  20
 1306.0456459934
  30
0.0
  11
 761.96647614249
  21
 1306.0456459934
  31
0.0
   0
LINE
   5
348
 100
AcDbEntity
   8
LEVEL001
 370
30
 100
AcDbLine
   6
CONTINUOUS
  62
7
  10
 761.96647614249
  20
 1276.0456459934
  30
0.0
  11
 764.46647614249
  21
 1276.0456459934
  31
0.0
   0
LINE
   5
349
 100
AcDbEntity
   8
LEVEL001
 370
30
 100
AcDbLine
   6
CONTINUOUS
  62
7
  10
 764.46647614249
  20
 1328.6956459934
  30
0.0
  11
 764.46647614249
  21
 1253.3956459934
  31
0.0
   0
LINE
   5
34A
 100
AcDbEntity
   8
LEVEL001
 370
30
 100
AcDbLine
   6
CONTINUOUS
  62
7
  10
 764.46647614249
  20
 1253.3956459934
  30
0.0
  11
 1484.4664761425
  21
 1253.3956459934
  31
0.0
   0
LINE
   5
34B
 100
AcDbEntity
   8
LEVEL001
 370
30
 100
AcDbLine
   6
CONTINUOUS
  62
7
  10
 756.96647614249
  20
 1235.6456459934
  30
0.0
  11
 756.96647614249
  21
 1569.6456459934
  31
0.0
   0
ARC
   5
34C
 100
AcDbEntity
   8
LEVEL001
 370
30
   6
CONTINUOUS
  62
7
 100
AcDbCircle
  10
 725.46647614249
  20
 1436.1456459934
  30
0.0
  40
 7.5000000000000
 100
AcDbArc
  50
0.0
  51
 90.000000000000
   0
ARC
   5
34D
 100
AcDbEntity
   8
LEVEL001
 370
30
   6
CONTINUOUS
  62
7
 100
AcDbCircle
  10
 725.46647614249
  20
 1436.1456459934
  30
0.0
  40
 7.5000000000000
 100
AcDbArc
  50
 270.00000000000
  51
0.0
   0
LINE
   5
34E
 100
AcDbEntity
   8
LEVEL001
 370
30
 100
AcDbLine
   6
CONTINUOUS
  62
7
  10
 725.46647614249
  20
 1428.6456459934
  30
0.0
  11
 717.96647614249
  21
 1428.6456459934
  31
0.0
   0
ARC
   5
34F
 100
AcDbEntity
   8
LEVEL001
 370
30
   6
CONTINUOUS
  62
7
 100
AcDbCircle
  10
 717.96647614249
  20
 1426.6456459934
  30
0.0
  40
 2.0000000000000
 100
AcDbArc
  50
 90.000000000000
  51
 180.00000000000
   0
LINE
   5
350
 100
AcDbEntity
   8
LEVEL001
 370
30
 100
AcDbLine
   6
CONTINUOUS
  62
7
  10
 715.96647614249
  20
 1426.6456459934
  30
0.0
  11
 715.96647614249
  21
 1415.6456459934
  31
0.0
   0
ARC
   5
351
 100
AcDbEntity
   8
LEVEL001
 370
30
   6
CONTINUOUS
  62
7
 100
AcDbCircle
  10
 717.96647614249
  20
 1415.6456459934
  30
0.0
  40
 2.0000000000000
 100
AcDbArc
  50
 180.00000000000
  51
 270.00000000000
   0
LINE
   5
352
 100
AcDbEntity
   8
LEVEL001
 370
30
 100
AcDbLine
   6
CONTINUOUS
  62
7
  10
 703.96647614249
  20
 1436.1456459934
  30
0.0
  11
 703.96647614249
  21
 1430.6456459934
  31
0.0
   0
ARC
   5
353
 100
AcDbEntity
   8
LEVEL001
 370
30
   6
CONTINUOUS
  62
7
 100
AcDbCircle
  10
 701.96647614249
  20
 1430.6456459934
  30
0.0
  40
 2.0000000000000
 100
AcDbArc
  50
 270.00000000000
  51
0.0
   0
ARC
   5
354
 100
AcDbEntity
   8
LEVEL001
 370
30
   6
CONTINUOUS
  62
7
 100
AcDbCircle
  10
 701.96647614249
  20
 1411.6456459934
  30
0.0
  40
 2.0000000000000
 100
AcDbArc
  50
0.0
  51
 90.000000000000
   0
LINE
   5
355
 100
AcDbEntity
   8
LEVEL001
 370
30
 100
AcDbLine
   6
CONTINUOUS
  62
7
  10
 703.96647614249
  20
 1411.6456459934
  30
0.0
  11
 703.96647614249
  21
 1400.6456459934
  31
0.0
   0
ARC
   5
356
 100
AcDbEntity
   8
LEVEL001
 370
30
   6
CONTINUOUS
  62
7
 100
AcDbCircle
  10
 701.96647614249
  20
 1400.6456459934
  30
0.0
  40
 2.0000000000000
 100
AcDbArc
  50
 270.00000000000
  51
0.0
   0
ARC
   5
357
 100
AcDbEntity
   8
LEVEL001
 370
30
   6
CONTINUOUS
  62
7
 100
AcDbCircle
  10
 717.96647614249
  20
 1396.6456459934
  30
0.0
  40
 2.0000000000000
 100
AcDbArc
  50
 90.000000000000
  51
 180.00000000000
   0
LINE
   5
358
 100
AcDbEntity
   8
LEVEL001
 370
30
 100
AcDbLine
   6
CONTINUOUS
  62
7
  10
 715.96647614249
  20
 1396.6456459934
  30
0.0
  11
 715.96647614249
  21
 1385.6456459934
  31
0.0
   0
ARC
   5
359
 100
AcDbEntity
   8
LEVEL001
 370
30
   6
CONTINUOUS
  62
7
 100
AcDbCircle
  10
 717.96647614249
  20
 1385.6456459934
  30
0.0
  40
 2.0000000000000
 100
AcDbArc
  50
 180.00000000000
  51
 270.00000000000
   0
ARC
   5
35A
 100
AcDbEntity
   8
LEVEL001
 370
30
   6
CONTINUOUS
  62
7
 100
AcDbCircle
  10
 717.96647614249
  20
 1366.6456459934
  30
0.0
  40
 2.0000000000000
 100
AcDbArc
  50
 90.000000000000
  51
 180.00000000000
   0
LINE
   5
35B
 100
AcDbEntity
   8
LEVEL001
 370
30
 100
AcDbLine
   6
CONTINUOUS
  62
7
  10
 715.96647614249
  20
 1366.6456459934
  30
0.0
  11
 715.96647614249
  21
 1355.6456459934
  31
0.0
   0
ARC
   5
35C
 100
AcDbEntity
   8
LEVEL001
 370
30
   6
CONTINUOUS
  62
7
 100
AcDbCircle
  10
 717.96647614249
  20
 1355.6456459934
  30
0.0
  40
 2.0000000000000
 100
AcDbArc
  50
 180.00000000000
  51
 270.00000000000
   0
ARC
   5
35D
 100
AcDbEntity
   8
LEVEL001
 370
30
   6
CONTINUOUS
  62
7
 100
AcDbCircle
  10
 701.96647614249
  20
 1381.6456459934
  30
0.0
  40
 2.0000000000000
 100
AcDbArc
  50
0.0
  51
 90.000000000000
   0
LINE
   5
35E
 100
AcDbEntity
   8
LEVEL001
 370
30
 100
AcDbLine
   6
CONTINUOUS
  62
7
  10
 703.96647614249
  20
 1381.6456459934
  30
0.0
  11
 703.96647614249
  21
 1370.6456459934
  31
0.0
   0
ARC
   5
35F
 100
AcDbEntity
   8
LEVEL001
 370
30
   6
CONTINUOUS
  62
7
 100
AcDbCircle
  10
 701.96647614249
  20
 1370.6456459934
  30
0.0
  40
 2.0000000000000
 100
AcDbArc
  50
 270.00000000000
  51
0.0
   0
ARC
   5
360
 100
AcDbEntity
   8
LEVEL001
 370
30
   6
CONTINUOUS
  62
7
 100
AcDbCircle
  10
 724.46647614249
  20
 1407.1456459934
  30
0.0
  40
 8.5000000000000
 100
AcDbArc
  50
 270.00000000000
  51
0.0
   0
LINE
   5
361
 100
AcDbEntity
   8
LEVEL001
 370
30
 100
AcDbLine
   6
CONTINUOUS
  62
7
  10
 724.46647614249
  20
 1398.6456459934
  30
0.0
  11
 717.96647614249
  21
 1398.6456459934
  31
0.0
   0
ARC
   5
362
 100
AcDbEntity
   8
LEVEL001
 370
30
   6
CONTINUOUS
  62
7
 100
AcDbCircle
  10
 724.46647614249
  20
 1347.1456459934
  30
0.0
  40
 8.5000000000000
 100
AcDbArc
  50
 270.09963562127
  51
 128.75435279189
   0
LINE
   5
363
 100
AcDbEntity
   8
LEVEL001
 370
30
 100
AcDbLine
   6
CONTINUOUS
  62
7
  10
 701.96647614249
  20
 1428.6456459934
  30
0.0
  11
 698.94370171754
  21
 1428.6456459934
  31
0.0
   0
LINE
   5
364
 100
AcDbEntity
   8
LEVEL001
 370
30
 100
AcDbLine
   6
CONTINUOUS
  62
7
  10
 701.96647614249
  20
 1413.6456459934
  30
0.0
  11
 693.46647614249
  21
 1413.6456459934
  31
0.0
   0
ARC
   5
365
 100
AcDbEntity
   8
LEVEL001
 370
30
   6
CONTINUOUS
  62
7
 100
AcDbCircle
  10
 693.46647614248
  20
 1422.1456459934
  30
0.0
  40
 8.5000000000000
 100
AcDbArc
  50
 49.880833101586
  51
 272.67592212630
   0
ARC
   5
366
 100
AcDbEntity
   8
LEVEL001
 370
30
   6
CONTINUOUS
  62
7
 100
AcDbCircle
  10
 724.46647614249
  20
 1407.1456459934
  30
0.0
  40
 8.5000000000000
 100
AcDbArc
  50
 0.15326531735617E-11
  51
 130.77316082173
   0
LINE
   5
367
 100
AcDbEntity
   8
LEVEL001
 370
30
 100
AcDbLine
   6
CONTINUOUS
  62
7
  10
 718.91541572403
  20
 1413.6456459934
  30
0.0
  11
 717.96647614249
  21
 1413.6456459934
  31
0.0
   0
LINE
   5
368
 100
AcDbEntity
   8
LEVEL001
 370
30
 100
AcDbLine
   6
CONTINUOUS
  62
7
  10
 725.17994502446
  20
 1368.6456459934
  30
0.0
  11
 717.96647614249
  21
 1368.6456459934
  31
0.0
   0
ARC
   5
369
 100
AcDbEntity
   8
LEVEL001
 370
30
   6
CONTINUOUS
  62
7
 100
AcDbCircle
  10
 724.46647614248
  20
 1377.1456459934
  30
0.0
  40
 8.5000000000000
 100
AcDbArc
  50
 276.93305429917
  51
 130.05255048951
   0
LINE
   5
36A
 100
AcDbEntity
   8
LEVEL001
 370
30
 100
AcDbLine
   6
CONTINUOUS
  62
7
  10
 718.99681165969
  20
 1383.6456459934
  30
0.0
  11
 717.96647614249
  21
 1383.6456459934
  31
0.0
   0
LINE
   5
36B
 100
AcDbEntity
   8
LEVEL001
 370
30
 100
AcDbLine
   6
CONTINUOUS
  62
7
  10
 711.46647614249
  20
 1338.6456459934
  30
0.0
  11
 724.48125737700
  21
 1338.6456459934
  31
0.0
   0
LINE
   5
36C
 100
AcDbEntity
   8
LEVEL001
 370
30
 100
AcDbLine
   6
CONTINUOUS
  62
7
  10
 719.14562303412
  20
 1353.6456459934
  30
0.0
  11
 717.96647614249
  21
 1353.6456459934
  31
0.0
   0
LINE
   5
36D
 100
AcDbEntity
   8
LEVEL001
 370
30
 100
AcDbLine
   6
CONTINUOUS
  62
7
  10
 701.96647614249
  20
 1368.6456459934
  30
0.0
  11
 698.94370171754
  21
 1368.6456459934
  31
0.0
   0
LINE
   5
36E
 100
AcDbEntity
   8
LEVEL001
 370
30
 100
AcDbLine
   6
CONTINUOUS
  62
7
  10
 701.96647614249
  20
 1398.6456459934
  30
0.0
  11
 698.94370171754
  21
 1398.6456459934
  31
0.0
   0
ARC
   5
36F
 100
AcDbEntity
   8
LEVEL001
 370
30
   6
CONTINUOUS
  62
7
 100
AcDbCircle
  10
 693.46647614248
  20
 1392.1456459934
  30
0.0
  40
 8.5000000000000
 100
AcDbArc
  50
 49.880833101584
  51
 270.74783502539
   0
LINE
   5
370
 100
AcDbEntity
   8
LEVEL001
 370
30
 100
AcDbLine
   6
CONTINUOUS
  62
7
  10
 701.96647614249
  20
 1383.6456459934
  30
0.0
  11
 692.89879435228
  21
 1383.6456459934
  31
0.0
   0
ARC
   5
371
 100
AcDbEntity
   8
LEVEL001
 370
30
   6
CONTINUOUS
  62
7
 100
AcDbCircle
  10
 711.46647614249
  20
 1346.1206237711
  30
0.0
  40
 7.5000000000000
 100
AcDbArc
  50
 180.00000000000
  51
 270.00000000000
   0
ARC
   5
372
 100
AcDbEntity
   8
LEVEL001
 370
30
   6
CONTINUOUS
  62
7
 100
AcDbCircle
  10
 693.46647614248
  20
 1362.1206237711
  30
0.0
  40
 8.5000000000000
 100
AcDbArc
  50
 49.471246009424
  51
 269.47614095487
   0
LINE
   5
373
 100
AcDbEntity
   8
LEVEL001
 370
30
 100
AcDbLine
   6
CONTINUOUS
  62
7
  10
 701.97199451437
  20
 1353.6261269378
  30
0.0
  11
 692.74151932997
  21
 1353.6515956321
  31
0.0
   0
ARC
   5
374
 100
AcDbEntity
   8
LEVEL001
 370
30
   6
CONTINUOUS
  62
7
 100
AcDbCircle
  10
 701.96647614249
  20
 1351.6261345509
  30
0.0
  40
 2.0000000000000
 100
AcDbArc
  50
 0.65137759876373E-11
  51
 89.841910089957
   0
LINE
   5
375
 100
AcDbEntity
   8
LEVEL001
 370
30
 100
AcDbLine
   6
CONTINUOUS
  62
7
  10
 703.96647614249
  20
 1351.6261345509
  30
0.0
  11
 703.96647614249
  21
 1346.1206237711
  31
0.0
   0
ARC
   5
376
 100
AcDbEntity
   8
LEVEL001
 370
30
   6
CONTINUOUS
  62
7
 100
AcDbCircle
  10
 711.46647614249
  20
 1436.1456459934
  30
0.0
  40
 7.5000000000000
 100
AcDbArc
  50
 124.22697445374
  51
 179.99999999999
   0
LINE
   5
377
 100
AcDbEntity
   8
LEVEL001
 370
30
 100
AcDbLine
   6
CONTINUOUS
  62
7
  10
 725.46647614249
  20
 1443.6456459934
  30
0.0
  11
 717.80938037664
  21
 1443.6456459934
  31
0.0
   0
LINE
   5
378
 100
AcDbEntity
   8
LEVEL001
 370
30
 100
AcDbLine
   6
CONTINUOUS
  62
7
  10
 697.87581439040
  20
 1460.7405785473
  30
0.0
  11
 715.96647614249
  21
 1425.2356570820
  31
0.0
   0
LINE
   5
379
 100
AcDbEntity
   8
LEVEL001
 370
30
 100
AcDbLine
   6
CONTINUOUS
  62
7
  10
 725.45226240770
  20
 1428.6456459934
  30
0.0
  11
 706.78587956293
  21
 1465.2804836808
  31
0.0
   0
ARC
   5
37A
 100
AcDbEntity
   8
LEVEL001
 370
30
   6
CONTINUOUS
  62
7
 100
AcDbCircle
  10
 693.99164265949
  20
 1479.9396549628
  30
0.0
  40
 20.000000000000
 100
AcDbArc
  50
 316.35314739569
  51
 277.64685435501
   0
LINE
   5
37B
 100
AcDbEntity
   8
LEVEL001
 370
30
 100
AcDbLine
   6
CONTINUOUS
  62
7
  10
 696.65298116158
  20
 1460.1175138731
  30
0.0
  11
 708.46379656482
  21
 1466.1354251277
  31
0.0
   0
LINE
   5
37C
 100
AcDbEntity
   8
LEVEL001
 370
30
 100
AcDbLine
   6
CONTINUOUS
  62
7
  10
 707.70629175150
  20
 1463.4740731183
  30
0.0
  11
 756.96647614249
  21
 1463.4740731183
  31
0.0
   0
LINE
   5
37D
 100
AcDbEntity
   8
LEVEL001
 370
30
 100
AcDbLine
   6
CONTINUOUS
  62
7
  10
 1759.9664761425
  20
 1437.9131873404
  30
0.0
  11
 1487.9664761425
  21
 1437.9131873404
  31
0.0
   0
POINT
   5
37E
 100
AcDbEntity
   8
LEVEL001
 100
AcDbPoint
  62
7
  10
 1487.9664761425
  20
 1464.4134129465
  30
0.0
   0
LINE
   5
37F
 100
AcDbEntity
   8
LEVEL001
 370
30
 100
AcDbLine
   6
CONTINUOUS
  62
7
  10
 736.96647614249
  20
 1569.6456459934
  30
0.0
  11
 736.96647614249
  21
 1570.6456459934
  31
0.0
   0
LINE
   5
380
 100
AcDbEntity
   8
LEVEL001
 370
30
 100
AcDbLine
   6
CONTINUOUS
  62
7
  10
 763.96647614249
  20
 1506.8650828931
  30
0.0
  11
 762.46647614249
  21
 1506.8650828931
  31
0.0
   0
LINE
   5
381
 100
AcDbEntity
   8
LEVEL001
 370
30
 100
AcDbLine
   6
CONTINUOUS
  62
7
  10
 764.46647614249
  20
 1483.6456455850
  30
0.0
  11
 762.46647614249
  21
 1483.6456455850
  31
0.0
   0
ARC
   5
382
 100
AcDbEntity
   8
LEVEL001
 370
30
   6
CONTINUOUS
  62
7
 100
AcDbCircle
  10
 759.46647614249
  20
 1465.9134129465
  30
0.0
  40
 1.5000000000000
 100
AcDbArc
  50
 270.00000000000
  51
0.0
   0
ARC
   5
383
 100
AcDbEntity
   8
LEVEL001
 370
30
   6
CONTINUOUS
  62
7
 100
AcDbCircle
  10
 759.46647614249
  20
 1466.3956459935
  30
0.0
  40
 3.0000000000000
 100
AcDbArc
  50
 270.00000000000
  51
0.0
   0
LINE
   5
384
 100
AcDbEntity
   8
LEVEL001
 370
30
 100
AcDbLine
   6
CONTINUOUS
  62
7
  10
 759.46647614249
  20
 1464.4134129465
  30
0.0
  11
 739.96647614249
  21
 1464.4134129465
  31
0.0
   0
LINE
   5
385
 100
AcDbEntity
   8
LEVEL001
 370
30
 100
AcDbLine
   6
CONTINUOUS
  62
7
  10
 739.96647614249
  20
 1463.3956459935
  30
0.0
  11
 759.46647614249
  21
 1463.3956459935
  31
0.0
   0
LINE
   5
386
 100
AcDbEntity
   8
LEVEL001
 370
30
 100
AcDbLine
   6
CONTINUOUS
  62
7
  10
 736.96647614249
  20
 1467.4134129465
  30
0.0
  11
 739.96647614249
  21
 1464.4134129465
  31
0.0
   0
LINE
   5
387
 100
AcDbEntity
   8
LEVEL001
 370
30
 100
AcDbLine
   6
CONTINUOUS
  62
7
  10
 736.96647614249
  20
 1466.3956459935
  30
0.0
  11
 739.96647614249
  21
 1463.3956459935
  31
0.0
   0
LINE
   5
388
 100
AcDbEntity
   8
LEVEL001
 370
30
 100
AcDbLine
   6
CONTINUOUS
  62
7
  10
 739.96647614249
  20
 1464.4134129465
  30
0.0
  11
 739.96647614249
  21
 1463.3956459935
  31
0.0
   0
LINE
   5
389
 100
AcDbEntity
   8
LEVEL001
 370
30
 100
AcDbLine
   6
CONTINUOUS
  62
7
  10
 736.96647614249
  20
 1495.3545384433
  30
0.0
  11
 736.96647614249
  21
 1466.3956459935
  31
0.0
   0
LINE
   5
38A
 100
AcDbEntity
   8
LEVEL001
 370
30
 100
AcDbLine
   6
CONTINUOUS
  62
7
  10
 736.96647614249
  20
 1495.3545384433
  30
0.0
  11
 739.96647614249
  21
 1498.3545384433
  31
0.0
   0
POINT
   5
38B
 100
AcDbEntity
   8
LEVEL001
 100
AcDbPoint
  62
7
  10
 736.96647614249
  20
 1498.3545384433
  30
0.0
   0
LINE
   5
38C
 100
AcDbEntity
   8
LEVEL001
 370
30
 100
AcDbLine
   6
CONTINUOUS
  62
7
  10
 760.96647614249
  20
 1498.3545384433
  30
0.0
  11
 739.96647614249
  21
 1498.3545384433
  31
0.0
   0
POINT
   5
38D
 100
AcDbEntity
   8
LEVEL001
 100
AcDbPoint
  62
7
  10
 1738.9664761425
  20
 1451.6606441105
  30
0.0
   0
POINT
   5
38E
 100
AcDbEntity
   8
LEVEL001
 100
AcDbPoint
  62
7
  10
 1738.9664761425
  20
 1555.6293296967
  30
0.0
   0
LWPOLYLINE
   5
38F
 100
AcDbEntity
   8
LEVEL001
 370
30
   6
CONTINUOUS
  62
7
 100
AcDbPolyline
  90
4
  70
1
  10
 1553.9664761425
  20
 1448.0776266026
  10
 1743.9664761425
  20
 1448.0776266026
  10
 1743.9664761425
  20
 1560.7103693209
  10
 1553.9664761425
  20
 1560.7103693209
   0
LWPOLYLINE
   5
390
 100
AcDbEntity
   8
LEVEL001
 370
30
   6
CONTINUOUS
  62
7
 100
AcDbPolyline
  90
4
  70
0
  10
 1553.9664761425
  20
 1448.0776266026
  10
 1553.9664761425
  20
 1447.3286155444
  10
 1743.9664761425
  20
 1447.3286155444
  10
 1743.9664761425
  20
 1448.0776266026
   0
POINT
   5
391
 100
AcDbEntity
   8
LEVEL001
 100
AcDbPoint
  62
7
  10
 1558.9664761425
  20
 1451.6606441105
  30
0.0
   0
POINT
   5
392
 100
AcDbEntity
   8
LEVEL001
 100
AcDbPoint
  62
7
  10
 1558.9664761425
  20
 1555.6293296967
  30
0.0
   0
LINE
   5
393
 100
AcDbEntity
   8
LEVEL001
 370
30
 100
AcDbLine
   6
CONTINUOUS
  62
7
  10
 964.46647614249
  20
 1448.6853346802
  30
0.0
  11
 964.46647614249
  21
 1487.8472612132
  31
0.0
   0
LINE
   5
394
 100
AcDbEntity
   8
LEVEL001
 370
30
 100
AcDbLine
   6
CONTINUOUS
  62
7
  10
 1484.4664761425
  20
 1487.8472612132
  30
0.0
  11
 1484.4664761425
  21
 1457.3232515223
  31
0.0
   0
LINE
   5
395
 100
AcDbEntity
   8
LEVEL001
 370
30
 100
AcDbLine
   6
CONTINUOUS
  62
7
  10
 758.76647614258
  20
 1001.4456459934
  30
0.0
  11
 758.76647614258
  21
 983.84564599341
  31
0.0
   0
LINE
   5
396
 100
AcDbEntity
   8
LEVEL001
 370
30
 100
AcDbLine
   6
CONTINUOUS
  62
7
  10
 1490.1664761424
  20
 1001.4456459934
  30
0.0
  11
 1490.1664761424
  21
 983.84564599341
  31
0.0
   0
ARC
   5
397
 100
AcDbEntity
   8
LEVEL001
 370
30
   6
CONTINUOUS
  62
7
 100
AcDbCircle
  10
 1492.1664761424
  20
 1001.4456459934
  30
0.0
  40
 2.0000000000000
 100
AcDbArc
  50
 143.13010235417
  51
 180.00000000004
   0
LINE
   5
398
 100
AcDbEntity
   8
LEVEL001
 370
30
 100
AcDbLine
   6
CONTINUOUS
  62
7
  10
 1486.9664761424
  20
 983.84564599341
  30
0.0
  11
 1486.9664761424
  21
 1002.6456459934
  31
0.0
   0
ARC
   5
399
 100
AcDbEntity
   8
LEVEL001
 370
30
   6
CONTINUOUS
  62
7
 100
AcDbCircle
  10
 756.76647614258
  20
 1001.4456459934
  30
0.0
  40
 2.0000000000000
 100
AcDbArc
  50
0.0
  51
 36.869897645826
   0
LINE
   5
39A
 100
AcDbEntity
   8
LEVEL001
 370
30
 100
AcDbLine
   6
CONTINUOUS
  62
7
  10
 761.96647614258
  20
 983.84564599341
  30
0.0
  11
 761.96647614258
  21
 1002.6456459934
  31
0.0
   0
LINE
   5
39B
 100
AcDbEntity
   8
LEVEL001
 370
30
 100
AcDbLine
   6
CONTINUOUS
  62
7
  10
 1487.4664761425
  20
 1005.6456459934
  30
0.0
  11
 761.96647614249
  21
 1005.6456459934
  31
0.0
   0
LINE
   5
39C
 100
AcDbEntity
   8
LEVEL001
 370
30
 100
AcDbLine
   6
CONTINUOUS
  62
7
  10
 1569.8464761425
  20
 1116.6456459929
  30
0.0
  11
 1570.8464761425
  21
 1116.6456459929
  31
0.0
   0
ARC
   5
39D
 100
AcDbEntity
   8
LEVEL001
 370
30
   6
CONTINUOUS
  62
7
 100
AcDbCircle
  10
 1571.8464761425
  20
 1058.6456459929
  30
0.0
  40
 1.0000000000000
 100
AcDbArc
  50
 180.00000000000
  51
 270.00000000000
   0
LINE
   5
39E
 100
AcDbEntity
   8
LEVEL001
 370
30
 100
AcDbLine
   6
CONTINUOUS
  62
7
  10
 1589.8464761425
  20
 1152.6456459929
  30
0.0
  11
 1589.8464761425
  21
 1151.6456459929
  31
0.0
   0
LINE
   5
39F
 100
AcDbEntity
   8
LEVEL001
 370
30
 100
AcDbLine
   6
CONTINUOUS
  62
7
  10
 1613.8464761424
  20
 1151.6456459929
  30
0.0
  11
 1569.8464761425
  21
 1151.6456459929
  31
0.0
   0
LINE
   5
3A0
 100
AcDbEntity
   8
LEVEL001
 370
30
 100
AcDbLine
   6
CONTINUOUS
  62
7
  10
 1570.8464761425
  20
 1151.6456459929
  30
0.0
  11
 1570.8464761425
  21
 1058.6456459929
  31
0.0
   0
LINE
   5
3A1
 100
AcDbEntity
   8
LEVEL001
 370
30
 100
AcDbLine
   6
CONTINUOUS
  62
7
  10
 1569.8464761425
  20
 1151.6456459929
  30
0.0
  11
 1569.8464761425
  21
 1058.6456459929
  31
0.0
   0
LINE
   5
3A2
 100
AcDbEntity
   8
LEVEL001
 370
30
 100
AcDbLine
   6
CONTINUOUS
  62
7
  10
 1617.8464761424
  20
 1147.6456459929
  30
0.0
  11
 1612.8464761424
  21
 1152.6456459929
  31
0.0
   0
LINE
   5
3A3
 100
AcDbEntity
   8
LEVEL001
 370
30
 100
AcDbLine
   6
CONTINUOUS
  62
7
  10
 1616.8464761424
  20
 1147.6456459929
  30
0.0
  11
 1612.8464761424
  21
 1151.6456459929
  31
0.0
   0
LINE
   5
3A4
 100
AcDbEntity
   8
LEVEL001
 370
30
 100
AcDbLine
   6
CONTINUOUS
  62
7
  10
 1744.9664761425
  20
 1166.6456459934
  30
0.0
  11
 1744.9664761425
  21
 1056.6456459934
  31
0.0
   0
LINE
   5
3A5
 100
AcDbEntity
   8
LEVEL001
 370
30
 100
AcDbLine
   6
CONTINUOUS
  62
7
  10
 1744.9664761425
  20
 1056.6456459934
  30
0.0
  11
 1444.9664761425
  21
 1056.6456459934
  31
0.0
   0
LINE
   5
3A6
 100
AcDbEntity
   8
LEVEL001
 370
30
 100
AcDbLine
   6
CONTINUOUS
  62
7
  10
 1734.8464761425
  20
 1116.6456459929
  30
0.0
  11
 1733.8464761425
  21
 1116.6456459929
  31
0.0
   0
ARC
   5
3A7
 100
AcDbEntity
   8
LEVEL001
 370
30
   6
CONTINUOUS
  62
7
 100
AcDbCircle
  10
 1732.8464761425
  20
 1058.6456459929
  30
0.0
  40
 1.0000000000000
 100
AcDbArc
  50
 269.99999999995
  51
0.0
   0
ARC
   5
3A8
 100
AcDbEntity
   8
LEVEL001
 370
30
   6
CONTINUOUS
  62
7
 100
AcDbCircle
  10
 1732.8464761425
  20
 1058.6456459929
  30
0.0
  40
 2.0000000000000
 100
AcDbArc
  50
 270.00000000000
  51
0.0
   0
LINE
   5
3A9
 100
AcDbEntity
   8
LEVEL001
 370
30
 100
AcDbLine
   6
CONTINUOUS
  62
7
  10
 1732.8464761425
  20
 1057.6456459929
  30
0.0
  11
 1571.8464761425
  21
 1057.6456459929
  31
0.0
   0
LINE
   5
3AA
 100
AcDbEntity
   8
LEVEL001
 370
30
 100
AcDbLine
   6
CONTINUOUS
  62
7
  10
 1714.8464761425
  20
 1151.6456459929
  30
0.0
  11
 1714.8464761425
  21
 1152.6456459929
  31
0.0
   0
LINE
   5
3AB
 100
AcDbEntity
   8
LEVEL001
 370
30
 100
AcDbLine
   6
CONTINUOUS
  62
7
  10
 1687.8464761426
  20
 1147.6456459929
  30
0.0
  11
 1691.8464761426
  21
 1151.6456459929
  31
0.0
   0
LINE
   5
3AC
 100
AcDbEntity
   8
LEVEL001
 370
30
 100
AcDbLine
   6
CONTINUOUS
  62
7
  10
 1734.8464761425
  20
 1151.6456459929
  30
0.0
  11
 1690.8464761426
  21
 1151.6456459929
  31
0.0
   0
LINE
   5
3AD
 100
AcDbEntity
   8
LEVEL001
 370
30
 100
AcDbLine
   6
CONTINUOUS
  62
7
  10
 1686.8464761426
  20
 1147.6456459929
  30
0.0
  11
 1691.8464761426
  21
 1152.6456459929
  31
0.0
   0
LINE
   5
3AE
 100
AcDbEntity
   8
LEVEL001
 370
30
 100
AcDbLine
   6
CONTINUOUS
  62
7
  10
 1733.8464761425
  20
 1151.6456459929
  30
0.0
  11
 1733.8464761425
  21
 1058.6456459929
  31
0.0
   0
LINE
   5
3AF
 100
AcDbEntity
   8
LEVEL001
 370
30
 100
AcDbLine
   6
CONTINUOUS
  62
7
  10
 1734.8464761425
  20
 1151.6456459929
  30
0.0
  11
 1734.8464761425
  21
 1058.6456459929
  31
0.0
   0
LINE
   5
3B0
 100
AcDbEntity
   8
LEVEL001
 370
30
 100
AcDbLine
   6
CONTINUOUS
  62
7
  10
 1714.8464761425
  20
 1152.6456459929
  30
0.0
  11
 1589.8464761425
  21
 1152.6456459929
  31
0.0
   0
LINE
   5
3B1
 100
AcDbEntity
   8
LEVEL001
 370
30
 100
AcDbLine
   6
CONTINUOUS
  62
7
  10
 1616.8464761424
  20
 1147.6456459929
  30
0.0
  11
 1687.8464761426
  21
 1147.6456459929
  31
0.0
   0
LINE
   5
3B2
 100
AcDbEntity
   8
LEVEL001
 370
30
 100
AcDbLine
   6
CONTINUOUS
  62
7
  10
 1744.9664761425
  20
 1166.6456459934
  30
0.0
  11
 1444.9664761425
  21
 1166.6456459934
  31
0.0
   0
LINE
   5
3B3
 100
AcDbEntity
   8
LEVEL001
 370
30
 100
AcDbLine
   6
CONTINUOUS
  62
7
  10
 1760.9664761425
  20
 1170.6456459934
  30
0.0
  11
 1759.9664761425
  21
 1170.6456459934
  31
0.0
   0
ARC
   5
3B4
 100
AcDbEntity
   8
LEVEL001
 370
30
   6
CONTINUOUS
  62
7
 100
AcDbCircle
  10
 1470.0664761425
  20
 1399.8953346802
  30
0.0
  40
 8.2900000000000
 100
AcDbArc
  50
 61.936727912985
  51
 130.64627365933
   0
LINE
   5
3B5
 100
AcDbEntity
   8
LEVEL001
 370
30
 100
AcDbLine
   6
CONTINUOUS
  62
7
  10
 1586.9664761425
  20
 1394.5784570652
  30
0.0
  11
 1715.9664761425
  21
 1394.5784570652
  31
0.0
   0
ARC
   5
3B6
 100
AcDbEntity
   8
LEVEL001
 370
30
   6
CONTINUOUS
  62
7
 100
AcDbCircle
  10
 1715.9664761425
  20
 1387.5784570652
  30
0.0
  40
 7.0000000000000
 100
AcDbArc
  50
0.0
  51
 90.000000000000
   0
POINT
   5
3B7
 100
AcDbEntity
   8
LEVEL001
 100
AcDbPoint
  62
7
  10
 1722.9664761425
  20
 1394.5784570652
  30
0.0
   0
ARC
   5
3B8
 100
AcDbEntity
   8
LEVEL001
 370
30
   6
CONTINUOUS
  62
7
 100
AcDbCircle
  10
 1715.9664761425
  20
 1198.6456459934
  30
0.0
  40
 7.0000000000000
 100
AcDbArc
  50
 270.00000000000
  51
0.0
   0
POINT
   5
3B9
 100
AcDbEntity
   8
LEVEL001
 100
AcDbPoint
  62
7
  10
 1722.9664761425
  20
 1191.6456459934
  30
0.0
   0
LINE
   5
3BA
 100
AcDbEntity
   8
LEVEL001
 370
30
 100
AcDbLine
   6
CONTINUOUS
  62
7
  10
 1722.9664761425
  20
 1198.6456459934
  30
0.0
  11
 1722.9664761425
  21
 1387.5784570652
  31
0.0
   0
LINE
   5
3BB
 100
AcDbEntity
   8
LEVEL001
 370
30
 100
AcDbLine
   6
CONTINUOUS
  62
7
  10
 1484.4664761425
  20
 1273.6456459934
  30
0.0
  11
 1486.9664761425
  21
 1273.6456459934
  31
0.0
   0
ARC
   5
3BC
 100
AcDbEntity
   8
LEVEL001
 370
30
   6
CONTINUOUS
  62
7
 100
AcDbCircle
  10
 1586.9664761425
  20
 1387.6456459934
  30
0.0
  40
 7.0000000000000
 100
AcDbArc
  50
 90.000000000000
  51
 180.00000000000
   0
LINE
   5
3BD
 100
AcDbEntity
   8
LEVEL001
 370
30
 100
AcDbLine
   6
CONTINUOUS
  62
7
  10
 1484.4664761425
  20
 1253.3956459934
  30
0.0
  11
 1484.4664761425
  21
 1328.6956459934
  31
0.0
   0
LINE
   5
3BE
 100
AcDbEntity
   8
LEVEL001
 370
30
 100
AcDbLine
   6
CONTINUOUS
  62
7
  10
 1484.4664761425
  20
 1328.6956459934
  30
0.0
  11
 764.46647614249
  21
 1328.6956459934
  31
0.0
   0
LINE
   5
3BF
 100
AcDbEntity
   8
LEVEL001
 370
30
 100
AcDbLine
   6
CONTINUOUS
  62
7
  10
 1486.9664761425
  20
 1304.0456459934
  30
0.0
  11
 1484.4664761425
  21
 1304.0456459934
  31
0.0
   0
LINE
   5
3C0
 100
AcDbEntity
   8
LEVEL001
 370
30
 100
AcDbLine
   6
CONTINUOUS
  62
7
  10
 1484.4664761425
  20
 1405.0077287429
  30
0.0
  11
 1484.4664761425
  21
 1448.6853346802
  31
0.0
   0
ARC
   5
3C1
 100
AcDbEntity
   8
LEVEL001
 370
30
   6
CONTINUOUS
  62
7
 100
AcDbCircle
  10
 1480.8664761425
  20
 1412.4753346802
  30
0.0
  40
 8.2900000000000
 100
AcDbArc
  50
 229.35372634068
  51
 295.73699109545
   0
ARC
   5
3C2
 100
AcDbEntity
   8
LEVEL001
 370
30
   6
CONTINUOUS
  62
7
 100
AcDbCircle
  10
 1470.0664761425
  20
 1399.8953346802
  30
0.0
  40
 8.2900000000000
 100
AcDbArc
  50
 49.353726340630
  51
 61.936727912935
   0
LINE
   5
3C3
 100
AcDbEntity
   8
LEVEL001
 370
30
 100
AcDbLine
   6
CONTINUOUS
  62
7
  10
 1760.9664761425
  20
 1408.6456459934
  30
0.0
  11
 1760.9664761425
  21
 1170.6456459934
  31
0.0
   0
LINE
   5
3C4
 100
AcDbEntity
   8
LEVEL001
 370
30
 100
AcDbLine
   6
CONTINUOUS
  62
7
  10
 1760.9664761425
  20
 1408.6456459934
  30
0.0
  11
 1759.9664761425
  21
 1408.6456459934
  31
0.0
   0
LWPOLYLINE
   5
3C5
 100
AcDbEntity
   8
LEVEL001
 370
30
   6
CONTINUOUS
  62
7
 100
AcDbPolyline
  90
4
  70
0
  10
 1486.9664761425
  20
 1411.6456459934
  10
 1473.9664761425
  20
 1411.6456459934
  10
 1473.9664761425
  20
 1408.6456459934
  10
 1481.4664761425
  20
 1408.6456459934
   0
LWPOLYLINE
   5
3C6
 100
AcDbEntity
   8
LEVEL001
 370
30
   6
CONTINUOUS
  62
7
 100
AcDbPolyline
  90
4
  70
1
  10
 1486.9664761425
  20
 1278.6456459934
  10
 1481.4664761425
  20
 1278.6456459934
  10
 1481.4664761425
  20
 1408.6456459934
  10
 1486.9664761425
  20
 1408.6456459934
   0
LINE
   5
3C7
 100
AcDbEntity
   8
LEVEL001
 370
30
 100
AcDbLine
   6
CONTINUOUS
  62
7
  10
 1485.9664761425
  20
 1408.6456459934
  30
0.0
  11
 1485.9664761425
  21
 1278.6456459934
  31
0.0
   0
LINE
   5
3C8
 100
AcDbEntity
   8
LEVEL001
 370
30
 100
AcDbLine
   6
CONTINUOUS
  62
7
  10
 761.96647614249
  20
 1235.6456459934
  30
0.0
  11
 761.96647614249
  21
 1464.7373335983
  31
0.0
   0
LINE
   5
3C9
 100
AcDbEntity
   8
LEVEL001
 370
30
 100
AcDbLine
   6
CONTINUOUS
  62
7
  10
 761.96647614249
  20
 1002.6456459934
  30
0.0
  11
 761.96647614249
  21
 1055.1456459934
  31
0.0
   0
LINE
   5
3CA
 100
AcDbEntity
   8
LEVEL001
 370
30
 100
AcDbLine
   6
CONTINUOUS
  62
7
  10
 1444.9664761425
  20
 1055.1456459934
  30
0.0
  11
 1444.9664761425
  21
 1230.1456459934
  31
0.0
   0
LWPOLYLINE
   5
3CB
 100
AcDbEntity
   8
LEVEL001
 370
30
   6
CONTINUOUS
  62
7
 100
AcDbPolyline
  90
6
  70
0
  10
 1486.9664761425
  20
 1056.6456459934
  10
 1486.9664761425
  20
 1002.6456459934
  10
 1759.9664761425
  20
 1002.6456459934
  10
 1759.9664761425
  20
 1569.6456459934
  10
 1486.9664761425
  20
 1569.6456459934
  10
 1486.9664761425
  20
 1235.6456459934
   0
LINE
   5
3CC
 100
AcDbEntity
   8
LEVEL001
 370
30
 100
AcDbLine
   6
CONTINUOUS
  62
7
  10
 744.96647614249
  20
 1230.1456459934
  30
0.0
  11
 744.96647614249
  21
 1055.1456459934
  31
0.0
   0
LINE
   5
3CD
 100
AcDbEntity
   8
LEVEL001
 370
30
 100
AcDbLine
   6
CONTINUOUS
  62
7
  10
 1444.9664761425
  20
 1230.1456459934
  30
0.0
  11
 744.96647614249
  21
 1230.1456459934
  31
0.0
   0
LINE
   5
3CE
 100
AcDbEntity
   8
LEVEL001
 370
30
 100
AcDbLine
   6
CONTINUOUS
  62
7
  10
 1444.9664761425
  20
 1055.1456459934
  30
0.0
  11
 744.96647614249
  21
 1055.1456459934
  31
0.0
   0
ARC
   5
3CF
 100
AcDbEntity
   8
LEVEL001
 370
30
   6
CONTINUOUS
  62
7
 100
AcDbCircle
  10
 662.96647614249
  20
 1567.6456459934
  30
0.0
  40
 2.0000000000000
 100
AcDbArc
  50
 90.000000000000
  51
 180.00000000000
   0
LINE
   5
3D0
 100
AcDbEntity
   8
LEVEL001
 370
30
 100
AcDbLine
   6
CONTINUOUS
  62
7
  10
 661.96647614249
  20
 1463.4740731183
  30
0.0
  11
 682.35229127131
  21
 1463.4740731183
  31
0.0
   0
LWPOLYLINE
   5
3D1
 100
AcDbEntity
   8
LEVEL001
 370
30
   6
CONTINUOUS
  62
7
 100
AcDbPolyline
  90
4
  70
1
  10
 1486.9664761425
  20
 1238.6456459934
  10
 662.46647614249
  20
 1238.6456459934
  10
 662.46647614249
  20
 1235.6456459934
  10
 1486.9664761425
  20
 1235.6456459934
   0
LINE
   5
3D2
 100
AcDbEntity
   8
LEVEL001
 370
30
 100
AcDbLine
   6
CONTINUOUS
  62
7
  10
 660.96647614249
  20
 1567.6456459934
  30
0.0
  11
 660.96647614249
  21
 1006.6456459934
  31
0.0
   0
LINE
   5
3D3
 100
AcDbEntity
   8
LEVEL001
 370
30
 100
AcDbLine
   6
CONTINUOUS
  62
7
  10
 761.96647614249
  20
 1235.6456459934
  30
0.0
  11
 660.96647614249
  21
 1235.6456459934
  31
0.0
   0
LINE
   5
3D4
 100
AcDbEntity
   8
LEVEL001
 370
30
 100
AcDbLine
   6
CONTINUOUS
  62
7
  10
 660.96647614249
  20
 1235.6456459934
  30
0.0
  11
 660.96647614249
  21
 1002.6456459934
  31
0.0
   0
LINE
   5
3D5
 100
AcDbEntity
   8
LEVEL001
 370
30
 100
AcDbLine
   6
CONTINUOUS
  62
7
  10
 660.96647614249
  20
 1002.6456459934
  30
0.0
  11
 761.96647614249
  21
 1002.6456459934
  31
0.0
   0
LINE
   5
3D6
 100
AcDbEntity
   8
LEVEL001
 370
30
 100
AcDbLine
   6
CONTINUOUS
  62
7
  10
 662.96647614249
  20
 1569.6456459934
  30
0.0
  11
 756.96647614249
  21
 1569.6456459934
  31
0.0
   0
LINE
   5
3D7
 100
AcDbEntity
   8
LEVEL001
 370
30
 100
AcDbLine
   6
CONTINUOUS
  62
7
  10
 1579.9664761425
  20
 1387.5784570652
  30
0.0
  11
 1579.9664761425
  21
 1198.6456459934
  31
0.0
   0
ARC
   5
3D8
 100
AcDbEntity
   8
LEVEL001
 370
30
   6
CONTINUOUS
  62
7
 100
AcDbCircle
  10
 1586.9664761425
  20
 1198.6456459934
  30
0.0
  40
 7.0000000000000
 100
AcDbArc
  50
 180.00000000000
  51
 270.00000000000
   0
POINT
   5
3D9
 100
AcDbEntity
   8
LEVEL001
 100
AcDbPoint
  62
7
  10
 1579.9664761425
  20
 1191.6456459934
  30
0.0
   0
LINE
   5
3DA
 100
AcDbEntity
   8
LEVEL001
 370
30
 100
AcDbLine
   6
CONTINUOUS
  62
7
  10
 1586.9664761425
  20
 1191.6456459934
  30
0.0
  11
 1715.9664761425
  21
 1191.6456459934
  31
0.0
   0
LINE
   5
3DB
 100
AcDbEntity
   8
LEVEL001
 370
30
 100
AcDbLine
   6
CONTINUOUS
  62
7
  10
 1486.9664761425
  20
 1235.6456459934
  30
0.0
  11
 1486.9664761425
  21
 1569.6456459934
  31
0.0
   0
LINE
   5
3DC
 100
AcDbEntity
   8
LEVEL001
 370
30
 100
AcDbLine
   6
CONTINUOUS
  62
7
  10
 1485.9664761425
  20
 1538.2686972932
  30
0.0
  11
 1485.9664761425
  21
 1603.7402382657
  31
0.0
   0
LINE
   5
3DD
 100
AcDbEntity
   8
LEVEL001
 370
30
 100
AcDbLine
   6
CONTINUOUS
  62
7
  10
 961.96647614249
  20
 1603.7402382657
  30
0.0
  11
 1485.9664761425
  21
 1603.7402382657
  31
0.0
   0
LINE
   5
3DE
 100
AcDbEntity
   8
LEVEL001
 370
30
 100
AcDbLine
   6
CONTINUOUS
  62
7
  10
 762.46647614249
  20
 1583.4975772200
  30
0.0
  11
 1486.4664761425
  21
 1583.4975772200
  31
0.0
   0
LINE
   5
3DF
 100
AcDbEntity
   8
LEVEL001
 370
30
 100
AcDbLine
   6
CONTINUOUS
  62
7
  10
 1486.4664761425
  20
 1582.8677946644
  30
0.0
  11
 762.46647614249
  21
 1582.8677946644
  31
0.0
   0
LINE
   5
3E0
 100
AcDbEntity
   8
LEVEL001
 370
30
 100
AcDbLine
   6
CONTINUOUS
  62
7
  10
 1486.4664761425
  20
 1466.3956459935
  30
0.0
  11
 1486.4664761425
  21
 1593.3864925181
  31
0.0
   0
LINE
   5
3E1
 100
AcDbEntity
   8
LEVEL001
 370
30
 100
AcDbLine
   6
CONTINUOUS
  62
7
  10
 762.46647614249
  20
 1466.3956459935
  30
0.0
  11
 762.46647614249
  21
 1593.3864925181
  31
0.0
   0
LINE
   5
3E2
 100
AcDbEntity
   8
LEVEL001
 370
30
 100
AcDbLine
   6
CONTINUOUS
  62
7
  10
 760.96647614249
  20
 1593.3864925181
  30
0.0
  11
 760.96647614249
  21
 1465.9134129465
  31
0.0
   0
LINE
   5
3E3
 100
AcDbEntity
   8
LEVEL001
 370
30
 100
AcDbLine
   6
CONTINUOUS
  62
7
  10
 761.96647614249
  20
 1593.3864925181
  30
0.0
  11
 761.96647614249
  21
 1569.6456459934
  31
0.0
   0
LINE
   5
3E4
 100
AcDbEntity
   8
LEVEL001
 370
30
 100
AcDbLine
   6
CONTINUOUS
  62
7
  10
 978.96647614249
  20
 1603.7402382657
  30
0.0
  11
 978.96647614249
  21
 1593.3864925181
  31
0.0
   0
LINE
   5
3E5
 100
AcDbEntity
   8
LEVEL001
 370
30
 100
AcDbLine
   6
CONTINUOUS
  62
7
  10
 961.96647614249
  20
 1593.3864925181
  30
0.0
  11
 961.96647614249
  21
 1603.7402382657
  31
0.0
   0
LINE
   5
3E6
 100
AcDbEntity
   8
LEVEL001
 370
30
 100
AcDbLine
   6
CONTINUOUS
  62
7
  10
 1485.9664761425
  20
 1585.3632895654
  30
0.0
  11
 1485.9664761425
  21
 1593.3864925181
  31
0.0
   0
LINE
   5
3E7
 100
AcDbEntity
   8
LEVEL001
 370
30
 100
AcDbLine
   6
CONTINUOUS
  62
7
  10
 1468.9664761425
  20
 1593.3864925181
  30
0.0
  11
 1468.9664761425
  21
 1603.7402382657
  31
0.0
   0
LINE
   5
3E8
 100
AcDbEntity
   8
LEVEL001
 370
30
 100
AcDbLine
   6
CONTINUOUS
  62
7
  10
 760.96647614249
  20
 1593.3864925181
  30
0.0
  11
 1486.4664761425
  21
 1593.3864925181
  31
0.0
   0
LINE
   5
3E9
 100
AcDbEntity
   8
LEVEL001
 370
30
 100
AcDbLine
   6
CONTINUOUS
  62
7
  10
 1484.4664761425
  20
 1448.6853346802
  30
0.0
  11
 1484.4664761425
  21
 1487.8472612132
  31
0.0
   0
LINE
   5
3EA
 100
AcDbEntity
   8
LEVEL001
 370
30
 100
AcDbLine
   6
CONTINUOUS
  62
7
  10
 764.46647614249
  20
 1457.3532447048
  30
0.0
  11
 764.46647614249
  21
 1487.8472612132
  31
0.0
   0
LINE
   5
3EB
 100
AcDbEntity
   8
LEVEL001
 370
30
 100
AcDbLine
   6
CONTINUOUS
  62
7
  10
 763.96647614249
  20
 1506.8650828931
  30
0.0
  11
 763.96647614249
  21
 1487.8472612132
  31
0.0
   0
LINE
   5
3EC
 100
AcDbEntity
   8
LEVEL001
 370
30
 100
AcDbLine
   6
CONTINUOUS
  62
7
  10
 763.96647614249
  20
 1487.8472612132
  30
0.0
  11
 1486.4664761425
  21
 1487.8472612132
  31
0.0
   0
LINE
   5
3ED
 100
AcDbEntity
   8
LEVEL001
 370
30
 100
AcDbLine
   6
CONTINUOUS
  62
7
  10
 736.96647614249
  20
 1570.6456459934
  30
0.0
  11
 761.96647614249
  21
 1570.6456459934
  31
0.0
   0
LINE
   5
3EE
 100
AcDbEntity
   8
LEVEL001
 370
30
 100
AcDbLine
   6
CONTINUOUS
  62
7
  10
 776.96647614249
  20
 1593.3864925181
  30
0.0
  11
 776.96647614249
  21
 1582.8677946644
  31
0.0
   0
LINE
   5
3EF
 100
AcDbEntity
   8
LEVEL001
 370
30
 100
AcDbLine
   6
CONTINUOUS
  62
7
  10
 756.96647614249
  20
 1569.6456459934
  30
0.0
  11
 761.96647614249
  21
 1569.6456459934
  31
0.0
   0
LINE
   5
3F0
 100
AcDbEntity
   8
LEVEL001
 370
30
 100
AcDbLine
   6
CONTINUOUS
  62
7
  10
 1481.9664761425
  20
 978.64564599341
  30
0.0
  11
 1501.9664761425
  21
 978.64564599341
  31
0.0
   0
LINE
   5
3F1
 100
AcDbEntity
   8
LEVEL001
 370
30
 100
AcDbLine
   6
CONTINUOUS
  62
7
  10
 756.96647614249
  20
 978.64564599341
  30
0.0
  11
 736.96647614249
  21
 978.64564599341
  31
0.0
   0
ARC
   5
3F2
 100
AcDbEntity
   8
LEVEL001
 370
30
   6
CONTINUOUS
  62
7
 100
AcDbCircle
  10
 756.76647614258
  20
 983.84564599341
  30
0.0
  40
 2.0000000000000
 100
AcDbArc
  50
 270.00000000000
  51
0.0
   0
ARC
   5
3F3
 100
AcDbEntity
   8
LEVEL001
 370
30
   6
CONTINUOUS
  62
7
 100
AcDbCircle
  10
 756.76647614258
  20
 983.84564599341
  30
0.0
  40
 5.2000000000000
 100
AcDbArc
  50
 269.99999999999
  51
0.0
   0
LINE
   5
3F4
 100
AcDbEntity
   8
LEVEL001
 370
30
 100
AcDbLine
   6
CONTINUOUS
  62
7
  10
 736.96647614249
  20
 981.84564599341
  30
0.0
  11
 736.96647614249
  21
 978.64564599341
  31
0.0
   0
LINE
   5
3F5
 100
AcDbEntity
   8
LEVEL001
 370
30
 100
AcDbLine
   6
CONTINUOUS
  62
7
  10
 756.76647614258
  20
 981.84564599341
  30
0.0
  11
 736.96647614249
  21
 981.84564599341
  31
0.0
   0
ARC
   5
3F6
 100
AcDbEntity
   8
LEVEL001
 370
30
   6
CONTINUOUS
  62
7
 100
AcDbCircle
  10
 1492.1664761424
  20
 983.84564599341
  30
0.0
  40
 2.0000000000000
 100
AcDbArc
  50
 180.00000000000
  51
 270.00000000000
   0
ARC
   5
3F7
 100
AcDbEntity
   8
LEVEL001
 370
30
   6
CONTINUOUS
  62
7
 100
AcDbCircle
  10
 1492.1664761424
  20
 983.84564599341
  30
0.0
  40
 5.2000000000000
 100
AcDbArc
  50
 180.00000000001
  51
 270.00000000001
   0
LINE
   5
3F8
 100
AcDbEntity
   8
LEVEL001
 370
30
 100
AcDbLine
   6
CONTINUOUS
  62
7
  10
 1511.9664761425
  20
 981.84564599341
  30
0.0
  11
 1511.9664761425
  21
 978.64564599341
  31
0.0
   0
LINE
   5
3F9
 100
AcDbEntity
   8
LEVEL001
 370
30
 100
AcDbLine
   6
CONTINUOUS
  62
7
  10
 1492.1664761424
  20
 981.84564599341
  30
0.0
  11
 1511.9664761425
  21
 981.84564599341
  31
0.0
   0
LWPOLYLINE
   5
3FA
 100
AcDbEntity
   8
LEVEL001
 370
30
   6
CONTINUOUS
  62
7
 100
AcDbPolyline
  90
4
  70
1
  10
 1915.9664761425
  20
 978.64564599341
  10
 455.96647614249
  20
 978.64564599341
  10
 455.96647614249
  20
 949.64564599341
  10
 1915.9664761425
  20
 949.64564599341
   0
LINE
   5
3FB
 100
AcDbEntity
   8
LEVEL001
 370
30
 100
AcDbLine
   6
CONTINUOUS
  62
7
  10
 455.96647614249
  20
 949.64564599341
  30
0.0
  11
 455.96647614249
  21
 248.64564599341
  31
0.0
   0
LINE
   5
3FC
 100
AcDbEntity
   8
LEVEL001
 370
30
 100
AcDbLine
   6
CONTINUOUS
  62
7
  10
 484.96647614249
  20
 949.64564599341
  30
0.0
  11
 484.96647614249
  21
 248.64564599341
  31
0.0
   0
LINE
   5
3FD
 100
AcDbEntity
   8
LEVEL001
 370
30
 100
AcDbLine
   6
CONTINUOUS
  62
7
  10
 1915.9664761425
  20
 949.64564599341
  30
0.0
  11
 1915.9664761425
  21
 248.64564599341
  31
0.0
   0
LINE
   5
3FE
 100
AcDbEntity
   8
LEVEL001
 370
30
 100
AcDbLine
   6
CONTINUOUS
  62
7
  10
 1886.9664761425
  20
 248.64564599341
  30
0.0
  11
 1886.9664761425
  21
 949.64564599341
  31
0.0
   0
LINE
   5
3FF
 100
AcDbEntity
   8
LEVEL001
 370
30
 100
AcDbLine
   6
CONTINUOUS
  62
7
  10
 415.96647614249
  20
 248.64564599341
  30
0.0
  11
 1948.0541039310
  21
 248.64564599341
  31
0.0
   0
INSERT
   5
400
 100
AcDbEntity
   8
0
 100
AcDbBlockReference
   2
BLOCK006
  10
0.0
  20
0.0
  30
0.0
   0
INSERT
   5
401
 100
AcDbEntity
   8
0
 100
AcDbBlockReference
   2
BLOCK007
  10
0.0
  20
0.0
  30
0.0
   0
LINE
   5
402
 100
AcDbEntity
   8
LEVEL001
 370
30
 100
AcDbLine
   6
CONTINUOUS
  62
7
  10
 1486.9664761425
  20
 1483.6456455850
  30
0.0
  11
 1484.4664761425
  21
 1483.6456455850
  31
0.0
   0
LINE
   5
403
 100
AcDbEntity
   8
LEVEL001
 370
30
 100
AcDbLine
   6
CONTINUOUS
  62
7
  10
 764.46647614249
  20
 1483.6456455850
  30
0.0
  11
 761.96647614249
  21
 1483.6456455850
  31
0.0
   0
LINE
   5
404
 100
AcDbEntity
   8
LEVEL001
 370
30
 100
AcDbLine
   6
CONTINUOUS
  62
7
  10
 764.46647614249
  20
 1475.1853346802
  30
0.0
  11
 765.46647614249
  21
 1476.1853346802
  31
0.0
   0
LINE
   5
405
 100
AcDbEntity
   8
LEVEL001
 370
30
 100
AcDbLine
   6
CONTINUOUS
  62
7
  10
 765.46647614249
  20
 1476.1853346802
  30
0.0
  11
 964.46647614249
  21
 1476.1853346802
  31
0.0
   0
ARC
   5
406
 100
AcDbEntity
   8
LEVEL001
 370
30
   6
CONTINUOUS
  62
7
 100
AcDbCircle
  10
 1426.8664761425
  20
 1399.8953346802
  30
0.0
  40
 8.2900000000000
 100
AcDbArc
  50
 49.353726340673
  51
 130.64627365933
   0
ARC
   5
407
 100
AcDbEntity
   8
LEVEL001
 370
30
   6
CONTINUOUS
  62
7
 100
AcDbCircle
  10
 1416.0664761425
  20
 1412.4753346802
  30
0.0
  40
 8.2900000000000
 100
AcDbArc
  50
 229.35372634068
  51
 310.64627365932
   0
ARC
   5
408
 100
AcDbEntity
   8
LEVEL001
 370
30
   6
CONTINUOUS
  62
7
 100
AcDbCircle
  10
 1448.4664761425
  20
 1399.8953346802
  30
0.0
  40
 8.2900000000000
 100
AcDbArc
  50
 49.353726340677
  51
 130.64627365932
   0
ARC
   5
409
 100
AcDbEntity
   8
LEVEL001
 370
30
   6
CONTINUOUS
  62
7
 100
AcDbCircle
  10
 1437.6664761425
  20
 1412.4753346802
  30
0.0
  40
 8.2900000000000
 100
AcDbArc
  50
 229.35372634067
  51
 310.64627365933
   0
ARC
   5
40A
 100
AcDbEntity
   8
LEVEL001
 370
30
   6
CONTINUOUS
  62
7
 100
AcDbCircle
  10
 1459.2664761425
  20
 1412.4753346802
  30
0.0
  40
 8.2900000000000
 100
AcDbArc
  50
 229.35372634067
  51
 310.64627365933
   0
ARC
   5
40B
 100
AcDbEntity
   8
LEVEL001
 370
30
   6
CONTINUOUS
  62
7
 100
AcDbCircle
  10
 1372.8664761425
  20
 1412.4753346802
  30
0.0
  40
 8.2900000000000
 100
AcDbArc
  50
 229.35372634067
  51
 310.64627365933
   0
ARC
   5
40C
 100
AcDbEntity
   8
LEVEL001
 370
30
   6
CONTINUOUS
  62
7
 100
AcDbCircle
  10
 1383.6664761425
  20
 1399.8953346802
  30
0.0
  40
 8.2900000000000
 100
AcDbArc
  50
 49.353726340673
  51
 130.64627365933
   0
ARC
   5
40D
 100
AcDbEntity
   8
LEVEL001
 370
30
   6
CONTINUOUS
  62
7
 100
AcDbCircle
  10
 1394.4664761425
  20
 1412.4753346802
  30
0.0
  40
 8.2900000000000
 100
AcDbArc
  50
 229.35372634068
  51
 310.64627365932
   0
ARC
   5
40E
 100
AcDbEntity
   8
LEVEL001
 370
30
   6
CONTINUOUS
  62
7
 100
AcDbCircle
  10
 1405.2664761425
  20
 1399.8953346802
  30
0.0
  40
 8.2900000000000
 100
AcDbArc
  50
 49.353726340669
  51
 130.64627365933
   0
ARC
   5
40F
 100
AcDbEntity
   8
LEVEL001
 370
30
   6
CONTINUOUS
  62
7
 100
AcDbCircle
  10
 1340.4664761425
  20
 1399.8953346802
  30
0.0
  40
 8.2900000000000
 100
AcDbArc
  50
 49.353726340677
  51
 130.64627365932
   0
ARC
   5
410
 100
AcDbEntity
   8
LEVEL001
 370
30
   6
CONTINUOUS
  62
7
 100
AcDbCircle
  10
 1351.2664761425
  20
 1412.4753346802
  30
0.0
  40
 8.2900000000000
 100
AcDbArc
  50
 229.35372634067
  51
 310.64627365933
   0
ARC
   5
411
 100
AcDbEntity
   8
LEVEL001
 370
30
   6
CONTINUOUS
  62
7
 100
AcDbCircle
  10
 1362.0664761425
  20
 1399.8953346802
  30
0.0
  40
 8.2900000000000
 100
AcDbArc
  50
 49.353726340677
  51
 130.64627365932
   0
ARC
   5
412
 100
AcDbEntity
   8
LEVEL001
 370
30
   6
CONTINUOUS
  62
7
 100
AcDbCircle
  10
 1275.6664761425
  20
 1399.8953346802
  30
0.0
  40
 8.2900000000000
 100
AcDbArc
  50
 49.353726340673
  51
 130.64627365933
   0
ARC
   5
413
 100
AcDbEntity
   8
LEVEL001
 370
30
   6
CONTINUOUS
  62
7
 100
AcDbCircle
  10
 1264.8664761425
  20
 1412.4753346802
  30
0.0
  40
 8.2900000000000
 100
AcDbArc
  50
 229.35372634067
  51
 310.64627365933
   0
ARC
   5
414
 100
AcDbEntity
   8
LEVEL001
 370
30
   6
CONTINUOUS
  62
7
 100
AcDbCircle
  10
 1297.2664761425
  20
 1399.8953346802
  30
0.0
  40
 8.2900000000000
 100
AcDbArc
  50
 49.353726340673
  51
 130.64627365933
   0
ARC
   5
415
 100
AcDbEntity
   8
LEVEL001
 370
30
   6
CONTINUOUS
  62
7
 100
AcDbCircle
  10
 1286.4664761425
  20
 1412.4753346802
  30
0.0
  40
 8.2900000000000
 100
AcDbArc
  50
 229.35372634068
  51
 310.64627365932
   0
ARC
   5
416
 100
AcDbEntity
   8
LEVEL001
 370
30
   6
CONTINUOUS
  62
7
 100
AcDbCircle
  10
 1308.0664761425
  20
 1412.4753346802
  30
0.0
  40
 8.2900000000000
 100
AcDbArc
  50
 229.35372634067
  51
 310.64627365933
   0
ARC
   5
417
 100
AcDbEntity
   8
LEVEL001
 370
30
   6
CONTINUOUS
  62
7
 100
AcDbCircle
  10
 1318.8664761425
  20
 1399.8953346802
  30
0.0
  40
 8.2900000000000
 100
AcDbArc
  50
 49.353726340673
  51
 130.64627365933
   0
ARC
   5
418
 100
AcDbEntity
   8
LEVEL001
 370
30
   6
CONTINUOUS
  62
7
 100
AcDbCircle
  10
 1221.6664761425
  20
 1412.4753346802
  30
0.0
  40
 8.2900000000000
 100
AcDbArc
  50
 229.35372634067
  51
 310.64627365933
   0
ARC
   5
419
 100
AcDbEntity
   8
LEVEL001
 370
30
   6
CONTINUOUS
  62
7
 100
AcDbCircle
  10
 1232.4664761425
  20
 1399.8953346802
  30
0.0
  40
 8.2900000000000
 100
AcDbArc
  50
 49.353726340677
  51
 130.64627365932
   0
ARC
   5
41A
 100
AcDbEntity
   8
LEVEL001
 370
30
   6
CONTINUOUS
  62
7
 100
AcDbCircle
  10
 1243.2664761425
  20
 1412.4753346802
  30
0.0
  40
 8.2900000000000
 100
AcDbArc
  50
 229.35372634067
  51
 310.64627365933
   0
ARC
   5
41B
 100
AcDbEntity
   8
LEVEL001
 370
30
   6
CONTINUOUS
  62
7
 100
AcDbCircle
  10
 1254.0664761425
  20
 1399.8953346802
  30
0.0
  40
 8.2900000000000
 100
AcDbArc
  50
 49.353726340673
  51
 130.64627365933
   0
ARC
   5
41C
 100
AcDbEntity
   8
LEVEL001
 370
30
   6
CONTINUOUS
  62
7
 100
AcDbCircle
  10
 1189.2664761425
  20
 1399.8953346802
  30
0.0
  40
 8.2900000000000
 100
AcDbArc
  50
 49.353726340673
  51
 130.64627365933
   0
ARC
   5
41D
 100
AcDbEntity
   8
LEVEL001
 370
30
   6
CONTINUOUS
  62
7
 100
AcDbCircle
  10
 1200.0664761425
  20
 1412.4753346802
  30
0.0
  40
 8.2900000000000
 100
AcDbArc
  50
 229.35372634067
  51
 310.64627365933
   0
ARC
   5
41E
 100
AcDbEntity
   8
LEVEL001
 370
30
   6
CONTINUOUS
  62
7
 100
AcDbCircle
  10
 1210.8664761425
  20
 1399.8953346802
  30
0.0
  40
 8.2900000000000
 100
AcDbArc
  50
 49.353726340673
  51
 130.64627365933
   0
ARC
   5
41F
 100
AcDbEntity
   8
LEVEL001
 370
30
   6
CONTINUOUS
  62
7
 100
AcDbCircle
  10
 1156.8664761425
  20
 1412.4753346802
  30
0.0
  40
 8.2900000000000
 100
AcDbArc
  50
 229.35372634067
  51
 310.64627365933
   0
ARC
   5
420
 100
AcDbEntity
   8
LEVEL001
 370
30
   6
CONTINUOUS
  62
7
 100
AcDbCircle
  10
 1167.6664761425
  20
 1399.8953346802
  30
0.0
  40
 8.2900000000000
 100
AcDbArc
  50
 49.353726340673
  51
 130.64627365933
   0
ARC
   5
421
 100
AcDbEntity
   8
LEVEL001
 370
30
   6
CONTINUOUS
  62
7
 100
AcDbCircle
  10
 1178.4664761425
  20
 1412.4753346802
  30
0.0
  40
 8.2900000000000
 100
AcDbArc
  50
 229.35372634068
  51
 310.64627365932
   0
ARC
   5
422
 100
AcDbEntity
   8
LEVEL001
 370
30
   6
CONTINUOUS
  62
7
 100
AcDbCircle
  10
 1124.4664761425
  20
 1399.8953346802
  30
0.0
  40
 8.2900000000000
 100
AcDbArc
  50
 49.353726340677
  51
 130.64627365932
   0
ARC
   5
423
 100
AcDbEntity
   8
LEVEL001
 370
30
   6
CONTINUOUS
  62
7
 100
AcDbCircle
  10
 1135.2664761425
  20
 1412.4753346802
  30
0.0
  40
 8.2900000000000
 100
AcDbArc
  50
 229.35372634067
  51
 310.64627365933
   0
ARC
   5
424
 100
AcDbEntity
   8
LEVEL001
 370
30
   6
CONTINUOUS
  62
7
 100
AcDbCircle
  10
 1146.0664761425
  20
 1399.8953346802
  30
0.0
  40
 8.2900000000000
 100
AcDbArc
  50
 49.353726340673
  51
 130.64627365933
   0
ARC
   5
425
 100
AcDbEntity
   8
LEVEL001
 370
30
   6
CONTINUOUS
  62
7
 100
AcDbCircle
  10
 1059.6664761425
  20
 1399.8953346802
  30
0.0
  40
 8.2900000000000
 100
AcDbArc
  50
 49.353726340673
  51
 130.64627365933
   0
ARC
   5
426
 100
AcDbEntity
   8
LEVEL001
 370
30
   6
CONTINUOUS
  62
7
 100
AcDbCircle
  10
 1048.8664761425
  20
 1412.4753346802
  30
0.0
  40
 8.2900000000000
 100
AcDbArc
  50
 229.35372634067
  51
 310.64627365933
   0
ARC
   5
427
 100
AcDbEntity
   8
LEVEL001
 370
30
   6
CONTINUOUS
  62
7
 100
AcDbCircle
  10
 1081.2664761425
  20
 1399.8953346802
  30
0.0
  40
 8.2900000000000
 100
AcDbArc
  50
 49.353726340673
  51
 130.64627365933
   0
ARC
   5
428
 100
AcDbEntity
   8
LEVEL001
 370
30
   6
CONTINUOUS
  62
7
 100
AcDbCircle
  10
 1070.4664761425
  20
 1412.4753346802
  30
0.0
  40
 8.2900000000000
 100
AcDbArc
  50
 229.35372634068
  51
 310.64627365932
   0
ARC
   5
429
 100
AcDbEntity
   8
LEVEL001
 370
30
   6
CONTINUOUS
  62
7
 100
AcDbCircle
  10
 1092.0664761425
  20
 1412.4753346802
  30
0.0
  40
 8.2900000000000
 100
AcDbArc
  50
 229.35372634067
  51
 310.64627365933
   0
ARC
   5
42A
 100
AcDbEntity
   8
LEVEL001
 370
30
   6
CONTINUOUS
  62
7
 100
AcDbCircle
  10
 1102.8664761425
  20
 1399.8953346802
  30
0.0
  40
 8.2900000000000
 100
AcDbArc
  50
 49.353726340677
  51
 130.64627365932
   0
ARC
   5
42B
 100
AcDbEntity
   8
LEVEL001
 370
30
   6
CONTINUOUS
  62
7
 100
AcDbCircle
  10
 1005.6664761425
  20
 1412.4753346802
  30
0.0
  40
 8.2900000000000
 100
AcDbArc
  50
 229.35372634067
  51
 310.64627365933
   0
ARC
   5
42C
 100
AcDbEntity
   8
LEVEL001
 370
30
   6
CONTINUOUS
  62
7
 100
AcDbCircle
  10
 1016.4664761425
  20
 1399.8953346802
  30
0.0
  40
 8.2900000000000
 100
AcDbArc
  50
 49.353726340677
  51
 130.64627365932
   0
ARC
   5
42D
 100
AcDbEntity
   8
LEVEL001
 370
30
   6
CONTINUOUS
  62
7
 100
AcDbCircle
  10
 1027.2664761425
  20
 1412.4753346802
  30
0.0
  40
 8.2900000000000
 100
AcDbArc
  50
 229.35372634067
  51
 310.64627365933
   0
ARC
   5
42E
 100
AcDbEntity
   8
LEVEL001
 370
30
   6
CONTINUOUS
  62
7
 100
AcDbCircle
  10
 1038.0664761425
  20
 1399.8953346802
  30
0.0
  40
 8.2900000000000
 100
AcDbArc
  50
 49.353726340673
  51
 130.64627365933
   0
ARC
   5
42F
 100
AcDbEntity
   8
LEVEL001
 370
30
   6
CONTINUOUS
  62
7
 100
AcDbCircle
  10
 973.26647614248
  20
 1399.8953346802
  30
0.0
  40
 8.2900000000000
 100
AcDbArc
  50
 49.353726340673
  51
 130.64627365933
   0
ARC
   5
430
 100
AcDbEntity
   8
LEVEL001
 370
30
   6
CONTINUOUS
  62
7
 100
AcDbCircle
  10
 984.06647614249
  20
 1412.4753346802
  30
0.0
  40
 8.2900000000000
 100
AcDbArc
  50
 229.35372634067
  51
 310.64627365933
   0
ARC
   5
431
 100
AcDbEntity
   8
LEVEL001
 370
30
   6
CONTINUOUS
  62
7
 100
AcDbCircle
  10
 994.86647614248
  20
 1399.8953346802
  30
0.0
  40
 8.2900000000000
 100
AcDbArc
  50
 49.353726340677
  51
 130.64627365932
   0
ARC
   5
432
 100
AcDbEntity
   8
LEVEL001
 370
30
   6
CONTINUOUS
  62
7
 100
AcDbCircle
  10
 1329.6664761425
  20
 1412.4753346802
  30
0.0
  40
 8.2900000000000
 100
AcDbArc
  50
 229.35372634062
  51
 310.64627365904
   0
ARC
   5
433
 100
AcDbEntity
   8
LEVEL001
 370
30
   6
CONTINUOUS
  62
7
 100
AcDbCircle
  10
 1113.6664761425
  20
 1412.4753346802
  30
0.0
  40
 8.2900000000000
 100
AcDbArc
  50
 229.35372634061
  51
 310.64627365904
   0
ARC
   5
434
 100
AcDbEntity
   8
LEVEL001
 370
30
   6
CONTINUOUS
  62
7
 100
AcDbCircle
  10
 966.46647614249
  20
 1407.6210479148
  30
0.0
  40
 2.0000000000000
 100
AcDbArc
  50
 180.00000000001
  51
 309.48899854629
   0
ARC
   5
435
 100
AcDbEntity
   8
LEVEL001
 370
30
   6
CONTINUOUS
  62
7
 100
AcDbCircle
  10
 962.46647614254
  20
 1412.4753346802
  30
0.0
  40
 8.2900000000000
 100
AcDbArc
  50
 309.48899854609
  51
 310.64627365886
   0
LINE
   5
436
 100
AcDbEntity
   8
LEVEL001
 370
30
 100
AcDbLine
   6
CONTINUOUS
  62
7
  10
 764.46647614249
  20
 1422.1853346802
  30
0.0
  11
 765.46647614249
  21
 1421.1853346802
  31
0.0
   0
LINE
   5
437
 100
AcDbEntity
   8
LEVEL001
 370
30
 100
AcDbLine
   6
CONTINUOUS
  62
7
  10
 765.46647614249
  20
 1421.1853346802
  30
0.0
  11
 964.46647614249
  21
 1421.1853346802
  31
0.0
   0
LINE
   5
438
 100
AcDbEntity
   8
LEVEL001
 370
30
 100
AcDbLine
   6
CONTINUOUS
  62
7
  10
 964.46647614249
  20
 1407.2631091067
  30
0.0
  11
 964.46647614249
  21
 1448.6853346802
  31
0.0
   0
LINE
   5
439
 100
AcDbEntity
   8
LEVEL001
 370
30
 100
AcDbLine
   6
CONTINUOUS
  62
7
  10
 764.46647614249
  20
 1475.1853346802
  30
0.0
  11
 764.46647614249
  21
 1448.6853346802
  31
0.0
   0
LINE
   5
43A
 100
AcDbEntity
   8
LEVEL001
 370
30
 100
AcDbLine
   6
CONTINUOUS
  62
7
  10
 764.46647614249
  20
 1448.6853346802
  30
0.0
  11
 764.46647614249
  21
 1422.1853346802
  31
0.0
   0
LINE
   5
43B
 100
AcDbEntity
   8
LEVEL001
 370
30
 100
AcDbLine
   6
CONTINUOUS
  62
7
  10
 761.96647614249
  20
 1433.6853346802
  30
0.0
  11
 764.46647614249
  21
 1433.6853346802
  31
0.0
   0
LINE
   5
43C
 100
AcDbEntity
   8
LEVEL001
 370
30
 100
AcDbLine
   6
CONTINUOUS
  62
7
  10
 764.46647614249
  20
 1463.6853346802
  30
0.0
  11
 761.96647614249
  21
 1463.6853346802
  31
0.0
   0
LINE
   5
43D
 100
AcDbEntity
   8
LEVEL001
 370
30
 100
AcDbLine
   6
CONTINUOUS
  62
7
  10
 1484.4664761425
  20
 1433.6853346802
  30
0.0
  11
 1486.9664761425
  21
 1433.6853346802
  31
0.0
   0
LINE
   5
43E
 100
AcDbEntity
   8
LEVEL001
 370
30
 100
AcDbLine
   6
CONTINUOUS
  62
7
  10
 1486.9664761425
  20
 1463.6853346802
  30
0.0
  11
 1484.4664761425
  21
 1463.6853346802
  31
0.0
   0
LINE
   5
43F
 100
AcDbEntity
   8
LEVEL001
 370
30
 100
AcDbLine
   6
CONTINUOUS
  62
7
  10
 764.46647614249
  20
 1306.0456459934
  30
0.0
  11
 761.96647614249
  21
 1306.0456459934
  31
0.0
   0
LINE
   5
440
 100
AcDbEntity
   8
LEVEL001
 370
30
 100
AcDbLine
   6
CONTINUOUS
  62
7
  10
 761.96647614249
  20
 1276.0456459934
  30
0.0
  11
 764.46647614249
  21
 1276.0456459934
  31
0.0
   0
LINE
   5
441
 100
AcDbEntity
   8
LEVEL001
 370
30
 100
AcDbLine
   6
CONTINUOUS
  62
7
  10
 764.46647614249
  20
 1328.6956459934
  30
0.0
  11
 764.46647614249
  21
 1253.3956459934
  31
0.0
   0
LINE
   5
442
 100
AcDbEntity
   8
LEVEL001
 370
30
 100
AcDbLine
   6
CONTINUOUS
  62
7
  10
 764.46647614249
  20
 1253.3956459934
  30
0.0
  11
 1484.4664761425
  21
 1253.3956459934
  31
0.0
   0
LINE
   5
443
 100
AcDbEntity
   8
LEVEL001
 370
30
 100
AcDbLine
   6
CONTINUOUS
  62
7
  10
 756.96647614249
  20
 1235.6456459934
  30
0.0
  11
 756.96647614249
  21
 1569.6456459934
  31
0.0
   0
ARC
   5
444
 100
AcDbEntity
   8
LEVEL001
 370
30
   6
CONTINUOUS
  62
7
 100
AcDbCircle
  10
 725.46647614249
  20
 1436.1456459934
  30
0.0
  40
 7.5000000000000
 100
AcDbArc
  50
0.0
  51
 90.000000000000
   0
ARC
   5
445
 100
AcDbEntity
   8
LEVEL001
 370
30
   6
CONTINUOUS
  62
7
 100
AcDbCircle
  10
 725.46647614249
  20
 1436.1456459934
  30
0.0
  40
 7.5000000000000
 100
AcDbArc
  50
 270.00000000000
  51
0.0
   0
LINE
   5
446
 100
AcDbEntity
   8
LEVEL001
 370
30
 100
AcDbLine
   6
CONTINUOUS
  62
7
  10
 725.46647614249
  20
 1428.6456459934
  30
0.0
  11
 717.96647614249
  21
 1428.6456459934
  31
0.0
   0
ARC
   5
447
 100
AcDbEntity
   8
LEVEL001
 370
30
   6
CONTINUOUS
  62
7
 100
AcDbCircle
  10
 717.96647614249
  20
 1426.6456459934
  30
0.0
  40
 2.0000000000000
 100
AcDbArc
  50
 90.000000000000
  51
 180.00000000000
   0
LINE
   5
448
 100
AcDbEntity
   8
LEVEL001
 370
30
 100
AcDbLine
   6
CONTINUOUS
  62
7
  10
 715.96647614249
  20
 1426.6456459934
  30
0.0
  11
 715.96647614249
  21
 1415.6456459934
  31
0.0
   0
ARC
   5
449
 100
AcDbEntity
   8
LEVEL001
 370
30
   6
CONTINUOUS
  62
7
 100
AcDbCircle
  10
 717.96647614249
  20
 1415.6456459934
  30
0.0
  40
 2.0000000000000
 100
AcDbArc
  50
 180.00000000000
  51
 270.00000000000
   0
LINE
   5
44A
 100
AcDbEntity
   8
LEVEL001
 370
30
 100
AcDbLine
   6
CONTINUOUS
  62
7
  10
 703.96647614249
  20
 1436.1456459934
  30
0.0
  11
 703.96647614249
  21
 1430.6456459934
  31
0.0
   0
ARC
   5
44B
 100
AcDbEntity
   8
LEVEL001
 370
30
   6
CONTINUOUS
  62
7
 100
AcDbCircle
  10
 701.96647614249
  20
 1430.6456459934
  30
0.0
  40
 2.0000000000000
 100
AcDbArc
  50
 270.00000000000
  51
0.0
   0
ARC
   5
44C
 100
AcDbEntity
   8
LEVEL001
 370
30
   6
CONTINUOUS
  62
7
 100
AcDbCircle
  10
 701.96647614249
  20
 1411.6456459934
  30
0.0
  40
 2.0000000000000
 100
AcDbArc
  50
0.0
  51
 90.000000000000
   0
LINE
   5
44D
 100
AcDbEntity
   8
LEVEL001
 370
30
 100
AcDbLine
   6
CONTINUOUS
  62
7
  10
 703.96647614249
  20
 1411.6456459934
  30
0.0
  11
 703.96647614249
  21
 1400.6456459934
  31
0.0
   0
ARC
   5
44E
 100
AcDbEntity
   8
LEVEL001
 370
30
   6
CONTINUOUS
  62
7
 100
AcDbCircle
  10
 701.96647614249
  20
 1400.6456459934
  30
0.0
  40
 2.0000000000000
 100
AcDbArc
  50
 270.00000000000
  51
0.0
   0
ARC
   5
44F
 100
AcDbEntity
   8
LEVEL001
 370
30
   6
CONTINUOUS
  62
7
 100
AcDbCircle
  10
 717.96647614249
  20
 1396.6456459934
  30
0.0
  40
 2.0000000000000
 100
AcDbArc
  50
 90.000000000000
  51
 180.00000000000
   0
LINE
   5
450
 100
AcDbEntity
   8
LEVEL001
 370
30
 100
AcDbLine
   6
CONTINUOUS
  62
7
  10
 715.96647614249
  20
 1396.6456459934
  30
0.0
  11
 715.96647614249
  21
 1385.6456459934
  31
0.0
   0
ARC
   5
451
 100
AcDbEntity
   8
LEVEL001
 370
30
   6
CONTINUOUS
  62
7
 100
AcDbCircle
  10
 717.96647614249
  20
 1385.6456459934
  30
0.0
  40
 2.0000000000000
 100
AcDbArc
  50
 180.00000000000
  51
 270.00000000000
   0
ARC
   5
452
 100
AcDbEntity
   8
LEVEL001
 370
30
   6
CONTINUOUS
  62
7
 100
AcDbCircle
  10
 717.96647614249
  20
 1366.6456459934
  30
0.0
  40
 2.0000000000000
 100
AcDbArc
  50
 90.000000000000
  51
 180.00000000000
   0
LINE
   5
453
 100
AcDbEntity
   8
LEVEL001
 370
30
 100
AcDbLine
   6
CONTINUOUS
  62
7
  10
 715.96647614249
  20
 1366.6456459934
  30
0.0
  11
 715.96647614249
  21
 1355.6456459934
  31
0.0
   0
ARC
   5
454
 100
AcDbEntity
   8
LEVEL001
 370
30
   6
CONTINUOUS
  62
7
 100
AcDbCircle
  10
 717.96647614249
  20
 1355.6456459934
  30
0.0
  40
 2.0000000000000
 100
AcDbArc
  50
 180.00000000000
  51
 270.00000000000
   0
ARC
   5
455
 100
AcDbEntity
   8
LEVEL001
 370
30
   6
CONTINUOUS
  62
7
 100
AcDbCircle
  10
 701.96647614249
  20
 1381.6456459934
  30
0.0
  40
 2.0000000000000
 100
AcDbArc
  50
0.0
  51
 90.000000000000
   0
LINE
   5
456
 100
AcDbEntity
   8
LEVEL001
 370
30
 100
AcDbLine
   6
CONTINUOUS
  62
7
  10
 703.96647614249
  20
 1381.6456459934
  30
0.0
  11
 703.96647614249
  21
 1370.6456459934
  31
0.0
   0
ARC
   5
457
 100
AcDbEntity
   8
LEVEL001
 370
30
   6
CONTINUOUS
  62
7
 100
AcDbCircle
  10
 701.96647614249
  20
 1370.6456459934
  30
0.0
  40
 2.0000000000000
 100
AcDbArc
  50
 270.00000000000
  51
0.0
   0
ARC
   5
458
 100
AcDbEntity
   8
LEVEL001
 370
30
   6
CONTINUOUS
  62
7
 100
AcDbCircle
  10
 724.46647614249
  20
 1407.1456459934
  30
0.0
  40
 8.5000000000000
 100
AcDbArc
  50
 270.00000000000
  51
0.0
   0
LINE
   5
459
 100
AcDbEntity
   8
LEVEL001
 370
30
 100
AcDbLine
   6
CONTINUOUS
  62
7
  10
 724.46647614249
  20
 1398.6456459934
  30
0.0
  11
 717.96647614249
  21
 1398.6456459934
  31
0.0
   0
ARC
   5
45A
 100
AcDbEntity
   8
LEVEL001
 370
30
   6
CONTINUOUS
  62
7
 100
AcDbCircle
  10
 724.46647614249
  20
 1347.1456459934
  30
0.0
  40
 8.5000000000000
 100
AcDbArc
  50
 270.09963562127
  51
 128.75435279189
   0
LINE
   5
45B
 100
AcDbEntity
   8
LEVEL001
 370
30
 100
AcDbLine
   6
CONTINUOUS
  62
7
  10
 701.96647614249
  20
 1428.6456459934
  30
0.0
  11
 698.94370171754
  21
 1428.6456459934
  31
0.0
   0
LINE
   5
45C
 100
AcDbEntity
   8
LEVEL001
 370
30
 100
AcDbLine
   6
CONTINUOUS
  62
7
  10
 701.96647614249
  20
 1413.6456459934
  30
0.0
  11
 693.46647614249
  21
 1413.6456459934
  31
0.0
   0
ARC
   5
45D
 100
AcDbEntity
   8
LEVEL001
 370
30
   6
CONTINUOUS
  62
7
 100
AcDbCircle
  10
 693.46647614248
  20
 1422.1456459934
  30
0.0
  40
 8.5000000000000
 100
AcDbArc
  50
 49.880833101586
  51
 272.67592212630
   0
ARC
   5
45E
 100
AcDbEntity
   8
LEVEL001
 370
30
   6
CONTINUOUS
  62
7
 100
AcDbCircle
  10
 724.46647614249
  20
 1407.1456459934
  30
0.0
  40
 8.5000000000000
 100
AcDbArc
  50
 0.15326531735617E-11
  51
 130.77316082173
   0
LINE
   5
45F
 100
AcDbEntity
   8
LEVEL001
 370
30
 100
AcDbLine
   6
CONTINUOUS
  62
7
  10
 718.91541572403
  20
 1413.6456459934
  30
0.0
  11
 717.96647614249
  21
 1413.6456459934
  31
0.0
   0
LINE
   5
460
 100
AcDbEntity
   8
LEVEL001
 370
30
 100
AcDbLine
   6
CONTINUOUS
  62
7
  10
 725.17994502446
  20
 1368.6456459934
  30
0.0
  11
 717.96647614249
  21
 1368.6456459934
  31
0.0
   0
ARC
   5
461
 100
AcDbEntity
   8
LEVEL001
 370
30
   6
CONTINUOUS
  62
7
 100
AcDbCircle
  10
 724.46647614248
  20
 1377.1456459934
  30
0.0
  40
 8.5000000000000
 100
AcDbArc
  50
 276.93305429917
  51
 130.05255048951
   0
LINE
   5
462
 100
AcDbEntity
   8
LEVEL001
 370
30
 100
AcDbLine
   6
CONTINUOUS
  62
7
  10
 718.99681165969
  20
 1383.6456459934
  30
0.0
  11
 717.96647614249
  21
 1383.6456459934
  31
0.0
   0
LINE
   5
463
 100
AcDbEntity
   8
LEVEL001
 370
30
 100
AcDbLine
   6
CONTINUOUS
  62
7
  10
 711.46647614249
  20
 1338.6456459934
  30
0.0
  11
 724.48125737700
  21
 1338.6456459934
  31
0.0
   0
LINE
   5
464
 100
AcDbEntity
   8
LEVEL001
 370
30
 100
AcDbLine
   6
CONTINUOUS
  62
7
  10
 719.14562303412
  20
 1353.6456459934
  30
0.0
  11
 717.96647614249
  21
 1353.6456459934
  31
0.0
   0
LINE
   5
465
 100
AcDbEntity
   8
LEVEL001
 370
30
 100
AcDbLine
   6
CONTINUOUS
  62
7
  10
 701.96647614249
  20
 1368.6456459934
  30
0.0
  11
 698.94370171754
  21
 1368.6456459934
  31
0.0
   0
LINE
   5
466
 100
AcDbEntity
   8
LEVEL001
 370
30
 100
AcDbLine
   6
CONTINUOUS
  62
7
  10
 701.96647614249
  20
 1398.6456459934
  30
0.0
  11
 698.94370171754
  21
 1398.6456459934
  31
0.0
   0
ARC
   5
467
 100
AcDbEntity
   8
LEVEL001
 370
30
   6
CONTINUOUS
  62
7
 100
AcDbCircle
  10
 693.46647614248
  20
 1392.1456459934
  30
0.0
  40
 8.5000000000000
 100
AcDbArc
  50
 49.880833101584
  51
 270.74783502539
   0
LINE
   5
468
 100
AcDbEntity
   8
LEVEL001
 370
30
 100
AcDbLine
   6
CONTINUOUS
  62
7
  10
 701.96647614249
  20
 1383.6456459934
  30
0.0
  11
 692.89879435228
  21
 1383.6456459934
  31
0.0
   0
ARC
   5
469
 100
AcDbEntity
   8
LEVEL001
 370
30
   6
CONTINUOUS
  62
7
 100
AcDbCircle
  10
 711.46647614249
  20
 1346.1206237711
  30
0.0
  40
 7.5000000000000
 100
AcDbArc
  50
 180.00000000000
  51
 270.00000000000
   0
ARC
   5
46A
 100
AcDbEntity
   8
LEVEL001
 370
30
   6
CONTINUOUS
  62
7
 100
AcDbCircle
  10
 693.46647614248
  20
 1362.1206237711
  30
0.0
  40
 8.5000000000000
 100
AcDbArc
  50
 49.471246009424
  51
 269.47614095487
   0
LINE
   5
46B
 100
AcDbEntity
   8
LEVEL001
 370
30
 100
AcDbLine
   6
CONTINUOUS
  62
7
  10
 701.97199451437
  20
 1353.6261269378
  30
0.0
  11
 692.74151932997
  21
 1353.6515956321
  31
0.0
   0
ARC
   5
46C
 100
AcDbEntity
   8
LEVEL001
 370
30
   6
CONTINUOUS
  62
7
 100
AcDbCircle
  10
 701.96647614249
  20
 1351.6261345509
  30
0.0
  40
 2.0000000000000
 100
AcDbArc
  50
 0.65137759876373E-11
  51
 89.841910089957
   0
LINE
   5
46D
 100
AcDbEntity
   8
LEVEL001
 370
30
 100
AcDbLine
   6
CONTINUOUS
  62
7
  10
 703.96647614249
  20
 1351.6261345509
  30
0.0
  11
 703.96647614249
  21
 1346.1206237711
  31
0.0
   0
ARC
   5
46E
 100
AcDbEntity
   8
LEVEL001
 370
30
   6
CONTINUOUS
  62
7
 100
AcDbCircle
  10
 711.46647614249
  20
 1436.1456459934
  30
0.0
  40
 7.5000000000000
 100
AcDbArc
  50
 124.22697445374
  51
 179.99999999999
   0
LINE
   5
46F
 100
AcDbEntity
   8
LEVEL001
 370
30
 100
AcDbLine
   6
CONTINUOUS
  62
7
  10
 725.46647614249
  20
 1443.6456459934
  30
0.0
  11
 717.80938037664
  21
 1443.6456459934
  31
0.0
   0
LINE
   5
470
 100
AcDbEntity
   8
LEVEL001
 370
30
 100
AcDbLine
   6
CONTINUOUS
  62
7
  10
 697.87581439040
  20
 1460.7405785473
  30
0.0
  11
 715.96647614249
  21
 1425.2356570820
  31
0.0
   0
LINE
   5
471
 100
AcDbEntity
   8
LEVEL001
 370
30
 100
AcDbLine
   6
CONTINUOUS
  62
7
  10
 725.45226240770
  20
 1428.6456459934
  30
0.0
  11
 706.78587956293
  21
 1465.2804836808
  31
0.0
   0
ARC
   5
472
 100
AcDbEntity
   8
LEVEL001
 370
30
   6
CONTINUOUS
  62
7
 100
AcDbCircle
  10
 693.99164265949
  20
 1479.9396549628
  30
0.0
  40
 20.000000000000
 100
AcDbArc
  50
 316.35314739569
  51
 277.64685435501
   0
LINE
   5
473
 100
AcDbEntity
   8
LEVEL001
 370
30
 100
AcDbLine
   6
CONTINUOUS
  62
7
  10
 696.65298116158
  20
 1460.1175138731
  30
0.0
  11
 708.46379656482
  21
 1466.1354251277
  31
0.0
   0
LINE
   5
474
 100
AcDbEntity
   8
LEVEL001
 370
30
 100
AcDbLine
   6
CONTINUOUS
  62
7
  10
 707.70629175150
  20
 1463.4740731183
  30
0.0
  11
 756.96647614249
  21
 1463.4740731183
  31
0.0
   0
LINE
   5
475
 100
AcDbEntity
   8
LEVEL001
 370
30
 100
AcDbLine
   6
CONTINUOUS
  62
7
  10
 1759.9664761425
  20
 1437.9131873404
  30
0.0
  11
 1487.9664761425
  21
 1437.9131873404
  31
0.0
   0
POINT
   5
476
 100
AcDbEntity
   8
LEVEL001
 100
AcDbPoint
  62
7
  10
 1487.9664761425
  20
 1464.4134129465
  30
0.0
   0
LINE
   5
477
 100
AcDbEntity
   8
LEVEL001
 370
30
 100
AcDbLine
   6
CONTINUOUS
  62
7
  10
 736.96647614249
  20
 1569.6456459934
  30
0.0
  11
 736.96647614249
  21
 1570.6456459934
  31
0.0
   0
LINE
   5
478
 100
AcDbEntity
   8
LEVEL001
 370
30
 100
AcDbLine
   6
CONTINUOUS
  62
7
  10
 763.96647614249
  20
 1506.8650828931
  30
0.0
  11
 762.46647614249
  21
 1506.8650828931
  31
0.0
   0
LINE
   5
479
 100
AcDbEntity
   8
LEVEL001
 370
30
 100
AcDbLine
   6
CONTINUOUS
  62
7
  10
 764.46647614249
  20
 1483.6456455850
  30
0.0
  11
 762.46647614249
  21
 1483.6456455850
  31
0.0
   0
ARC
   5
47A
 100
AcDbEntity
   8
LEVEL001
 370
30
   6
CONTINUOUS
  62
7
 100
AcDbCircle
  10
 759.46647614249
  20
 1465.9134129465
  30
0.0
  40
 1.5000000000000
 100
AcDbArc
  50
 270.00000000000
  51
0.0
   0
ARC
   5
47B
 100
AcDbEntity
   8
LEVEL001
 370
30
   6
CONTINUOUS
  62
7
 100
AcDbCircle
  10
 759.46647614249
  20
 1466.3956459935
  30
0.0
  40
 3.0000000000000
 100
AcDbArc
  50
 270.00000000000
  51
0.0
   0
LINE
   5
47C
 100
AcDbEntity
   8
LEVEL001
 370
30
 100
AcDbLine
   6
CONTINUOUS
  62
7
  10
 759.46647614249
  20
 1464.4134129465
  30
0.0
  11
 739.96647614249
  21
 1464.4134129465
  31
0.0
   0
LINE
   5
47D
 100
AcDbEntity
   8
LEVEL001
 370
30
 100
AcDbLine
   6
CONTINUOUS
  62
7
  10
 739.96647614249
  20
 1463.3956459935
  30
0.0
  11
 759.46647614249
  21
 1463.3956459935
  31
0.0
   0
LINE
   5
47E
 100
AcDbEntity
   8
LEVEL001
 370
30
 100
AcDbLine
   6
CONTINUOUS
  62
7
  10
 736.96647614249
  20
 1467.4134129465
  30
0.0
  11
 739.96647614249
  21
 1464.4134129465
  31
0.0
   0
LINE
   5
47F
 100
AcDbEntity
   8
LEVEL001
 370
30
 100
AcDbLine
   6
CONTINUOUS
  62
7
  10
 736.96647614249
  20
 1466.3956459935
  30
0.0
  11
 739.96647614249
  21
 1463.3956459935
  31
0.0
   0
LINE
   5
480
 100
AcDbEntity
   8
LEVEL001
 370
30
 100
AcDbLine
   6
CONTINUOUS
  62
7
  10
 739.96647614249
  20
 1464.4134129465
  30
0.0
  11
 739.96647614249
  21
 1463.3956459935
  31
0.0
   0
LINE
   5
481
 100
AcDbEntity
   8
LEVEL001
 370
30
 100
AcDbLine
   6
CONTINUOUS
  62
7
  10
 736.96647614249
  20
 1495.3545384433
  30
0.0
  11
 736.96647614249
  21
 1466.3956459935
  31
0.0
   0
LINE
   5
482
 100
AcDbEntity
   8
LEVEL001
 370
30
 100
AcDbLine
   6
CONTINUOUS
  62
7
  10
 736.96647614249
  20
 1495.3545384433
  30
0.0
  11
 739.96647614249
  21
 1498.3545384433
  31
0.0
   0
POINT
   5
483
 100
AcDbEntity
   8
LEVEL001
 100
AcDbPoint
  62
7
  10
 736.96647614249
  20
 1498.3545384433
  30
0.0
   0
LINE
   5
484
 100
AcDbEntity
   8
LEVEL001
 370
30
 100
AcDbLine
   6
CONTINUOUS
  62
7
  10
 760.96647614249
  20
 1498.3545384433
  30
0.0
  11
 739.96647614249
  21
 1498.3545384433
  31
0.0
   0
POINT
   5
485
 100
AcDbEntity
   8
LEVEL001
 100
AcDbPoint
  62
7
  10
 1738.9664761425
  20
 1451.6606441105
  30
0.0
   0
POINT
   5
486
 100
AcDbEntity
   8
LEVEL001
 100
AcDbPoint
  62
7
  10
 1738.9664761425
  20
 1555.6293296967
  30
0.0
   0
LWPOLYLINE
   5
487
 100
AcDbEntity
   8
LEVEL001
 370
30
   6
CONTINUOUS
  62
7
 100
AcDbPolyline
  90
4
  70
1
  10
 1553.9664761425
  20
 1448.0776266026
  10
 1743.9664761425
  20
 1448.0776266026
  10
 1743.9664761425
  20
 1560.7103693209
  10
 1553.9664761425
  20
 1560.7103693209
   0
LWPOLYLINE
   5
488
 100
AcDbEntity
   8
LEVEL001
 370
30
   6
CONTINUOUS
  62
7
 100
AcDbPolyline
  90
4
  70
0
  10
 1553.9664761425
  20
 1448.0776266026
  10
 1553.9664761425
  20
 1447.3286155444
  10
 1743.9664761425
  20
 1447.3286155444
  10
 1743.9664761425
  20
 1448.0776266026
   0
POINT
   5
489
 100
AcDbEntity
   8
LEVEL001
 100
AcDbPoint
  62
7
  10
 1558.9664761425
  20
 1451.6606441105
  30
0.0
   0
POINT
   5
48A
 100
AcDbEntity
   8
LEVEL001
 100
AcDbPoint
  62
7
  10
 1558.9664761425
  20
 1555.6293296967
  30
0.0
   0
LINE
   5
48B
 100
AcDbEntity
   8
LEVEL001
 370
30
 100
AcDbLine
   6
CONTINUOUS
  62
7
  10
 964.46647614249
  20
 1448.6853346802
  30
0.0
  11
 964.46647614249
  21
 1487.8472612132
  31
0.0
   0
LINE
   5
48C
 100
AcDbEntity
   8
LEVEL001
 370
30
 100
AcDbLine
   6
CONTINUOUS
  62
7
  10
 1484.4664761425
  20
 1487.8472612132
  30
0.0
  11
 1484.4664761425
  21
 1457.3232515223
  31
0.0
   0
LINE
   5
48D
 100
AcDbEntity
   8
LEVEL001
 370
30
 100
AcDbLine
   6
CONTINUOUS
  62
7
  10
 758.76647614258
  20
 1001.4456459934
  30
0.0
  11
 758.76647614258
  21
 983.84564599341
  31
0.0
   0
LINE
   5
48E
 100
AcDbEntity
   8
LEVEL001
 370
30
 100
AcDbLine
   6
CONTINUOUS
  62
7
  10
 1490.1664761424
  20
 1001.4456459934
  30
0.0
  11
 1490.1664761424
  21
 983.84564599341
  31
0.0
   0
ARC
   5
48F
 100
AcDbEntity
   8
LEVEL001
 370
30
   6
CONTINUOUS
  62
7
 100
AcDbCircle
  10
 1492.1664761424
  20
 1001.4456459934
  30
0.0
  40
 2.0000000000000
 100
AcDbArc
  50
 143.13010235417
  51
 180.00000000004
   0
LINE
   5
490
 100
AcDbEntity
   8
LEVEL001
 370
30
 100
AcDbLine
   6
CONTINUOUS
  62
7
  10
 1486.9664761424
  20
 983.84564599341
  30
0.0
  11
 1486.9664761424
  21
 1002.6456459934
  31
0.0
   0
ARC
   5
491
 100
AcDbEntity
   8
LEVEL001
 370
30
   6
CONTINUOUS
  62
7
 100
AcDbCircle
  10
 756.76647614258
  20
 1001.4456459934
  30
0.0
  40
 2.0000000000000
 100
AcDbArc
  50
0.0
  51
 36.869897645826
   0
LINE
   5
492
 100
AcDbEntity
   8
LEVEL001
 370
30
 100
AcDbLine
   6
CONTINUOUS
  62
7
  10
 761.96647614258
  20
 983.84564599341
  30
0.0
  11
 761.96647614258
  21
 1002.6456459934
  31
0.0
   0
LINE
   5
493
 100
AcDbEntity
   8
LEVEL001
 370
30
 100
AcDbLine
   6
CONTINUOUS
  62
7
  10
 1487.4664761425
  20
 1005.6456459934
  30
0.0
  11
 761.96647614249
  21
 1005.6456459934
  31
0.0
   0
LINE
   5
494
 100
AcDbEntity
   8
LEVEL001
 370
30
 100
AcDbLine
   6
CONTINUOUS
  62
7
  10
 1569.8464761425
  20
 1116.6456459929
  30
0.0
  11
 1570.8464761425
  21
 1116.6456459929
  31
0.0
   0
ARC
   5
495
 100
AcDbEntity
   8
LEVEL001
 370
30
   6
CONTINUOUS
  62
7
 100
AcDbCircle
  10
 1571.8464761425
  20
 1058.6456459929
  30
0.0
  40
 1.0000000000000
 100
AcDbArc
  50
 180.00000000000
  51
 270.00000000000
   0
LINE
   5
496
 100
AcDbEntity
   8
LEVEL001
 370
30
 100
AcDbLine
   6
CONTINUOUS
  62
7
  10
 1589.8464761425
  20
 1152.6456459929
  30
0.0
  11
 1589.8464761425
  21
 1151.6456459929
  31
0.0
   0
LINE
   5
497
 100
AcDbEntity
   8
LEVEL001
 370
30
 100
AcDbLine
   6
CONTINUOUS
  62
7
  10
 1613.8464761424
  20
 1151.6456459929
  30
0.0
  11
 1569.8464761425
  21
 1151.6456459929
  31
0.0
   0
LINE
   5
498
 100
AcDbEntity
   8
LEVEL001
 370
30
 100
AcDbLine
   6
CONTINUOUS
  62
7
  10
 1570.8464761425
  20
 1151.6456459929
  30
0.0
  11
 1570.8464761425
  21
 1058.6456459929
  31
0.0
   0
LINE
   5
499
 100
AcDbEntity
   8
LEVEL001
 370
30
 100
AcDbLine
   6
CONTINUOUS
  62
7
  10
 1569.8464761425
  20
 1151.6456459929
  30
0.0
  11
 1569.8464761425
  21
 1058.6456459929
  31
0.0
   0
LINE
   5
49A
 100
AcDbEntity
   8
LEVEL001
 370
30
 100
AcDbLine
   6
CONTINUOUS
  62
7
  10
 1617.8464761424
  20
 1147.6456459929
  30
0.0
  11
 1612.8464761424
  21
 1152.6456459929
  31
0.0
   0
LINE
   5
49B
 100
AcDbEntity
   8
LEVEL001
 370
30
 100
AcDbLine
   6
CONTINUOUS
  62
7
  10
 1616.8464761424
  20
 1147.6456459929
  30
0.0
  11
 1612.8464761424
  21
 1151.6456459929
  31
0.0
   0
LINE
   5
49C
 100
AcDbEntity
   8
LEVEL001
 370
30
 100
AcDbLine
   6
CONTINUOUS
  62
7
  10
 1744.9664761425
  20
 1166.6456459934
  30
0.0
  11
 1744.9664761425
  21
 1056.6456459934
  31
0.0
   0
LINE
   5
49D
 100
AcDbEntity
   8
LEVEL001
 370
30
 100
AcDbLine
   6
CONTINUOUS
  62
7
  10
 1744.9664761425
  20
 1056.6456459934
  30
0.0
  11
 1444.9664761425
  21
 1056.6456459934
  31
0.0
   0
LINE
   5
49E
 100
AcDbEntity
   8
LEVEL001
 370
30
 100
AcDbLine
   6
CONTINUOUS
  62
7
  10
 1734.8464761425
  20
 1116.6456459929
  30
0.0
  11
 1733.8464761425
  21
 1116.6456459929
  31
0.0
   0
ARC
   5
49F
 100
AcDbEntity
   8
LEVEL001
 370
30
   6
CONTINUOUS
  62
7
 100
AcDbCircle
  10
 1732.8464761425
  20
 1058.6456459929
  30
0.0
  40
 1.0000000000000
 100
AcDbArc
  50
 269.99999999995
  51
0.0
   0
ARC
   5
4A0
 100
AcDbEntity
   8
LEVEL001
 370
30
   6
CONTINUOUS
  62
7
 100
AcDbCircle
  10
 1732.8464761425
  20
 1058.6456459929
  30
0.0
  40
 2.0000000000000
 100
AcDbArc
  50
 270.00000000000
  51
0.0
   0
LINE
   5
4A1
 100
AcDbEntity
   8
LEVEL001
 370
30
 100
AcDbLine
   6
CONTINUOUS
  62
7
  10
 1732.8464761425
  20
 1057.6456459929
  30
0.0
  11
 1571.8464761425
  21
 1057.6456459929
  31
0.0
   0
LINE
   5
4A2
 100
AcDbEntity
   8
LEVEL001
 370
30
 100
AcDbLine
   6
CONTINUOUS
  62
7
  10
 1714.8464761425
  20
 1151.6456459929
  30
0.0
  11
 1714.8464761425
  21
 1152.6456459929
  31
0.0
   0
LINE
   5
4A3
 100
AcDbEntity
   8
LEVEL001
 370
30
 100
AcDbLine
   6
CONTINUOUS
  62
7
  10
 1687.8464761426
  20
 1147.6456459929
  30
0.0
  11
 1691.8464761426
  21
 1151.6456459929
  31
0.0
   0
LINE
   5
4A4
 100
AcDbEntity
   8
LEVEL001
 370
30
 100
AcDbLine
   6
CONTINUOUS
  62
7
  10
 1734.8464761425
  20
 1151.6456459929
  30
0.0
  11
 1690.8464761426
  21
 1151.6456459929
  31
0.0
   0
LINE
   5
4A5
 100
AcDbEntity
   8
LEVEL001
 370
30
 100
AcDbLine
   6
CONTINUOUS
  62
7
  10
 1686.8464761426
  20
 1147.6456459929
  30
0.0
  11
 1691.8464761426
  21
 1152.6456459929
  31
0.0
   0
LINE
   5
4A6
 100
AcDbEntity
   8
LEVEL001
 370
30
 100
AcDbLine
   6
CONTINUOUS
  62
7
  10
 1733.8464761425
  20
 1151.6456459929
  30
0.0
  11
 1733.8464761425
  21
 1058.6456459929
  31
0.0
   0
LINE
   5
4A7
 100
AcDbEntity
   8
LEVEL001
 370
30
 100
AcDbLine
   6
CONTINUOUS
  62
7
  10
 1734.8464761425
  20
 1151.6456459929
  30
0.0
  11
 1734.8464761425
  21
 1058.6456459929
  31
0.0
   0
LINE
   5
4A8
 100
AcDbEntity
   8
LEVEL001
 370
30
 100
AcDbLine
   6
CONTINUOUS
  62
7
  10
 1714.8464761425
  20
 1152.6456459929
  30
0.0
  11
 1589.8464761425
  21
 1152.6456459929
  31
0.0
   0
LINE
   5
4A9
 100
AcDbEntity
   8
LEVEL001
 370
30
 100
AcDbLine
   6
CONTINUOUS
  62
7
  10
 1616.8464761424
  20
 1147.6456459929
  30
0.0
  11
 1687.8464761426
  21
 1147.6456459929
  31
0.0
   0
LINE
   5
4AA
 100
AcDbEntity
   8
LEVEL001
 370
30
 100
AcDbLine
   6
CONTINUOUS
  62
7
  10
 1744.9664761425
  20
 1166.6456459934
  30
0.0
  11
 1444.9664761425
  21
 1166.6456459934
  31
0.0
   0
LINE
   5
4AB
 100
AcDbEntity
   8
LEVEL001
 370
30
 100
AcDbLine
   6
CONTINUOUS
  62
7
  10
 1760.9664761425
  20
 1170.6456459934
  30
0.0
  11
 1759.9664761425
  21
 1170.6456459934
  31
0.0
   0
ARC
   5
4AC
 100
AcDbEntity
   8
LEVEL001
 370
30
   6
CONTINUOUS
  62
7
 100
AcDbCircle
  10
 1470.0664761425
  20
 1399.8953346802
  30
0.0
  40
 8.2900000000000
 100
AcDbArc
  50
 61.936727912985
  51
 130.64627365933
   0
LINE
   5
4AD
 100
AcDbEntity
   8
LEVEL001
 370
30
 100
AcDbLine
   6
CONTINUOUS
  62
7
  10
 1586.9664761425
  20
 1394.5784570652
  30
0.0
  11
 1715.9664761425
  21
 1394.5784570652
  31
0.0
   0
ARC
   5
4AE
 100
AcDbEntity
   8
LEVEL001
 370
30
   6
CONTINUOUS
  62
7
 100
AcDbCircle
  10
 1715.9664761425
  20
 1387.5784570652
  30
0.0
  40
 7.0000000000000
 100
AcDbArc
  50
0.0
  51
 90.000000000000
   0
POINT
   5
4AF
 100
AcDbEntity
   8
LEVEL001
 100
AcDbPoint
  62
7
  10
 1722.9664761425
  20
 1394.5784570652
  30
0.0
   0
ARC
   5
4B0
 100
AcDbEntity
   8
LEVEL001
 370
30
   6
CONTINUOUS
  62
7
 100
AcDbCircle
  10
 1715.9664761425
  20
 1198.6456459934
  30
0.0
  40
 7.0000000000000
 100
AcDbArc
  50
 270.00000000000
  51
0.0
   0
POINT
   5
4B1
 100
AcDbEntity
   8
LEVEL001
 100
AcDbPoint
  62
7
  10
 1722.9664761425
  20
 1191.6456459934
  30
0.0
   0
LINE
   5
4B2
 100
AcDbEntity
   8
LEVEL001
 370
30
 100
AcDbLine
   6
CONTINUOUS
  62
7
  10
 1722.9664761425
  20
 1198.6456459934
  30
0.0
  11
 1722.9664761425
  21
 1387.5784570652
  31
0.0
   0
LINE
   5
4B3
 100
AcDbEntity
   8
LEVEL001
 370
30
 100
AcDbLine
   6
CONTINUOUS
  62
7
  10
 1484.4664761425
  20
 1273.6456459934
  30
0.0
  11
 1486.9664761425
  21
 1273.6456459934
  31
0.0
   0
ARC
   5
4B4
 100
AcDbEntity
   8
LEVEL001
 370
30
   6
CONTINUOUS
  62
7
 100
AcDbCircle
  10
 1586.9664761425
  20
 1387.6456459934
  30
0.0
  40
 7.0000000000000
 100
AcDbArc
  50
 90.000000000000
  51
 180.00000000000
   0
LINE
   5
4B5
 100
AcDbEntity
   8
LEVEL001
 370
30
 100
AcDbLine
   6
CONTINUOUS
  62
7
  10
 1484.4664761425
  20
 1253.3956459934
  30
0.0
  11
 1484.4664761425
  21
 1328.6956459934
  31
0.0
   0
LINE
   5
4B6
 100
AcDbEntity
   8
LEVEL001
 370
30
 100
AcDbLine
   6
CONTINUOUS
  62
7
  10
 1484.4664761425
  20
 1328.6956459934
  30
0.0
  11
 764.46647614249
  21
 1328.6956459934
  31
0.0
   0
LINE
   5
4B7
 100
AcDbEntity
   8
LEVEL001
 370
30
 100
AcDbLine
   6
CONTINUOUS
  62
7
  10
 1486.9664761425
  20
 1304.0456459934
  30
0.0
  11
 1484.4664761425
  21
 1304.0456459934
  31
0.0
   0
LINE
   5
4B8
 100
AcDbEntity
   8
LEVEL001
 370
30
 100
AcDbLine
   6
CONTINUOUS
  62
7
  10
 1484.4664761425
  20
 1405.0077287429
  30
0.0
  11
 1484.4664761425
  21
 1448.6853346802
  31
0.0
   0
ARC
   5
4B9
 100
AcDbEntity
   8
LEVEL001
 370
30
   6
CONTINUOUS
  62
7
 100
AcDbCircle
  10
 1480.8664761425
  20
 1412.4753346802
  30
0.0
  40
 8.2900000000000
 100
AcDbArc
  50
 229.35372634068
  51
 295.73699109545
   0
ARC
   5
4BA
 100
AcDbEntity
   8
LEVEL001
 370
30
   6
CONTINUOUS
  62
7
 100
AcDbCircle
  10
 1470.0664761425
  20
 1399.8953346802
  30
0.0
  40
 8.2900000000000
 100
AcDbArc
  50
 49.353726340630
  51
 61.936727912935
   0
LINE
   5
4BB
 100
AcDbEntity
   8
LEVEL001
 370
30
 100
AcDbLine
   6
CONTINUOUS
  62
7
  10
 1760.9664761425
  20
 1408.6456459934
  30
0.0
  11
 1760.9664761425
  21
 1170.6456459934
  31
0.0
   0
LINE
   5
4BC
 100
AcDbEntity
   8
LEVEL001
 370
30
 100
AcDbLine
   6
CONTINUOUS
  62
7
  10
 1760.9664761425
  20
 1408.6456459934
  30
0.0
  11
 1759.9664761425
  21
 1408.6456459934
  31
0.0
   0
LWPOLYLINE
   5
4BD
 100
AcDbEntity
   8
LEVEL001
 370
30
   6
CONTINUOUS
  62
7
 100
AcDbPolyline
  90
4
  70
0
  10
 1486.9664761425
  20
 1411.6456459934
  10
 1473.9664761425
  20
 1411.6456459934
  10
 1473.9664761425
  20
 1408.6456459934
  10
 1481.4664761425
  20
 1408.6456459934
   0
LWPOLYLINE
   5
4BE
 100
AcDbEntity
   8
LEVEL001
 370
30
   6
CONTINUOUS
  62
7
 100
AcDbPolyline
  90
4
  70
1
  10
 1486.9664761425
  20
 1278.6456459934
  10
 1481.4664761425
  20
 1278.6456459934
  10
 1481.4664761425
  20
 1408.6456459934
  10
 1486.9664761425
  20
 1408.6456459934
   0
LINE
   5
4BF
 100
AcDbEntity
   8
LEVEL001
 370
30
 100
AcDbLine
   6
CONTINUOUS
  62
7
  10
 1485.9664761425
  20
 1408.6456459934
  30
0.0
  11
 1485.9664761425
  21
 1278.6456459934
  31
0.0
   0
LINE
   5
4C0
 100
AcDbEntity
   8
LEVEL001
 370
30
 100
AcDbLine
   6
CONTINUOUS
  62
7
  10
 761.96647614249
  20
 1235.6456459934
  30
0.0
  11
 761.96647614249
  21
 1464.7373335983
  31
0.0
   0
LINE
   5
4C1
 100
AcDbEntity
   8
LEVEL001
 370
30
 100
AcDbLine
   6
CONTINUOUS
  62
7
  10
 761.96647614249
  20
 1002.6456459934
  30
0.0
  11
 761.96647614249
  21
 1055.1456459934
  31
0.0
   0
LINE
   5
4C2
 100
AcDbEntity
   8
LEVEL001
 370
30
 100
AcDbLine
   6
CONTINUOUS
  62
7
  10
 1444.9664761425
  20
 1055.1456459934
  30
0.0
  11
 1444.9664761425
  21
 1230.1456459934
  31
0.0
   0
LWPOLYLINE
   5
4C3
 100
AcDbEntity
   8
LEVEL001
 370
30
   6
CONTINUOUS
  62
7
 100
AcDbPolyline
  90
6
  70
0
  10
 1486.9664761425
  20
 1056.6456459934
  10
 1486.9664761425
  20
 1002.6456459934
  10
 1759.9664761425
  20
 1002.6456459934
  10
 1759.9664761425
  20
 1569.6456459934
  10
 1486.9664761425
  20
 1569.6456459934
  10
 1486.9664761425
  20
 1235.6456459934
   0
LINE
   5
4C4
 100
AcDbEntity
   8
LEVEL001
 370
30
 100
AcDbLine
   6
CONTINUOUS
  62
7
  10
 744.96647614249
  20
 1230.1456459934
  30
0.0
  11
 744.96647614249
  21
 1055.1456459934
  31
0.0
   0
LINE
   5
4C5
 100
AcDbEntity
   8
LEVEL001
 370
30
 100
AcDbLine
   6
CONTINUOUS
  62
7
  10
 1444.9664761425
  20
 1230.1456459934
  30
0.0
  11
 744.96647614249
  21
 1230.1456459934
  31
0.0
   0
LINE
   5
4C6
 100
AcDbEntity
   8
LEVEL001
 370
30
 100
AcDbLine
   6
CONTINUOUS
  62
7
  10
 1444.9664761425
  20
 1055.1456459934
  30
0.0
  11
 744.96647614249
  21
 1055.1456459934
  31
0.0
   0
ARC
   5
4C7
 100
AcDbEntity
   8
LEVEL001
 370
30
   6
CONTINUOUS
  62
7
 100
AcDbCircle
  10
 662.96647614249
  20
 1567.6456459934
  30
0.0
  40
 2.0000000000000
 100
AcDbArc
  50
 90.000000000000
  51
 180.00000000000
   0
LINE
   5
4C8
 100
AcDbEntity
   8
LEVEL001
 370
30
 100
AcDbLine
   6
CONTINUOUS
  62
7
  10
 661.96647614249
  20
 1463.4740731183
  30
0.0
  11
 682.35229127131
  21
 1463.4740731183
  31
0.0
   0
LWPOLYLINE
   5
4C9
 100
AcDbEntity
   8
LEVEL001
 370
30
   6
CONTINUOUS
  62
7
 100
AcDbPolyline
  90
4
  70
1
  10
 1486.9664761425
  20
 1238.6456459934
  10
 662.46647614249
  20
 1238.6456459934
  10
 662.46647614249
  20
 1235.6456459934
  10
 1486.9664761425
  20
 1235.6456459934
   0
LINE
   5
4CA
 100
AcDbEntity
   8
LEVEL001
 370
30
 100
AcDbLine
   6
CONTINUOUS
  62
7
  10
 660.96647614249
  20
 1567.6456459934
  30
0.0
  11
 660.96647614249
  21
 1006.6456459934
  31
0.0
   0
LINE
   5
4CB
 100
AcDbEntity
   8
LEVEL001
 370
30
 100
AcDbLine
   6
CONTINUOUS
  62
7
  10
 761.96647614249
  20
 1235.6456459934
  30
0.0
  11
 660.96647614249
  21
 1235.6456459934
  31
0.0
   0
LINE
   5
4CC
 100
AcDbEntity
   8
LEVEL001
 370
30
 100
AcDbLine
   6
CONTINUOUS
  62
7
  10
 660.96647614249
  20
 1235.6456459934
  30
0.0
  11
 660.96647614249
  21
 1002.6456459934
  31
0.0
   0
LINE
   5
4CD
 100
AcDbEntity
   8
LEVEL001
 370
30
 100
AcDbLine
   6
CONTINUOUS
  62
7
  10
 660.96647614249
  20
 1002.6456459934
  30
0.0
  11
 761.96647614249
  21
 1002.6456459934
  31
0.0
   0
LINE
   5
4CE
 100
AcDbEntity
   8
LEVEL001
 370
30
 100
AcDbLine
   6
CONTINUOUS
  62
7
  10
 662.96647614249
  20
 1569.6456459934
  30
0.0
  11
 756.96647614249
  21
 1569.6456459934
  31
0.0
   0
LINE
   5
4CF
 100
AcDbEntity
   8
LEVEL001
 370
30
 100
AcDbLine
   6
CONTINUOUS
  62
7
  10
 1579.9664761425
  20
 1387.5784570652
  30
0.0
  11
 1579.9664761425
  21
 1198.6456459934
  31
0.0
   0
ARC
   5
4D0
 100
AcDbEntity
   8
LEVEL001
 370
30
   6
CONTINUOUS
  62
7
 100
AcDbCircle
  10
 1586.9664761425
  20
 1198.6456459934
  30
0.0
  40
 7.0000000000000
 100
AcDbArc
  50
 180.00000000000
  51
 270.00000000000
   0
POINT
   5
4D1
 100
AcDbEntity
   8
LEVEL001
 100
AcDbPoint
  62
7
  10
 1579.9664761425
  20
 1191.6456459934
  30
0.0
   0
LINE
   5
4D2
 100
AcDbEntity
   8
LEVEL001
 370
30
 100
AcDbLine
   6
CONTINUOUS
  62
7
  10
 1586.9664761425
  20
 1191.6456459934
  30
0.0
  11
 1715.9664761425
  21
 1191.6456459934
  31
0.0
   0
LINE
   5
4D3
 100
AcDbEntity
   8
LEVEL001
 370
30
 100
AcDbLine
   6
CONTINUOUS
  62
7
  10
 1486.9664761425
  20
 1235.6456459934
  30
0.0
  11
 1486.9664761425
  21
 1569.6456459934
  31
0.0
   0
LINE
   5
4D4
 100
AcDbEntity
   8
LEVEL001
 370
30
 100
AcDbLine
   6
CONTINUOUS
  62
7
  10
 1485.9664761425
  20
 1538.2686972932
  30
0.0
  11
 1485.9664761425
  21
 1603.7402382657
  31
0.0
   0
LINE
   5
4D5
 100
AcDbEntity
   8
LEVEL001
 370
30
 100
AcDbLine
   6
CONTINUOUS
  62
7
  10
 961.96647614249
  20
 1603.7402382657
  30
0.0
  11
 1485.9664761425
  21
 1603.7402382657
  31
0.0
   0
LINE
   5
4D6
 100
AcDbEntity
   8
LEVEL001
 370
30
 100
AcDbLine
   6
CONTINUOUS
  62
7
  10
 762.46647614249
  20
 1583.4975772200
  30
0.0
  11
 1486.4664761425
  21
 1583.4975772200
  31
0.0
   0
LINE
   5
4D7
 100
AcDbEntity
   8
LEVEL001
 370
30
 100
AcDbLine
   6
CONTINUOUS
  62
7
  10
 1486.4664761425
  20
 1582.8677946644
  30
0.0
  11
 762.46647614249
  21
 1582.8677946644
  31
0.0
   0
LINE
   5
4D8
 100
AcDbEntity
   8
LEVEL001
 370
30
 100
AcDbLine
   6
CONTINUOUS
  62
7
  10
 1486.4664761425
  20
 1466.3956459935
  30
0.0
  11
 1486.4664761425
  21
 1593.3864925181
  31
0.0
   0
LINE
   5
4D9
 100
AcDbEntity
   8
LEVEL001
 370
30
 100
AcDbLine
   6
CONTINUOUS
  62
7
  10
 762.46647614249
  20
 1466.3956459935
  30
0.0
  11
 762.46647614249
  21
 1593.3864925181
  31
0.0
   0
LINE
   5
4DA
 100
AcDbEntity
   8
LEVEL001
 370
30
 100
AcDbLine
   6
CONTINUOUS
  62
7
  10
 760.96647614249
  20
 1593.3864925181
  30
0.0
  11
 760.96647614249
  21
 1465.9134129465
  31
0.0
   0
LINE
   5
4DB
 100
AcDbEntity
   8
LEVEL001
 370
30
 100
AcDbLine
   6
CONTINUOUS
  62
7
  10
 761.96647614249
  20
 1593.3864925181
  30
0.0
  11
 761.96647614249
  21
 1569.6456459934
  31
0.0
   0
LINE
   5
4DC
 100
AcDbEntity
   8
LEVEL001
 370
30
 100
AcDbLine
   6
CONTINUOUS
  62
7
  10
 978.96647614249
  20
 1603.7402382657
  30
0.0
  11
 978.96647614249
  21
 1593.3864925181
  31
0.0
   0
LINE
   5
4DD
 100
AcDbEntity
   8
LEVEL001
 370
30
 100
AcDbLine
   6
CONTINUOUS
  62
7
  10
 961.96647614249
  20
 1593.3864925181
  30
0.0
  11
 961.96647614249
  21
 1603.7402382657
  31
0.0
   0
LINE
   5
4DE
 100
AcDbEntity
   8
LEVEL001
 370
30
 100
AcDbLine
   6
CONTINUOUS
  62
7
  10
 1485.9664761425
  20
 1585.3632895654
  30
0.0
  11
 1485.9664761425
  21
 1593.3864925181
  31
0.0
   0
LINE
   5
4DF
 100
AcDbEntity
   8
LEVEL001
 370
30
 100
AcDbLine
   6
CONTINUOUS
  62
7
  10
 1468.9664761425
  20
 1593.3864925181
  30
0.0
  11
 1468.9664761425
  21
 1603.7402382657
  31
0.0
   0
LINE
   5
4E0
 100
AcDbEntity
   8
LEVEL001
 370
30
 100
AcDbLine
   6
CONTINUOUS
  62
7
  10
 760.96647614249
  20
 1593.3864925181
  30
0.0
  11
 1486.4664761425
  21
 1593.3864925181
  31
0.0
   0
LINE
   5
4E1
 100
AcDbEntity
   8
LEVEL001
 370
30
 100
AcDbLine
   6
CONTINUOUS
  62
7
  10
 1484.4664761425
  20
 1448.6853346802
  30
0.0
  11
 1484.4664761425
  21
 1487.8472612132
  31
0.0
   0
LINE
   5
4E2
 100
AcDbEntity
   8
LEVEL001
 370
30
 100
AcDbLine
   6
CONTINUOUS
  62
7
  10
 764.46647614249
  20
 1457.3532447048
  30
0.0
  11
 764.46647614249
  21
 1487.8472612132
  31
0.0
   0
LINE
   5
4E3
 100
AcDbEntity
   8
LEVEL001
 370
30
 100
AcDbLine
   6
CONTINUOUS
  62
7
  10
 763.96647614249
  20
 1506.8650828931
  30
0.0
  11
 763.96647614249
  21
 1487.8472612132
  31
0.0
   0
LINE
   5
4E4
 100
AcDbEntity
   8
LEVEL001
 370
30
 100
AcDbLine
   6
CONTINUOUS
  62
7
  10
 763.96647614249
  20
 1487.8472612132
  30
0.0
  11
 1486.4664761425
  21
 1487.8472612132
  31
0.0
   0
LINE
   5
4E5
 100
AcDbEntity
   8
LEVEL001
 370
30
 100
AcDbLine
   6
CONTINUOUS
  62
7
  10
 736.96647614249
  20
 1570.6456459934
  30
0.0
  11
 761.96647614249
  21
 1570.6456459934
  31
0.0
   0
LINE
   5
4E6
 100
AcDbEntity
   8
LEVEL001
 370
30
 100
AcDbLine
   6
CONTINUOUS
  62
7
  10
 776.96647614249
  20
 1593.3864925181
  30
0.0
  11
 776.96647614249
  21
 1582.8677946644
  31
0.0
   0
LINE
   5
4E7
 100
AcDbEntity
   8
LEVEL001
 370
30
 100
AcDbLine
   6
CONTINUOUS
  62
7
  10
 756.96647614249
  20
 1569.6456459934
  30
0.0
  11
 761.96647614249
  21
 1569.6456459934
  31
0.0
   0
DIMENSION
   5
4E8
 100
AcDbEntity
   8
LEVEL001
 370
30
   6
CONTINUOUS
  62
7
 100
AcDbDimension
   2
*D1
  10
 1765.9664761425
  20
 1678.8283571036
  30
0.0
  11
 1210.9664761425
  21
 1678.8283571036
  31
0.0
  70
0
   3
GMM001
 100
AcDbAlignedDimension
  13
 655.96647614249
  23
 1560.6326013186
  33
0.0
  14
 1765.9664761425
  24
 1411.6456459934
  34
0.0
 100
AcDbRotatedDimension
   0
MTEXT
   5
4EA
 100
AcDbEntity
   8
LEVEL001
 370
9
  62
1
 100
AcDbMText
  10
 1017.6509904657
  20
 613.60899541257
  30
0.0
  40
 32.000000000000
  41
0.0
  71
2
  72
1
   1
{\T1.000000;スーパーニーダー}\P{\T1.000000;　ＳＮ－１２Ｐ}
   7
GMM001
  44
 0.79999984000003
   0
MTEXT
   5
4EC
 100
AcDbEntity
   8
LEVEL001
 370
9
  62
1
 100
AcDbMText
  10
 1515.7333052623
  20
 533.02870794187
  30
0.0
  40
 32.000000000000
  41
0.0
  71
4
  72
1
   1
{\W1.000000;\T1.000000;ローリングプレス}\P{\W0.500000;\T1.000000;  \W1.000000;\T1.000000;ＲＰ－１Ｐ}
   7
GMM001
  44
 0.79999984000003
   0
MTEXT
   5
4EE
 100
AcDbEntity
   8
LEVEL001
 370
9
  62
1
 100
AcDbMText
  10
 1010.5335075165
  20
 1120.6483063128
  30
0.0
  40
 32.000000000000
  41
0.0
  71
5
  72
1
   1
\T1.000000;さぬき一番
   7
GMM001
  44
 0.79999984000003
   0
DIMENSION
   5
4EF
 100
AcDbEntity
   8
LEVEL001
 370
30
   6
CONTINUOUS
  62
7
 100
AcDbDimension
   2
*D2
  10
 1915.9664761425
  20
 101.21810222405
  30
0.0
  11
 1185.9664761425
  21
 109.21810222405
  31
0.0
  70
128
   3
GMM002
 100
AcDbAlignedDimension
  13
 455.96647614249
  23
 261.64564599341
  33
0.0
  14
 1915.9664761425
  24
 261.64564599341
  34
0.0
 100
AcDbRotatedDimension
   0
ELLIPSE
   5
4F0
 100
AcDbEntity
   8
LEVEL001
 370
30
   6
CONTINUOUS
  62
7
 100
AcDbEllipse
  10
 687.07606892933
  20
 1553.6456459934
  30
0.0
  11
-20.000000000000
  21
0.0
  31
0.0
  40
 0.80000000000000
  41
0.0
  42
 6.2831853071796
   0
ELLIPSE
   5
4F1
 100
AcDbEntity
   8
LEVEL001
 370
30
   6
CONTINUOUS
  62
7
 100
AcDbEllipse
  10
 687.07606892933
  20
 1549.4030053063
  30
0.0
  11
-20.000000000000
  21
0.0
  31
0.0
  40
 0.80000000000000
  41
 2.1300060570812
  42
-3.0086186017183
   0
ELLIPSE
   5
4F2
 100
AcDbEntity
   8
LEVEL001
 370
30
   6
CONTINUOUS
  62
7
 100
AcDbEllipse
  10
 687.07606892933
  20
 1536.3215298543
  30
0.0
  11
-15.200000000000
  21
0.0
  31
0.0
  40
 0.65789473684211
  41
 2.9382869978772
  42
-2.9084871995546
   0
ELLIPSE
   5
4F3
 100
AcDbEntity
   8
LEVEL001
 370
30
   6
CONTINUOUS
  62
7
 100
AcDbEllipse
  10
 687.07606892933
  20
 1549.4030053063
  30
0.0
  11
-20.000000000000
  21
0.0
  31
0.0
  40
 0.80000000000000
  41
-0.13297405187152
  42
 2.1300060570812
   0
ELLIPSE
   5
4F4
 100
AcDbEntity
   8
LEVEL001
 370
30
   6
CONTINUOUS
  62
7
 100
AcDbEllipse
  10
 687.07606892933
  20
 1536.3215298543
  30
0.0
  11
-15.200000000000
  21
0.0
  31
0.0
  40
 0.65789473684211
  41
-0.23310545403521
  42
 2.9382869978772
   0
ELLIPSE
   5
4F5
 100
AcDbEntity
   8
LEVEL001
 370
30
   6
CONTINUOUS
  62
7
 100
AcDbEllipse
  10
 687.07606892933
  20
 1501.4151875422
  30
0.0
  11
-14.500000000000
  21
0.0
  31
0.0
  40
 0.66670774868224
  41
 2.8545248247758
  42
 0.99109122164060
   0
LINE
   5
4F6
 100
AcDbEntity
   8
LEVEL001
 370
30
 100
AcDbLine
   6
CONTINUOUS
  62
7
  10
 701.57606892933
  20
 1498.4457749818
  30
0.0
  11
 701.57606892933
  21
 1501.4151875422
  31
0.0
   0
LINE
   5
4F7
 100
AcDbEntity
   8
LEVEL001
 370
30
 100
AcDbLine
   6
CONTINUOUS
  62
7
  10
 672.57606892933
  20
 1491.6370240220
  30
0.0
  11
 672.57606892933
  21
 1501.4151875422
  31
0.0
   0
ELLIPSE
   5
4F8
 100
AcDbEntity
   8
LEVEL001
 370
30
   6
CONTINUOUS
  62
7
 100
AcDbEllipse
  10
 687.07606892933
  20
 1491.6370240220
  30
0.0
  11
-14.500000000000
  21
0.0
  31
0.0
  40
 0.66670774868224
  41
-0.24492127076448E-15
  42
 0.58894374887801
   0
DIMENSION
   5
4F9
 100
AcDbEntity
   8
LEVEL001
 370
30
   6
CONTINUOUS
  62
7
 100
AcDbDimension
   2
*D3
  10
 296.79896188162
  20
 978.64564599341
  30
0.0
  11
 296.79896188162
  21
 613.64564599341
  31
0.0
  70
0
   3
GMM001
 100
AcDbAlignedDimension
  13
 420.96647614249
  23
 248.64564599341
  33
0.0
  14
 451.15424336572
  24
 978.64564599341
  34
0.0
  50
 90.000000000000
 100
AcDbRotatedDimension
   0
DIMENSION
   5
4FA
 100
AcDbEntity
   8
LEVEL001
 370
30
   6
CONTINUOUS
  62
7
 100
AcDbDimension
   2
*D4
  10
 296.79896188162
  20
 1608.6456459934
  30
0.0
  11
 296.79896188162
  21
 1293.6456459934
  31
0.0
  70
0
   3
GMM001
 100
AcDbAlignedDimension
  13
 451.15424336572
  23
 978.64564599341
  33
0.0
  14
 655.96647614249
  24
 1608.6456459934
  34
0.0
  50
 90.000000000000
 100
AcDbRotatedDimension
   0
DIMENSION
   5
4FB
 100
AcDbEntity
   8
LEVEL001
 370
30
   6
CONTINUOUS
  62
7
 100
AcDbDimension
   2
*D5
  10
 208.55738170084
  20
 248.64564599341
  30
0.0
  11
 208.55738170084
  21
 928.64564599341
  31
0.0
  70
0
   3
GMM001
 100
AcDbAlignedDimension
  13
 655.96647614249
  23
 1608.6456459934
  33
0.0
  14
 420.96647614249
  24
 248.64564599341
  34
0.0
  50
 270.00000000000
 100
AcDbRotatedDimension
   0
LINE
   5
4FC
 100
AcDbEntity
   8
LEVEL001
 370
30
 100
AcDbLine
   6
CONTINUOUS
  62
7
  10
 2738.5868095079
  20
 978.64564599341
  30
0.0
  11
 3398.5868095079
  21
 978.64564599341
  31
0.0
   0
LINE
   5
4FD
 100
AcDbEntity
   8
LEVEL001
 370
30
 100
AcDbLine
   6
CONTINUOUS
  62
7
  10
 2696.9868095079
  20
 949.64564599341
  30
0.0
  11
 3421.9868095079
  21
 949.64564599341
  31
0.0
   0
LINE
   5
4FE
 100
AcDbEntity
   8
LEVEL001
 370
30
 100
AcDbLine
   6
CONTINUOUS
  62
7
  10
 3421.9868095079
  20
 978.64564599341
  30
0.0
  11
 2696.9868095079
  21
 978.64564599341
  31
0.0
   0
LINE
   5
4FF
 100
AcDbEntity
   8
LEVEL001
 370
30
 100
AcDbLine
   6
CONTINUOUS
  62
7
  10
 2696.9868095079
  20
 978.64564599341
  30
0.0
  11
 2696.9868095079
  21
 949.64564599341
  31
0.0
   0
LINE
   5
500
 100
AcDbEntity
   8
LEVEL001
 370
30
 100
AcDbLine
   6
CONTINUOUS
  62
7
  10
 2741.9868095079
  20
 981.84564599341
  30
0.0
  11
 3409.9868095079
  21
 981.84564599341
  31
0.0
   0
LINE
   5
501
 100
AcDbEntity
   8
LEVEL001
 370
30
 100
AcDbLine
   6
CONTINUOUS
  62
7
  10
 2696.9868095079
  20
 949.64564599341
  30
0.0
  11
 2696.9868095079
  21
 248.64564599341
  31
0.0
   0
POINT
   5
502
 100
AcDbEntity
   8
LEVEL001
 100
AcDbPoint
  62
7
  10
 2716.9099620739
  20
 1451.6606441105
  30
0.0
   0
POINT
   5
503
 100
AcDbEntity
   8
LEVEL001
 100
AcDbPoint
  62
7
  10
 2776.8308457514
  20
 1555.6293296967
  30
0.0
   0
LWPOLYLINE
   5
504
 100
AcDbEntity
   8
LEVEL001
 370
30
   6
CONTINUOUS
  62
7
 100
AcDbPolyline
  90
4
  70
1
  10
 2714.4132585772
  20
 1447.3286155268
  10
 2779.3275494911
  20
 1559.9613587019
  10
 2778.0279409160
  20
 1560.7103697509
  10
 2713.1136500021
  20
 1448.0776265759
   0
LINE
   5
505
 100
AcDbEntity
   8
LEVEL001
 370
30
 100
AcDbLine
   6
CONTINUOUS
  62
7
  10
 2729.9868095079
  20
 1173.6456459934
  30
0.0
  11
 3119.9868095079
  21
 1173.6456459934
  31
0.0
   0
LINE
   5
506
 100
AcDbEntity
   8
LEVEL001
 370
30
 100
AcDbLine
   6
CONTINUOUS
  62
7
  10
 3119.9868095079
  20
 1411.6456459934
  30
0.0
  11
 2729.9868095079
  21
 1411.6456459934
  31
0.0
   0
LINE
   5
507
 100
AcDbEntity
   8
LEVEL001
 370
30
 100
AcDbLine
   6
CONTINUOUS
  62
7
  10
 2729.9868095079
  20
 1411.6456459934
  30
0.0
  11
 2729.9868095079
  21
 1173.6456459934
  31
0.0
   0
ARC
   5
508
 100
AcDbEntity
   8
LEVEL001
 370
20
   6
DIVIDE
  62
4
 100
AcDbCircle
  10
 2709.6048465079
  20
 1204.8819158945
  30
0.0
  40
 1.0000000000000
 100
AcDbArc
  50
 94.891173000116
  51
 184.89117300002
   0
LINE
   5
509
 100
AcDbEntity
   8
LEVEL001
 370
20
 100
AcDbLine
   6
DIVIDE
  62
4
  10
 2708.9868095079
  20
 1139.7826148945
  30
0.0
  11
 2708.9868095079
  21
 1167.7826148945
  31
0.0
   0
LWPOLYLINE
   5
50A
 100
AcDbEntity
   8
LEVEL001
 370
30
   6
CONTINUOUS
  62
7
 100
AcDbPolyline
  90
5
  70
1
  10
 2708.9868095079
  20
 1002.6456459934
  10
 2708.9868095079
  20
 1437.9131873404
  10
 2784.9089517087
  20
 1569.6456459934
  10
 3173.0868095079
  20
 1569.6456459934
  10
 3173.0868095079
  20
 1002.6456459934
   0
LINE
   5
50B
 100
AcDbEntity
   8
LEVEL001
 370
30
 100
AcDbLine
   6
CONTINUOUS
  62
7
  10
 2708.9868095079
  20
 1055.1456459934
  30
0.0
  11
 2708.9868095079
  21
 1230.1456459934
  31
0.0
   0
LWPOLYLINE
   5
50C
 100
AcDbEntity
   8
LEVEL001
 370
30
   6
CONTINUOUS
  62
7
 100
AcDbPolyline
  90
4
  70
0
  10
 2741.9868095079
  20
 1002.6456459934
  10
 2741.9868095079
  20
 978.64564599341
  10
 3409.9868095079
  20
 978.64564599341
  10
 3409.9868095079
  20
 1003.6456459934
   0
LINE
   5
50D
 100
AcDbEntity
   8
LEVEL001
 370
30
 100
AcDbLine
   6
CONTINUOUS
  62
7
  10
 2706.9868095079
  20
 1230.1456459934
  30
0.0
  11
 2708.9868095079
  21
 1230.1456459934
  31
0.0
   0
LINE
   5
50E
 100
AcDbEntity
   8
LEVEL001
 370
30
 100
AcDbLine
   6
CONTINUOUS
  62
7
  10
 2706.9868095079
  20
 1230.1456459934
  30
0.0
  11
 2706.9868095079
  21
 1055.1456459934
  31
0.0
   0
LINE
   5
50F
 100
AcDbEntity
   8
LEVEL001
 370
30
 100
AcDbLine
   6
CONTINUOUS
  62
7
  10
 2706.9868095079
  20
 1055.1456459934
  30
0.0
  11
 2708.9868095079
  21
 1055.1456459934
  31
0.0
   0
LINE
   5
510
 100
AcDbEntity
   8
LEVEL001
 370
30
 100
AcDbLine
   6
CONTINUOUS
  62
7
  10
 2738.5868095079
  20
 978.64564599341
  30
0.0
  11
 3398.5868095079
  21
 978.64564599341
  31
0.0
   0
LINE
   5
511
 100
AcDbEntity
   8
LEVEL001
 370
30
 100
AcDbLine
   6
CONTINUOUS
  62
7
  10
 2696.9868095079
  20
 949.64564599341
  30
0.0
  11
 3421.9868095079
  21
 949.64564599341
  31
0.0
   0
LINE
   5
512
 100
AcDbEntity
   8
LEVEL001
 370
30
 100
AcDbLine
   6
CONTINUOUS
  62
7
  10
 3421.9868095079
  20
 978.64564599341
  30
0.0
  11
 2696.9868095079
  21
 978.64564599341
  31
0.0
   0
LINE
   5
513
 100
AcDbEntity
   8
LEVEL001
 370
30
 100
AcDbLine
   6
CONTINUOUS
  62
7
  10
 2696.9868095079
  20
 978.64564599341
  30
0.0
  11
 2696.9868095079
  21
 949.64564599341
  31
0.0
   0
LINE
   5
514
 100
AcDbEntity
   8
LEVEL001
 370
30
 100
AcDbLine
   6
CONTINUOUS
  62
7
  10
 2741.9868095079
  20
 981.84564599341
  30
0.0
  11
 3409.9868095079
  21
 981.84564599341
  31
0.0
   0
LINE
   5
515
 100
AcDbEntity
   8
LEVEL001
 370
30
 100
AcDbLine
   6
CONTINUOUS
  62
7
  10
 2696.9868095079
  20
 949.64564599341
  30
0.0
  11
 2696.9868095079
  21
 248.64564599341
  31
0.0
   0
POINT
   5
516
 100
AcDbEntity
   8
LEVEL001
 100
AcDbPoint
  62
7
  10
 2716.9099620739
  20
 1451.6606441105
  30
0.0
   0
POINT
   5
517
 100
AcDbEntity
   8
LEVEL001
 100
AcDbPoint
  62
7
  10
 2776.8308457514
  20
 1555.6293296967
  30
0.0
   0
LWPOLYLINE
   5
518
 100
AcDbEntity
   8
LEVEL001
 370
30
   6
CONTINUOUS
  62
7
 100
AcDbPolyline
  90
4
  70
1
  10
 2714.4132585772
  20
 1447.3286155268
  10
 2779.3275494911
  20
 1559.9613587019
  10
 2778.0279409160
  20
 1560.7103697509
  10
 2713.1136500021
  20
 1448.0776265759
   0
LINE
   5
519
 100
AcDbEntity
   8
LEVEL001
 370
30
 100
AcDbLine
   6
CONTINUOUS
  62
7
  10
 2729.9868095079
  20
 1173.6456459934
  30
0.0
  11
 3119.9868095079
  21
 1173.6456459934
  31
0.0
   0
LINE
   5
51A
 100
AcDbEntity
   8
LEVEL001
 370
30
 100
AcDbLine
   6
CONTINUOUS
  62
7
  10
 3119.9868095079
  20
 1411.6456459934
  30
0.0
  11
 2729.9868095079
  21
 1411.6456459934
  31
0.0
   0
LINE
   5
51B
 100
AcDbEntity
   8
LEVEL001
 370
30
 100
AcDbLine
   6
CONTINUOUS
  62
7
  10
 2729.9868095079
  20
 1411.6456459934
  30
0.0
  11
 2729.9868095079
  21
 1173.6456459934
  31
0.0
   0
ARC
   5
51C
 100
AcDbEntity
   8
LEVEL001
 370
20
   6
DIVIDE
  62
4
 100
AcDbCircle
  10
 2709.6048465079
  20
 1204.8819158945
  30
0.0
  40
 1.0000000000000
 100
AcDbArc
  50
 94.891173000116
  51
 184.89117300002
   0
LINE
   5
51D
 100
AcDbEntity
   8
LEVEL001
 370
20
 100
AcDbLine
   6
DIVIDE
  62
4
  10
 2708.9868095079
  20
 1139.7826148945
  30
0.0
  11
 2708.9868095079
  21
 1167.7826148945
  31
0.0
   0
LWPOLYLINE
   5
51E
 100
AcDbEntity
   8
LEVEL001
 370
30
   6
CONTINUOUS
  62
7
 100
AcDbPolyline
  90
5
  70
1
  10
 2708.9868095079
  20
 1002.6456459934
  10
 2708.9868095079
  20
 1437.9131873404
  10
 2784.9089517087
  20
 1569.6456459934
  10
 3173.0868095079
  20
 1569.6456459934
  10
 3173.0868095079
  20
 1002.6456459934
   0
LINE
   5
51F
 100
AcDbEntity
   8
LEVEL001
 370
30
 100
AcDbLine
   6
CONTINUOUS
  62
7
  10
 2708.9868095079
  20
 1055.1456459934
  30
0.0
  11
 2708.9868095079
  21
 1230.1456459934
  31
0.0
   0
LWPOLYLINE
   5
520
 100
AcDbEntity
   8
LEVEL001
 370
30
   6
CONTINUOUS
  62
7
 100
AcDbPolyline
  90
4
  70
0
  10
 2741.9868095079
  20
 1002.6456459934
  10
 2741.9868095079
  20
 978.64564599341
  10
 3409.9868095079
  20
 978.64564599341
  10
 3409.9868095079
  20
 1003.6456459934
   0
LINE
   5
521
 100
AcDbEntity
   8
LEVEL001
 370
30
 100
AcDbLine
   6
CONTINUOUS
  62
7
  10
 2706.9868095079
  20
 1230.1456459934
  30
0.0
  11
 2708.9868095079
  21
 1230.1456459934
  31
0.0
   0
LINE
   5
522
 100
AcDbEntity
   8
LEVEL001
 370
30
 100
AcDbLine
   6
CONTINUOUS
  62
7
  10
 2706.9868095079
  20
 1230.1456459934
  30
0.0
  11
 2706.9868095079
  21
 1055.1456459934
  31
0.0
   0
LINE
   5
523
 100
AcDbEntity
   8
LEVEL001
 370
30
 100
AcDbLine
   6
CONTINUOUS
  62
7
  10
 2706.9868095079
  20
 1055.1456459934
  30
0.0
  11
 2708.9868095079
  21
 1055.1456459934
  31
0.0
   0
LINE
   5
524
 100
AcDbEntity
   8
LEVEL001
 370
30
 100
AcDbLine
   6
CONTINUOUS
  62
7
  10
 2613.9595617918
  20
 248.64564599341
  30
0.0
  11
 3466.9868095079
  21
 248.64564599341
  31
0.0
   0
DIMENSION
   5
525
 100
AcDbEntity
   8
LEVEL001
 370
30
   6
CONTINUOUS
  62
7
 100
AcDbDimension
   2
*D6
  10
 2696.9868095079
  20
 1678.8283571036
  30
0.0
  11
 3059.4868095079
  21
 1692.5426428179
  31
0.0
  70
128
   3
GMM003
 100
AcDbAlignedDimension
  13
 3421.9868095079
  23
 1002.6456459934
  33
0.0
  14
 2696.9868095079
  24
 975.64564599337
  34
0.0
  50
 180.00000000000
 100
AcDbRotatedDimension
   0
LINE
   5
526
 100
AcDbEntity
   8
LEVEL001
 370
30
 100
AcDbLine
   6
CONTINUOUS
  62
7
  10
 3421.9868095079
  20
 949.64564599341
  30
0.0
  11
 3421.9868095079
  21
 978.64564599341
  31
0.0
   0
LINE
   5
527
 100
AcDbEntity
   8
LEVEL001
 370
30
 100
AcDbLine
   6
CONTINUOUS
  62
7
  10
 3421.9868095079
  20
 949.64564599341
  30
0.0
  11
 3421.9868095079
  21
 248.64564599341
  31
0.0
   0
LINE
   5
528
 100
AcDbEntity
   8
LEVEL001
 370
30
 100
AcDbLine
   6
CONTINUOUS
  62
7
  10
 3119.9868095079
  20
 1173.6456459934
  30
0.0
  11
 3119.9868095079
  21
 1411.6456459934
  31
0.0
   0
LINE
   5
529
 100
AcDbEntity
   8
LEVEL001
 370
30
 100
AcDbLine
   6
CONTINUOUS
  62
7
  10
 3153.9946631961
  20
 1569.6456459934
  30
0.0
  11
 3154.9946631961
  21
 1570.6456459934
  31
0.0
   0
LINE
   5
52A
 100
AcDbEntity
   8
LEVEL001
 370
30
 100
AcDbLine
   6
CONTINUOUS
  62
7
  10
 3410.9868095079
  20
 1567.6456459934
  30
0.0
  11
 3410.9868095079
  21
 1527.6456459934
  31
0.0
   0
LINE
   5
52B
 100
AcDbEntity
   8
LEVEL001
 370
30
 100
AcDbLine
   6
CONTINUOUS
  62
7
  10
 3410.9868095079
  20
 1567.6456459934
  30
0.0
  11
 3409.9868095079
  21
 1567.6456459934
  31
0.0
   0
LINE
   5
52C
 100
AcDbEntity
   8
LEVEL001
 370
30
 100
AcDbLine
   6
CONTINUOUS
  62
7
  10
 3410.9868095079
  20
 1527.6456459934
  30
0.0
  11
 3410.9868095079
  21
 1567.6456459934
  31
0.0
   0
LINE
   5
52D
 100
AcDbEntity
   8
LEVEL001
 370
30
 100
AcDbLine
   6
CONTINUOUS
  62
7
  10
 3409.9868095079
  20
 1002.6456459934
  30
0.0
  11
 3173.0868095079
  21
 1002.6456459934
  31
0.0
   0
LINE
   5
52E
 100
AcDbEntity
   8
LEVEL001
 370
30
 100
AcDbLine
   6
CONTINUOUS
  62
7
  10
 3173.0868095079
  20
 1569.6456459934
  30
0.0
  11
 3409.9868095079
  21
 1569.6456459934
  31
0.0
   0
ARC
   5
52F
 100
AcDbEntity
   8
LEVEL001
 370
30
   6
CONTINUOUS
  62
7
 100
AcDbCircle
  10
 3409.9868095079
  20
 1568.6456459934
  30
0.0
  40
 1.0000000000000
 100
AcDbArc
  50
0.0
  51
 90.000000000000
   0
POINT
   5
530
 100
AcDbEntity
   8
LEVEL001
 100
AcDbPoint
  62
7
  10
 3410.9868095079
  20
 1569.6456459934
  30
0.0
   0
ARC
   5
531
 100
AcDbEntity
   8
LEVEL001
 370
30
   6
CONTINUOUS
  62
7
 100
AcDbCircle
  10
 3409.9868095079
  20
 1568.6456459934
  30
0.0
  40
 2.0000000000000
 100
AcDbArc
  50
0.0
  51
 90.000000000000
   0
POINT
   5
532
 100
AcDbEntity
   8
LEVEL001
 100
AcDbPoint
  62
7
  10
 3411.9868095079
  20
 1570.6456459934
  30
0.0
   0
ARC
   5
533
 100
AcDbEntity
   8
LEVEL001
 370
30
   6
CONTINUOUS
  62
7
 100
AcDbCircle
  10
 3409.9868095079
  20
 1568.6456459934
  30
0.0
  40
 1.0000000000000
 100
AcDbArc
  50
0.0
  51
 90.000000000000
   0
POINT
   5
534
 100
AcDbEntity
   8
LEVEL001
 100
AcDbPoint
  62
7
  10
 3410.9868095079
  20
 1569.6456459934
  30
0.0
   0
ARC
   5
535
 100
AcDbEntity
   8
LEVEL001
 370
30
   6
CONTINUOUS
  62
7
 100
AcDbCircle
  10
 3409.9868095079
  20
 1568.6456459934
  30
0.0
  40
 2.0000000000000
 100
AcDbArc
  50
0.0
  51
 90.000000000000
   0
POINT
   5
536
 100
AcDbEntity
   8
LEVEL001
 100
AcDbPoint
  62
7
  10
 3411.9868095079
  20
 1570.6456459934
  30
0.0
   0
LINE
   5
537
 100
AcDbEntity
   8
LEVEL001
 370
30
 100
AcDbLine
   6
CONTINUOUS
  62
7
  10
 3410.9868095079
  20
 1528.6456459934
  30
0.0
  11
 3411.9868095079
  21
 1528.6456459934
  31
0.0
   0
LINE
   5
538
 100
AcDbEntity
   8
LEVEL001
 370
30
 100
AcDbLine
   6
CONTINUOUS
  62
7
  10
 3411.9868095079
  20
 1528.6456459934
  30
0.0
  11
 3411.9868095079
  21
 1568.6456459934
  31
0.0
   0
LINE
   5
539
 100
AcDbEntity
   8
LEVEL001
 370
30
 100
AcDbLine
   6
CONTINUOUS
  62
7
  10
 3411.9868095079
  20
 1528.6456459934
  30
0.0
  11
 3410.9868095079
  21
 1528.6456459934
  31
0.0
   0
LINE
   5
53A
 100
AcDbEntity
   8
LEVEL001
 370
30
 100
AcDbLine
   6
CONTINUOUS
  62
7
  10
 3411.9868095079
  20
 1528.6456459934
  30
0.0
  11
 3411.9868095079
  21
 1568.6456459934
  31
0.0
   0
LINE
   5
53B
 100
AcDbEntity
   8
LEVEL001
 370
30
 100
AcDbLine
   6
CONTINUOUS
  62
7
  10
 3410.9868095079
  20
 1124.6456459934
  30
0.0
  11
 3410.9868095079
  21
 1568.6456459934
  31
0.0
   0
LINE
   5
53C
 100
AcDbEntity
   8
LEVEL001
 370
30
 100
AcDbLine
   6
CONTINUOUS
  62
7
  10
 3409.9868095079
  20
 1002.6456459934
  30
0.0
  11
 3409.9868095079
  21
 1569.6456459934
  31
0.0
   0
LINE
   5
53D
 100
AcDbEntity
   8
LEVEL001
 370
30
 100
AcDbLine
   6
CONTINUOUS
  62
7
  10
 3154.9946631961
  20
 1570.6456459934
  30
0.0
  11
 3409.9868095079
  21
 1570.6456459934
  31
0.0
   0
POINT
   5
53E
 100
AcDbEntity
   8
LEVEL001
 100
AcDbPoint
  62
1
  10
 3410.9868095079
  20
 1569.6456459934
  30
0.0
   0
POINT
   5
53F
 100
AcDbEntity
   8
LEVEL001
 100
AcDbPoint
  62
1
  10
 3411.9868095079
  20
 1570.6456459934
  30
0.0
   0
LINE
   5
540
 100
AcDbEntity
   8
LEVEL001
 370
30
 100
AcDbLine
   6
CONTINUOUS
  62
7
  10
 3174.2258576963
  20
 1603.6799308865
  30
0.0
  11
 3264.9868095079
  21
 1570.6456459934
  31
0.0
   0
ARC
   5
541
 100
AcDbEntity
   8
LEVEL001
 370
30
   6
CONTINUOUS
  62
7
 100
AcDbCircle
  10
 3173.8838375530
  20
 1602.7402382657
  30
0.0
  40
 1.0000000000000
 100
AcDbArc
  50
 70.000000000040
  51
 114.99987896019
   0
POINT
   5
542
 100
AcDbEntity
   8
LEVEL001
 100
AcDbPoint
  62
7
  10
 3173.8366254312
  20
 1603.8215998452
  30
0.0
   0
LINE
   5
543
 100
AcDbEntity
   8
LEVEL001
 370
30
 100
AcDbLine
   6
CONTINUOUS
  62
7
  10
 3154.4287384533
  20
 1594.7716057649
  30
0.0
  11
 3173.4612212059
  21
 1603.6465469455
  31
0.0
   0
LINE
   5
544
 100
AcDbEntity
   8
LEVEL001
 370
30
 100
AcDbLine
   6
CONTINUOUS
  62
7
  10
 3153.9450594719
  20
 1593.4426527057
  30
0.0
  11
 3153.9450469686
  21
 1593.4426795192
  31
0.0
   0
ARC
   5
545
 100
AcDbEntity
   8
LEVEL001
 370
30
   6
CONTINUOUS
  62
7
 100
AcDbCircle
  10
 3154.8513560748
  20
 1593.8652976793
  30
0.0
  40
 1.0000000000000
 100
AcDbArc
  50
 204.99996278017
  51
 294.99995952453
   0
ARC
   5
546
 100
AcDbEntity
   8
LEVEL001
 370
30
   6
CONTINUOUS
  62
7
 100
AcDbCircle
  10
 3154.8513435715
  20
 1593.8653244927
  30
0.0
  40
 1.0000000000000
 100
AcDbArc
  50
 114.99989348489
  51
 204.99996278007
   0
LINE
   5
547
 100
AcDbEntity
   8
LEVEL001
 370
30
 100
AcDbLine
   6
CONTINUOUS
  62
7
  10
 3153.9450480132
  20
 1593.4426800063
  30
0.0
  11
 3153.9450355099
  21
 1593.4427068197
  31
0.0
   0
LINE
   5
548
 100
AcDbEntity
   8
LEVEL001
 370
30
 100
AcDbLine
   6
CONTINUOUS
  62
7
  10
 3164.3370546037
  20
 1597.1851658328
  30
0.0
  11
 3155.2739736963
  21
 1592.9589895937
  31
0.0
   0
LINE
   5
549
 100
AcDbEntity
   8
LEVEL001
 370
30
 100
AcDbLine
   6
CONTINUOUS
  62
7
  10
 3082.3276830568
  20
 1584.4619770025
  30
0.0
  11
 3081.1786163921
  21
 1585.4261584170
  31
0.0
   0
LINE
   5
54A
 100
AcDbEntity
   8
LEVEL001
 370
30
 100
AcDbLine
   6
CONTINUOUS
  62
7
  10
 3081.1786163921
  20
 1585.4261584170
  30
0.0
  11
 3086.9637048793
  21
 1592.3205584051
  31
0.0
   0
ARC
   5
54B
 100
AcDbEntity
   8
LEVEL001
 370
30
   6
CONTINUOUS
  62
7
 100
AcDbCircle
  10
 3089.2618382086
  20
 1590.3921955760
  30
0.0
  40
 3.0000000000000
 100
AcDbArc
  50
 50.000000000010
  51
 140.00000000001
   0
POINT
   5
54C
 100
AcDbEntity
   8
LEVEL001
 100
AcDbPoint
  62
7
  10
 3088.8920677083
  20
 1594.6186917344
  30
0.0
   0
LINE
   5
54D
 100
AcDbEntity
   8
LEVEL001
 370
30
 100
AcDbLine
   6
CONTINUOUS
  62
7
  10
 3088.1127627100
  20
 1591.3563664627
  30
0.0
  11
 3082.3276830568
  21
 1584.4619770025
  31
0.0
   0
ARC
   5
54E
 100
AcDbEntity
   8
LEVEL001
 370
30
   6
CONTINUOUS
  62
7
 100
AcDbCircle
  10
 3089.2618293747
  20
 1590.3921850482
  30
0.0
  40
 1.5000000000000
 100
AcDbArc
  50
 50.000000000025
  51
 140.00000000004
   0
POINT
   5
54F
 100
AcDbEntity
   8
LEVEL001
 100
AcDbPoint
  62
7
  10
 3089.0769441246
  20
 1592.5054331274
  30
0.0
   0
LINE
   5
550
 100
AcDbEntity
   8
LEVEL001
 370
30
 100
AcDbLine
   6
CONTINUOUS
  62
7
  10
 3082.3276830568
  20
 1584.4619770025
  30
0.0
  11
 3086.7470530910
  21
 1569.6456459934
  31
0.0
   0
LINE
   5
551
 100
AcDbEntity
   8
LEVEL001
 370
20
 100
AcDbLine
   6
DASHDOT
  62
6
  10
 3118.6537813402
  20
 1569.6456459934
  30
0.0
  11
 3117.2357105368
  21
 1570.8355483087
  31
0.0
   0
LINE
   5
552
 100
AcDbEntity
   8
LEVEL001
 370
9
 100
AcDbLine
   6
DASHDOT
  62
1
  10
 3118.6537813402
  20
 1569.6456459934
  30
0.0
  11
 3117.2357105368
  21
 1570.8355483087
  31
0.0
   0
LINE
   5
553
 100
AcDbEntity
   8
LEVEL001
 370
30
 100
AcDbLine
   6
CONTINUOUS
  62
7
  10
 3091.1902010377
  20
 1592.6903289054
  30
0.0
  11
 3118.6537846882
  21
 1569.6456459934
  31
0.0
   0
LINE
   5
554
 100
AcDbEntity
   8
LEVEL001
 370
30
 100
AcDbLine
   6
CONTINUOUS
  62
7
  10
 3116.3201989479
  20
 1569.6456459934
  30
0.0
  11
 3090.2260196231
  21
 1591.5412622407
  31
0.0
   0
LINE
   5
555
 100
AcDbEntity
   8
LEVEL001
 370
30
 100
AcDbLine
   6
CONTINUOUS
  62
7
  10
 3173.8838385765
  20
 1602.7402378932
  30
0.0
  11
 3154.8513675849
  21
 1593.8652704027
  31
0.0
   0
LINE
   5
556
 100
AcDbEntity
   8
LEVEL001
 370
30
 100
AcDbLine
   6
CONTINUOUS
  62
7
  10
 3163.9144369823
  20
 1598.0914739183
  30
0.0
  11
 3164.3370546037
  21
 1597.1851658328
  31
0.0
   0
LINE
   5
557
 100
AcDbEntity
   8
LEVEL001
 370
30
 100
AcDbLine
   6
CONTINUOUS
  62
7
  10
 3135.8183732829
  20
 1569.6456459934
  30
0.0
  11
 3155.4491235660
  21
 1593.0406631687
  31
0.0
   0
LINE
   5
558
 100
AcDbEntity
   8
LEVEL001
 370
30
 100
AcDbLine
   6
CONTINUOUS
  62
7
  10
 3262.0630051077
  20
 1570.6456459934
  30
0.0
  11
 3173.8838385765
  21
 1602.7402378932
  31
0.0
   0
LINE
   5
559
 100
AcDbEntity
   8
LEVEL001
 370
30
 100
AcDbLine
   6
CONTINUOUS
  62
7
  10
 3135.8183732829
  20
 1569.6456459934
  30
0.0
  11
 3155.7234567903
  21
 1593.3676007742
  31
0.0
   0
LINE
   5
55A
 100
AcDbEntity
   8
LEVEL001
 370
30
 100
AcDbLine
   6
CONTINUOUS
  62
7
  10
 3421.9868095079
  20
 949.64564599341
  30
0.0
  11
 3421.9868095079
  21
 978.64564599341
  31
0.0
   0
LINE
   5
55B
 100
AcDbEntity
   8
LEVEL001
 370
30
 100
AcDbLine
   6
CONTINUOUS
  62
7
  10
 3421.9868095079
  20
 949.64564599341
  30
0.0
  11
 3421.9868095079
  21
 248.64564599341
  31
0.0
   0
LINE
   5
55C
 100
AcDbEntity
   8
LEVEL001
 370
30
 100
AcDbLine
   6
CONTINUOUS
  62
7
  10
 3119.9868095079
  20
 1173.6456459934
  30
0.0
  11
 3119.9868095079
  21
 1411.6456459934
  31
0.0
   0
LINE
   5
55D
 100
AcDbEntity
   8
LEVEL001
 370
30
 100
AcDbLine
   6
CONTINUOUS
  62
7
  10
 3153.9946631961
  20
 1569.6456459934
  30
0.0
  11
 3154.9946631961
  21
 1570.6456459934
  31
0.0
   0
LINE
   5
55E
 100
AcDbEntity
   8
LEVEL001
 370
30
 100
AcDbLine
   6
CONTINUOUS
  62
7
  10
 3410.9868095079
  20
 1567.6456459934
  30
0.0
  11
 3410.9868095079
  21
 1527.6456459934
  31
0.0
   0
LINE
   5
55F
 100
AcDbEntity
   8
LEVEL001
 370
30
 100
AcDbLine
   6
CONTINUOUS
  62
7
  10
 3410.9868095079
  20
 1567.6456459934
  30
0.0
  11
 3409.9868095079
  21
 1567.6456459934
  31
0.0
   0
LINE
   5
560
 100
AcDbEntity
   8
LEVEL001
 370
30
 100
AcDbLine
   6
CONTINUOUS
  62
7
  10
 3410.9868095079
  20
 1527.6456459934
  30
0.0
  11
 3410.9868095079
  21
 1567.6456459934
  31
0.0
   0
LINE
   5
561
 100
AcDbEntity
   8
LEVEL001
 370
30
 100
AcDbLine
   6
CONTINUOUS
  62
7
  10
 3409.9868095079
  20
 1002.6456459934
  30
0.0
  11
 3173.0868095079
  21
 1002.6456459934
  31
0.0
   0
LINE
   5
562
 100
AcDbEntity
   8
LEVEL001
 370
30
 100
AcDbLine
   6
CONTINUOUS
  62
7
  10
 3173.0868095079
  20
 1569.6456459934
  30
0.0
  11
 3409.9868095079
  21
 1569.6456459934
  31
0.0
   0
ARC
   5
563
 100
AcDbEntity
   8
LEVEL001
 370
30
   6
CONTINUOUS
  62
7
 100
AcDbCircle
  10
 3409.9868095079
  20
 1568.6456459934
  30
0.0
  40
 1.0000000000000
 100
AcDbArc
  50
0.0
  51
 90.000000000000
   0
POINT
   5
564
 100
AcDbEntity
   8
LEVEL001
 100
AcDbPoint
  62
7
  10
 3410.9868095079
  20
 1569.6456459934
  30
0.0
   0
ARC
   5
565
 100
AcDbEntity
   8
LEVEL001
 370
30
   6
CONTINUOUS
  62
7
 100
AcDbCircle
  10
 3409.9868095079
  20
 1568.6456459934
  30
0.0
  40
 2.0000000000000
 100
AcDbArc
  50
0.0
  51
 90.000000000000
   0
POINT
   5
566
 100
AcDbEntity
   8
LEVEL001
 100
AcDbPoint
  62
7
  10
 3411.9868095079
  20
 1570.6456459934
  30
0.0
   0
ARC
   5
567
 100
AcDbEntity
   8
LEVEL001
 370
30
   6
CONTINUOUS
  62
7
 100
AcDbCircle
  10
 3409.9868095079
  20
 1568.6456459934
  30
0.0
  40
 1.0000000000000
 100
AcDbArc
  50
0.0
  51
 90.000000000000
   0
POINT
   5
568
 100
AcDbEntity
   8
LEVEL001
 100
AcDbPoint
  62
7
  10
 3410.9868095079
  20
 1569.6456459934
  30
0.0
   0
ARC
   5
569
 100
AcDbEntity
   8
LEVEL001
 370
30
   6
CONTINUOUS
  62
7
 100
AcDbCircle
  10
 3409.9868095079
  20
 1568.6456459934
  30
0.0
  40
 2.0000000000000
 100
AcDbArc
  50
0.0
  51
 90.000000000000
   0
POINT
   5
56A
 100
AcDbEntity
   8
LEVEL001
 100
AcDbPoint
  62
7
  10
 3411.9868095079
  20
 1570.6456459934
  30
0.0
   0
LINE
   5
56B
 100
AcDbEntity
   8
LEVEL001
 370
30
 100
AcDbLine
   6
CONTINUOUS
  62
7
  10
 3410.9868095079
  20
 1528.6456459934
  30
0.0
  11
 3411.9868095079
  21
 1528.6456459934
  31
0.0
   0
LINE
   5
56C
 100
AcDbEntity
   8
LEVEL001
 370
30
 100
AcDbLine
   6
CONTINUOUS
  62
7
  10
 3411.9868095079
  20
 1528.6456459934
  30
0.0
  11
 3411.9868095079
  21
 1568.6456459934
  31
0.0
   0
LINE
   5
56D
 100
AcDbEntity
   8
LEVEL001
 370
30
 100
AcDbLine
   6
CONTINUOUS
  62
7
  10
 3411.9868095079
  20
 1528.6456459934
  30
0.0
  11
 3410.9868095079
  21
 1528.6456459934
  31
0.0
   0
LINE
   5
56E
 100
AcDbEntity
   8
LEVEL001
 370
30
 100
AcDbLine
   6
CONTINUOUS
  62
7
  10
 3411.9868095079
  20
 1528.6456459934
  30
0.0
  11
 3411.9868095079
  21
 1568.6456459934
  31
0.0
   0
LINE
   5
56F
 100
AcDbEntity
   8
LEVEL001
 370
30
 100
AcDbLine
   6
CONTINUOUS
  62
7
  10
 3410.9868095079
  20
 1124.6456459934
  30
0.0
  11
 3410.9868095079
  21
 1568.6456459934
  31
0.0
   0
LINE
   5
570
 100
AcDbEntity
   8
LEVEL001
 370
30
 100
AcDbLine
   6
CONTINUOUS
  62
7
  10
 3409.9868095079
  20
 1002.6456459934
  30
0.0
  11
 3409.9868095079
  21
 1569.6456459934
  31
0.0
   0
LINE
   5
571
 100
AcDbEntity
   8
LEVEL001
 370
30
 100
AcDbLine
   6
CONTINUOUS
  62
7
  10
 3154.9946631961
  20
 1570.6456459934
  30
0.0
  11
 3409.9868095079
  21
 1570.6456459934
  31
0.0
   0
POINT
   5
572
 100
AcDbEntity
   8
LEVEL001
 100
AcDbPoint
  62
1
  10
 3410.9868095079
  20
 1569.6456459934
  30
0.0
   0
POINT
   5
573
 100
AcDbEntity
   8
LEVEL001
 100
AcDbPoint
  62
1
  10
 3411.9868095079
  20
 1570.6456459934
  30
0.0
   0
LINE
   5
574
 100
AcDbEntity
   8
LEVEL001
 370
30
 100
AcDbLine
   6
CONTINUOUS
  62
7
  10
 3174.2258576963
  20
 1603.6799308865
  30
0.0
  11
 3264.9868095079
  21
 1570.6456459934
  31
0.0
   0
ARC
   5
575
 100
AcDbEntity
   8
LEVEL001
 370
30
   6
CONTINUOUS
  62
7
 100
AcDbCircle
  10
 3173.8838375530
  20
 1602.7402382657
  30
0.0
  40
 1.0000000000000
 100
AcDbArc
  50
 70.000000000040
  51
 114.99987896019
   0
POINT
   5
576
 100
AcDbEntity
   8
LEVEL001
 100
AcDbPoint
  62
7
  10
 3173.8366254312
  20
 1603.8215998452
  30
0.0
   0
LINE
   5
577
 100
AcDbEntity
   8
LEVEL001
 370
30
 100
AcDbLine
   6
CONTINUOUS
  62
7
  10
 3154.4287384533
  20
 1594.7716057649
  30
0.0
  11
 3173.4612212059
  21
 1603.6465469455
  31
0.0
   0
LINE
   5
578
 100
AcDbEntity
   8
LEVEL001
 370
30
 100
AcDbLine
   6
CONTINUOUS
  62
7
  10
 3153.9450594719
  20
 1593.4426527057
  30
0.0
  11
 3153.9450469686
  21
 1593.4426795192
  31
0.0
   0
ARC
   5
579
 100
AcDbEntity
   8
LEVEL001
 370
30
   6
CONTINUOUS
  62
7
 100
AcDbCircle
  10
 3154.8513560748
  20
 1593.8652976793
  30
0.0
  40
 1.0000000000000
 100
AcDbArc
  50
 204.99996278017
  51
 294.99995952453
   0
ARC
   5
57A
 100
AcDbEntity
   8
LEVEL001
 370
30
   6
CONTINUOUS
  62
7
 100
AcDbCircle
  10
 3154.8513435715
  20
 1593.8653244927
  30
0.0
  40
 1.0000000000000
 100
AcDbArc
  50
 114.99989348489
  51
 204.99996278007
   0
LINE
   5
57B
 100
AcDbEntity
   8
LEVEL001
 370
30
 100
AcDbLine
   6
CONTINUOUS
  62
7
  10
 3153.9450480132
  20
 1593.4426800063
  30
0.0
  11
 3153.9450355099
  21
 1593.4427068197
  31
0.0
   0
LINE
   5
57C
 100
AcDbEntity
   8
LEVEL001
 370
30
 100
AcDbLine
   6
CONTINUOUS
  62
7
  10
 3164.3370546037
  20
 1597.1851658328
  30
0.0
  11
 3155.2739736963
  21
 1592.9589895937
  31
0.0
   0
LINE
   5
57D
 100
AcDbEntity
   8
LEVEL001
 370
30
 100
AcDbLine
   6
CONTINUOUS
  62
7
  10
 3082.3276830568
  20
 1584.4619770025
  30
0.0
  11
 3081.1786163921
  21
 1585.4261584170
  31
0.0
   0
LINE
   5
57E
 100
AcDbEntity
   8
LEVEL001
 370
30
 100
AcDbLine
   6
CONTINUOUS
  62
7
  10
 3081.1786163921
  20
 1585.4261584170
  30
0.0
  11
 3086.9637048793
  21
 1592.3205584051
  31
0.0
   0
ARC
   5
57F
 100
AcDbEntity
   8
LEVEL001
 370
30
   6
CONTINUOUS
  62
7
 100
AcDbCircle
  10
 3089.2618382086
  20
 1590.3921955760
  30
0.0
  40
 3.0000000000000
 100
AcDbArc
  50
 50.000000000010
  51
 140.00000000001
   0
POINT
   5
580
 100
AcDbEntity
   8
LEVEL001
 100
AcDbPoint
  62
7
  10
 3088.8920677083
  20
 1594.6186917344
  30
0.0
   0
LINE
   5
581
 100
AcDbEntity
   8
LEVEL001
 370
30
 100
AcDbLine
   6
CONTINUOUS
  62
7
  10
 3088.1127627100
  20
 1591.3563664627
  30
0.0
  11
 3082.3276830568
  21
 1584.4619770025
  31
0.0
   0
ARC
   5
582
 100
AcDbEntity
   8
LEVEL001
 370
30
   6
CONTINUOUS
  62
7
 100
AcDbCircle
  10
 3089.2618293747
  20
 1590.3921850482
  30
0.0
  40
 1.5000000000000
 100
AcDbArc
  50
 50.000000000025
  51
 140.00000000004
   0
POINT
   5
583
 100
AcDbEntity
   8
LEVEL001
 100
AcDbPoint
  62
7
  10
 3089.0769441246
  20
 1592.5054331274
  30
0.0
   0
LINE
   5
584
 100
AcDbEntity
   8
LEVEL001
 370
30
 100
AcDbLine
   6
CONTINUOUS
  62
7
  10
 3082.3276830568
  20
 1584.4619770025
  30
0.0
  11
 3086.7470530910
  21
 1569.6456459934
  31
0.0
   0
LINE
   5
585
 100
AcDbEntity
   8
LEVEL001
 370
20
 100
AcDbLine
   6
DASHDOT
  62
6
  10
 3118.6537813402
  20
 1569.6456459934
  30
0.0
  11
 3117.2357105368
  21
 1570.8355483087
  31
0.0
   0
LINE
   5
586
 100
AcDbEntity
   8
LEVEL001
 370
9
 100
AcDbLine
   6
DASHDOT
  62
1
  10
 3118.6537813402
  20
 1569.6456459934
  30
0.0
  11
 3117.2357105368
  21
 1570.8355483087
  31
0.0
   0
LINE
   5
587
 100
AcDbEntity
   8
LEVEL001
 370
30
 100
AcDbLine
   6
CONTINUOUS
  62
7
  10
 3091.1902010377
  20
 1592.6903289054
  30
0.0
  11
 3118.6537846882
  21
 1569.6456459934
  31
0.0
   0
LINE
   5
588
 100
AcDbEntity
   8
LEVEL001
 370
30
 100
AcDbLine
   6
CONTINUOUS
  62
7
  10
 3116.3201989479
  20
 1569.6456459934
  30
0.0
  11
 3090.2260196231
  21
 1591.5412622407
  31
0.0
   0
LINE
   5
589
 100
AcDbEntity
   8
LEVEL001
 370
30
 100
AcDbLine
   6
CONTINUOUS
  62
7
  10
 3173.8838385765
  20
 1602.7402378932
  30
0.0
  11
 3154.8513675849
  21
 1593.8652704027
  31
0.0
   0
LINE
   5
58A
 100
AcDbEntity
   8
LEVEL001
 370
30
 100
AcDbLine
   6
CONTINUOUS
  62
7
  10
 3163.9144369823
  20
 1598.0914739183
  30
0.0
  11
 3164.3370546037
  21
 1597.1851658328
  31
0.0
   0
LINE
   5
58B
 100
AcDbEntity
   8
LEVEL001
 370
30
 100
AcDbLine
   6
CONTINUOUS
  62
7
  10
 3135.8183732829
  20
 1569.6456459934
  30
0.0
  11
 3155.4491235660
  21
 1593.0406631687
  31
0.0
   0
LINE
   5
58C
 100
AcDbEntity
   8
LEVEL001
 370
30
 100
AcDbLine
   6
CONTINUOUS
  62
7
  10
 3262.0630051077
  20
 1570.6456459934
  30
0.0
  11
 3173.8838385765
  21
 1602.7402378932
  31
0.0
   0
LINE
   5
58D
 100
AcDbEntity
   8
LEVEL001
 370
30
 100
AcDbLine
   6
CONTINUOUS
  62
7
  10
 3135.8183732829
  20
 1569.6456459934
  30
0.0
  11
 3155.7234567903
  21
 1593.3676007742
  31
0.0
   0
LINE
   5
58E
 100
AcDbEntity
   8
LEVEL001
 370
30
 100
AcDbLine
   6
CONTINUOUS
  62
7
  10
 2163.4180113827
  20
 248.64564599341
  30
0.0
  11
 3466.9868095079
  21
 248.64564599341
  31
0.0
   0
LWPOLYLINE
   5
58F
 100
AcDbEntity
   8
LEVEL001
 370
9
   6
DIVIDE
  62
1
 100
AcDbPolyline
  90
3
  70
0
  10
 2696.9868095079
  20
 908.54564599341
  10
 2221.9868095079
  20
 908.54564599341
  10
 2221.9868095079
  20
 248.64564599341
   0
DIMENSION
   5
590
 100
AcDbEntity
   8
LEVEL001
 370
30
   6
CONTINUOUS
  62
7
 100
AcDbDimension
   2
*D7
  10
 3421.9868095079
  20
 101.21810222405
  30
0.0
  11
 2821.9868095079
  21
 101.21810222405
  31
0.0
  70
0
   3
GMM001
 100
AcDbAlignedDimension
  13
 2221.9868095079
  23
 248.64564599341
  33
0.0
  14
 3421.9868095079
  24
 248.64564599341
  34
0.0
 100
AcDbRotatedDimension
   0
MTEXT
   5
592
 100
AcDbEntity
   8
LEVEL001
 370
9
  62
1
 100
AcDbMText
  10
 3678.1129784622
  20
 2809.6957036045
  30
0.0
  40
 32.000000000000
  41
0.0
  71
7
  72
1
   1
\T1.000000;単相１００Ｖ　５０／６０Ｈｚ
   7
GMM001
  44
 0.79999984000003
   0
MTEXT
   5
594
 100
AcDbEntity
   8
LEVEL001
 370
30
  62
7
 100
AcDbMText
  10
 3700.7796451289
  20
 224.00000000000
  30
0.0
  40
 32.000000000000
  41
0.0
  71
7
  72
1
   1
\W1.000000;\T1.000000;さぬき一番\W0.500000;\T1.000000; AP-12 1K
   7
GMM001
  44
 0.79999984000003
   0
MTEXT
   5
596
 100
AcDbEntity
   8
LEVEL001
 370
30
  62
7
 100
AcDbMText
  10
 4300.7796451289
  20
 224.00000000000
  30
0.0
  40
 32.000000000000
  41
0.0
  71
7
  72
1
   1
\T1.000000;SI-AP12-1K-A
   7
GMM004
  44
 0.79999984000003
   0
MTEXT
   5
598
 100
AcDbEntity
   8
LEVEL001
 370
30
  62
7
 100
AcDbMText
  10
 3211.4751099086
  20
 13.232988217376
  30
0.0
  40
 32.000000000000
  41
0.0
  71
7
  72
1
   1
\W0.500000;\T1.000000;'22.03.17\W1.000000;\T1.000000;　変更　\W0.500000;\T1.000000;H.M
   7
GMM001
  44
 0.79999984000003
   0
ENDSEC
  0
SECTION
  2
OBJECTS
  0
DICTIONARY
  5
C
100
AcDbDictionary
  3
ACAD_GROUP
350
D
  3
ACAD_MLINESTYLE
350
1B
  3
DWGPROPS
350
1C
  0
DICTIONARY
  5
D
102
{ACAD_REACTORS
330
C
102
}
100
AcDbDictionary
  0
DICTIONARY
  5
1B
102
{ACAD_REACTORS
330
C
102
}
100
AcDbDictionary
  3
STANDARD
350
1D
  0
MLINESTYLE
  5
1D
102
{ACAD_REACTORS
330
1B
102
}
100
AcDbMlineStyle
  2
STANDARD
 70
     0
  3

 62
   256
 51
90.0
 52
90.0
 71
     2
 49
0.5
 62
   256
  6
BYLAYER
 49
-0.5
 62
   256
  6
BYLAYER
   0
XRECORD
   5
1C
 102
{ACAD_REACTORS
 330
C
 102
}
 330
C
 100
AcDbXrecord
 280
1
   1
DWGPROPS COOKIE
   2
 
   3
さぬき一番AP-12
   4
 
   6
 
   7
SI-AP12-1K-A
   8
 
   9

 300
 = 
 301
 = 
 302
 = 
 303
 = 
 304
 = 
 305
 = 
 306
 = 
 307
 = 
 308
 = 
 309
 = 
  40
0.0
  41
 2457107.5000000
  42
 2459656.5000000
   1

  90
10
   0
ENDSEC
   0
EOF
