  0
SECTION
  2
HEADER
  9
$ACADVER
  1
AC1015
  9
$ACADMAINTVER
 70
    20
  9
$DWGCODEPAGE
  3
ANSI_932
  9
$INSBASE
 10
0.0
 20
0.0
 30
0.0
  9
$EXTMIN
 10
0.0000000000000853
 20
0.0
 30
0.0
  9
$EXTMAX
 10
3264.0
 20
2268.0
 30
0.0
  9
$LIMMIN
 10
0.0
 20
0.0
  9
$LIMMAX
 10
3564.0
 20
2520.0
  9
$ORTHOMODE
 70
     0
  9
$REGENMODE
 70
     1
  9
$FILLMODE
 70
     1
  9
$QTEXTMODE
 70
     0
  9
$MIRRTEXT
 70
     1
  9
$LTSCALE
 40
71.28
  9
$ATTMODE
 70
     1
  9
$TEXTSIZE
 40
0.2
  9
$TRACEWID
 40
0.05
  9
$TEXTSTYLE
  7
STANDARD
  9
$CLAYER
  8
0
  9
$CELTYPE
  6
CONTINUOUS
  9
$CECOLOR
 62
   256
  9
$CELTSCALE
 40
1.0
  9
$DISPSILH
 70
     0
  9
$DIMSCALE
 40
1.0
  9
$DIMASZ
 40
0.18
  9
$DIMEXO
 40
0.0625
  9
$DIMDLI
 40
0.38
  9
$DIMRND
 40
0.0
  9
$DIMDLE
 40
0.0
  9
$DIMEXE
 40
0.18
  9
$DIMTP
 40
0.0
  9
$DIMTM
 40
0.0
  9
$DIMTXT
 40
0.18
  9
$DIMCEN
 40
0.09
  9
$DIMTSZ
 40
0.0
  9
$DIMTOL
 70
     0
  9
$DIMLIM
 70
     0
  9
$DIMTIH
 70
     1
  9
$DIMTOH
 70
     1
  9
$DIMSE1
 70
     0
  9
$DIMSE2
 70
     0
  9
$DIMTAD
 70
     0
  9
$DIMZIN
 70
     0
  9
$DIMBLK
  1

  9
$DIMASO
 70
     1
  9
$DIMSHO
 70
     1
  9
$DIMPOST
  1

  9
$DIMAPOST
  1

  9
$DIMALT
 70
     0
  9
$DIMALTD
 70
     2
  9
$DIMALTF
 40
25.4
  9
$DIMLFAC
 40
1.0
  9
$DIMTOFL
 70
     0
  9
$DIMTVP
 40
0.0
  9
$DIMTIX
 70
     0
  9
$DIMSOXD
 70
     0
  9
$DIMSAH
 70
     0
  9
$DIMBLK1
  1

  9
$DIMBLK2
  1

  9
$DIMSTYLE
  2
STANDARD
  9
$DIMCLRD
 70
     0
  9
$DIMCLRE
 70
     0
  9
$DIMCLRT
 70
     0
  9
$DIMTFAC
 40
1.0
  9
$DIMGAP
 40
0.09
  9
$DIMJUST
 70
     0
  9
$DIMSD1
 70
     0
  9
$DIMSD2
 70
     0
  9
$DIMTOLJ
 70
     1
  9
$DIMTZIN
 70
     0
  9
$DIMALTZ
 70
     0
  9
$DIMALTTZ
 70
     0
  9
$DIMUPT
 70
     0
  9
$DIMDEC
 70
     4
  9
$DIMTDEC
 70
     4
  9
$DIMALTU
 70
     2
  9
$DIMALTTD
 70
     2
  9
$DIMTXSTY
  7
STANDARD
  9
$DIMAUNIT
 70
     0
  9
$DIMADEC
 70
     0
  9
$DIMALTRND
 40
0.0
  9
$DIMAZIN
 70
     0
  9
$DIMDSEP
 70
    46
  9
$DIMATFIT
 70
     3
  9
$DIMFRAC
 70
     0
  9
$DIMLDRBLK
  1

  9
$DIMLUNIT
 70
     2
  9
$DIMLWD
 70
    -2
  9
$DIMLWE
 70
    -2
  9
$DIMTMOVE
 70
     0
  9
$LUNITS
 70
     2
  9
$LUPREC
 70
     4
  9
$SKETCHINC
 40
0.1
  9
$FILLETRAD
 40
0.0
  9
$AUNITS
 70
     0
  9
$AUPREC
 70
     0
  9
$MENU
  1
.
  9
$ELEVATION
 40
0.0
  9
$PELEVATION
 40
0.0
  9
$THICKNESS
 40
0.0
  9
$LIMCHECK
 70
     0
  9
$CHAMFERA
 40
0.0
  9
$CHAMFERB
 40
0.0
  9
$CHAMFERC
 40
0.0
  9
$CHAMFERD
 40
0.0
  9
$SKPOLY
 70
     0
  9
$TDCREATE
 40
2451212.682759178
  9
$TDUCREATE
 40
2451212.307759178
  9
$TDUPDATE
 40
2455485.674061771
  9
$TDUUPDATE
 40
2455485.299061771
  9
$TDINDWG
 40
0.0002425810
  9
$TDUSRTIMER
 40
0.0002425810
  9
$USRTIMER
 70
     1
  9
$ANGBASE
 50
0.0
  9
$ANGDIR
 70
     0
  9
$PDMODE
 70
     0
  9
$PDSIZE
 40
0.0
  9
$PLINEWID
 40
0.0
  9
$SPLFRAME
 70
     0
  9
$SPLINETYPE
 70
     6
  9
$SPLINESEGS
 70
     8
  9
$HANDSEED
  5
587
  9
$SURFTAB1
 70
     6
  9
$SURFTAB2
 70
     6
  9
$SURFTYPE
 70
     6
  9
$SURFU
 70
     6
  9
$SURFV
 70
     6
  9
$UCSBASE
  2

  9
$UCSNAME
  2

  9
$UCSORG
 10
0.0
 20
0.0
 30
0.0
  9
$UCSXDIR
 10
1.0
 20
0.0
 30
0.0
  9
$UCSYDIR
 10
0.0
 20
1.0
 30
0.0
  9
$UCSORTHOREF
  2

  9
$UCSORTHOVIEW
 70
     0
  9
$UCSORGTOP
 10
0.0
 20
0.0
 30
0.0
  9
$UCSORGBOTTOM
 10
0.0
 20
0.0
 30
0.0
  9
$UCSORGLEFT
 10
0.0
 20
0.0
 30
0.0
  9
$UCSORGRIGHT
 10
0.0
 20
0.0
 30
0.0
  9
$UCSORGFRONT
 10
0.0
 20
0.0
 30
0.0
  9
$UCSORGBACK
 10
0.0
 20
0.0
 30
0.0
  9
$PUCSBASE
  2

  9
$PUCSNAME
  2

  9
$PUCSORG
 10
0.0
 20
0.0
 30
0.0
  9
$PUCSXDIR
 10
1.0
 20
0.0
 30
0.0
  9
$PUCSYDIR
 10
0.0
 20
1.0
 30
0.0
  9
$PUCSORTHOREF
  2

  9
$PUCSORTHOVIEW
 70
     0
  9
$PUCSORGTOP
 10
0.0
 20
0.0
 30
0.0
  9
$PUCSORGBOTTOM
 10
0.0
 20
0.0
 30
0.0
  9
$PUCSORGLEFT
 10
0.0
 20
0.0
 30
0.0
  9
$PUCSORGRIGHT
 10
0.0
 20
0.0
 30
0.0
  9
$PUCSORGFRONT
 10
0.0
 20
0.0
 30
0.0
  9
$PUCSORGBACK
 10
0.0
 20
0.0
 30
0.0
  9
$USERI1
 70
     0
  9
$USERI2
 70
     0
  9
$USERI3
 70
     0
  9
$USERI4
 70
     0
  9
$USERI5
 70
     0
  9
$USERR1
 40
0.0
  9
$USERR2
 40
0.0
  9
$USERR3
 40
0.0
  9
$USERR4
 40
0.0
  9
$USERR5
 40
0.0
  9
$WORLDVIEW
 70
     1
  9
$SHADEDGE
 70
     3
  9
$SHADEDIF
 70
    70
  9
$TILEMODE
 70
     1
  9
$MAXACTVP
 70
    16
  9
$PINSBASE
 10
0.0
 20
0.0
 30
0.0
  9
$PLIMCHECK
 70
     0
  9
$PEXTMIN
 10
1.000000000000000E+20
 20
1.000000000000000E+20
 30
1.000000000000000E+20
  9
$PEXTMAX
 10
-1.000000000000000E+20
 20
-1.000000000000000E+20
 30
-1.000000000000000E+20
  9
$PLIMMIN
 10
0.0
 20
0.0
  9
$PLIMMAX
 10
12.0
 20
9.0
  9
$UNITMODE
 70
     0
  9
$VISRETAIN
 70
     1
  9
$PLINEGEN
 70
     0
  9
$PSLTSCALE
 70
     1
  9
$TREEDEPTH
 70
  3020
  9
$CMLSTYLE
  2
STANDARD
  9
$CMLJUST
 70
     0
  9
$CMLSCALE
 40
1.0
  9
$PROXYGRAPHICS
 70
     1
  9
$MEASUREMENT
 70
     0
  9
$CELWEIGHT
370
    -1
  9
$ENDCAPS
280
     0
  9
$JOINSTYLE
280
     0
  9
$LWDISPLAY
290
     0
  9
$INSUNITS
 70
     0
  9
$HYPERLINKBASE
  1

  9
$STYLESHEET
  1

  9
$XEDIT
290
     1
  9
$CEPSNTYPE
380
     0
  9
$PSTYLEMODE
290
     1
  9
$FINGERPRINTGUID
  2
{B03DA16E-14BA-4D72-B838-6A2785A84B68}
  9
$VERSIONGUID
  2
{61C4181E-3D79-4BAF-86F8-CAFC2A199326}
  9
$EXTNAMES
290
     1
  9
$PSVPSCALE
 40
0.0
  9
$OLESTARTUP
290
     0
  0
ENDSEC
  0
SECTION
  2
CLASSES
  0
CLASS
  1
ACDBDICTIONARYWDFLT
  2
AcDbDictionaryWithDefault
  3
ObjectDBX Classes
 90
        0
280
     0
281
     0
  0
CLASS
  1
TABLESTYLE
  2
AcDbTableStyle
  3
ObjectDBX Classes
 90
     2047
280
     0
281
     0
  0
CLASS
  1
DICTIONARYVAR
  2
AcDbDictionaryVar
  3
ObjectDBX Classes
 90
        0
280
     0
281
     0
  0
CLASS
  1
ACDBPLACEHOLDER
  2
AcDbPlaceHolder
  3
ObjectDBX Classes
 90
        0
280
     0
281
     0
  0
CLASS
  1
LAYOUT
  2
AcDbLayout
  3
ObjectDBX Classes
 90
        0
280
     0
281
     0
  0
ENDSEC
  0
SECTION
  2
TABLES
  0
TABLE
  2
VPORT
  5
1
330
0
100
AcDbSymbolTable
 70
     2
  0
VPORT
  5
581
330
1
100
AcDbSymbolTableRecord
100
AcDbViewportTableRecord
  2
*Active
 70
     0
 10
0.0
 20
0.0
 11
1.0
 21
1.0
 12
2987.428158844728
 22
1260.0
 13
0.0
 23
0.0
 14
1.0
 24
1.0
 15
0.0
 25
0.0
 16
0.0
 26
0.0
 36
1.0
 17
0.0
 27
0.0
 37
0.0
 40
3564.0
 41
2.155234657039711
 42
50.0
 43
0.0
 44
0.0
 50
0.0
 51
0.0
 71
     0
 72
   100
 73
     1
 74
     1
 75
     0
 76
     0
 77
     0
 78
     0
281
     0
 65
     1
110
0.0
120
0.0
130
0.0
111
1.0
121
0.0
131
0.0
112
0.0
122
1.0
132
0.0
 79
     0
146
0.0
  0
ENDTAB
  0
TABLE
  2
LTYPE
  5
8D
330
0
100
AcDbSymbolTable
 70
    25
  0
LTYPE
  5
29
330
8D
100
AcDbSymbolTableRecord
100
AcDbLinetypeTableRecord
  2
BYBLOCK
 70
     0
  3

 72
    65
 73
     0
 40
0.0
  0
LTYPE
  5
2A
330
8D
100
AcDbSymbolTableRecord
100
AcDbLinetypeTableRecord
  2
BYLAYER
 70
     0
  3

 72
    65
 73
     0
 40
0.0
  0
LTYPE
  5
2B
330
8D
100
AcDbSymbolTableRecord
100
AcDbLinetypeTableRecord
  2
CONTINUOUS
 70
     0
  3
Solid line
 72
    65
 73
     0
 40
0.0
  0
LTYPE
  5
2C
330
8D
100
AcDbSymbolTableRecord
100
AcDbLinetypeTableRecord
  2
BORDER
 70
     0
  3
__ __ . __ __ . __ __ . __ __ . __ __ . __ __ .
 72
    65
 73
     6
 40
1.75
 49
0.5
 74
     0
 49
-0.25
 74
     0
 49
0.5
 74
     0
 49
-0.25
 74
     0
 49
0.0
 74
     0
 49
-0.25
 74
     0
  0
LTYPE
  5
2D
330
8D
100
AcDbSymbolTableRecord
100
AcDbLinetypeTableRecord
  2
BORDER2
 70
     0
  3
__.__.__.__.__.__.__.__.__.__.__.__.__.__.__.__
 72
    65
 73
     6
 40
0.875
 49
0.25
 74
     0
 49
-0.125
 74
     0
 49
0.25
 74
     0
 49
-0.125
 74
     0
 49
0.0
 74
     0
 49
-0.125
 74
     0
  0
LTYPE
  5
2E
330
8D
100
AcDbSymbolTableRecord
100
AcDbLinetypeTableRecord
  2
BORDERX2
 70
     0
  3
____  ____  .  ____  ____  .  ____  ____  .  __
 72
    65
 73
     6
 40
3.5
 49
1.0
 74
     0
 49
-0.5
 74
     0
 49
1.0
 74
     0
 49
-0.5
 74
     0
 49
0.0
 74
     0
 49
-0.5
 74
     0
  0
LTYPE
  5
2F
330
8D
100
AcDbSymbolTableRecord
100
AcDbLinetypeTableRecord
  2
CENTER
 70
     0
  3
____ _ ____ _ ____ _ ____ _ ____ _ ____ _ ____ 
 72
    65
 73
     4
 40
2.0
 49
1.25
 74
     0
 49
-0.25
 74
     0
 49
0.25
 74
     0
 49
-0.25
 74
     0
  0
LTYPE
  5
30
330
8D
100
AcDbSymbolTableRecord
100
AcDbLinetypeTableRecord
  2
CENTER2
 70
     0
  3
___ _ ___ _ ___ _ ___ _ ___ _ ___ _ ___ _ ___ _
 72
    65
 73
     4
 40
1.125
 49
0.75
 74
     0
 49
-0.125
 74
     0
 49
0.125
 74
     0
 49
-0.125
 74
     0
  0
LTYPE
  5
31
330
8D
100
AcDbSymbolTableRecord
100
AcDbLinetypeTableRecord
  2
CENTERX2
 70
     0
  3
________  __  ________  __  ________  __  _____
 72
    65
 73
     4
 40
4.0
 49
2.5
 74
     0
 49
-0.5
 74
     0
 49
0.5
 74
     0
 49
-0.5
 74
     0
  0
LTYPE
  5
32
330
8D
100
AcDbSymbolTableRecord
100
AcDbLinetypeTableRecord
  2
DASHDOT
 70
     0
  3
__ . __ . __ . __ . __ . __ . __ . __ . __ . __
 72
    65
 73
     4
 40
1.0
 49
0.5
 74
     0
 49
-0.25
 74
     0
 49
0.0
 74
     0
 49
-0.25
 74
     0
  0
LTYPE
  5
33
330
8D
100
AcDbSymbolTableRecord
100
AcDbLinetypeTableRecord
  2
DASHDOT2
 70
     0
  3
_._._._._._._._._._._._._._._._._._._._._._._._
 72
    65
 73
     4
 40
0.5
 49
0.25
 74
     0
 49
-0.125
 74
     0
 49
0.0
 74
     0
 49
-0.125
 74
     0
  0
LTYPE
  5
34
330
8D
100
AcDbSymbolTableRecord
100
AcDbLinetypeTableRecord
  2
DASHDOTX2
 70
     0
  3
____  .  ____  .  ____  .  ____  .  ____  .  __
 72
    65
 73
     4
 40
2.0
 49
1.0
 74
     0
 49
-0.5
 74
     0
 49
0.0
 74
     0
 49
-0.5
 74
     0
  0
LTYPE
  5
35
330
8D
100
AcDbSymbolTableRecord
100
AcDbLinetypeTableRecord
  2
DASHED
 70
     0
  3
__ __ __ __ __ __ __ __ __ __ __ __ __ __ __ __
 72
    65
 73
     2
 40
0.75
 49
0.5
 74
     0
 49
-0.25
 74
     0
  0
LTYPE
  5
36
330
8D
100
AcDbSymbolTableRecord
100
AcDbLinetypeTableRecord
  2
DASHED2
 70
     0
  3
_ _ _ _ _ _ _ _ _ _ _ _ _ _ _ _ _ _ _ _ _ _ _ _
 72
    65
 73
     2
 40
0.375
 49
0.25
 74
     0
 49
-0.125
 74
     0
  0
LTYPE
  5
37
330
8D
100
AcDbSymbolTableRecord
100
AcDbLinetypeTableRecord
  2
DASHEDX2
 70
     0
  3
____  ____  ____  ____  ____  ____  ____  ____ 
 72
    65
 73
     2
 40
1.5
 49
1.0
 74
     0
 49
-0.5
 74
     0
  0
LTYPE
  5
38
330
8D
100
AcDbSymbolTableRecord
100
AcDbLinetypeTableRecord
  2
DIVIDE
 70
     0
  3
____ . . ____ . . ____ . . ____ . . ____ . . __
 72
    65
 73
     6
 40
1.25
 49
0.5
 74
     0
 49
-0.25
 74
     0
 49
0.0
 74
     0
 49
-0.25
 74
     0
 49
0.0
 74
     0
 49
-0.25
 74
     0
  0
LTYPE
  5
39
330
8D
100
AcDbSymbolTableRecord
100
AcDbLinetypeTableRecord
  2
DIVIDE2
 70
     0
  3
__..__..__..__..__..__..__..__..__..__..__..__.
 72
    65
 73
     6
 40
0.625
 49
0.25
 74
     0
 49
-0.125
 74
     0
 49
0.0
 74
     0
 49
-0.125
 74
     0
 49
0.0
 74
     0
 49
-0.125
 74
     0
  0
LTYPE
  5
3A
330
8D
100
AcDbSymbolTableRecord
100
AcDbLinetypeTableRecord
  2
DIVIDEX2
 70
     0
  3
________  .  .  ________  .  .  ________  .  . 
 72
    65
 73
     6
 40
2.5
 49
1.0
 74
     0
 49
-0.5
 74
     0
 49
0.0
 74
     0
 49
-0.5
 74
     0
 49
0.0
 74
     0
 49
-0.5
 74
     0
  0
LTYPE
  5
3B
330
8D
100
AcDbSymbolTableRecord
100
AcDbLinetypeTableRecord
  2
DOT
 70
     0
  3
. . . . . . . . . . . . . . . . . . . . . . . .
 72
    65
 73
     2
 40
0.25
 49
0.0
 74
     0
 49
-0.25
 74
     0
  0
LTYPE
  5
3C
330
8D
100
AcDbSymbolTableRecord
100
AcDbLinetypeTableRecord
  2
DOT2
 70
     0
  3
...............................................
 72
    65
 73
     2
 40
0.125
 49
0.0
 74
     0
 49
-0.125
 74
     0
  0
LTYPE
  5
3D
330
8D
100
AcDbSymbolTableRecord
100
AcDbLinetypeTableRecord
  2
DOTX2
 70
     0
  3
.  .  .  .  .  .  .  .  .  .  .  .  .  .  .  . 
 72
    65
 73
     2
 40
0.5
 49
0.0
 74
     0
 49
-0.5
 74
     0
  0
LTYPE
  5
3E
330
8D
100
AcDbSymbolTableRecord
100
AcDbLinetypeTableRecord
  2
HIDDEN
 70
     0
  3
__ __ __ __ __ __ __ __ __ __ __ __ __ __ __ __
 72
    65
 73
     2
 40
0.375
 49
0.25
 74
     0
 49
-0.125
 74
     0
  0
LTYPE
  5
3F
330
8D
100
AcDbSymbolTableRecord
100
AcDbLinetypeTableRecord
  2
HIDDEN2
 70
     0
  3
_ _ _ _ _ _ _ _ _ _ _ _ _ _ _ _ _ _ _ _ _ _ _ _
 72
    65
 73
     2
 40
0.1875
 49
0.125
 74
     0
 49
-0.0625
 74
     0
  0
LTYPE
  5
40
330
8D
100
AcDbSymbolTableRecord
100
AcDbLinetypeTableRecord
  2
HIDDENX2
 70
     0
  3
____ ____ ____ ____ ____ ____ ____ ____ ____ __
 72
    65
 73
     2
 40
0.75
 49
0.5
 74
     0
 49
-0.25
 74
     0
  0
LTYPE
  5
41
330
8D
100
AcDbSymbolTableRecord
100
AcDbLinetypeTableRecord
  2
PHANTOM
 70
     0
  3
______  __  __  ______  __  __  ______  __  __ 
 72
    65
 73
     6
 40
2.5
 49
1.25
 74
     0
 49
-0.25
 74
     0
 49
0.25
 74
     0
 49
-0.25
 74
     0
 49
0.25
 74
     0
 49
-0.25
 74
     0
  0
LTYPE
  5
42
330
8D
100
AcDbSymbolTableRecord
100
AcDbLinetypeTableRecord
  2
PHANTOM2
 70
     0
  3
___ _ _ ___ _ _ ___ _ _ ___ _ _ ___ _ _ ___ _ _
 72
    65
 73
     6
 40
1.25
 49
0.625
 74
     0
 49
-0.125
 74
     0
 49
0.125
 74
     0
 49
-0.125
 74
     0
 49
0.125
 74
     0
 49
-0.125
 74
     0
  0
LTYPE
  5
43
330
8D
100
AcDbSymbolTableRecord
100
AcDbLinetypeTableRecord
  2
PHANTOMX2
 70
     0
  3
____________    ____    ____    ____________   
 72
    65
 73
     6
 40
5.0
 49
2.5
 74
     0
 49
-0.5
 74
     0
 49
0.5
 74
     0
 49
-0.5
 74
     0
 49
0.5
 74
     0
 49
-0.5
 74
     0
  0
ENDTAB
  0
TABLE
  2
LAYER
  5
8C
330
0
100
AcDbSymbolTable
 70
     5
  0
LAYER
  5
44
330
8C
100
AcDbSymbolTableRecord
100
AcDbLayerTableRecord
  2
0
 70
     0
 62
     7
  6
CONTINUOUS
370
    -3
390
571
  0
LAYER
  5
45
330
8C
100
AcDbSymbolTableRecord
100
AcDbLayerTableRecord
  2
LEVEL001
 70
     0
 62
     7
  6
CONTINUOUS
370
    -3
390
571
  0
LAYER
  5
46
330
8C
100
AcDbSymbolTableRecord
100
AcDbLayerTableRecord
  2
内図枠(作図領域)
 70
     0
 62
     7
  6
CONTINUOUS
370
    -3
390
571
  0
LAYER
  5
47
330
8C
100
AcDbSymbolTableRecord
100
AcDbLayerTableRecord
  2
外図枠(出力紙領域)
 70
     0
 62
     7
  6
CONTINUOUS
370
    -3
390
571
  0
LAYER
  5
48
330
8C
100
AcDbSymbolTableRecord
100
AcDbLayerTableRecord
  2
部品表金額表示用
 70
     0
 62
     7
  6
CONTINUOUS
370
    -3
390
571
  0
ENDTAB
  0
TABLE
  2
STYLE
  5
6
330
0
100
AcDbSymbolTable
 70
     3
  0
STYLE
  5
7
330
6
100
AcDbSymbolTableRecord
100
AcDbTextStyleTableRecord
  2
STANDARD
 70
     0
 40
0.0
 41
1.0
 50
0.0
 71
     0
 42
0.2
  3
TXT
  4
BIGFONT
  0
STYLE
  5
8
330
6
100
AcDbSymbolTableRecord
100
AcDbTextStyleTableRecord
  2
STANDARD1
 70
     4
 40
0.0
 41
1.0
 50
0.0
 71
     0
 42
0.2
  3
TXT
  4
BIGFONT
  0
STYLE
  5
9
330
6
100
AcDbSymbolTableRecord
100
AcDbTextStyleTableRecord
  2
GMM001
 70
     0
 40
0.0
 41
1.0
 50
0.0
 71
     0
 42
1.0
  3
txt.shx
  4
bigfont.shx
  0
ENDTAB
  0
TABLE
  2
VIEW
  5
2
330
0
100
AcDbSymbolTable
 70
     0
  0
ENDTAB
  0
TABLE
  2
UCS
  5
3
330
0
100
AcDbSymbolTable
 70
     0
  0
ENDTAB
  0
TABLE
  2
APPID
  5
4
330
0
100
AcDbSymbolTable
 70
     1
  0
APPID
  5
5
330
4
100
AcDbSymbolTableRecord
100
AcDbRegAppTableRecord
  2
ACAD
 70
     0
  0
ENDTAB
  0
TABLE
  2
DIMSTYLE
  5
8B
330
0
100
AcDbSymbolTable
 70
     2
100
AcDbDimStyleTable
 71
     0
  0
DIMSTYLE
105
49
330
8B
100
AcDbSymbolTableRecord
100
AcDbDimStyleTableRecord
  2
STANDARD
 70
     0
340
7
  0
DIMSTYLE
105
4A
102
{ACAD_REACTORS
330
553
330
554
330
555
102
}
330
8B
100
AcDbSymbolTableRecord
100
AcDbDimStyleTableRecord
  2
GMM001
 70
     0
 41
18.0
 42
0.0
 43
48.0
 44
12.0
 46
22.5
 73
     0
 74
     0
 77
     1
 78
     8
140
36.0
141
6.0
143
0.0394
146
0.625
147
15.428571428571
172
     1
173
     1
176
     1
177
     1
178
     7
271
     6
272
     0
340
9
341
16
343
16
344
16
  0
ENDTAB
  0
TABLE
  2
BLOCK_RECORD
  5
A
330
0
100
AcDbSymbolTable
 70
    28
  0
BLOCK_RECORD
  5
B
330
A
100
AcDbSymbolTableRecord
100
AcDbBlockTableRecord
  2
*MODEL_SPACE
340
578
  0
BLOCK_RECORD
  5
C
330
A
100
AcDbSymbolTableRecord
100
AcDbBlockTableRecord
  2
*PAPER_SPACE
340
579
  0
BLOCK_RECORD
  5
D
330
A
100
AcDbSymbolTableRecord
100
AcDbBlockTableRecord
  2
*D0
340
0
  0
BLOCK_RECORD
  5
E
330
A
100
AcDbSymbolTableRecord
100
AcDbBlockTableRecord
  2
*D1
340
0
  0
BLOCK_RECORD
  5
F
330
A
100
AcDbSymbolTableRecord
100
AcDbBlockTableRecord
  2
*D2
340
0
  0
BLOCK_RECORD
  5
10
330
A
100
AcDbSymbolTableRecord
100
AcDbBlockTableRecord
  2
_ARCHTICK
340
0
  0
BLOCK_RECORD
  5
11
330
A
100
AcDbSymbolTableRecord
100
AcDbBlockTableRecord
  2
_OBLIQUE
340
0
  0
BLOCK_RECORD
  5
12
330
A
100
AcDbSymbolTableRecord
100
AcDbBlockTableRecord
  2
_BOXBLANK
340
0
  0
BLOCK_RECORD
  5
13
330
A
100
AcDbSymbolTableRecord
100
AcDbBlockTableRecord
  2
_BOXFILLED
340
0
  0
BLOCK_RECORD
  5
14
330
A
100
AcDbSymbolTableRecord
100
AcDbBlockTableRecord
  2
_CLOSED
340
0
  0
BLOCK_RECORD
  5
15
330
A
100
AcDbSymbolTableRecord
100
AcDbBlockTableRecord
  2
_OPEN
340
0
  0
BLOCK_RECORD
  5
16
330
A
100
AcDbSymbolTableRecord
100
AcDbBlockTableRecord
  2
_OPEN30
340
0
102
{BLKREFS
331
9D
331
9E
331
A3
331
A4
331
A9
331
AA
102
}
  0
BLOCK_RECORD
  5
17
330
A
100
AcDbSymbolTableRecord
100
AcDbBlockTableRecord
  2
_OPEN90
340
0
  0
BLOCK_RECORD
  5
18
330
A
100
AcDbSymbolTableRecord
100
AcDbBlockTableRecord
  2
_CLOSEDBLANK
340
0
  0
BLOCK_RECORD
  5
19
330
A
100
AcDbSymbolTableRecord
100
AcDbBlockTableRecord
  2
_DOT
340
0
  0
BLOCK_RECORD
  5
1A
330
A
100
AcDbSymbolTableRecord
100
AcDbBlockTableRecord
  2
_DOTSMALL
340
0
  0
BLOCK_RECORD
  5
1B
330
A
100
AcDbSymbolTableRecord
100
AcDbBlockTableRecord
  2
_DATUMBLANK
340
0
  0
BLOCK_RECORD
  5
1C
330
A
100
AcDbSymbolTableRecord
100
AcDbBlockTableRecord
  2
_DATUMFILLED
340
0
  0
BLOCK_RECORD
  5
1D
330
A
100
AcDbSymbolTableRecord
100
AcDbBlockTableRecord
  2
_ORIGIN
340
0
  0
BLOCK_RECORD
  5
1E
330
A
100
AcDbSymbolTableRecord
100
AcDbBlockTableRecord
  2
_NONE
340
0
  0
BLOCK_RECORD
  5
1F
330
A
100
AcDbSymbolTableRecord
100
AcDbBlockTableRecord
  2
_DOTBLANK
340
0
  0
BLOCK_RECORD
  5
20
330
A
100
AcDbSymbolTableRecord
100
AcDbBlockTableRecord
  2
_INTEGRAL
340
0
  0
BLOCK_RECORD
  5
21
330
A
100
AcDbSymbolTableRecord
100
AcDbBlockTableRecord
  2
A2
340
0
102
{BLKREFS
331
115
102
}
  0
BLOCK_RECORD
  5
22
330
A
100
AcDbSymbolTableRecord
100
AcDbBlockTableRecord
  2
BLOCK001
340
0
102
{BLKREFS
331
116
102
}
  0
BLOCK_RECORD
  5
23
330
A
100
AcDbSymbolTableRecord
100
AcDbBlockTableRecord
  2
BLOCK002
340
0
102
{BLKREFS
331
117
102
}
  0
BLOCK_RECORD
  5
24
330
A
100
AcDbSymbolTableRecord
100
AcDbBlockTableRecord
  2
BLOCK003
340
0
102
{BLKREFS
331
118
102
}
  0
BLOCK_RECORD
  5
25
330
A
100
AcDbSymbolTableRecord
100
AcDbBlockTableRecord
  2
EGF13M16
340
0
102
{BLKREFS
331
2C2
331
2C6
331
403
331
407
331
4A4
331
4A8
102
}
  0
BLOCK_RECORD
  5
26
330
A
100
AcDbSymbolTableRecord
100
AcDbBlockTableRecord
  2
EGF11M16
340
0
102
{BLKREFS
331
2C3
331
2C7
331
404
331
408
331
4A5
331
4A9
102
}
  0
BLOCK_RECORD
  5
27
330
A
100
AcDbSymbolTableRecord
100
AcDbBlockTableRecord
  2
EGF13M12
340
0
102
{BLKREFS
331
357
331
523
331
52D
102
}
  0
BLOCK_RECORD
  5
28
330
A
100
AcDbSymbolTableRecord
100
AcDbBlockTableRecord
  2
EGF11M12
340
0
102
{BLKREFS
331
358
331
359
331
524
331
52E
331
534
331
537
102
}
  0
ENDTAB
  0
ENDSEC
  0
SECTION
  2
BLOCKS
  0
BLOCK
  5
4F
330
B
100
AcDbEntity
  8
0
100
AcDbBlockBegin
  2
*MODEL_SPACE
 70
     0
 10
0.0
 20
0.0
 30
0.0
  3
*MODEL_SPACE
  1

  0
ENDBLK
  5
6D
330
B
100
AcDbEntity
  8
0
100
AcDbBlockEnd
  0
BLOCK
  5
50
330
C
100
AcDbEntity
 67
     1
  8
0
100
AcDbBlockBegin
  2
*PAPER_SPACE
 70
     0
 10
0.0
 20
0.0
 30
0.0
  3
*PAPER_SPACE
  1

  0
ENDBLK
  5
6E
330
C
100
AcDbEntity
 67
     1
  8
0
100
AcDbBlockEnd
  0
BLOCK
  5
51
330
D
100
AcDbEntity
  8
0
100
AcDbBlockBegin
  2
*D0
 70
     1
 10
0.0
 20
0.0
 30
0.0
  3
*D0
  1

  0
LINE
  5
9A
330
D
100
AcDbEntity
  8
LEVEL001
  6
Continuous
 62
     1
100
AcDbLine
 10
118.99999999999
 20
983.0
 30
0.0
 11
118.99999999999
 21
1313.0
 31
0.0
  0
LINE
  5
9B
330
D
100
AcDbEntity
  8
LEVEL001
  6
Continuous
 62
     1
100
AcDbLine
 10
1184.0
 20
983.0
 30
0.0
 11
1184.0
 21
1313.0
 31
0.0
  0
LINE
  5
9C
330
D
100
AcDbEntity
  8
LEVEL001
  6
Continuous
 62
     1
100
AcDbLine
 10
118.99999999999
 20
1301.0
 30
0.0
 11
1184.0
 21
1301.0
 31
0.0
  0
INSERT
  5
9D
330
D
100
AcDbEntity
  8
LEVEL001
  6
Continuous
 62
     1
100
AcDbBlockReference
  2
_OPEN30
 10
118.99999999999
 20
1301.0
 30
0.0
 41
18.0
 42
18.0
 43
18.0
 50
180.0
  0
INSERT
  5
9E
330
D
100
AcDbEntity
  8
LEVEL001
  6
Continuous
 62
     1
100
AcDbBlockReference
  2
_OPEN30
 10
1184.0
 20
1301.0
 30
0.0
 41
18.0
 42
18.0
 43
18.0
  0
MTEXT
  5
9F
330
D
100
AcDbEntity
  8
LEVEL001
  6
ByBlock
 62
     7
100
AcDbMText
 10
651.49999999999
 20
1316.4285714286
 30
0.0
 40
36.0
 41
0.0
 71
     8
 72
     1
  1
\A1;1065
  7
GMM001
 73
     1
 44
1.0
1001
ACAD
1000
MTEXTBEGIN
1070
    73
1070
     1
1070
    44
1040
1.0
1070
    74
1070
     0
1000
MTEXTEND
  0
ENDBLK
  5
77
330
D
100
AcDbEntity
  8
0
100
AcDbBlockEnd
  0
BLOCK
  5
52
330
E
100
AcDbEntity
  8
0
100
AcDbBlockBegin
  2
*D1
 70
     1
 10
0.0
 20
0.0
 30
0.0
  3
*D1
  1

  0
LINE
  5
A0
330
E
100
AcDbEntity
  8
LEVEL001
  6
Continuous
 62
     1
100
AcDbLine
 10
2104.4578667602
 20
1264.0000000582
 30
0.0
 11
1408.0
 21
1264.0000000582
 31
0.0
  0
LINE
  5
A1
330
E
100
AcDbEntity
  8
LEVEL001
  6
Continuous
 62
     1
100
AcDbLine
 10
1518.6748548989
 20
34.0
 30
0.0
 11
1408.0
 21
34.0
 31
0.0
  0
LINE
  5
A2
330
E
100
AcDbEntity
  8
LEVEL001
  6
Continuous
 62
     1
100
AcDbLine
 10
1420.0
 20
1264.0000000582
 30
0.0
 11
1420.0
 21
34.0
 31
0.0
  0
INSERT
  5
A3
330
E
100
AcDbEntity
  8
LEVEL001
  6
Continuous
 62
     1
100
AcDbBlockReference
  2
_OPEN30
 10
1420.0
 20
1264.0000000582
 30
0.0
 41
18.0
 42
18.0
 43
18.0
 50
90.0
  0
INSERT
  5
A4
330
E
100
AcDbEntity
  8
LEVEL001
  6
Continuous
 62
     1
100
AcDbBlockReference
  2
_OPEN30
 10
1420.0
 20
34.0
 30
0.0
 41
18.0
 42
18.0
 43
18.0
 50
270.0
  0
MTEXT
  5
A5
330
E
100
AcDbEntity
  8
LEVEL001
  6
ByBlock
 62
     7
100
AcDbMText
 10
1404.5714285714
 20
649.0000000291099
 30
0.0
 40
36.0
 41
0.0
 71
     8
 72
     1
  1
\A1;1230
  7
GMM001
 11
0.0
 21
1.0
 31
0.0
 73
     1
 44
1.0
1001
ACAD
1000
MTEXTBEGIN
1070
    73
1070
     1
1070
    44
1040
1.0
1070
    74
1070
     0
1000
MTEXTEND
  0
ENDBLK
  5
78
330
E
100
AcDbEntity
  8
0
100
AcDbBlockEnd
  0
BLOCK
  5
53
330
F
100
AcDbEntity
  8
0
100
AcDbBlockBegin
  2
*D2
 70
     1
 10
0.0
 20
0.0
 30
0.0
  3
*D2
  1

  0
LINE
  5
A6
330
F
100
AcDbEntity
  8
LEVEL001
  6
Continuous
 62
     1
100
AcDbLine
 10
1536.7939653009
 20
1008.1265193121
 30
0.0
 11
1536.7939653009
 21
1313.0
 31
0.0
  0
LINE
  5
A7
330
F
100
AcDbEntity
  8
LEVEL001
  6
Continuous
 62
     1
100
AcDbLine
 10
2426.7939653009
 20
619.1945891599401
 30
0.0
 11
2426.7939653009
 21
1313.0
 31
0.0
  0
LINE
  5
A8
330
F
100
AcDbEntity
  8
LEVEL001
  6
Continuous
 62
     1
100
AcDbLine
 10
1536.7939653009
 20
1301.0
 30
0.0
 11
2426.7939653009
 21
1301.0
 31
0.0
  0
INSERT
  5
A9
330
F
100
AcDbEntity
  8
LEVEL001
  6
Continuous
 62
     1
100
AcDbBlockReference
  2
_OPEN30
 10
1536.7939653009
 20
1301.0
 30
0.0
 41
18.0
 42
18.0
 43
18.0
 50
180.0
  0
INSERT
  5
AA
330
F
100
AcDbEntity
  8
LEVEL001
  6
Continuous
 62
     1
100
AcDbBlockReference
  2
_OPEN30
 10
2426.7939653009
 20
1301.0
 30
0.0
 41
18.0
 42
18.0
 43
18.0
  0
MTEXT
  5
AB
330
F
100
AcDbEntity
  8
LEVEL001
  6
ByBlock
 62
     7
100
AcDbMText
 10
1981.7939653009
 20
1316.4285714286
 30
0.0
 40
36.0
 41
0.0
 71
     8
 72
     1
  1
\A1;890
  7
GMM001
 73
     1
 44
1.0
1001
ACAD
1000
MTEXTBEGIN
1070
    73
1070
     1
1070
    44
1040
1.0
1070
    74
1070
     0
1000
MTEXTEND
  0
ENDBLK
  5
79
330
F
100
AcDbEntity
  8
0
100
AcDbBlockEnd
  0
BLOCK
  5
54
330
10
100
AcDbEntity
  8
0
100
AcDbBlockBegin
  2
_ARCHTICK
 70
     0
 10
0.0
 20
0.0
 30
0.0
  3
_ARCHTICK
  1

  0
LWPOLYLINE
  5
AC
330
10
100
AcDbEntity
  8
0
  6
ByBlock
 62
     0
100
AcDbPolyline
 90
        2
 70
     1
 43
0.15
 10
-0.5
 20
-0.5
 10
0.5
 20
0.5
  0
ENDBLK
  5
7A
330
10
100
AcDbEntity
  8
0
100
AcDbBlockEnd
  0
BLOCK
  5
55
330
11
100
AcDbEntity
  8
0
100
AcDbBlockBegin
  2
_OBLIQUE
 70
     0
 10
0.0
 20
0.0
 30
0.0
  3
_OBLIQUE
  1

  0
LINE
  5
B0
330
11
100
AcDbEntity
  8
0
  6
ByBlock
 62
     0
100
AcDbLine
 10
-0.5
 20
-0.5
 30
0.0
 11
0.5
 21
0.5
 31
0.0
  0
ENDBLK
  5
86
330
11
100
AcDbEntity
  8
0
100
AcDbBlockEnd
  0
BLOCK
  5
56
330
12
100
AcDbEntity
  8
0
100
AcDbBlockBegin
  2
_BOXBLANK
 70
     0
 10
0.0
 20
0.0
 30
0.0
  3
_BOXBLANK
  1

  0
LINE
  5
B1
330
12
100
AcDbEntity
  8
0
  6
ByBlock
 62
     0
100
AcDbLine
 10
-0.5
 20
-0.5
 30
0.0
 11
0.5
 21
-0.5
 31
0.0
  0
LINE
  5
B2
330
12
100
AcDbEntity
  8
0
  6
ByBlock
 62
     0
100
AcDbLine
 10
0.5
 20
-0.5
 30
0.0
 11
0.5
 21
0.5
 31
0.0
  0
LINE
  5
B3
330
12
100
AcDbEntity
  8
0
  6
ByBlock
 62
     0
100
AcDbLine
 10
0.5
 20
0.5
 30
0.0
 11
-0.5
 21
0.5
 31
0.0
  0
LINE
  5
B4
330
12
100
AcDbEntity
  8
0
  6
ByBlock
 62
     0
100
AcDbLine
 10
-0.5
 20
0.5
 30
0.0
 11
-0.5
 21
-0.5
 31
0.0
  0
LINE
  5
B5
330
12
100
AcDbEntity
  8
0
  6
ByBlock
 62
     0
100
AcDbLine
 10
-0.5
 20
0.0
 30
0.0
 11
-1.0
 21
0.0
 31
0.0
  0
ENDBLK
  5
7B
330
12
100
AcDbEntity
  8
0
100
AcDbBlockEnd
  0
BLOCK
  5
57
330
13
100
AcDbEntity
  8
0
100
AcDbBlockBegin
  2
_BOXFILLED
 70
     0
 10
0.0
 20
0.0
 30
0.0
  3
_BOXFILLED
  1

  0
SOLID
  5
B6
330
13
100
AcDbEntity
  8
0
  6
ByBlock
 62
     0
100
AcDbTrace
 10
-0.5
 20
0.5
 30
0.0
 11
0.5
 21
0.5
 31
0.0
 12
-0.5
 22
-0.5
 32
0.0
 13
0.5
 23
-0.5
 33
0.0
  0
LINE
  5
B7
330
13
100
AcDbEntity
  8
0
  6
ByBlock
 62
     0
100
AcDbLine
 10
-0.5
 20
0.0
 30
0.0
 11
-1.0
 21
0.0
 31
0.0
  0
ENDBLK
  5
7C
330
13
100
AcDbEntity
  8
0
100
AcDbBlockEnd
  0
BLOCK
  5
58
330
14
100
AcDbEntity
  8
0
100
AcDbBlockBegin
  2
_CLOSED
 70
     0
 10
0.0
 20
0.0
 30
0.0
  3
_CLOSED
  1

  0
LINE
  5
B8
330
14
100
AcDbEntity
  8
0
  6
ByBlock
 62
     0
100
AcDbLine
 10
-1.0
 20
0.16666666666667
 30
0.0
 11
0.0
 21
0.0
 31
0.0
  0
LINE
  5
B9
330
14
100
AcDbEntity
  8
0
  6
ByBlock
 62
     0
100
AcDbLine
 10
0.0
 20
0.0
 30
0.0
 11
-1.0
 21
-0.16666666666667
 31
0.0
  0
LINE
  5
BA
330
14
100
AcDbEntity
  8
0
  6
ByBlock
 62
     0
100
AcDbLine
 10
-1.0
 20
0.16666666666667
 30
0.0
 11
-1.0
 21
-0.16666666666667
 31
0.0
  0
LINE
  5
BB
330
14
100
AcDbEntity
  8
0
  6
ByBlock
 62
     0
100
AcDbLine
 10
0.0
 20
0.0
 30
0.0
 11
-1.0
 21
0.0
 31
0.0
  0
ENDBLK
  5
7D
330
14
100
AcDbEntity
  8
0
100
AcDbBlockEnd
  0
BLOCK
  5
59
330
15
100
AcDbEntity
  8
0
100
AcDbBlockBegin
  2
_OPEN
 70
     0
 10
0.0
 20
0.0
 30
0.0
  3
_OPEN
  1

  0
LINE
  5
BC
330
15
100
AcDbEntity
  8
0
  6
ByBlock
 62
     0
100
AcDbLine
 10
-1.0
 20
0.16666666666667
 30
0.0
 11
0.0
 21
0.0
 31
0.0
  0
LINE
  5
BD
330
15
100
AcDbEntity
  8
0
  6
ByBlock
 62
     0
100
AcDbLine
 10
0.0
 20
0.0
 30
0.0
 11
-1.0
 21
-0.16666666666667
 31
0.0
  0
LINE
  5
BE
330
15
100
AcDbEntity
  8
0
  6
ByBlock
 62
     0
100
AcDbLine
 10
0.0
 20
0.0
 30
0.0
 11
-1.0
 21
0.0
 31
0.0
  0
ENDBLK
  5
87
330
15
100
AcDbEntity
  8
0
100
AcDbBlockEnd
  0
BLOCK
  5
5A
330
16
100
AcDbEntity
  8
0
100
AcDbBlockBegin
  2
_OPEN30
 70
     0
 10
0.0
 20
0.0
 30
0.0
  3
_OPEN30
  1

  0
LINE
  5
BF
330
16
100
AcDbEntity
  8
0
  6
ByBlock
 62
     0
100
AcDbLine
 10
-1.0
 20
0.2679491924311
 30
0.0
 11
0.0
 21
0.0
 31
0.0
  0
LINE
  5
C0
330
16
100
AcDbEntity
  8
0
  6
ByBlock
 62
     0
100
AcDbLine
 10
0.0
 20
0.0
 30
0.0
 11
-1.0
 21
-0.2679491924311
 31
0.0
  0
LINE
  5
C1
330
16
100
AcDbEntity
  8
0
  6
ByBlock
 62
     0
100
AcDbLine
 10
0.0
 20
0.0
 30
0.0
 11
-1.0
 21
0.0
 31
0.0
  0
ENDBLK
  5
88
330
16
100
AcDbEntity
  8
0
100
AcDbBlockEnd
  0
BLOCK
  5
5B
330
17
100
AcDbEntity
  8
0
100
AcDbBlockBegin
  2
_OPEN90
 70
     0
 10
0.0
 20
0.0
 30
0.0
  3
_OPEN90
  1

  0
LINE
  5
C2
330
17
100
AcDbEntity
  8
0
  6
ByBlock
 62
     0
100
AcDbLine
 10
-0.5
 20
0.5
 30
0.0
 11
0.0
 21
0.0
 31
0.0
  0
LINE
  5
C3
330
17
100
AcDbEntity
  8
0
  6
ByBlock
 62
     0
100
AcDbLine
 10
0.0
 20
0.0
 30
0.0
 11
-0.5
 21
-0.5
 31
0.0
  0
LINE
  5
C4
330
17
100
AcDbEntity
  8
0
  6
ByBlock
 62
     0
100
AcDbLine
 10
0.0
 20
0.0
 30
0.0
 11
-1.0
 21
0.0
 31
0.0
  0
ENDBLK
  5
89
330
17
100
AcDbEntity
  8
0
100
AcDbBlockEnd
  0
BLOCK
  5
5C
330
18
100
AcDbEntity
  8
0
100
AcDbBlockBegin
  2
_CLOSEDBLANK
 70
     0
 10
0.0
 20
0.0
 30
0.0
  3
_CLOSEDBLANK
  1

  0
LINE
  5
C5
330
18
100
AcDbEntity
  8
0
  6
ByBlock
 62
     0
100
AcDbLine
 10
-1.0
 20
0.16666666666667
 30
0.0
 11
0.0
 21
0.0
 31
0.0
  0
LINE
  5
C6
330
18
100
AcDbEntity
  8
0
  6
ByBlock
 62
     0
100
AcDbLine
 10
0.0
 20
0.0
 30
0.0
 11
-1.0
 21
-0.16666666666667
 31
0.0
  0
LINE
  5
C7
330
18
100
AcDbEntity
  8
0
  6
ByBlock
 62
     0
100
AcDbLine
 10
-1.0
 20
0.16666666666667
 30
0.0
 11
-1.0
 21
-0.16666666666667
 31
0.0
  0
ENDBLK
  5
7E
330
18
100
AcDbEntity
  8
0
100
AcDbBlockEnd
  0
BLOCK
  5
5D
330
19
100
AcDbEntity
  8
0
100
AcDbBlockBegin
  2
_DOT
 70
     0
 10
0.0
 20
0.0
 30
0.0
  3
_DOT
  1

  0
LWPOLYLINE
  5
C8
330
19
100
AcDbEntity
  8
0
  6
ByBlock
 62
     0
100
AcDbPolyline
 90
        2
 70
     1
 43
0.5
 10
-0.25
 20
0.0
 42
1.0
 10
0.25
 20
0.0
 42
1.0
  0
LINE
  5
CC
330
19
100
AcDbEntity
  8
0
  6
ByBlock
 62
     0
100
AcDbLine
 10
-0.5
 20
0.0
 30
0.0
 11
-1.0
 21
0.0
 31
0.0
  0
ENDBLK
  5
81
330
19
100
AcDbEntity
  8
0
100
AcDbBlockEnd
  0
BLOCK
  5
5E
330
1A
100
AcDbEntity
  8
0
100
AcDbBlockBegin
  2
_DOTSMALL
 70
     0
 10
0.0
 20
0.0
 30
0.0
  3
_DOTSMALL
  1

  0
LWPOLYLINE
  5
CD
330
1A
100
AcDbEntity
  8
0
  6
ByBlock
 62
     0
100
AcDbPolyline
 90
        2
 70
     1
 43
0.5
 10
-0.0625
 20
0.0
 42
1.0
 10
0.0625
 20
0.0
 42
1.0
  0
ENDBLK
  5
83
330
1A
100
AcDbEntity
  8
0
100
AcDbBlockEnd
  0
BLOCK
  5
5F
330
1B
100
AcDbEntity
  8
0
100
AcDbBlockBegin
  2
_DATUMBLANK
 70
     0
 10
0.0
 20
0.0
 30
0.0
  3
_DATUMBLANK
  1

  0
LINE
  5
D1
330
1B
100
AcDbEntity
  8
0
  6
ByBlock
 62
     0
100
AcDbLine
 10
0.0
 20
0.5773502700000001
 30
0.0
 11
-1.0
 21
0.0
 31
0.0
  0
LINE
  5
D2
330
1B
100
AcDbEntity
  8
0
  6
ByBlock
 62
     0
100
AcDbLine
 10
-1.0
 20
0.0
 30
0.0
 11
0.0
 21
-0.5773502700000001
 31
0.0
  0
LINE
  5
D3
330
1B
100
AcDbEntity
  8
0
  6
ByBlock
 62
     0
100
AcDbLine
 10
0.0
 20
-0.5773502700000001
 30
0.0
 11
0.0
 21
0.5773502700000001
 31
0.0
  0
ENDBLK
  5
7F
330
1B
100
AcDbEntity
  8
0
100
AcDbBlockEnd
  0
BLOCK
  5
60
330
1C
100
AcDbEntity
  8
0
100
AcDbBlockBegin
  2
_DATUMFILLED
 70
     0
 10
0.0
 20
0.0
 30
0.0
  3
_DATUMFILLED
  1

  0
SOLID
  5
D4
330
1C
100
AcDbEntity
  8
0
  6
ByBlock
 62
     0
100
AcDbTrace
 10
0.0
 20
0.5773502700000001
 30
0.0
 11
-1.0
 21
0.0
 31
0.0
 12
0.0
 22
-0.5773502700000001
 32
0.0
 13
0.0
 23
-0.5773502700000001
 33
0.0
  0
ENDBLK
  5
80
330
1C
100
AcDbEntity
  8
0
100
AcDbBlockEnd
  0
BLOCK
  5
61
330
1D
100
AcDbEntity
  8
0
100
AcDbBlockBegin
  2
_ORIGIN
 70
     0
 10
0.0
 20
0.0
 30
0.0
  3
_ORIGIN
  1

  0
CIRCLE
  5
D5
330
1D
100
AcDbEntity
  8
0
  6
ByBlock
 62
     0
100
AcDbCircle
 10
0.0
 20
0.0
 30
0.0
 40
0.5
  0
LINE
  5
D6
330
1D
100
AcDbEntity
  8
0
  6
ByBlock
 62
     0
100
AcDbLine
 10
0.0
 20
0.0
 30
0.0
 11
-1.0
 21
0.0
 31
0.0
  0
ENDBLK
  5
8A
330
1D
100
AcDbEntity
  8
0
100
AcDbBlockEnd
  0
BLOCK
  5
62
330
1E
100
AcDbEntity
  8
0
100
AcDbBlockBegin
  2
_NONE
 70
     0
 10
0.0
 20
0.0
 30
0.0
  3
_NONE
  1

  0
CIRCLE
  5
D7
330
1E
100
AcDbEntity
  8
0
  6
ByBlock
 62
     0
100
AcDbCircle
 10
0.0
 20
0.0
 30
0.0
 40
0.25
  0
ENDBLK
  5
85
330
1E
100
AcDbEntity
  8
0
100
AcDbBlockEnd
  0
BLOCK
  5
63
330
1F
100
AcDbEntity
  8
0
100
AcDbBlockBegin
  2
_DOTBLANK
 70
     0
 10
0.0
 20
0.0
 30
0.0
  3
_DOTBLANK
  1

  0
CIRCLE
  5
D8
330
1F
100
AcDbEntity
  8
0
  6
ByBlock
 62
     0
100
AcDbCircle
 10
0.0
 20
0.0
 30
0.0
 40
0.5
  0
LINE
  5
D9
330
1F
100
AcDbEntity
  8
0
  6
ByBlock
 62
     0
100
AcDbLine
 10
-0.5
 20
0.0
 30
0.0
 11
-1.0
 21
0.0
 31
0.0
  0
ENDBLK
  5
82
330
1F
100
AcDbEntity
  8
0
100
AcDbBlockEnd
  0
BLOCK
  5
64
330
20
100
AcDbEntity
  8
0
100
AcDbBlockBegin
  2
_INTEGRAL
 70
     0
 10
0.0
 20
0.0
 30
0.0
  3
_INTEGRAL
  1

  0
ARC
  5
DA
330
20
100
AcDbEntity
  8
0
  6
ByBlock
 62
     0
100
AcDbCircle
 10
0.444888
 20
-0.091335
 30
0.0
 40
0.454167
100
AcDbArc
 50
102.0
 51
168.0
  0
ARC
  5
DB
330
20
100
AcDbEntity
  8
0
  6
ByBlock
 62
     0
100
AcDbCircle
 10
-0.444888
 20
0.091335
 30
0.0
 40
0.454167
100
AcDbArc
 50
282.0
 51
348.0
  0
ENDBLK
  5
84
330
20
100
AcDbEntity
  8
0
100
AcDbBlockEnd
  0
BLOCK
  5
65
330
21
100
AcDbEntity
  8
0
100
AcDbBlockBegin
  2
A2
 70
     0
 10
0.0
 20
0.0
 30
0.0
  3
A2
  1

  0
LWPOLYLINE
  5
DC
330
21
100
AcDbEntity
  8
内図枠(作図領域)
  6
Continuous
 62
     7
100
AcDbPolyline
 90
        4
 70
     1
 43
0.0
 10
0.0000000000000142
 20
0.0
 10
544.0
 20
0.0
 10
544.0
 20
378.0
 10
0.0000000000000142
 20
378.0
  0
ENDBLK
  5
6F
330
21
100
AcDbEntity
  8
0
100
AcDbBlockEnd
  0
BLOCK
  5
66
330
22
100
AcDbEntity
  8
0
100
AcDbBlockBegin
  2
BLOCK001
 70
     0
 10
0.0
 20
0.0
 30
0.0
  3
BLOCK001
  1

  0
LINE
  5
DD
330
22
100
AcDbEntity
  8
LEVEL001
  6
Continuous
 62
     7
100
AcDbLine
 10
2448.0
 20
216.0
 30
0.0
 11
3264.0
 21
216.0
 31
0.0
  0
LINE
  5
DE
330
22
100
AcDbEntity
  8
LEVEL001
  6
Continuous
 62
     7
100
AcDbLine
 10
2448.0
 20
144.0
 30
0.0
 11
3264.0
 21
144.0
 31
0.0
  0
LINE
  5
DF
330
22
100
AcDbEntity
  8
LEVEL001
  6
Continuous
 62
     7
100
AcDbLine
 10
2448.0
 20
216.0
 30
0.0
 11
2448.0
 21
144.0
 31
0.0
  0
LINE
  5
E0
330
22
100
AcDbEntity
  8
LEVEL001
  6
Continuous
 62
     7
100
AcDbLine
 10
2496.0
 20
216.0
 30
0.0
 11
2496.0
 21
144.0
 31
0.0
  0
LINE
  5
E1
330
22
100
AcDbEntity
  8
LEVEL001
  6
Continuous
 62
     7
100
AcDbLine
 10
2856.0
 20
216.0
 30
0.0
 11
2856.0
 21
144.0
 31
0.0
  0
LINE
  5
E2
330
22
100
AcDbEntity
  8
LEVEL001
  6
Continuous
 62
     7
100
AcDbLine
 10
2904.0
 20
216.0
 30
0.0
 11
2904.0
 21
144.0
 31
0.0
  0
LINE
  5
E3
330
22
100
AcDbEntity
  8
LEVEL001
  6
Continuous
 62
     7
100
AcDbLine
 10
3264.0
 20
216.0
 30
0.0
 11
3264.0
 21
144.0
 31
0.0
  0
ENDBLK
  5
70
330
22
100
AcDbEntity
  8
0
100
AcDbBlockEnd
  0
BLOCK
  5
67
330
23
100
AcDbEntity
  8
0
100
AcDbBlockBegin
  2
BLOCK002
 70
     0
 10
0.0
 20
0.0
 30
0.0
  3
BLOCK002
  1

  0
LINE
  5
E4
330
23
100
AcDbEntity
  8
LEVEL001
  6
Continuous
 62
     7
100
AcDbLine
 10
2448.0
 20
144.0
 30
0.0
 11
3264.0
 21
144.0
 31
0.0
  0
LINE
  5
E5
330
23
100
AcDbEntity
  8
LEVEL001
  6
Continuous
 62
     7
100
AcDbLine
 10
2676.0
 20
96.0
 30
0.0
 11
3264.0
 21
96.0
 31
0.0
  0
LINE
  5
E6
330
23
100
AcDbEntity
  8
LEVEL001
  6
Continuous
 62
     7
100
AcDbLine
 10
2448.0
 20
48.0
 30
0.0
 11
3264.0
 21
48.0
 31
0.0
  0
LINE
  5
E7
330
23
100
AcDbEntity
  8
LEVEL001
  6
Continuous
 62
     7
100
AcDbLine
 10
2448.0
 20
0.0
 30
0.0
 11
3264.0
 21
0.0
 31
0.0
  0
LINE
  5
E8
330
23
100
AcDbEntity
  8
LEVEL001
  6
Continuous
 62
     7
100
AcDbLine
 10
2448.0
 20
144.0
 30
0.0
 11
2448.0
 21
0.0
 31
0.0
  0
LINE
  5
E9
330
23
100
AcDbEntity
  8
LEVEL001
  6
Continuous
 62
     7
100
AcDbLine
 10
2496.0
 20
144.0
 30
0.0
 11
2496.0
 21
48.0
 31
0.0
  0
LINE
  5
EA
330
23
100
AcDbEntity
  8
LEVEL001
  6
Continuous
 62
     7
100
AcDbLine
 10
2676.0
 20
144.0
 30
0.0
 11
2676.0
 21
48.0
 31
0.0
  0
LINE
  5
EB
330
23
100
AcDbEntity
  8
LEVEL001
  6
Continuous
 62
     7
100
AcDbLine
 10
2856.0
 20
144.0
 30
0.0
 11
2856.0
 21
48.0
 31
0.0
  0
LINE
  5
EC
330
23
100
AcDbEntity
  8
LEVEL001
  6
Continuous
 62
     7
100
AcDbLine
 10
2904.0
 20
144.0
 30
0.0
 11
2904.0
 21
48.0
 31
0.0
  0
LINE
  5
ED
330
23
100
AcDbEntity
  8
LEVEL001
  6
Continuous
 62
     7
100
AcDbLine
 10
3024.0
 20
144.0
 30
0.0
 11
3024.0
 21
48.0
 31
0.0
  0
LINE
  5
EE
330
23
100
AcDbEntity
  8
LEVEL001
  6
Continuous
 62
     7
100
AcDbLine
 10
3066.0
 20
144.0
 30
0.0
 11
3066.0
 21
96.0
 31
0.0
  0
LINE
  5
EF
330
23
100
AcDbEntity
  8
LEVEL001
  6
Continuous
 62
     7
100
AcDbLine
 10
3102.0
 20
144.0
 30
0.0
 11
3102.0
 21
96.0
 31
0.0
  0
LINE
  5
F0
330
23
100
AcDbEntity
  8
LEVEL001
  6
Continuous
 62
     7
100
AcDbLine
 10
3144.0
 20
144.0
 30
0.0
 11
3144.0
 21
48.0
 31
0.0
  0
LINE
  5
F1
330
23
100
AcDbEntity
  8
LEVEL001
  6
Continuous
 62
     7
100
AcDbLine
 10
3264.0
 20
144.0
 30
0.0
 11
3264.0
 21
0.0
 31
0.0
  0
ENDBLK
  5
71
330
23
100
AcDbEntity
  8
0
100
AcDbBlockEnd
  0
BLOCK
  5
68
330
24
100
AcDbEntity
  8
0
100
AcDbBlockBegin
  2
BLOCK003
 70
     0
 10
0.0
 20
0.0
 30
0.0
  3
BLOCK003
  1

  0
TEXT
  5
F2
330
24
100
AcDbEntity
  8
LEVEL001
  6
ByBlock
 62
     7
100
AcDbText
 10
2671.2000274658
 20
12.0
 30
0.0
 40
24.0
  1
さぬき麺機株式会社
100
AcDbText
  0
TEXT
  5
F3
330
24
100
AcDbEntity
  8
LEVEL001
  6
ByBlock
 62
     7
100
AcDbText
 10
2472.0
 20
210.66664123535
 30
0.0
 40
24.0
  1
名称
  7
STANDARD1
100
AcDbText
  0
TEXT
  5
F4
330
24
100
AcDbEntity
  8
LEVEL001
  6
ByBlock
 62
     7
100
AcDbText
 10
2880.0
 20
210.66659545898
 30
0.0
 40
24.0
  1
図番
  7
STANDARD1
100
AcDbText
  0
TEXT
  5
F5
330
24
100
AcDbEntity
  8
LEVEL001
  6
ByBlock
 62
     7
100
AcDbText
 10
2472.0
 20
130.66666698456
 30
0.0
 40
24.0
  1
画法
  7
STANDARD1
100
AcDbText
  0
TEXT
  5
F6
330
24
100
AcDbEntity
  8
LEVEL001
  6
ByBlock
 62
     7
100
AcDbText
 10
2512.8000004292
 20
84.0
 30
0.0
 40
24.0
  1
第三角法
100
AcDbText
  0
TEXT
  5
F7
330
24
100
AcDbEntity
  8
LEVEL001
  6
ByBlock
 62
     7
100
AcDbText
 10
2692.8000004292
 20
108.0
 30
0.0
 40
24.0
  1
共通機種
100
AcDbText
  0
TEXT
  5
F8
330
24
100
AcDbEntity
  8
LEVEL001
  6
ByBlock
 62
     7
100
AcDbText
 10
2860.7999997168
 20
108.0
 30
0.0
 40
24.0
  1
個数
 41
0.80000001192093
100
AcDbText
  0
TEXT
  5
F9
330
24
100
AcDbEntity
  8
LEVEL001
  6
ByBlock
 62
     7
100
AcDbText
 10
2928.0
 20
108.0
 30
0.0
 40
24.0
  1
尺度
100
AcDbText
  0
TEXT
  5
FA
330
24
100
AcDbEntity
  8
LEVEL001
  6
ByBlock
 62
     7
100
AcDbText
 10
3036.0
 20
108.0
 30
0.0
 40
24.0
  1
年月日
100
AcDbText
  0
TEXT
  5
FB
330
24
100
AcDbEntity
  8
LEVEL001
  6
ByBlock
 62
     7
100
AcDbText
 10
3168.0
 20
108.0
 30
0.0
 40
24.0
  1
製図
100
AcDbText
  0
POINT
  5
FC
330
24
100
AcDbEntity
  8
LEVEL001
  6
ByBlock
 62
     7
100
AcDbPoint
 10
3024.0
 20
60.0
 30
0.0
  0
ENDBLK
  5
72
330
24
100
AcDbEntity
  8
0
100
AcDbBlockEnd
  0
BLOCK
  5
69
330
25
100
AcDbEntity
  8
0
100
AcDbBlockBegin
  2
EGF13M16
 70
     0
 10
0.0
 20
0.0
 30
0.0
  3
EGF13M16
  1

  0
ARC
  5
FD
330
25
100
AcDbEntity
  8
LEVEL001
  6
Continuous
 62
     7
100
AcDbCircle
 10
8.321173573494
 20
0.0
 30
0.0
 40
18.321173573494
100
AcDbArc
 50
157.78068982934
 51
202.21931017066
  0
ARC
  5
FE
330
25
100
AcDbEntity
  8
LEVEL001
  6
Continuous
 62
     7
100
AcDbCircle
 10
-4.909529642408999
 20
-10.392304845375
 30
0.0
 40
5.090470357591
100
AcDbArc
 50
137.11671159511
 51
180.0
  0
LWPOLYLINE
  5
FF
330
25
100
AcDbEntity
  8
LEVEL001
  6
Continuous
 62
     7
100
AcDbPolyline
 90
        6
 70
     1
 43
0.0
 10
0.0
 20
-13.856406460525
 10
0.0
 20
13.856406460525
 10
-8.639528095682599
 20
13.856406460525
 10
-10.0
 20
11.5
 10
-10.0
 20
-11.5
 10
-8.639528095682599
 20
-13.856406460525
  0
LINE
  5
100
330
25
100
AcDbEntity
  8
LEVEL001
  6
Continuous
 62
     7
100
AcDbLine
 10
0.0
 20
-6.928203230223999
 30
0.0
 11
-8.639528095682599
 21
-6.928203230223999
 31
0.0
  0
ARC
  5
101
330
25
100
AcDbEntity
  8
LEVEL001
  6
Continuous
 62
     7
100
AcDbCircle
 10
-4.909529642408999
 20
10.392304845375
 30
0.0
 40
5.090470357591
100
AcDbArc
 50
180.0
 51
222.88328840489
  0
LINE
  5
102
330
25
100
AcDbEntity
  8
LEVEL001
  6
Continuous
 62
     7
100
AcDbLine
 10
0.0
 20
6.928203230223999
 30
0.0
 11
-8.639528095682599
 21
6.928203230223999
 31
0.0
  0
ENDBLK
  5
73
330
25
100
AcDbEntity
  8
0
100
AcDbBlockEnd
  0
BLOCK
  5
6A
330
26
100
AcDbEntity
  8
0
100
AcDbBlockBegin
  2
EGF11M16
 70
     0
 10
0.0
 20
0.0
 30
0.0
  3
EGF11M16
  1

  0
ARC
  5
103
330
26
100
AcDbEntity
  8
LEVEL001
  6
Continuous
 62
     7
100
AcDbCircle
 10
-5.3211735734948
 20
0.0
 30
0.0
 40
18.321173573495
100
AcDbArc
 50
337.78068982934
 51
22.21931017066
  0
ARC
  5
104
330
26
100
AcDbEntity
  8
LEVEL001
  6
Continuous
 62
     7
100
AcDbCircle
 10
7.9095296424089
 20
10.392304845375
 30
0.0
 40
5.090470357591099
100
AcDbArc
 50
317.11671159511
 51
0.0
  0
LWPOLYLINE
  5
105
330
26
100
AcDbEntity
  8
LEVEL001
  6
Continuous
 62
     7
100
AcDbPolyline
 90
        6
 70
     1
 43
0.0
 10
0.0
 20
-13.856406460525
 10
0.0
 20
13.856406460525
 10
11.639528095683
 20
13.856406460525
 10
13.0
 20
11.5
 10
13.0
 20
-11.5
 10
11.639528095683
 20
-13.856406460525
  0
LINE
  5
106
330
26
100
AcDbEntity
  8
LEVEL001
  6
Continuous
 62
     7
100
AcDbLine
 10
0.0
 20
6.928203230223999
 30
0.0
 11
11.639528095683
 21
6.928203230223999
 31
0.0
  0
ARC
  5
107
330
26
100
AcDbEntity
  8
LEVEL001
  6
Continuous
 62
     7
100
AcDbCircle
 10
7.9095296424089
 20
-10.392304845375
 30
0.0
 40
5.0904703575912
100
AcDbArc
 50
0.0
 51
42.88328840488699
  0
LINE
  5
108
330
26
100
AcDbEntity
  8
LEVEL001
  6
Continuous
 62
     7
100
AcDbLine
 10
0.0
 20
-6.928203230223999
 30
0.0
 11
11.639528095683
 21
-6.928203230223999
 31
0.0
  0
ENDBLK
  5
74
330
26
100
AcDbEntity
  8
0
100
AcDbBlockEnd
  0
BLOCK
  5
6B
330
27
100
AcDbEntity
  8
0
100
AcDbBlockBegin
  2
EGF13M12
 70
     0
 10
0.0
 20
0.0
 30
0.0
  3
EGF13M12
  1

  0
ARC
  5
109
330
27
100
AcDbEntity
  8
LEVEL001
  6
Continuous
 62
     7
100
AcDbCircle
 10
5.7957441339719
 20
0.0
 30
0.0
 40
13.795744133972
100
AcDbArc
 50
156.57340248944
 51
203.42659751056
  0
ARC
  5
10A
330
27
100
AcDbEntity
  8
LEVEL001
  6
Continuous
 62
     7
100
AcDbCircle
 10
-4.1246211248966
 20
-8.2272413359135
 30
0.0
 40
3.875378875103399
100
AcDbArc
 50
134.95592675987
 51
180.0
  0
LWPOLYLINE
  5
10B
330
27
100
AcDbEntity
  8
LEVEL001
  6
Continuous
 62
     7
100
AcDbPolyline
 90
        6
 70
     1
 43
0.0
 10
0.0
 20
-10.969655114577
 10
0.0
 20
10.969655114577
 10
-6.862819089287399
 20
10.969655114577
 10
-8.0
 20
9.0
 10
-8.0
 20
-9.0
 10
-6.862819089287399
 20
-10.969655114577
  0
LINE
  5
10C
330
27
100
AcDbEntity
  8
LEVEL001
  6
Continuous
 62
     7
100
AcDbLine
 10
0.0
 20
-5.484827557249899
 30
0.0
 11
-6.862819089287399
 21
-5.484827557249899
 31
0.0
  0
ARC
  5
10D
330
27
100
AcDbEntity
  8
LEVEL001
  6
Continuous
 62
     7
100
AcDbCircle
 10
-4.1246211248966
 20
8.2272413359135
 30
0.0
 40
3.875378875103399
100
AcDbArc
 50
180.0
 51
225.04407324013
  0
LINE
  5
10E
330
27
100
AcDbEntity
  8
LEVEL001
  6
Continuous
 62
     7
100
AcDbLine
 10
0.0
 20
5.484827557249899
 30
0.0
 11
-6.862819089287399
 21
5.484827557249899
 31
0.0
  0
ENDBLK
  5
75
330
27
100
AcDbEntity
  8
0
100
AcDbBlockEnd
  0
BLOCK
  5
6C
330
28
100
AcDbEntity
  8
0
100
AcDbBlockBegin
  2
EGF11M12
 70
     0
 10
0.0
 20
0.0
 30
0.0
  3
EGF11M12
  1

  0
ARC
  5
10F
330
28
100
AcDbEntity
  8
LEVEL001
  6
Continuous
 62
     7
100
AcDbCircle
 10
-3.7957441339726
 20
0.0
 30
0.0
 40
13.795744133973
100
AcDbArc
 50
336.57340248944
 51
23.426597510562
  0
ARC
  5
110
330
28
100
AcDbEntity
  8
LEVEL001
  6
Continuous
 62
     7
100
AcDbCircle
 10
6.1246211248964
 20
8.2272413359135
 30
0.0
 40
3.875378875103599
100
AcDbArc
 50
314.95592675987
 51
0.0
  0
LWPOLYLINE
  5
111
330
28
100
AcDbEntity
  8
LEVEL001
  6
Continuous
 62
     7
100
AcDbPolyline
 90
        6
 70
     1
 43
0.0
 10
0.0
 20
-10.969655114577
 10
0.0
 20
10.969655114577
 10
8.8628190892874
 20
10.969655114577
 10
10.0
 20
9.0
 10
10.0
 20
-9.0
 10
8.8628190892874
 20
-10.969655114577
  0
LINE
  5
112
330
28
100
AcDbEntity
  8
LEVEL001
  6
Continuous
 62
     7
100
AcDbLine
 10
0.0
 20
5.484827557249899
 30
0.0
 11
8.8628190892874
 21
5.484827557249899
 31
0.0
  0
ARC
  5
113
330
28
100
AcDbEntity
  8
LEVEL001
  6
Continuous
 62
     7
100
AcDbCircle
 10
6.1246211248964
 20
-8.2272413359135
 30
0.0
 40
3.875378875103599
100
AcDbArc
 50
0.0
 51
45.04407324012599
  0
LINE
  5
114
330
28
100
AcDbEntity
  8
LEVEL001
  6
Continuous
 62
     7
100
AcDbLine
 10
0.0
 20
-5.484827557249899
 30
0.0
 11
8.8628190892874
 21
-5.484827557249899
 31
0.0
  0
ENDBLK
  5
76
330
28
100
AcDbEntity
  8
0
100
AcDbBlockEnd
  0
ENDSEC
  0
SECTION
  2
ENTITIES
  0
INSERT
  5
115
330
B
100
AcDbEntity
  8
0
100
AcDbBlockReference
  2
A2
 10
0.0
 20
0.0
 30
0.0
 41
6.0
 42
6.0
  0
INSERT
  5
116
330
B
100
AcDbEntity
  8
LEVEL001
100
AcDbBlockReference
  2
BLOCK001
 10
0.0
 20
0.0
 30
0.0
  0
INSERT
  5
117
330
B
100
AcDbEntity
  8
LEVEL001
100
AcDbBlockReference
  2
BLOCK002
 10
0.0
 20
0.0
 30
0.0
  0
INSERT
  5
118
330
B
100
AcDbEntity
  8
0
100
AcDbBlockReference
  2
BLOCK003
 10
0.0
 20
0.0
 30
0.0
  0
LINE
  5
119
330
B
100
AcDbEntity
  8
LEVEL001
  6
Continuous
 62
     7
100
AcDbLine
 10
2915.5
 20
1619.0
 30
0.0
 11
1945.0
 21
1619.0
 31
0.0
  0
LINE
  5
11A
330
B
100
AcDbEntity
  8
LEVEL001
  6
Continuous
 62
     7
100
AcDbLine
 10
2915.5
 20
2147.0
 30
0.0
 11
1945.0
 21
2147.0
 31
0.0
  0
LINE
  5
11B
330
B
100
AcDbEntity
  8
LEVEL001
  6
Continuous
 62
     7
100
AcDbLine
 10
1945.0
 20
2099.0
 30
0.0
 11
2915.5
 21
2099.0
 31
0.0
  0
LINE
  5
11C
330
B
100
AcDbEntity
  8
LEVEL001
  6
Continuous
 62
     7
100
AcDbLine
 10
1945.0
 20
2051.0
 30
0.0
 11
2915.5
 21
2051.0
 31
0.0
  0
LINE
  5
11D
330
B
100
AcDbEntity
  8
LEVEL001
  6
Continuous
 62
     7
100
AcDbLine
 10
1945.0
 20
2003.0
 30
0.0
 11
2915.5
 21
2003.0
 31
0.0
  0
LINE
  5
11E
330
B
100
AcDbEntity
  8
LEVEL001
  6
Continuous
 62
     7
100
AcDbLine
 10
1945.0
 20
1955.0
 30
0.0
 11
2915.5
 21
1955.0
 31
0.0
  0
LINE
  5
11F
330
B
100
AcDbEntity
  8
LEVEL001
  6
Continuous
 62
     7
100
AcDbLine
 10
1945.0
 20
1907.0
 30
0.0
 11
2915.5
 21
1907.0
 31
0.0
  0
LINE
  5
120
330
B
100
AcDbEntity
  8
LEVEL001
  6
Continuous
 62
     7
100
AcDbLine
 10
1945.0
 20
1859.0
 30
0.0
 11
2915.5
 21
1859.0
 31
0.0
  0
LINE
  5
121
330
B
100
AcDbEntity
  8
LEVEL001
  6
Continuous
 62
     7
100
AcDbLine
 10
1993.0
 20
1811.0
 30
0.0
 11
2915.5
 21
1811.0
 31
0.0
  0
LINE
  5
122
330
B
100
AcDbEntity
  8
LEVEL001
  6
Continuous
 62
     7
100
AcDbLine
 10
1945.0
 20
1715.0
 30
0.0
 11
2915.5
 21
1715.0
 31
0.0
  0
LINE
  5
123
330
B
100
AcDbEntity
  8
LEVEL001
  6
Continuous
 62
     7
100
AcDbLine
 10
1945.0
 20
1667.0
 30
0.0
 11
2915.5
 21
1667.0
 31
0.0
  0
LINE
  5
124
330
B
100
AcDbEntity
  8
LEVEL001
  6
Continuous
 62
     7
100
AcDbLine
 10
1945.0
 20
1763.0
 30
0.0
 11
2915.5
 21
1763.0
 31
0.0
  0
LINE
  5
125
330
B
100
AcDbEntity
  8
LEVEL001
  6
Continuous
 62
     7
100
AcDbLine
 10
1993.0
 20
1763.0
 30
0.0
 11
1993.0
 21
1859.0
 31
0.0
  0
LINE
  5
126
330
B
100
AcDbEntity
  8
LEVEL001
  6
Continuous
 62
     7
100
AcDbLine
 10
1945.0
 20
1619.0
 30
0.0
 11
1945.0
 21
2147.0
 31
0.0
  0
LINE
  5
127
330
B
100
AcDbEntity
  8
LEVEL001
  6
Continuous
 62
     7
100
AcDbLine
 10
2255.5
 20
2147.0
 30
0.0
 11
2255.5
 21
1619.0
 31
0.0
  0
LINE
  5
128
330
B
100
AcDbEntity
  8
LEVEL001
  6
Continuous
 62
     7
100
AcDbLine
 10
2915.5
 20
2147.0
 30
0.0
 11
2915.5
 21
1619.0
 31
0.0
  0
TEXT
  5
129
330
B
100
AcDbEntity
  8
LEVEL001
 62
     7
100
AcDbText
 10
3180.0
 20
60.0
 30
0.0
 40
24.0
  1
井上
100
AcDbText
  0
LINE
  5
12A
330
B
100
AcDbEntity
  8
LEVEL001
  6
Continuous
 62
     7
100
AcDbLine
 10
1175.0
 20
34.0
 30
0.0
 11
92.0
 21
34.0
 31
0.0
  0
LINE
  5
12B
330
B
100
AcDbEntity
  8
LEVEL001
  6
Continuous
 62
     7
100
AcDbLine
 10
1518.6748548989
 20
34.0
 30
0.0
 11
2427.0
 21
34.0
 31
0.0
  0
LINE
  5
12C
330
B
100
AcDbEntity
  8
LEVEL001
  6
Continuous
 62
     7
100
AcDbLine
 10
967.99999999999
 20
187.0
 30
0.0
 11
967.99999999999
 21
178.0
 31
0.0
  0
LINE
  5
12D
330
B
100
AcDbEntity
  8
LEVEL001
  6
Continuous
 62
     7
100
AcDbLine
 10
319.99999999999
 20
178.0
 30
0.0
 11
319.99999999999
 21
187.0
 31
0.0
  0
LINE
  5
12E
330
B
100
AcDbEntity
  8
LEVEL001
  6
Continuous
 62
     7
100
AcDbLine
 10
319.99999999999
 20
178.0
 30
0.0
 11
219.99999999999
 21
178.0
 31
0.0
  0
LINE
  5
12F
330
B
100
AcDbEntity
  8
LEVEL001
  6
Continuous
 62
     7
100
AcDbLine
 10
219.99999999999
 20
178.0
 30
0.0
 11
219.99999999999
 21
187.0
 31
0.0
  0
LINE
  5
130
330
B
100
AcDbEntity
  8
LEVEL001
  6
Continuous
 62
     7
100
AcDbLine
 10
214.99999999999
 20
187.0
 30
0.0
 11
1073.0
 21
187.0
 31
0.0
  0
LINE
  5
131
330
B
100
AcDbEntity
  8
LEVEL001
  6
Continuous
 62
     7
100
AcDbLine
 10
1068.0
 20
187.0
 30
0.0
 11
1068.0
 21
178.0
 31
0.0
  0
LINE
  5
132
330
B
100
AcDbEntity
  8
LEVEL001
  6
Continuous
 62
     7
100
AcDbLine
 10
1068.0
 20
178.0
 30
0.0
 11
967.99999999999
 21
178.0
 31
0.0
  0
ARC
  5
133
330
B
100
AcDbEntity
  8
LEVEL001
  6
Continuous
 62
     7
100
AcDbCircle
 10
986.49999999999
 20
173.99999999998
 30
0.0
 40
4.0
100
AcDbArc
 50
179.99999999992
 51
269.99999999992
  0
LINE
  5
134
330
B
100
AcDbEntity
  8
LEVEL001
  6
Continuous
 62
     7
100
AcDbLine
 10
982.4999999999899
 20
175.0
 30
0.0
 11
982.4999999999899
 21
173.99999999999
 31
0.0
  0
LINE
  5
135
330
B
100
AcDbEntity
  8
LEVEL001
  6
Continuous
 62
     7
100
AcDbLine
 10
989.99999999999
 20
169.99999999999
 30
0.0
 11
989.99999999999
 21
167.0
 31
0.0
  0
ARC
  5
136
330
B
100
AcDbEntity
  8
LEVEL001
  6
Continuous
 62
     7
100
AcDbCircle
 10
1042.8246964979
 20
152.00000000001
 30
0.0
 40
5.0
100
AcDbArc
 50
90.000000000266
 51
143.39920386769
  0
LINE
  5
137
330
B
100
AcDbEntity
  8
LEVEL001
  6
Continuous
 62
     7
100
AcDbLine
 10
1048.4999999999
 20
156.99999999998
 30
0.0
 11
1042.8246964978
 21
157.00000000001
 31
0.0
  0
LINE
  5
138
330
B
100
AcDbEntity
  8
LEVEL001
  6
Continuous
 62
     7
100
AcDbLine
 10
1045.9999999999
 20
169.99999999995
 30
0.0
 11
1045.9999999999
 21
167.0
 31
0.0
  0
ARC
  5
139
330
B
100
AcDbEntity
  8
LEVEL001
  6
Continuous
 62
     7
100
AcDbCircle
 10
1049.5
 20
173.99999999993
 30
0.0
 40
4.0
100
AcDbArc
 50
270.0
 51
0.0
  0
LINE
  5
13A
330
B
100
AcDbEntity
  8
LEVEL001
  6
Continuous
 62
     7
100
AcDbLine
 10
1053.5
 20
173.99999999995
 30
0.0
 11
1053.4999999999
 21
175.0
 31
0.0
  0
ARC
  5
13B
330
B
100
AcDbEntity
  8
LEVEL001
  6
Continuous
 62
     7
100
AcDbCircle
 10
1048.4999999999
 20
161.99999999999
 30
0.0
 40
5.0
100
AcDbArc
 50
270.0
 51
0.0
  0
LINE
  5
13C
330
B
100
AcDbEntity
  8
LEVEL001
  6
Continuous
 62
     7
100
AcDbLine
 10
1053.4999999999
 20
167.0
 30
0.0
 11
1053.4999999999
 21
161.99999999998
 31
0.0
  0
LINE
  5
13D
330
B
100
AcDbEntity
  8
LEVEL001
  6
Continuous
 62
     7
100
AcDbLine
 10
986.4999999999799
 20
169.99999999999
 30
0.0
 11
1049.5
 21
169.99999999992
 31
0.0
  0
LINE
  5
13E
330
B
100
AcDbEntity
  8
LEVEL001
  6
Continuous
 62
     7
100
AcDbLine
 10
982.23262407129
 20
167.0
 30
0.0
 11
1053.4999999999
 21
167.0
 31
0.0
  0
CIRCLE
  5
13F
330
B
100
AcDbEntity
  8
LEVEL001
  6
Continuous
 62
     7
100
AcDbCircle
 10
982.99999999999
 20
84.0
 30
0.0
 40
6.0
  0
LINE
  5
140
330
B
100
AcDbEntity
  8
LEVEL001
  6
Continuous
 62
     7
100
AcDbLine
 10
993.80346181677
 20
77.712296701239
 30
0.0
 11
1038.5033117712
 21
154.51508131952
 31
0.0
  0
LINE
  5
141
330
B
100
AcDbEntity
  8
LEVEL001
  6
Continuous
 62
     7
100
AcDbLine
 10
982.23262407129
 20
167.0
 30
0.0
 11
970.62568226275
 21
85.768123451017
 31
0.0
  0
ARC
  5
142
330
B
100
AcDbEntity
  8
LEVEL001
  6
Continuous
 62
     7
100
AcDbCircle
 10
982.9999999999799
 20
83.999999999996
 30
0.0
 40
12.5
100
AcDbArc
 50
171.86824698579
 51
329.8002441406401
  0
LINE
  5
143
330
B
100
AcDbEntity
  8
LEVEL001
  6
Continuous
 62
     7
100
AcDbLine
 10
970.49999999999
 20
178.0
 30
0.0
 11
970.49999999999
 21
175.0
 31
0.0
  0
LINE
  5
144
330
B
100
AcDbEntity
  8
LEVEL001
  6
Continuous
 62
     7
100
AcDbLine
 10
1065.5
 20
178.0
 30
0.0
 11
1065.5
 21
175.0
 31
0.0
  0
LINE
  5
145
330
B
100
AcDbEntity
  8
LEVEL001
  6
Continuous
 62
     7
100
AcDbLine
 10
970.49999999999
 20
175.0
 30
0.0
 11
1065.5
 21
175.0
 31
0.0
  0
ARC
  5
146
330
B
100
AcDbEntity
  8
LEVEL001
  6
Continuous
 62
     7
100
AcDbCircle
 10
982.99999999999
 20
83.999999999999
 30
0.0
 40
50.0
100
AcDbArc
 50
96.34575917174601
 51
45.32273195469399
  0
ARC
  5
147
330
B
100
AcDbEntity
  8
LEVEL001
  6
Continuous
 62
     7
100
AcDbCircle
 10
238.49999999999
 20
173.99999999999
 30
0.0
 40
4.0
100
AcDbArc
 50
179.99999999999
 51
269.99999999992
  0
LINE
  5
148
330
B
100
AcDbEntity
  8
LEVEL001
  6
Continuous
 62
     7
100
AcDbLine
 10
234.49999999999
 20
175.0
 30
0.0
 11
234.49999999999
 21
173.99999999999
 31
0.0
  0
LINE
  5
149
330
B
100
AcDbEntity
  8
LEVEL001
  6
Continuous
 62
     7
100
AcDbLine
 10
241.99999999999
 20
169.99999999999
 30
0.0
 11
241.99999999999
 21
167.0
 31
0.0
  0
ARC
  5
14A
330
B
100
AcDbEntity
  8
LEVEL001
  6
Continuous
 62
     7
100
AcDbCircle
 10
294.82469649788
 20
152.00000000001
 30
0.0
 40
5.0
100
AcDbArc
 50
90.00000000034999
 51
143.39920386774
  0
LINE
  5
14B
330
B
100
AcDbEntity
  8
LEVEL001
  6
Continuous
 62
     7
100
AcDbLine
 10
300.49999999995
 20
156.99999999998
 30
0.0
 11
294.82469649785
 21
157.00000000001
 31
0.0
  0
LINE
  5
14C
330
B
100
AcDbEntity
  8
LEVEL001
  6
Continuous
 62
     7
100
AcDbLine
 10
297.99999999993
 20
169.99999999995
 30
0.0
 11
297.99999999993
 21
167.0
 31
0.0
  0
ARC
  5
14D
330
B
100
AcDbEntity
  8
LEVEL001
  6
Continuous
 62
     7
100
AcDbCircle
 10
301.49999999999
 20
173.99999999995
 30
0.0
 40
4.0
100
AcDbArc
 50
270.0
 51
0.0
  0
LINE
  5
14E
330
B
100
AcDbEntity
  8
LEVEL001
  6
Continuous
 62
     7
100
AcDbLine
 10
305.49999999999
 20
173.99999999995
 30
0.0
 11
305.49999999993
 21
175.0
 31
0.0
  0
ARC
  5
14F
330
B
100
AcDbEntity
  8
LEVEL001
  6
Continuous
 62
     7
100
AcDbCircle
 10
300.49999999995
 20
161.99999999998
 30
0.0
 40
5.0
100
AcDbArc
 50
270.0
 51
0.0
  0
LINE
  5
150
330
B
100
AcDbEntity
  8
LEVEL001
  6
Continuous
 62
     7
100
AcDbLine
 10
305.49999999993
 20
167.0
 30
0.0
 11
305.49999999995
 21
161.99999999998
 31
0.0
  0
LINE
  5
151
330
B
100
AcDbEntity
  8
LEVEL001
  6
Continuous
 62
     7
100
AcDbLine
 10
238.49999999998
 20
169.99999999999
 30
0.0
 11
301.49999999999
 21
169.99999999992
 31
0.0
  0
LINE
  5
152
330
B
100
AcDbEntity
  8
LEVEL001
  6
Continuous
 62
     7
100
AcDbLine
 10
234.23262407129
 20
167.0
 30
0.0
 11
305.49999999993
 21
167.0
 31
0.0
  0
CIRCLE
  5
153
330
B
100
AcDbEntity
  8
LEVEL001
  6
Continuous
 62
     7
100
AcDbCircle
 10
234.99999999999
 20
84.0
 30
0.0
 40
6.0
  0
LINE
  5
154
330
B
100
AcDbEntity
  8
LEVEL001
  6
Continuous
 62
     7
100
AcDbLine
 10
245.80346181677
 20
77.712296701239
 30
0.0
 11
290.50331177116
 21
154.51508131952
 31
0.0
  0
LINE
  5
155
330
B
100
AcDbEntity
  8
LEVEL001
  6
Continuous
 62
     7
100
AcDbLine
 10
234.23262407129
 20
167.0
 30
0.0
 11
222.62568226275
 21
85.768123451017
 31
0.0
  0
ARC
  5
156
330
B
100
AcDbEntity
  8
LEVEL001
  6
Continuous
 62
     7
100
AcDbCircle
 10
234.99999999999
 20
84.0
 30
0.0
 40
12.5
100
AcDbArc
 50
171.86824698581
 51
329.80024414062
  0
LINE
  5
157
330
B
100
AcDbEntity
  8
LEVEL001
  6
Continuous
 62
     7
100
AcDbLine
 10
222.49999999999
 20
178.0
 30
0.0
 11
222.49999999999
 21
175.0
 31
0.0
  0
LINE
  5
158
330
B
100
AcDbEntity
  8
LEVEL001
  6
Continuous
 62
     7
100
AcDbLine
 10
317.49999999999
 20
178.0
 30
0.0
 11
317.49999999999
 21
175.0
 31
0.0
  0
LINE
  5
159
330
B
100
AcDbEntity
  8
LEVEL001
  6
Continuous
 62
     7
100
AcDbLine
 10
222.49999999999
 20
175.0
 30
0.0
 11
317.49999999999
 21
175.0
 31
0.0
  0
ARC
  5
15A
330
B
100
AcDbEntity
  8
LEVEL001
  6
Continuous
 62
     7
100
AcDbCircle
 10
234.99999999999
 20
84.0
 30
0.0
 40
50.0
100
AcDbArc
 50
96.34575917174601
 51
45.322731954693
  0
LINE
  5
15B
330
B
100
AcDbEntity
  8
LEVEL001
  6
Continuous
 62
     7
100
AcDbLine
 10
214.99999999999
 20
187.0
 30
0.0
 11
214.99999999999
 21
578.0
 31
0.0
  0
LINE
  5
15C
330
B
100
AcDbEntity
  8
LEVEL001
  6
Continuous
 62
     7
100
AcDbLine
 10
1073.0
 20
578.0
 30
0.0
 11
1073.0
 21
187.0
 31
0.0
  0
LINE
  5
15D
330
B
100
AcDbEntity
  8
LEVEL001
  6
Continuous
 62
     7
100
AcDbLine
 10
214.99999999999
 20
562.0
 30
0.0
 11
1073.0
 21
562.0
 31
0.0
  0
LINE
  5
15E
330
B
100
AcDbEntity
  8
LEVEL001
  6
Continuous
 62
     7
100
AcDbLine
 10
1124.0
 20
571.0
 30
0.0
 11
1073.0
 21
571.0
 31
0.0
  0
LINE
  5
15F
330
B
100
AcDbEntity
  8
LEVEL001
  6
Continuous
 62
     7
100
AcDbLine
 10
1124.0
 20
571.0
 30
0.0
 11
1154.0
 21
541.0
 31
0.0
  0
POINT
  5
160
330
B
100
AcDbEntity
  8
LEVEL001
 62
     7
100
AcDbPoint
 10
1154.0
 20
571.0
 30
0.0
  0
LINE
  5
161
330
B
100
AcDbEntity
  8
LEVEL001
  6
Continuous
 62
     7
100
AcDbLine
 10
1154.0
 20
541.0
 30
0.0
 11
1154.0
 21
223.0
 31
0.0
  0
LINE
  5
162
330
B
100
AcDbEntity
  8
LEVEL001
  6
Continuous
 62
     7
100
AcDbLine
 10
1154.0
 20
223.0
 30
0.0
 11
1124.0
 21
193.0
 31
0.0
  0
POINT
  5
163
330
B
100
AcDbEntity
  8
LEVEL001
 62
     7
100
AcDbPoint
 10
1154.0
 20
193.0
 30
0.0
  0
LINE
  5
164
330
B
100
AcDbEntity
  8
LEVEL001
  6
Continuous
 62
     7
100
AcDbLine
 10
1124.0
 20
193.0
 30
0.0
 11
1073.0
 21
193.0
 31
0.0
  0
LINE
  5
165
330
B
100
AcDbEntity
  8
LEVEL001
  6
Continuous
 62
     7
100
AcDbLine
 10
118.99999999999
 20
983.0
 30
0.0
 11
118.99999999999
 21
238.0
 31
0.0
  0
LINE
  5
166
330
B
100
AcDbEntity
  8
LEVEL001
  6
Continuous
 62
     7
100
AcDbLine
 10
1184.0
 20
983.0
 30
0.0
 11
1184.0
 21
578.0
 31
0.0
  0
LINE
  5
167
330
B
100
AcDbEntity
  8
LEVEL001
  6
Continuous
 62
     7
100
AcDbLine
 10
214.99999999999
 20
578.0
 30
0.0
 11
1184.0
 21
578.0
 31
0.0
  0
LINE
  5
168
330
B
100
AcDbEntity
  8
LEVEL001
  6
Continuous
 62
     7
100
AcDbLine
 10
118.99999999999
 20
238.0
 30
0.0
 11
214.99999999999
 21
238.0
 31
0.0
  0
LINE
  5
169
330
B
100
AcDbEntity
  8
LEVEL001
  6
Continuous
 62
     7
100
AcDbLine
 10
272.49999999999
 20
578.0
 30
0.0
 11
272.49999999999
 21
603.0
 31
0.0
  0
LINE
  5
16A
330
B
100
AcDbEntity
  8
LEVEL001
  6
Continuous
 62
     7
100
AcDbLine
 10
272.49999999999
 20
603.0
 30
0.0
 11
1015.5
 21
603.0
 31
0.0
  0
LINE
  5
16B
330
B
100
AcDbEntity
  8
LEVEL001
  6
Continuous
 62
     7
100
AcDbLine
 10
1015.5
 20
603.0
 30
0.0
 11
1015.5
 21
578.0
 31
0.0
  0
LINE
  5
16C
330
B
100
AcDbEntity
  8
LEVEL001
  6
Continuous
 62
     7
100
AcDbLine
 10
389.00000004554
 20
764.6692378864599
 30
0.0
 11
404.00000004554
 21
760.6499999999999
 31
0.0
  0
LINE
  5
16D
330
B
100
AcDbEntity
  8
LEVEL001
  6
Continuous
 62
     7
100
AcDbLine
 10
404.00000004554
 20
760.6499999999999
 30
0.0
 11
419.0000000455399
 21
764.6692378864599
 31
0.0
  0
LINE
  5
16E
330
B
100
AcDbEntity
  8
LEVEL001
  6
Continuous
 62
     7
100
AcDbLine
 10
419.0000000455399
 20
764.6692378864599
 30
0.0
 11
434.00000004554
 21
760.6499999999999
 31
0.0
  0
LINE
  5
16F
330
B
100
AcDbEntity
  8
LEVEL001
  6
Continuous
 62
     7
100
AcDbLine
 10
434.00000004554
 20
760.6499999999999
 30
0.0
 11
449.00000004554
 21
764.6692378864599
 31
0.0
  0
LINE
  5
170
330
B
100
AcDbEntity
  8
LEVEL001
  6
Continuous
 62
     7
100
AcDbLine
 10
449.00000004554
 20
764.6692378864599
 30
0.0
 11
464.0000000455399
 21
760.6499999999999
 31
0.0
  0
LINE
  5
171
330
B
100
AcDbEntity
  8
LEVEL001
  6
Continuous
 62
     7
100
AcDbLine
 10
464.0000000455399
 20
760.6499999999999
 30
0.0
 11
479.00000004554
 21
764.6692378864599
 31
0.0
  0
LINE
  5
172
330
B
100
AcDbEntity
  8
LEVEL001
  6
Continuous
 62
     7
100
AcDbLine
 10
479.00000004554
 20
764.6692378864599
 30
0.0
 11
494.0000000455399
 21
760.6499999999999
 31
0.0
  0
LINE
  5
173
330
B
100
AcDbEntity
  8
LEVEL001
  6
Continuous
 62
     7
100
AcDbLine
 10
494.0000000455399
 20
760.6499999999999
 30
0.0
 11
509.00000004554
 21
764.6692378864599
 31
0.0
  0
LINE
  5
174
330
B
100
AcDbEntity
  8
LEVEL001
  6
Continuous
 62
     7
100
AcDbLine
 10
509.00000004554
 20
764.6692378864599
 30
0.0
 11
524.00000004554
 21
760.6499999999999
 31
0.0
  0
LINE
  5
175
330
B
100
AcDbEntity
  8
LEVEL001
  6
Continuous
 62
     7
100
AcDbLine
 10
524.00000004554
 20
760.6499999999999
 30
0.0
 11
539.0000000455399
 21
764.6692378864599
 31
0.0
  0
LINE
  5
176
330
B
100
AcDbEntity
  8
LEVEL001
  6
Continuous
 62
     7
100
AcDbLine
 10
539.0000000455399
 20
764.6692378864599
 30
0.0
 11
554.00000004554
 21
760.6499999999999
 31
0.0
  0
LINE
  5
177
330
B
100
AcDbEntity
  8
LEVEL001
  6
Continuous
 62
     7
100
AcDbLine
 10
554.00000004554
 20
760.6499999999999
 30
0.0
 11
569.0000000455399
 21
764.6692378864599
 31
0.0
  0
LINE
  5
178
330
B
100
AcDbEntity
  8
LEVEL001
  6
Continuous
 62
     7
100
AcDbLine
 10
569.0000000455399
 20
764.6692378864599
 30
0.0
 11
584.00000004554
 21
760.6499999999999
 31
0.0
  0
LINE
  5
179
330
B
100
AcDbEntity
  8
LEVEL001
  6
Continuous
 62
     7
100
AcDbLine
 10
584.00000004554
 20
760.6499999999999
 30
0.0
 11
599.00000004554
 21
764.6692378864599
 31
0.0
  0
LINE
  5
17A
330
B
100
AcDbEntity
  8
LEVEL001
  6
Continuous
 62
     7
100
AcDbLine
 10
599.00000004554
 20
764.6692378864599
 30
0.0
 11
614.0000000455399
 21
760.6499999999999
 31
0.0
  0
LINE
  5
17B
330
B
100
AcDbEntity
  8
LEVEL001
  6
Continuous
 62
     7
100
AcDbLine
 10
614.0000000455399
 20
760.6499999999999
 30
0.0
 11
629.00000004554
 21
764.6692378864599
 31
0.0
  0
LINE
  5
17C
330
B
100
AcDbEntity
  8
LEVEL001
  6
Continuous
 62
     7
100
AcDbLine
 10
629.00000004554
 20
764.6692378864599
 30
0.0
 11
644.0000000455399
 21
760.6499999999999
 31
0.0
  0
LINE
  5
17D
330
B
100
AcDbEntity
  8
LEVEL001
  6
Continuous
 62
     7
100
AcDbLine
 10
644.0000000455399
 20
760.6499999999999
 30
0.0
 11
659.00000004554
 21
764.6692378864599
 31
0.0
  0
LINE
  5
17E
330
B
100
AcDbEntity
  8
LEVEL001
  6
Continuous
 62
     7
100
AcDbLine
 10
659.00000004554
 20
764.6692378864599
 30
0.0
 11
674.00000004554
 21
760.6499999999999
 31
0.0
  0
LINE
  5
17F
330
B
100
AcDbEntity
  8
LEVEL001
  6
Continuous
 62
     7
100
AcDbLine
 10
674.00000004554
 20
760.6499999999999
 30
0.0
 11
689.0000000455399
 21
764.6692378864599
 31
0.0
  0
LINE
  5
180
330
B
100
AcDbEntity
  8
LEVEL001
  6
Continuous
 62
     7
100
AcDbLine
 10
689.0000000455399
 20
764.6692378864599
 30
0.0
 11
704.00000004554
 21
760.6499999999999
 31
0.0
  0
LINE
  5
181
330
B
100
AcDbEntity
  8
LEVEL001
  6
Continuous
 62
     7
100
AcDbLine
 10
704.00000004554
 20
760.6499999999999
 30
0.0
 11
719.0000000455399
 21
764.6692378864599
 31
0.0
  0
LINE
  5
182
330
B
100
AcDbEntity
  8
LEVEL001
  6
Continuous
 62
     7
100
AcDbLine
 10
719.0000000455399
 20
764.6692378864599
 30
0.0
 11
734.00000004554
 21
760.6499999999999
 31
0.0
  0
LINE
  5
183
330
B
100
AcDbEntity
  8
LEVEL001
  6
Continuous
 62
     7
100
AcDbLine
 10
734.00000004554
 20
760.6499999999999
 30
0.0
 11
749.00000004554
 21
764.6692378864599
 31
0.0
  0
LINE
  5
184
330
B
100
AcDbEntity
  8
LEVEL001
  6
Continuous
 62
     7
100
AcDbLine
 10
749.00000004554
 20
764.6692378864599
 30
0.0
 11
764.0000000455399
 21
760.6499999999999
 31
0.0
  0
LINE
  5
185
330
B
100
AcDbEntity
  8
LEVEL001
  6
Continuous
 62
     7
100
AcDbLine
 10
764.0000000455399
 20
760.6499999999999
 30
0.0
 11
779.00000004554
 21
764.6692378864599
 31
0.0
  0
LINE
  5
186
330
B
100
AcDbEntity
  8
LEVEL001
  6
Continuous
 62
     7
100
AcDbLine
 10
779.00000004554
 20
764.6692378864599
 30
0.0
 11
794.0000000455399
 21
760.6499999999999
 31
0.0
  0
LINE
  5
187
330
B
100
AcDbEntity
  8
LEVEL001
  6
Continuous
 62
     7
100
AcDbLine
 10
794.0000000455399
 20
760.6499999999999
 30
0.0
 11
809.00000004554
 21
764.6692378864599
 31
0.0
  0
LINE
  5
188
330
B
100
AcDbEntity
  8
LEVEL001
  6
Continuous
 62
     7
100
AcDbLine
 10
809.00000004554
 20
764.6692378864599
 30
0.0
 11
824.0000000455399
 21
760.6499999999999
 31
0.0
  0
LINE
  5
189
330
B
100
AcDbEntity
  8
LEVEL001
  6
Continuous
 62
     7
100
AcDbLine
 10
824.0000000455399
 20
760.6499999999999
 30
0.0
 11
839.0000000455399
 21
764.6692378864599
 31
0.0
  0
LINE
  5
18A
330
B
100
AcDbEntity
  8
LEVEL001
  6
Continuous
 62
     7
100
AcDbLine
 10
839.0000000455399
 20
764.6692378864599
 30
0.0
 11
854.00000004554
 21
760.6499999999999
 31
0.0
  0
LINE
  5
18B
330
B
100
AcDbEntity
  8
LEVEL001
  6
Continuous
 62
     7
100
AcDbLine
 10
854.00000004554
 20
760.6499999999999
 30
0.0
 11
869.00000004554
 21
764.6692378864599
 31
0.0
  0
LINE
  5
18C
330
B
100
AcDbEntity
  8
LEVEL001
  6
Continuous
 62
     7
100
AcDbLine
 10
869.00000004554
 20
764.6692378864599
 30
0.0
 11
883.98336416559
 21
760.6499999999999
 31
0.0
  0
LINE
  5
18D
330
B
100
AcDbEntity
  8
LEVEL001
  6
Continuous
 62
     7
100
AcDbLine
 10
883.98336416559
 20
760.6499999999999
 30
0.0
 11
899.0000000455399
 21
764.6692378864599
 31
0.0
  0
LINE
  5
18E
330
B
100
AcDbEntity
  8
LEVEL001
  6
Continuous
 62
     7
100
AcDbLine
 10
299.00000004554
 20
764.6692378864599
 30
0.0
 11
314.00000004554
 21
760.6499999999999
 31
0.0
  0
LINE
  5
18F
330
B
100
AcDbEntity
  8
LEVEL001
  6
Continuous
 62
     7
100
AcDbLine
 10
314.00000004554
 20
760.6499999999999
 30
0.0
 11
329.00000004554
 21
764.6692378864599
 31
0.0
  0
LINE
  5
190
330
B
100
AcDbEntity
  8
LEVEL001
  6
Continuous
 62
     7
100
AcDbLine
 10
329.00000004554
 20
764.6692378864599
 30
0.0
 11
344.00000004554
 21
760.6499999999999
 31
0.0
  0
LINE
  5
191
330
B
100
AcDbEntity
  8
LEVEL001
  6
Continuous
 62
     7
100
AcDbLine
 10
344.00000004554
 20
760.6499999999999
 30
0.0
 11
359.00000004554
 21
764.6692378864599
 31
0.0
  0
LINE
  5
192
330
B
100
AcDbEntity
  8
LEVEL001
  6
Continuous
 62
     7
100
AcDbLine
 10
359.00000004554
 20
764.6692378864599
 30
0.0
 11
375.07142859082
 21
760.36291158654
 31
0.0
  0
LINE
  5
193
330
B
100
AcDbEntity
  8
LEVEL001
  6
Continuous
 62
     7
100
AcDbLine
 10
375.07142859082
 20
760.36291158654
 30
0.0
 11
389.00000004554
 21
764.6692378864599
 31
0.0
  0
LINE
  5
194
330
B
100
AcDbEntity
  8
LEVEL001
  6
Continuous
 62
     7
100
AcDbLine
 10
288.99999999999
 20
761.57751643209
 30
0.0
 11
299.00000004554
 21
764.6692378864599
 31
0.0
  0
LINE
  5
195
330
B
100
AcDbEntity
  8
LEVEL001
  6
Continuous
 62
     7
100
AcDbLine
 10
929.00000004554
 20
764.6692378864599
 30
0.0
 11
944.00000004554
 21
760.6499999999999
 31
0.0
  0
LINE
  5
196
330
B
100
AcDbEntity
  8
LEVEL001
  6
Continuous
 62
     7
100
AcDbLine
 10
944.00000004554
 20
760.6499999999999
 30
0.0
 11
959.00000004554
 21
764.6692378864599
 31
0.0
  0
LINE
  5
197
330
B
100
AcDbEntity
  8
LEVEL001
  6
Continuous
 62
     7
100
AcDbLine
 10
959.00000004554
 20
764.6692378864599
 30
0.0
 11
973.98336416559
 21
760.6499999999999
 31
0.0
  0
LINE
  5
198
330
B
100
AcDbEntity
  8
LEVEL001
  6
Continuous
 62
     7
100
AcDbLine
 10
973.98336416559
 20
760.6499999999999
 30
0.0
 11
989.0000000455399
 21
764.6692378864599
 31
0.0
  0
LINE
  5
199
330
B
100
AcDbEntity
  8
LEVEL001
  6
Continuous
 62
     7
100
AcDbLine
 10
912.9285714741099
 20
760.3629115795399
 30
0.0
 11
929.00000004554
 21
764.6692378864599
 31
0.0
  0
LINE
  5
19A
330
B
100
AcDbEntity
  8
LEVEL001
  6
Continuous
 62
     7
100
AcDbLine
 10
899.0000000455399
 20
764.6692378864599
 30
0.0
 11
912.9285714741099
 21
760.3629115795399
 31
0.0
  0
LINE
  5
19B
330
B
100
AcDbEntity
  8
LEVEL001
  6
Continuous
 62
     7
100
AcDbLine
 10
989.0000000455399
 20
764.6692378864599
 30
0.0
 11
998.99999999999
 21
761.57751644942
 31
0.0
  0
LINE
  5
19C
330
B
100
AcDbEntity
  8
LEVEL001
  6
Continuous
 62
     7
100
AcDbLine
 10
389.00000004554
 20
629.66923788646
 30
0.0
 11
404.00000004554
 21
625.6499999999999
 31
0.0
  0
LINE
  5
19D
330
B
100
AcDbEntity
  8
LEVEL001
  6
Continuous
 62
     7
100
AcDbLine
 10
404.00000004554
 20
625.6499999999999
 30
0.0
 11
419.0000000455399
 21
629.66923788646
 31
0.0
  0
LINE
  5
19E
330
B
100
AcDbEntity
  8
LEVEL001
  6
Continuous
 62
     7
100
AcDbLine
 10
419.0000000455399
 20
629.66923788646
 30
0.0
 11
434.00000004554
 21
625.6499999999999
 31
0.0
  0
LINE
  5
19F
330
B
100
AcDbEntity
  8
LEVEL001
  6
Continuous
 62
     7
100
AcDbLine
 10
434.00000004554
 20
625.6499999999999
 30
0.0
 11
449.00000004554
 21
629.66923788646
 31
0.0
  0
LINE
  5
1A0
330
B
100
AcDbEntity
  8
LEVEL001
  6
Continuous
 62
     7
100
AcDbLine
 10
449.00000004554
 20
629.66923788646
 30
0.0
 11
464.0000000455399
 21
625.6499999999999
 31
0.0
  0
LINE
  5
1A1
330
B
100
AcDbEntity
  8
LEVEL001
  6
Continuous
 62
     7
100
AcDbLine
 10
464.0000000455399
 20
625.6499999999999
 30
0.0
 11
479.00000004554
 21
629.66923788646
 31
0.0
  0
LINE
  5
1A2
330
B
100
AcDbEntity
  8
LEVEL001
  6
Continuous
 62
     7
100
AcDbLine
 10
479.00000004554
 20
629.66923788646
 30
0.0
 11
494.0000000455399
 21
625.6499999999999
 31
0.0
  0
LINE
  5
1A3
330
B
100
AcDbEntity
  8
LEVEL001
  6
Continuous
 62
     7
100
AcDbLine
 10
494.0000000455399
 20
625.6499999999999
 30
0.0
 11
509.00000004554
 21
629.66923788646
 31
0.0
  0
LINE
  5
1A4
330
B
100
AcDbEntity
  8
LEVEL001
  6
Continuous
 62
     7
100
AcDbLine
 10
509.00000004554
 20
629.66923788646
 30
0.0
 11
524.00000004554
 21
625.6499999999999
 31
0.0
  0
LINE
  5
1A5
330
B
100
AcDbEntity
  8
LEVEL001
  6
Continuous
 62
     7
100
AcDbLine
 10
524.00000004554
 20
625.6499999999999
 30
0.0
 11
539.0000000455399
 21
629.66923788646
 31
0.0
  0
LINE
  5
1A6
330
B
100
AcDbEntity
  8
LEVEL001
  6
Continuous
 62
     7
100
AcDbLine
 10
539.0000000455399
 20
629.66923788646
 30
0.0
 11
554.00000004554
 21
625.6499999999999
 31
0.0
  0
LINE
  5
1A7
330
B
100
AcDbEntity
  8
LEVEL001
  6
Continuous
 62
     7
100
AcDbLine
 10
554.00000004554
 20
625.6499999999999
 30
0.0
 11
569.0000000455399
 21
629.66923788646
 31
0.0
  0
LINE
  5
1A8
330
B
100
AcDbEntity
  8
LEVEL001
  6
Continuous
 62
     7
100
AcDbLine
 10
569.0000000455399
 20
629.66923788646
 30
0.0
 11
584.00000004554
 21
625.6499999999999
 31
0.0
  0
LINE
  5
1A9
330
B
100
AcDbEntity
  8
LEVEL001
  6
Continuous
 62
     7
100
AcDbLine
 10
584.00000004554
 20
625.6499999999999
 30
0.0
 11
599.00000004554
 21
629.66923788646
 31
0.0
  0
LINE
  5
1AA
330
B
100
AcDbEntity
  8
LEVEL001
  6
Continuous
 62
     7
100
AcDbLine
 10
599.00000004554
 20
629.66923788646
 30
0.0
 11
614.0000000455399
 21
625.6499999999999
 31
0.0
  0
LINE
  5
1AB
330
B
100
AcDbEntity
  8
LEVEL001
  6
Continuous
 62
     7
100
AcDbLine
 10
614.0000000455399
 20
625.6499999999999
 30
0.0
 11
629.00000004554
 21
629.66923788646
 31
0.0
  0
LINE
  5
1AC
330
B
100
AcDbEntity
  8
LEVEL001
  6
Continuous
 62
     7
100
AcDbLine
 10
629.00000004554
 20
629.66923788646
 30
0.0
 11
644.0000000455399
 21
625.6499999999999
 31
0.0
  0
LINE
  5
1AD
330
B
100
AcDbEntity
  8
LEVEL001
  6
Continuous
 62
     7
100
AcDbLine
 10
644.0000000455399
 20
625.6499999999999
 30
0.0
 11
659.00000004554
 21
629.66923788646
 31
0.0
  0
LINE
  5
1AE
330
B
100
AcDbEntity
  8
LEVEL001
  6
Continuous
 62
     7
100
AcDbLine
 10
659.00000004554
 20
629.66923788646
 30
0.0
 11
674.00000004554
 21
625.6499999999999
 31
0.0
  0
LINE
  5
1AF
330
B
100
AcDbEntity
  8
LEVEL001
  6
Continuous
 62
     7
100
AcDbLine
 10
674.00000004554
 20
625.6499999999999
 30
0.0
 11
689.0000000455399
 21
629.66923788646
 31
0.0
  0
LINE
  5
1B0
330
B
100
AcDbEntity
  8
LEVEL001
  6
Continuous
 62
     7
100
AcDbLine
 10
689.0000000455399
 20
629.66923788646
 30
0.0
 11
704.00000004554
 21
625.6499999999999
 31
0.0
  0
LINE
  5
1B1
330
B
100
AcDbEntity
  8
LEVEL001
  6
Continuous
 62
     7
100
AcDbLine
 10
704.00000004554
 20
625.6499999999999
 30
0.0
 11
719.0000000455399
 21
629.66923788646
 31
0.0
  0
LINE
  5
1B2
330
B
100
AcDbEntity
  8
LEVEL001
  6
Continuous
 62
     7
100
AcDbLine
 10
719.0000000455399
 20
629.66923788646
 30
0.0
 11
734.00000004554
 21
625.6499999999999
 31
0.0
  0
LINE
  5
1B3
330
B
100
AcDbEntity
  8
LEVEL001
  6
Continuous
 62
     7
100
AcDbLine
 10
734.00000004554
 20
625.6499999999999
 30
0.0
 11
749.00000004554
 21
629.66923788646
 31
0.0
  0
LINE
  5
1B4
330
B
100
AcDbEntity
  8
LEVEL001
  6
Continuous
 62
     7
100
AcDbLine
 10
749.00000004554
 20
629.66923788646
 30
0.0
 11
764.0000000455399
 21
625.6499999999999
 31
0.0
  0
LINE
  5
1B5
330
B
100
AcDbEntity
  8
LEVEL001
  6
Continuous
 62
     7
100
AcDbLine
 10
764.0000000455399
 20
625.6499999999999
 30
0.0
 11
779.00000004554
 21
629.66923788646
 31
0.0
  0
LINE
  5
1B6
330
B
100
AcDbEntity
  8
LEVEL001
  6
Continuous
 62
     7
100
AcDbLine
 10
779.00000004554
 20
629.66923788646
 30
0.0
 11
794.0000000455399
 21
625.6499999999999
 31
0.0
  0
LINE
  5
1B7
330
B
100
AcDbEntity
  8
LEVEL001
  6
Continuous
 62
     7
100
AcDbLine
 10
794.0000000455399
 20
625.6499999999999
 30
0.0
 11
809.00000004554
 21
629.66923788646
 31
0.0
  0
LINE
  5
1B8
330
B
100
AcDbEntity
  8
LEVEL001
  6
Continuous
 62
     7
100
AcDbLine
 10
809.00000004554
 20
629.66923788646
 30
0.0
 11
824.0000000455399
 21
625.6499999999999
 31
0.0
  0
LINE
  5
1B9
330
B
100
AcDbEntity
  8
LEVEL001
  6
Continuous
 62
     7
100
AcDbLine
 10
824.0000000455399
 20
625.6499999999999
 30
0.0
 11
839.0000000455399
 21
629.66923788646
 31
0.0
  0
LINE
  5
1BA
330
B
100
AcDbEntity
  8
LEVEL001
  6
Continuous
 62
     7
100
AcDbLine
 10
839.0000000455399
 20
629.66923788646
 30
0.0
 11
854.00000004554
 21
625.6499999999999
 31
0.0
  0
LINE
  5
1BB
330
B
100
AcDbEntity
  8
LEVEL001
  6
Continuous
 62
     7
100
AcDbLine
 10
854.00000004554
 20
625.6499999999999
 30
0.0
 11
869.00000004554
 21
629.66923788646
 31
0.0
  0
LINE
  5
1BC
330
B
100
AcDbEntity
  8
LEVEL001
  6
Continuous
 62
     7
100
AcDbLine
 10
869.00000004554
 20
629.66923788646
 30
0.0
 11
883.98336416559
 21
625.6499999999999
 31
0.0
  0
LINE
  5
1BD
330
B
100
AcDbEntity
  8
LEVEL001
  6
Continuous
 62
     7
100
AcDbLine
 10
883.98336416559
 20
625.6499999999999
 30
0.0
 11
899.0000000455399
 21
629.66923788646
 31
0.0
  0
LINE
  5
1BE
330
B
100
AcDbEntity
  8
LEVEL001
  6
Continuous
 62
     7
100
AcDbLine
 10
299.00000004554
 20
629.66923788646
 30
0.0
 11
314.00000004554
 21
625.6499999999999
 31
0.0
  0
LINE
  5
1BF
330
B
100
AcDbEntity
  8
LEVEL001
  6
Continuous
 62
     7
100
AcDbLine
 10
314.00000004554
 20
625.6499999999999
 30
0.0
 11
329.00000004554
 21
629.66923788646
 31
0.0
  0
LINE
  5
1C0
330
B
100
AcDbEntity
  8
LEVEL001
  6
Continuous
 62
     7
100
AcDbLine
 10
329.00000004554
 20
629.66923788646
 30
0.0
 11
344.00000004554
 21
625.6499999999999
 31
0.0
  0
LINE
  5
1C1
330
B
100
AcDbEntity
  8
LEVEL001
  6
Continuous
 62
     7
100
AcDbLine
 10
344.00000004554
 20
625.6499999999999
 30
0.0
 11
359.00000004554
 21
629.66923788646
 31
0.0
  0
LINE
  5
1C2
330
B
100
AcDbEntity
  8
LEVEL001
  6
Continuous
 62
     7
100
AcDbLine
 10
359.00000004554
 20
629.66923788646
 30
0.0
 11
375.07142859082
 21
625.36291158654
 31
0.0
  0
LINE
  5
1C3
330
B
100
AcDbEntity
  8
LEVEL001
  6
Continuous
 62
     7
100
AcDbLine
 10
375.07142859082
 20
625.36291158654
 30
0.0
 11
389.00000004554
 21
629.66923788646
 31
0.0
  0
LINE
  5
1C4
330
B
100
AcDbEntity
  8
LEVEL001
  6
Continuous
 62
     7
100
AcDbLine
 10
288.99999999999
 20
626.5775164320899
 30
0.0
 11
299.00000004554
 21
629.66923788646
 31
0.0
  0
LINE
  5
1C5
330
B
100
AcDbEntity
  8
LEVEL001
  6
Continuous
 62
     7
100
AcDbLine
 10
929.00000004554
 20
629.66923788646
 30
0.0
 11
944.00000004554
 21
625.6499999999999
 31
0.0
  0
LINE
  5
1C6
330
B
100
AcDbEntity
  8
LEVEL001
  6
Continuous
 62
     7
100
AcDbLine
 10
944.00000004554
 20
625.6499999999999
 30
0.0
 11
959.00000004554
 21
629.66923788646
 31
0.0
  0
LINE
  5
1C7
330
B
100
AcDbEntity
  8
LEVEL001
  6
Continuous
 62
     7
100
AcDbLine
 10
959.00000004554
 20
629.66923788646
 30
0.0
 11
973.98336416559
 21
625.6499999999999
 31
0.0
  0
LINE
  5
1C8
330
B
100
AcDbEntity
  8
LEVEL001
  6
Continuous
 62
     7
100
AcDbLine
 10
973.98336416559
 20
625.6499999999999
 30
0.0
 11
989.0000000455399
 21
629.66923788646
 31
0.0
  0
LINE
  5
1C9
330
B
100
AcDbEntity
  8
LEVEL001
  6
Continuous
 62
     7
100
AcDbLine
 10
912.9285714741099
 20
625.36291157954
 30
0.0
 11
929.00000004554
 21
629.66923788646
 31
0.0
  0
LINE
  5
1CA
330
B
100
AcDbEntity
  8
LEVEL001
  6
Continuous
 62
     7
100
AcDbLine
 10
899.0000000455399
 20
629.66923788646
 30
0.0
 11
912.9285714741099
 21
625.36291157954
 31
0.0
  0
LINE
  5
1CB
330
B
100
AcDbEntity
  8
LEVEL001
  6
Continuous
 62
     7
100
AcDbLine
 10
989.0000000455399
 20
629.66923788646
 30
0.0
 11
998.99999999999
 21
626.5775164494201
 31
0.0
  0
LINE
  5
1CC
330
B
100
AcDbEntity
  8
LEVEL001
  6
Continuous
 62
     7
100
AcDbLine
 10
2275.0
 20
187.0
 30
0.0
 11
1675.0
 21
187.0
 31
0.0
  0
LINE
  5
1CD
330
B
100
AcDbEntity
  8
LEVEL001
  6
Continuous
 62
     7
100
AcDbLine
 10
2170.0
 20
187.0
 30
0.0
 11
2170.0
 21
178.0
 31
0.0
  0
LINE
  5
1CE
330
B
100
AcDbEntity
  8
LEVEL001
  6
Continuous
 62
     7
100
AcDbLine
 10
2270.0
 20
187.0
 30
0.0
 11
2270.0
 21
178.0
 31
0.0
  0
LINE
  5
1CF
330
B
100
AcDbEntity
  8
LEVEL001
  6
Continuous
 62
     7
100
AcDbLine
 10
2270.0
 20
178.0
 30
0.0
 11
2170.0
 21
178.0
 31
0.0
  0
ARC
  5
1D0
330
B
100
AcDbEntity
  8
LEVEL001
  6
Continuous
 62
     7
100
AcDbCircle
 10
2188.5
 20
174.00000000003
 30
0.0
 40
4.0
100
AcDbArc
 50
180.00000000061
 51
269.99999999992
  0
LINE
  5
1D1
330
B
100
AcDbEntity
  8
LEVEL001
  6
Continuous
 62
     7
100
AcDbLine
 10
2184.5
 20
175.0
 30
0.0
 11
2184.5
 21
173.99999999999
 31
0.0
  0
ARC
  5
1D2
330
B
100
AcDbEntity
  8
LEVEL001
  6
Continuous
 62
     7
100
AcDbCircle
 10
2251.5
 20
173.99999999995
 30
0.0
 40
4.0
100
AcDbArc
 50
270.0
 51
0.0
  0
LINE
  5
1D3
330
B
100
AcDbEntity
  8
LEVEL001
  6
Continuous
 62
     7
100
AcDbLine
 10
2255.5
 20
173.99999999995
 30
0.0
 11
2255.4999999999
 21
175.0
 31
0.0
  0
LINE
  5
1D4
330
B
100
AcDbEntity
  8
LEVEL001
  6
Continuous
 62
     7
100
AcDbLine
 10
2188.5
 20
169.99999999999
 30
0.0
 11
2251.5
 21
169.99999999992
 31
0.0
  0
LINE
  5
1D5
330
B
100
AcDbEntity
  8
LEVEL001
  6
Continuous
 62
     7
100
AcDbLine
 10
2172.5
 20
178.0
 30
0.0
 11
2172.5
 21
175.0
 31
0.0
  0
LINE
  5
1D6
330
B
100
AcDbEntity
  8
LEVEL001
  6
Continuous
 62
     7
100
AcDbLine
 10
2267.5
 20
178.0
 30
0.0
 11
2267.5
 21
175.0
 31
0.0
  0
LINE
  5
1D7
330
B
100
AcDbEntity
  8
LEVEL001
  6
Continuous
 62
     7
100
AcDbLine
 10
2172.5
 20
175.0
 30
0.0
 11
2267.5
 21
175.0
 31
0.0
  0
ARC
  5
1D8
330
B
100
AcDbEntity
  8
LEVEL001
  6
Continuous
 62
     7
100
AcDbCircle
 10
2207.5
 20
129.0
 30
0.0
 40
5.0
100
AcDbArc
 50
90.0
 51
180.0
  0
POINT
  5
1D9
330
B
100
AcDbEntity
  8
LEVEL001
 62
     7
100
AcDbPoint
 10
2202.5
 20
134.0
 30
0.0
  0
LINE
  5
1DA
330
B
100
AcDbEntity
  8
LEVEL001
  6
Continuous
 62
     7
100
AcDbLine
 10
2207.5
 20
134.0
 30
0.0
 11
2232.5
 21
134.0
 31
0.0
  0
ARC
  5
1DB
330
B
100
AcDbEntity
  8
LEVEL001
  6
Continuous
 62
     7
100
AcDbCircle
 10
2232.5
 20
129.0
 30
0.0
 40
5.0
100
AcDbArc
 50
0.0
 51
90.0
  0
POINT
  5
1DC
330
B
100
AcDbEntity
  8
LEVEL001
 62
     7
100
AcDbPoint
 10
2237.5
 20
134.0
 30
0.0
  0
LINE
  5
1DD
330
B
100
AcDbEntity
  8
LEVEL001
  6
Continuous
 62
     7
100
AcDbLine
 10
2237.5
 20
129.0
 30
0.0
 11
2237.5
 21
39.0
 31
0.0
  0
ARC
  5
1DE
330
B
100
AcDbEntity
  8
LEVEL001
  6
Continuous
 62
     7
100
AcDbCircle
 10
2232.5
 20
39.0
 30
0.0
 40
5.0
100
AcDbArc
 50
270.0
 51
0.0
  0
POINT
  5
1DF
330
B
100
AcDbEntity
  8
LEVEL001
 62
     7
100
AcDbPoint
 10
2237.5
 20
34.0
 30
0.0
  0
LINE
  5
1E0
330
B
100
AcDbEntity
  8
LEVEL001
  6
Continuous
 62
     7
100
AcDbLine
 10
2202.5
 20
39.0
 30
0.0
 11
2202.5
 21
129.0
 31
0.0
  0
ARC
  5
1E1
330
B
100
AcDbEntity
  8
LEVEL001
  6
Continuous
 62
     7
100
AcDbCircle
 10
2207.5
 20
39.0
 30
0.0
 40
5.0
100
AcDbArc
 50
180.0
 51
270.0
  0
POINT
  5
1E2
330
B
100
AcDbEntity
  8
LEVEL001
 62
     7
100
AcDbPoint
 10
2202.5
 20
34.0
 30
0.0
  0
LINE
  5
1E3
330
B
100
AcDbEntity
  8
LEVEL001
  6
Continuous
 62
     7
100
AcDbLine
 10
2196.5
 20
72.0
 30
0.0
 11
2198.5
 21
72.0
 31
0.0
  0
LINE
  5
1E4
330
B
100
AcDbEntity
  8
LEVEL001
  6
Continuous
 62
     7
100
AcDbLine
 10
2243.5
 20
72.0
 30
0.0
 11
2241.5
 21
72.0
 31
0.0
  0
LINE
  5
1E5
330
B
100
AcDbEntity
  8
LEVEL001
  6
Continuous
 62
     7
100
AcDbLine
 10
2237.5
 20
90.0
 30
0.0
 11
2241.5
 21
90.0
 31
0.0
  0
LINE
  5
1E6
330
B
100
AcDbEntity
  8
LEVEL001
  6
Continuous
 62
     7
100
AcDbLine
 10
2237.5
 20
78.0
 30
0.0
 11
2241.5
 21
78.0
 31
0.0
  0
LINE
  5
1E7
330
B
100
AcDbEntity
  8
LEVEL001
  6
Continuous
 62
     7
100
AcDbLine
 10
2243.5
 20
78.0
 30
0.0
 11
2246.499999995
 21
78.0
 31
0.0
  0
LINE
  5
1E8
330
B
100
AcDbEntity
  8
LEVEL001
  6
Continuous
 62
     7
100
AcDbLine
 10
2246.499999995
 20
78.0
 30
0.0
 11
2246.499999995
 21
90.0
 31
0.0
  0
LINE
  5
1E9
330
B
100
AcDbEntity
  8
LEVEL001
  6
Continuous
 62
     7
100
AcDbLine
 10
2246.499999995
 20
90.0
 30
0.0
 11
2243.5
 21
90.0
 31
0.0
  0
LINE
  5
1EA
330
B
100
AcDbEntity
  8
LEVEL001
  6
Continuous
 62
     7
100
AcDbLine
 10
2202.5
 20
90.0
 30
0.0
 11
2198.5
 21
90.0
 31
0.0
  0
LINE
  5
1EB
330
B
100
AcDbEntity
  8
LEVEL001
  6
Continuous
 62
     7
100
AcDbLine
 10
2202.5
 20
78.0
 30
0.0
 11
2198.5
 21
78.0
 31
0.0
  0
LINE
  5
1EC
330
B
100
AcDbEntity
  8
LEVEL001
  6
Continuous
 62
     7
100
AcDbLine
 10
2196.5
 20
78.0
 30
0.0
 11
2193.50000001
 21
78.0
 31
0.0
  0
LINE
  5
1ED
330
B
100
AcDbEntity
  8
LEVEL001
  6
Continuous
 62
     7
100
AcDbLine
 10
2193.50000001
 20
78.0
 30
0.0
 11
2193.50000001
 21
90.0
 31
0.0
  0
LINE
  5
1EE
330
B
100
AcDbEntity
  8
LEVEL001
  6
Continuous
 62
     7
100
AcDbLine
 10
2193.50000001
 20
90.0
 30
0.0
 11
2196.5
 21
90.0
 31
0.0
  0
POINT
  5
1EF
330
B
100
AcDbEntity
  8
LEVEL001
 62
     7
100
AcDbPoint
 10
2198.5
 20
167.99999999995
 30
0.0
  0
POINT
  5
1F0
330
B
100
AcDbEntity
  8
LEVEL001
 62
     7
100
AcDbPoint
 10
2196.5
 20
169.99999999995
 30
0.0
  0
POINT
  5
1F1
330
B
100
AcDbEntity
  8
LEVEL001
 62
     7
100
AcDbPoint
 10
2243.5
 20
169.99999999995
 30
0.0
  0
LINE
  5
1F2
330
B
100
AcDbEntity
  8
LEVEL001
  6
Continuous
 62
     7
100
AcDbLine
 10
2241.5
 20
167.99999999995
 30
0.0
 11
2241.5
 21
72.0
 31
0.0
  0
LINE
  5
1F3
330
B
100
AcDbEntity
  8
LEVEL001
  6
Continuous
 62
     7
100
AcDbLine
 10
2243.5
 20
169.99999999992
 30
0.0
 11
2243.5
 21
72.0
 31
0.0
  0
LINE
  5
1F4
330
B
100
AcDbEntity
  8
LEVEL001
  6
Continuous
 62
     7
100
AcDbLine
 10
2198.5
 20
167.99999999995
 30
0.0
 11
2241.5
 21
167.99999999995
 31
0.0
  0
LINE
  5
1F5
330
B
100
AcDbEntity
  8
LEVEL001
  6
Continuous
 62
     7
100
AcDbLine
 10
2198.5
 20
167.99999999995
 30
0.0
 11
2198.5
 21
72.0
 31
0.0
  0
LINE
  5
1F6
330
B
100
AcDbEntity
  8
LEVEL001
  6
Continuous
 62
     7
100
AcDbLine
 10
2196.5
 20
169.99999999995
 30
0.0
 11
2196.5
 21
72.0
 31
0.0
  0
LINE
  5
1F7
330
B
100
AcDbEntity
  8
LEVEL001
  6
Continuous
 62
     7
100
AcDbLine
 10
1780.0
 20
187.0
 30
0.0
 11
1780.0
 21
178.0
 31
0.0
  0
LINE
  5
1F8
330
B
100
AcDbEntity
  8
LEVEL001
  6
Continuous
 62
     7
100
AcDbLine
 10
1680.0
 20
187.0
 30
0.0
 11
1680.0
 21
178.0
 31
0.0
  0
LINE
  5
1F9
330
B
100
AcDbEntity
  8
LEVEL001
  6
Continuous
 62
     7
100
AcDbLine
 10
1680.0
 20
178.0
 30
0.0
 11
1780.0
 21
178.0
 31
0.0
  0
ARC
  5
1FA
330
B
100
AcDbEntity
  8
LEVEL001
  6
Continuous
 62
     7
100
AcDbCircle
 10
1761.5
 20
173.99999999995
 30
0.0
 40
4.0
100
AcDbArc
 50
270.00000000008
 51
0.0
  0
LINE
  5
1FB
330
B
100
AcDbEntity
  8
LEVEL001
  6
Continuous
 62
     7
100
AcDbLine
 10
1765.5
 20
175.0
 30
0.0
 11
1765.5
 21
173.99999999999
 31
0.0
  0
ARC
  5
1FC
330
B
100
AcDbEntity
  8
LEVEL001
  6
Continuous
 62
     7
100
AcDbCircle
 10
1698.5
 20
173.99999999995
 30
0.0
 40
4.0
100
AcDbArc
 50
180.0
 51
270.0
  0
LINE
  5
1FD
330
B
100
AcDbEntity
  8
LEVEL001
  6
Continuous
 62
     7
100
AcDbLine
 10
1694.5
 20
173.99999999995
 30
0.0
 11
1694.5000000001
 21
175.0
 31
0.0
  0
LINE
  5
1FE
330
B
100
AcDbEntity
  8
LEVEL001
  6
Continuous
 62
     7
100
AcDbLine
 10
1761.5
 20
169.99999999999
 30
0.0
 11
1698.5
 21
169.99999999992
 31
0.0
  0
LINE
  5
1FF
330
B
100
AcDbEntity
  8
LEVEL001
  6
Continuous
 62
     7
100
AcDbLine
 10
1777.5
 20
178.0
 30
0.0
 11
1777.5
 21
175.0
 31
0.0
  0
LINE
  5
200
330
B
100
AcDbEntity
  8
LEVEL001
  6
Continuous
 62
     7
100
AcDbLine
 10
1682.5
 20
178.0
 30
0.0
 11
1682.5
 21
175.0
 31
0.0
  0
LINE
  5
201
330
B
100
AcDbEntity
  8
LEVEL001
  6
Continuous
 62
     7
100
AcDbLine
 10
1777.5
 20
175.0
 30
0.0
 11
1682.5
 21
175.0
 31
0.0
  0
ARC
  5
202
330
B
100
AcDbEntity
  8
LEVEL001
  6
Continuous
 62
     7
100
AcDbCircle
 10
1742.5
 20
129.0
 30
0.0
 40
5.0
100
AcDbArc
 50
0.0
 51
90.0
  0
POINT
  5
203
330
B
100
AcDbEntity
  8
LEVEL001
 62
     7
100
AcDbPoint
 10
1747.5
 20
134.0
 30
0.0
  0
LINE
  5
204
330
B
100
AcDbEntity
  8
LEVEL001
  6
Continuous
 62
     7
100
AcDbLine
 10
1742.5
 20
134.0
 30
0.0
 11
1717.5
 21
134.0
 31
0.0
  0
ARC
  5
205
330
B
100
AcDbEntity
  8
LEVEL001
  6
Continuous
 62
     7
100
AcDbCircle
 10
1717.5
 20
129.0
 30
0.0
 40
5.0
100
AcDbArc
 50
90.0
 51
180.0
  0
POINT
  5
206
330
B
100
AcDbEntity
  8
LEVEL001
 62
     7
100
AcDbPoint
 10
1712.5
 20
134.0
 30
0.0
  0
LINE
  5
207
330
B
100
AcDbEntity
  8
LEVEL001
  6
Continuous
 62
     7
100
AcDbLine
 10
1712.5
 20
129.0
 30
0.0
 11
1712.5
 21
39.0
 31
0.0
  0
ARC
  5
208
330
B
100
AcDbEntity
  8
LEVEL001
  6
Continuous
 62
     7
100
AcDbCircle
 10
1717.5
 20
39.0
 30
0.0
 40
5.0
100
AcDbArc
 50
180.0
 51
270.0
  0
LINE
  5
209
330
B
100
AcDbEntity
  8
LEVEL001
  6
Continuous
 62
     7
100
AcDbLine
 10
1747.5
 20
39.0
 30
0.0
 11
1747.5
 21
129.0
 31
0.0
  0
ARC
  5
20A
330
B
100
AcDbEntity
  8
LEVEL001
  6
Continuous
 62
     7
100
AcDbCircle
 10
1742.5
 20
39.0
 30
0.0
 40
5.0
100
AcDbArc
 50
270.0
 51
0.0
  0
LINE
  5
20B
330
B
100
AcDbEntity
  8
LEVEL001
  6
Continuous
 62
     7
100
AcDbLine
 10
1753.5
 20
72.0
 30
0.0
 11
1751.5
 21
72.0
 31
0.0
  0
LINE
  5
20C
330
B
100
AcDbEntity
  8
LEVEL001
  6
Continuous
 62
     7
100
AcDbLine
 10
1706.5
 20
72.0
 30
0.0
 11
1708.5
 21
72.0
 31
0.0
  0
LINE
  5
20D
330
B
100
AcDbEntity
  8
LEVEL001
  6
Continuous
 62
     7
100
AcDbLine
 10
1712.5
 20
90.0
 30
0.0
 11
1708.5
 21
90.0
 31
0.0
  0
LINE
  5
20E
330
B
100
AcDbEntity
  8
LEVEL001
  6
Continuous
 62
     7
100
AcDbLine
 10
1712.5
 20
78.0
 30
0.0
 11
1708.5
 21
78.0
 31
0.0
  0
LINE
  5
20F
330
B
100
AcDbEntity
  8
LEVEL001
  6
Continuous
 62
     7
100
AcDbLine
 10
1706.5
 20
78.0
 30
0.0
 11
1703.500000005
 21
78.0
 31
0.0
  0
LINE
  5
210
330
B
100
AcDbEntity
  8
LEVEL001
  6
Continuous
 62
     7
100
AcDbLine
 10
1703.500000005
 20
78.0
 30
0.0
 11
1703.500000005
 21
90.0
 31
0.0
  0
LINE
  5
211
330
B
100
AcDbEntity
  8
LEVEL001
  6
Continuous
 62
     7
100
AcDbLine
 10
1703.500000005
 20
90.0
 30
0.0
 11
1706.5
 21
90.0
 31
0.0
  0
LINE
  5
212
330
B
100
AcDbEntity
  8
LEVEL001
  6
Continuous
 62
     7
100
AcDbLine
 10
1747.5
 20
90.0
 30
0.0
 11
1751.5
 21
90.0
 31
0.0
  0
LINE
  5
213
330
B
100
AcDbEntity
  8
LEVEL001
  6
Continuous
 62
     7
100
AcDbLine
 10
1747.5
 20
78.0
 30
0.0
 11
1751.5
 21
78.0
 31
0.0
  0
LINE
  5
214
330
B
100
AcDbEntity
  8
LEVEL001
  6
Continuous
 62
     7
100
AcDbLine
 10
1753.5
 20
78.0
 30
0.0
 11
1756.49999999
 21
78.0
 31
0.0
  0
LINE
  5
215
330
B
100
AcDbEntity
  8
LEVEL001
  6
Continuous
 62
     7
100
AcDbLine
 10
1756.49999999
 20
78.0
 30
0.0
 11
1756.49999999
 21
90.0
 31
0.0
  0
LINE
  5
216
330
B
100
AcDbEntity
  8
LEVEL001
  6
Continuous
 62
     7
100
AcDbLine
 10
1756.49999999
 20
90.0
 30
0.0
 11
1753.5
 21
90.0
 31
0.0
  0
POINT
  5
217
330
B
100
AcDbEntity
  8
LEVEL001
 62
     7
100
AcDbPoint
 10
1751.5
 20
167.99999999995
 30
0.0
  0
POINT
  5
218
330
B
100
AcDbEntity
  8
LEVEL001
 62
     7
100
AcDbPoint
 10
1753.5
 20
169.99999999995
 30
0.0
  0
POINT
  5
219
330
B
100
AcDbEntity
  8
LEVEL001
 62
     7
100
AcDbPoint
 10
1706.5
 20
169.99999999995
 30
0.0
  0
LINE
  5
21A
330
B
100
AcDbEntity
  8
LEVEL001
  6
Continuous
 62
     7
100
AcDbLine
 10
1708.5
 20
167.99999999995
 30
0.0
 11
1708.5
 21
72.0
 31
0.0
  0
LINE
  5
21B
330
B
100
AcDbEntity
  8
LEVEL001
  6
Continuous
 62
     7
100
AcDbLine
 10
1706.5
 20
169.99999999992
 30
0.0
 11
1706.5
 21
72.0
 31
0.0
  0
LINE
  5
21C
330
B
100
AcDbEntity
  8
LEVEL001
  6
Continuous
 62
     7
100
AcDbLine
 10
1751.5
 20
167.99999999995
 30
0.0
 11
1708.5
 21
167.99999999995
 31
0.0
  0
LINE
  5
21D
330
B
100
AcDbEntity
  8
LEVEL001
  6
Continuous
 62
     7
100
AcDbLine
 10
1751.5
 20
167.99999999995
 30
0.0
 11
1751.5
 21
72.0
 31
0.0
  0
LINE
  5
21E
330
B
100
AcDbEntity
  8
LEVEL001
  6
Continuous
 62
     7
100
AcDbLine
 10
1753.5
 20
169.99999999995
 30
0.0
 11
1753.5
 21
72.0
 31
0.0
  0
LINE
  5
21F
330
B
100
AcDbEntity
  8
LEVEL001
  6
Continuous
 62
     7
100
AcDbLine
 10
1680.0
 20
192.0
 30
0.0
 11
2270.0
 21
192.0
 31
0.0
  0
LINE
  5
220
330
B
100
AcDbEntity
  8
LEVEL001
  6
Continuous
 62
     7
100
AcDbLine
 10
1680.0
 20
572.0
 30
0.0
 11
1680.0
 21
192.0
 31
0.0
  0
LINE
  5
221
330
B
100
AcDbEntity
  8
LEVEL001
  6
Continuous
 62
     7
100
AcDbLine
 10
1675.0
 20
187.0
 30
0.0
 11
1675.0
 21
983.0
 31
0.0
  0
LINE
  5
222
330
B
100
AcDbEntity
  8
LEVEL001
  6
Continuous
 62
     7
100
AcDbLine
 10
2275.0
 20
983.0
 30
0.0
 11
1675.0
 21
983.0
 31
0.0
  0
LINE
  5
223
330
B
100
AcDbEntity
  8
LEVEL001
  6
Continuous
 62
     7
100
AcDbLine
 10
1540.1586128872
 20
1020.6835550538
 30
0.0
 11
1536.7939653009
 21
1008.1265193121
 31
0.0
  0
LINE
  5
224
330
B
100
AcDbEntity
  8
LEVEL001
  6
Continuous
 62
     7
100
AcDbLine
 10
1540.1586128872
 20
1020.6835550538
 30
0.0
 11
1680.7955549577
 21
983.0
 31
0.0
  0
LWPOLYLINE
  5
225
330
B
100
AcDbEntity
  8
LEVEL001
  6
Continuous
 62
     7
100
AcDbPolyline
 90
        4
 70
     0
 43
0.0
 10
125.99999987452
 20
1008.0
 10
125.99999987452
 20
1004.0
 10
165.99999987452
 20
1004.0
 10
165.99999987452
 20
1008.0
  0
LWPOLYLINE
  5
226
330
B
100
AcDbEntity
  8
LEVEL001
  6
Continuous
 62
     7
100
AcDbPolyline
 90
        6
 70
     1
 43
0.0
 10
162.99999987452
 20
985.5
 10
162.99999987452
 20
991.5
 10
160.99999987452
 20
997.4999999999999
 10
130.99999987452
 20
997.4999999999999
 10
128.99999987452
 20
991.5
 10
128.99999987452
 20
985.5
  0
LINE
  5
227
330
B
100
AcDbEntity
  8
LEVEL001
  6
Continuous
 62
     7
100
AcDbLine
 10
162.99999987452
 20
991.5
 30
0.0
 11
128.99999987452
 21
991.5
 31
0.0
  0
LINE
  5
228
330
B
100
AcDbEntity
  8
LEVEL001
  6
Continuous
 62
     7
100
AcDbLine
 10
158.49999987452
 20
997.4999999999999
 30
0.0
 11
158.49999987452
 21
1004.0
 31
0.0
  0
LINE
  5
229
330
B
100
AcDbEntity
  8
LEVEL001
  6
Continuous
 62
     7
100
AcDbLine
 10
133.49999987452
 20
997.4999999999999
 30
0.0
 11
133.49999987452
 21
1004.0
 31
0.0
  0
ARC
  5
22A
330
B
100
AcDbEntity
  8
LEVEL001
  6
Continuous
 62
     7
100
AcDbCircle
 10
145.99999987452
 20
909.0
 30
0.0
 40
101.0
100
AcDbArc
 50
78.57881372500099
 51
101.421186275
  0
LWPOLYLINE
  5
22B
330
B
100
AcDbEntity
  8
LEVEL001
  6
Continuous
 62
     7
100
AcDbPolyline
 90
        6
 70
     1
 43
0.0
 10
215.99999987452
 20
985.5
 10
215.99999987452
 20
991.5
 10
213.99999987452
 20
997.4999999999999
 10
183.99999987452
 20
997.4999999999999
 10
181.99999987452
 20
991.5
 10
181.99999987452
 20
985.5
  0
LINE
  5
22C
330
B
100
AcDbEntity
  8
LEVEL001
  6
Continuous
 62
     7
100
AcDbLine
 10
215.99999987452
 20
991.5
 30
0.0
 11
181.99999987452
 21
991.5
 31
0.0
  0
LWPOLYLINE
  5
22D
330
B
100
AcDbEntity
  8
LEVEL001
  6
Continuous
 62
     7
100
AcDbPolyline
 90
        4
 70
     1
 43
0.0
 10
178.99999987452
 20
983.0
 10
218.99999987452
 20
983.0
 10
218.99999987452
 20
985.5
 10
178.99999987452
 20
985.5
  0
LWPOLYLINE
  5
22E
330
B
100
AcDbEntity
  8
LEVEL001
  6
Continuous
 62
     7
100
AcDbPolyline
 90
        9
 70
     0
 43
0.0
 10
203.99999987452
 20
1004.5
 10
185.49999987452
 20
1004.5
 10
185.49999987452
 20
997.4999999999999
 10
212.49999987452
 20
997.4999999999999
 10
212.49999987452
 20
1004.5
 10
203.99999987452
 20
1004.5
 10
203.99999987452
 20
1014.5
 10
193.99999987452
 20
1014.5
 10
193.99999987452
 20
1004.5
  0
LWPOLYLINE
  5
22F
330
B
100
AcDbEntity
  8
LEVEL001
  6
Continuous
 62
     7
100
AcDbPolyline
 90
        4
 70
     1
 43
0.0
 10
125.99999987452
 20
983.0
 10
165.99999987452
 20
983.0
 10
165.99999987452
 20
985.5
 10
125.99999987452
 20
985.5
  0
CIRCLE
  5
230
330
B
100
AcDbEntity
  8
LEVEL001
  6
HIDDEN
 62
     1
100
AcDbCircle
 10
1814.0
 20
868.0
 30
0.0
 40
107.35
  0
CIRCLE
  5
231
330
B
100
AcDbEntity
  8
LEVEL001
  6
HIDDEN
 62
     1
100
AcDbCircle
 10
1980.6
 20
733.0
 30
0.0
 40
107.35
  0
CIRCLE
  5
232
330
B
100
AcDbEntity
  8
LEVEL001
  6
HIDDEN
 62
     1
100
AcDbCircle
 10
2147.2
 20
868.0
 30
0.0
 40
107.35
  0
CIRCLE
  5
233
330
B
100
AcDbEntity
  8
LEVEL001
  6
HIDDEN
 62
     1
100
AcDbCircle
 10
1980.6
 20
733.0
 30
0.0
 40
152.5
  0
LWPOLYLINE
  5
234
330
B
100
AcDbEntity
  8
LEVEL001
  6
Continuous
 62
     7
100
AcDbPolyline
 90
        6
 70
     0
 43
0.0
 10
998.99999999999
 20
733.0
 10
998.99999999999
 20
840.21606874732
 10
999.99999999999
 20
840.21606874732
 10
999.99999999999
 20
885.5
 10
1009.0
 20
885.5
 10
1009.0
 20
733.0
  0
LWPOLYLINE
  5
235
330
B
100
AcDbEntity
  8
LEVEL001
  6
Continuous
 62
     7
100
AcDbPolyline
 90
        6
 70
     0
 43
0.0
 10
288.99999999999
 20
733.0
 10
288.99999999999
 20
840.21606874732
 10
287.99999999999
 20
840.21606874732
 10
287.99999999999
 20
885.5
 10
278.99999999999
 20
885.5
 10
278.99999999999
 20
733.0
  0
LWPOLYLINE
  5
236
330
B
100
AcDbEntity
  8
LEVEL001
  6
Continuous
 62
     7
100
AcDbPolyline
 90
        4
 70
     0
 43
0.0
 10
998.99999999999
 20
733.0
 10
998.99999999999
 20
625.7839312526799
 10
999.99999999999
 20
625.7839312526799
 10
999.99999999999
 20
603.0
  0
LINE
  5
237
330
B
100
AcDbEntity
  8
LEVEL001
  6
Continuous
 62
     7
100
AcDbLine
 10
1009.0
 20
603.0
 30
0.0
 11
1009.0
 21
733.0
 31
0.0
  0
LWPOLYLINE
  5
238
330
B
100
AcDbEntity
  8
LEVEL001
  6
Continuous
 62
     7
100
AcDbPolyline
 90
        4
 70
     0
 43
0.0
 10
288.99999999999
 20
733.0
 10
288.99999999999
 20
625.7839312526799
 10
287.99999999999
 20
625.7839312526799
 10
287.99999999999
 20
603.0
  0
LINE
  5
239
330
B
100
AcDbEntity
  8
LEVEL001
  6
Continuous
 62
     7
100
AcDbLine
 10
278.99999999999
 20
603.0
 30
0.0
 11
278.99999999999
 21
733.0
 31
0.0
  0
CIRCLE
  5
23A
330
B
100
AcDbEntity
  8
LEVEL001
  6
Continuous
 62
     7
100
AcDbCircle
 10
2324.2
 20
731.0
 30
0.0
 40
8.0
  0
ARC
  5
23B
330
B
100
AcDbEntity
  8
LEVEL001
  6
Continuous
 62
     7
100
AcDbCircle
 10
2277.2
 20
729.3999999999999
 30
0.0
 40
10.0
100
AcDbArc
 50
257.29096700562
 51
102.70903299437
  0
ARC
  5
23C
330
B
100
AcDbEntity
  8
LEVEL001
  6
Continuous
 62
     7
100
AcDbCircle
 10
2324.2
 20
731.0000000000099
 30
0.0
 40
20.0
100
AcDbArc
 50
271.94974167214
 51
38.034935634675
  0
LINE
  5
23D
330
B
100
AcDbEntity
  8
LEVEL001
  6
Continuous
 62
     7
100
AcDbLine
 10
2301.6812202406
 20
734.46654275922
 30
0.0
 11
2275.0
 21
677.70756516276
 31
0.0
  0
ARC
  5
23E
330
B
100
AcDbEntity
  8
LEVEL001
  6
Continuous
 62
     7
100
AcDbCircle
 10
2277.2
 20
729.3999999999999
 30
0.0
 40
25.0
100
AcDbArc
 50
11.692651933606
 51
95.04855895808701
  0
LINE
  5
23F
330
B
100
AcDbEntity
  8
LEVEL001
  6
Continuous
 62
     7
100
AcDbLine
 10
2290.0989289965
 20
709.82752687785
 30
0.0
 11
2324.8804568888
 21
711.0115788912099
 31
0.0
  0
LINE
  5
240
330
B
100
AcDbEntity
  8
LEVEL001
  6
Continuous
 62
     7
100
AcDbLine
 10
2339.9527042515
 20
743.3228368797101
 30
0.0
 11
2275.0
 21
826.35410235851
 31
0.0
  0
CIRCLE
  5
241
330
B
100
AcDbEntity
  8
LEVEL001
  6
Continuous
 62
     7
100
AcDbCircle
 10
2333.7
 20
499.0
 30
0.0
 40
42.5
  0
CIRCLE
  5
242
330
B
100
AcDbEntity
  8
LEVEL001
  6
Continuous
 62
     7
100
AcDbCircle
 10
2333.7
 20
499.0
 30
0.0
 40
22.5
  0
CIRCLE
  5
243
330
B
100
AcDbEntity
  8
LEVEL001
  6
Continuous
 62
     7
100
AcDbCircle
 10
2315.7330266457
 20
390.47724723136
 30
0.0
 40
10.0
  0
ARC
  5
244
330
B
100
AcDbEntity
  8
LEVEL001
  6
Continuous
 62
     7
100
AcDbCircle
 10
2283.3858281609
 20
427.74523682975
 30
0.0
 40
20.0
100
AcDbArc
 50
350.59940999989
 51
10.540657812291
  0
POINT
  5
245
330
B
100
AcDbEntity
  8
LEVEL001
 62
     7
100
AcDbPoint
 10
2303.6915222599
 20
427.94726420664
 30
0.0
  0
ARC
  5
246
330
B
100
AcDbEntity
  8
LEVEL001
  6
Continuous
 62
     7
100
AcDbCircle
 10
2277.1929975079
 20
461.0269398719299
 30
0.0
 40
20.0
100
AcDbArc
 50
10.540657812374
 51
57.26203887164899
  0
POINT
  5
247
330
B
100
AcDbEntity
  8
LEVEL001
 62
     7
100
AcDbPoint
 10
2295.2752383053
 20
473.17831911291
 30
0.0
  0
LINE
  5
248
330
B
100
AcDbEntity
  8
LEVEL001
  6
Continuous
 62
     7
100
AcDbLine
 10
2303.0483350284
 20
431.403901024
 30
0.0
 11
2296.8555043753
 21
464.6856040662
 31
0.0
  0
LINE
  5
249
330
B
100
AcDbEntity
  8
LEVEL001
  6
DASHDOT
 62
     1
100
AcDbLine
 10
2176.4366429463
 20
566.6911822403299
 30
0.0
 11
2383.097432159
 21
477.73776418661
 31
0.0
  0
LINE
  5
24A
330
B
100
AcDbEntity
  8
LEVEL001
  6
Continuous
 62
     7
100
AcDbLine
 10
2270.0
 20
572.0
 30
0.0
 11
2270.0
 21
558.46309205078
 31
0.0
  0
LINE
  5
24B
330
B
100
AcDbEntity
  8
LEVEL001
  6
Continuous
 62
     7
100
AcDbLine
 10
2275.0
 20
983.0
 30
0.0
 11
2275.0
 21
557.23134446045
 31
0.0
  0
ARC
  5
24C
330
B
100
AcDbEntity
  8
LEVEL001
  6
Continuous
 62
     7
100
AcDbCircle
 10
2196.6284086343
 20
557.9999999999899
 30
0.0
 40
25.0
100
AcDbArc
 50
191.69265193365
 51
297.95285664213
  0
LINE
  5
24D
330
B
100
AcDbEntity
  8
LEVEL001
  6
Continuous
 62
     7
100
AcDbLine
 10
2208.3470313506
 20
535.91666054163
 30
0.0
 11
2228.1295379442
 21
578.0
 31
0.0
  0
LINE
  5
24E
330
B
100
AcDbEntity
  8
LEVEL001
  6
Continuous
 62
     7
100
AcDbLine
 10
2172.1471883937
 20
552.93345724074
 30
0.0
 11
2183.9304511717
 21
578.0
 31
0.0
  0
CIRCLE
  5
24F
330
B
100
AcDbEntity
  8
LEVEL001
  6
Continuous
 62
     7
100
AcDbCircle
 10
2196.6284086343
 20
557.9999999999899
 30
0.0
 40
10.0
  0
LINE
  5
250
330
B
100
AcDbEntity
  8
LEVEL001
  6
Continuous
 62
     7
100
AcDbLine
 10
2201.4875025518
 20
533.4767619123899
 30
0.0
 11
2288.0089523486
 21
477.84999312881
 31
0.0
  0
LINE
  5
251
330
B
100
AcDbEntity
  8
LEVEL001
  6
Continuous
 62
     7
100
AcDbLine
 10
2212.4549892457
 20
544.6555221091399
 30
0.0
 11
2292.6814868691
 21
510.12346980611
 31
0.0
  0
LINE
  5
252
330
B
100
AcDbEntity
  8
LEVEL001
  6
Continuous
 62
     7
100
AcDbLine
 10
2217.5628030161
 20
555.5213777464
 30
0.0
 11
2297.4258382133
 21
521.1457713045499
 31
0.0
  0
LINE
  5
253
330
B
100
AcDbEntity
  8
LEVEL001
  6
Continuous
 62
     7
100
AcDbLine
 10
2224.2443235764
 20
569.73498088654
 30
0.0
 11
2343.8659226719
 21
540.26625759902
 31
0.0
  0
CIRCLE
  5
254
330
B
100
AcDbEntity
  8
LEVEL001
  6
Continuous
 62
     7
100
AcDbCircle
 10
2196.6284086343
 20
557.9999999999899
 30
0.0
 40
16.0
  0
ARC
  5
255
330
B
100
AcDbEntity
  8
LEVEL001
  6
Continuous
 62
     7
100
AcDbCircle
 10
2277.2
 20
729.3999999999999
 30
0.0
 40
16.0
100
AcDbArc
 50
262.09679226653
 51
97.903207733466
  0
LINE
  5
256
330
B
100
AcDbEntity
  8
LEVEL001
  6
DASHDOT
 62
     1
100
AcDbLine
 10
2341.6141311669
 20
546.80233615703
 30
0.0
 11
2311.2334286032
 21
363.29911565114
 31
0.0
  0
LINE
  5
257
330
B
100
AcDbEntity
  8
LEVEL001
  6
Continuous
 62
     7
100
AcDbLine
 10
1696.0
 20
572.0
 30
0.0
 11
1696.0
 21
192.0
 31
0.0
  0
LINE
  5
258
330
B
100
AcDbEntity
  8
LEVEL001
  6
Continuous
 62
     7
100
AcDbLine
 10
2259.1387546166
 20
561.1387546165799
 30
0.0
 11
2270.0
 21
572.0
 31
0.0
  0
LINE
  5
259
330
B
100
AcDbEntity
  8
LEVEL001
  6
Continuous
 62
     7
100
AcDbLine
 10
1725.0
 20
527.0
 30
0.0
 11
1696.0
 21
556.0
 31
0.0
  0
LINE
  5
25A
330
B
100
AcDbEntity
  8
LEVEL001
  6
Continuous
 62
     7
100
AcDbLine
 10
1725.0
 20
237.0
 30
0.0
 11
1696.0
 21
208.0
 31
0.0
  0
LINE
  5
25B
330
B
100
AcDbEntity
  8
LEVEL001
  6
Continuous
 62
     7
100
AcDbLine
 10
1725.0
 20
237.0
 30
0.0
 11
2225.0
 21
237.0
 31
0.0
  0
LINE
  5
25C
330
B
100
AcDbEntity
  8
LEVEL001
  6
Continuous
 62
     7
100
AcDbLine
 10
2225.0
 20
237.0
 30
0.0
 11
2270.0
 21
192.0
 31
0.0
  0
LINE
  5
25D
330
B
100
AcDbEntity
  8
LEVEL001
  6
Continuous
 62
     7
100
AcDbLine
 10
1675.0
 20
577.0
 30
0.0
 11
2183.4603718755
 21
577.0
 31
0.0
  0
LINE
  5
25E
330
B
100
AcDbEntity
  8
LEVEL001
  6
Continuous
 62
     7
100
AcDbLine
 10
2227.659458648
 20
577.0
 30
0.0
 11
2275.0
 21
577.0
 31
0.0
  0
LINE
  5
25F
330
B
100
AcDbEntity
  8
LEVEL001
  6
Continuous
 62
     7
100
AcDbLine
 10
1680.0
 20
572.0
 30
0.0
 11
2181.1099753946
 21
572.0
 31
0.0
  0
LINE
  5
260
330
B
100
AcDbEntity
  8
LEVEL001
  6
Continuous
 62
     7
100
AcDbLine
 10
2225.3090621671
 20
572.0
 30
0.0
 11
2270.0
 21
572.0
 31
0.0
  0
LINE
  5
261
330
B
100
AcDbEntity
  8
LEVEL001
  6
Continuous
 62
     7
100
AcDbLine
 10
1696.0
 20
537.0
 30
0.0
 11
1706.0
 21
537.0
 31
0.0
  0
LINE
  5
262
330
B
100
AcDbEntity
  8
LEVEL001
  6
Continuous
 62
     7
100
AcDbLine
 10
1706.0
 20
537.0
 30
0.0
 11
1706.0
 21
422.0
 31
0.0
  0
LINE
  5
263
330
B
100
AcDbEntity
  8
LEVEL001
  6
Continuous
 62
     7
100
AcDbLine
 10
1706.0
 20
422.0
 30
0.0
 11
1696.0
 21
422.0
 31
0.0
  0
LINE
  5
264
330
B
100
AcDbEntity
  8
LEVEL001
  6
Continuous
 62
     7
100
AcDbLine
 10
1706.0
 20
508.4999999999999
 30
0.0
 11
1719.0
 21
508.4999999999999
 31
0.0
  0
LINE
  5
265
330
B
100
AcDbEntity
  8
LEVEL001
  6
Continuous
 62
     7
100
AcDbLine
 10
1719.0
 20
508.4999999999999
 30
0.0
 11
1719.0
 21
450.4999999999999
 31
0.0
  0
LINE
  5
266
330
B
100
AcDbEntity
  8
LEVEL001
  6
Continuous
 62
     7
100
AcDbLine
 10
1719.0
 20
450.4999999999999
 30
0.0
 11
1706.0
 21
450.4999999999999
 31
0.0
  0
LINE
  5
267
330
B
100
AcDbEntity
  8
LEVEL001
  6
Continuous
 62
     7
100
AcDbLine
 10
1725.0
 20
237.0
 30
0.0
 11
1725.0
 21
456.69047619048
 31
0.0
  0
LINE
  5
268
330
B
100
AcDbEntity
  8
LEVEL001
  6
Continuous
 62
     7
100
AcDbLine
 10
1725.0
 20
502.30952380952
 30
0.0
 11
1725.0
 21
527.0
 31
0.0
  0
CIRCLE
  5
269
330
B
100
AcDbEntity
  8
LEVEL001
  6
Continuous
 62
     7
100
AcDbCircle
 10
1762.5
 20
479.4999999999999
 30
0.0
 40
27.5
  0
LINE
  5
26A
330
B
100
AcDbEntity
  8
LEVEL001
  6
Continuous
 62
     7
100
AcDbLine
 10
1820.9205645914
 20
527.8325732071799
 30
0.0
 11
1802.8093867459
 21
415.28042868273
 31
0.0
  0
LINE
  5
26B
330
B
100
AcDbEntity
  8
LEVEL001
  6
Continuous
 62
     7
100
AcDbLine
 10
1802.8093867459
 20
415.28042868273
 30
0.0
 11
1746.096587832
 21
457.4278893340999
 31
0.0
  0
LINE
  5
26C
330
B
100
AcDbEntity
  8
LEVEL001
  6
Continuous
 62
     7
100
AcDbLine
 10
1820.9205645914
 20
527.8325732071799
 30
0.0
 11
1753.8487419438
 21
505.60374942504
 31
0.0
  0
LINE
  5
26D
330
B
100
AcDbEntity
  8
LEVEL001
  6
Continuous
 62
     7
100
AcDbLine
 10
1830.7935597251
 20
526.2438733961699
 30
0.0
 11
1812.6823818796
 21
413.6917288717199
 31
0.0
  0
LINE
  5
26E
330
B
100
AcDbEntity
  8
LEVEL001
  6
Continuous
 62
     7
100
AcDbLine
 10
1865.3490426931
 20
520.6834240576399
 30
0.0
 11
1847.2378648476
 21
408.13127953319
 31
0.0
  0
LINE
  5
26F
330
B
100
AcDbEntity
  8
LEVEL001
  6
Continuous
 62
     7
100
AcDbLine
 10
1802.8093867459
 20
415.28042868273
 30
0.0
 11
1847.2378648476
 21
408.13127953319
 31
0.0
  0
LINE
  5
270
330
B
100
AcDbEntity
  8
LEVEL001
  6
Continuous
 62
     7
100
AcDbLine
 10
1820.9205645914
 20
527.8325732071799
 30
0.0
 11
1865.3490426931
 21
520.6834240576399
 31
0.0
  0
LINE
  5
271
330
B
100
AcDbEntity
  8
LEVEL001
  6
Continuous
 62
     7
100
AcDbLine
 10
2028.2534623995
 20
494.46987717601
 30
0.0
 11
2010.142284554
 21
381.91773265156
 31
0.0
  0
LINE
  5
272
330
B
100
AcDbEntity
  8
LEVEL001
  6
Continuous
 62
     7
100
AcDbLine
 10
2046.0248536402
 20
491.61021751619
 30
0.0
 11
2027.9136757947
 21
379.05807299175
 31
0.0
  0
LINE
  5
273
330
B
100
AcDbEntity
  8
LEVEL001
  6
Continuous
 62
     7
100
AcDbLine
 10
2028.2534623995
 20
494.46987717601
 30
0.0
 11
2055.897848774
 21
490.02151770518
 31
0.0
  0
LINE
  5
274
330
B
100
AcDbEntity
  8
LEVEL001
  6
Continuous
 62
     7
100
AcDbLine
 10
2010.142284554
 20
381.91773265156
 30
0.0
 11
2037.7866709285
 21
377.46937318074
 31
0.0
  0
LINE
  5
275
330
B
100
AcDbEntity
  8
LEVEL001
  6
Continuous
 62
     7
100
AcDbLine
 10
2027.459112494
 20
489.53337960915
 30
0.0
 11
1864.5546927876
 21
515.7469264907899
 31
0.0
  0
LINE
  5
276
330
B
100
AcDbEntity
  8
LEVEL001
  6
Continuous
 62
     7
100
AcDbLine
 10
1848.0322147531
 20
413.06777710005
 30
0.0
 11
2010.9366344595
 21
386.85423021841
 31
0.0
  0
LINE
  5
277
330
B
100
AcDbEntity
  8
LEVEL001
  6
Continuous
 62
     7
100
AcDbLine
 10
1849.6209145641
 20
422.94077223377
 30
0.0
 11
2012.5253342705
 21
396.72722535214
 31
0.0
  0
LINE
  5
278
330
B
100
AcDbEntity
  8
LEVEL001
  6
Continuous
 62
     7
100
AcDbLine
 10
1862.9659929766
 20
505.87393135707
 30
0.0
 11
2025.870412683
 21
479.66038447543
 31
0.0
  0
ARC
  5
279
330
B
100
AcDbEntity
  8
LEVEL001
  6
Continuous
 62
     7
100
AcDbCircle
 10
2080.0358198271
 20
451.19358506075
 30
0.0
 40
5.0
100
AcDbArc
 50
350.85868802245
 51
80.858688021606
  0
POINT
  5
27A
330
B
100
AcDbEntity
  8
LEVEL001
 62
     7
100
AcDbPoint
 10
2085.7666672995
 20
455.33573272217
 30
0.0
  0
ARC
  5
27B
330
B
100
AcDbEntity
  8
LEVEL001
  6
Continuous
 62
     7
100
AcDbCircle
 10
2072.8866706776
 20
406.76510695905
 30
0.0
 40
5.0
100
AcDbArc
 50
260.85868802161
 51
350.85868802168
  0
POINT
  5
27C
330
B
100
AcDbEntity
  8
LEVEL001
 62
     7
100
AcDbPoint
 10
2077.028818339
 20
401.03425948669
 30
0.0
  0
LINE
  5
27D
330
B
100
AcDbEntity
  8
LEVEL001
  6
Continuous
 62
     7
100
AcDbLine
 10
2084.972317394
 20
450.39923515531
 30
0.0
 11
2077.8231682445
 21
405.97075705355
 31
0.0
  0
LINE
  5
27E
330
B
100
AcDbEntity
  8
LEVEL001
  6
Continuous
 62
     7
100
AcDbLine
 10
2047.4098329378
 20
405.8003589197199
 30
0.0
 11
2072.0923207721
 21
401.8286093921999
 31
0.0
  0
ARC
  5
27F
330
B
100
AcDbEntity
  8
LEVEL001
  6
Continuous
 62
     7
100
AcDbCircle
 10
2046.6154830323
 20
400.86386135287
 30
0.0
 40
5.0
100
AcDbArc
 50
80.85868802161
 51
170.85868802177
  0
POINT
  5
280
330
B
100
AcDbEntity
  8
LEVEL001
 62
     7
100
AcDbPoint
 10
2042.4733353709
 20
406.5947088252199
 30
0.0
  0
LINE
  5
281
330
B
100
AcDbEntity
  8
LEVEL001
  6
Continuous
 62
     7
100
AcDbLine
 10
2041.6789854654
 20
401.6582112583599
 30
0.0
 11
2037.7866709285
 21
377.46937318074
 31
0.0
  0
LINE
  5
282
330
B
100
AcDbEntity
  8
LEVEL001
  6
Continuous
 62
     7
100
AcDbLine
 10
2056.1476818983
 20
460.1018321551999
 30
0.0
 11
2080.8301697326
 21
456.13008262768
 31
0.0
  0
ARC
  5
283
330
B
100
AcDbEntity
  8
LEVEL001
  6
Continuous
 62
     7
100
AcDbCircle
 10
2056.9420318039
 20
465.03832972209
 30
0.0
 40
5.0
100
AcDbArc
 50
170.858688022
 51
260.85868802161
  0
POINT
  5
284
330
B
100
AcDbEntity
  8
LEVEL001
 62
     7
100
AcDbPoint
 10
2051.2111843315
 20
460.8961820606999
 30
0.0
  0
LINE
  5
285
330
B
100
AcDbEntity
  8
LEVEL001
  6
Continuous
 62
     7
100
AcDbLine
 10
2055.897848774
 20
490.02151770518
 30
0.0
 11
2052.005534237
 21
465.83267962756
 31
0.0
  0
CIRCLE
  5
286
330
B
100
AcDbEntity
  8
LEVEL001
  6
Continuous
 62
     7
100
AcDbCircle
 10
1762.5
 20
479.4999999999999
 30
0.0
 40
12.5
  0
LINE
  5
287
330
B
100
AcDbEntity
  8
LEVEL001
  6
Continuous
 62
     7
100
AcDbLine
 10
1746.0987342465
 20
457.3602772776699
 30
0.0
 11
1719.0
 21
456.5
 31
0.0
  0
LINE
  5
288
330
B
100
AcDbEntity
  8
LEVEL001
  6
Continuous
 62
     7
100
AcDbLine
 10
1719.0
 20
502.5
 30
0.0
 11
1746.1842740457
 21
501.63700717315
 31
0.0
  0
CIRCLE
  5
289
330
B
100
AcDbEntity
  8
LEVEL001
  6
Continuous
 62
     7
100
AcDbCircle
 10
2315.7330266456
 20
390.47724723136
 30
0.0
 40
20.0
  0
LINE
  5
28A
330
B
100
AcDbEntity
  8
LEVEL001
  6
Continuous
 62
     7
100
AcDbLine
 10
2373.0298911478
 20
482.89380050092
 30
0.0
 11
2335.6941709426
 21
391.72332843044
 31
0.0
  0
LINE
  5
28B
330
B
100
AcDbEntity
  8
LEVEL001
  6
Continuous
 62
     7
100
AcDbLine
 10
2301.2282093189
 20
413.0685477966499
 30
0.0
 11
2303.1172377552
 21
424.47851440165
 31
0.0
  0
LINE
  5
28C
330
B
100
AcDbEntity
  8
LEVEL001
  6
Continuous
 62
     7
100
AcDbLine
 10
2313.0759247875
 20
411.1620885033
 30
0.0
 11
2320.9083177833
 21
458.4707159443099
 31
0.0
  0
LINE
  5
28D
330
B
100
AcDbEntity
  8
LEVEL001
  6
Continuous
 62
     7
100
AcDbLine
 10
2324.7687041082
 20
408.31979561414
 30
0.0
 11
2332.747163539901
 21
456.51068248747
 31
0.0
  0
LINE
  5
28E
330
B
100
AcDbEntity
  8
LEVEL001
  6
Continuous
 62
     7
100
AcDbLine
 10
2244.5452228025
 20
420.16388705461
 30
0.0
 11
2246.8375617915
 21
421.8207461191499
 31
0.0
  0
POINT
  5
28F
330
B
100
AcDbEntity
  8
LEVEL001
 62
     7
100
AcDbPoint
 10
2244.8629627647
 20
422.13848608135
 30
0.0
  0
LINE
  5
290
330
B
100
AcDbEntity
  8
LEVEL001
  6
Continuous
 62
     7
100
AcDbLine
 10
2246.8375617915
 20
421.8207461191499
 30
0.0
 11
2318.9104262676
 21
410.2232374988
 31
0.0
  0
LINE
  5
291
330
B
100
AcDbEntity
  8
LEVEL001
  6
Continuous
 62
     7
100
AcDbLine
 10
2244.5452228025
 20
420.16388705461
 30
0.0
 11
2238.8259034829
 21
384.62110457322
 31
0.0
  0
LINE
  5
292
330
B
100
AcDbEntity
  8
LEVEL001
  6
Continuous
 62
     7
100
AcDbLine
 10
2238.8259034829
 20
384.62110457322
 30
0.0
 11
2240.4827625474
 21
382.32876558428
 31
0.0
  0
POINT
  5
293
330
B
100
AcDbEntity
  8
LEVEL001
 62
     7
100
AcDbPoint
 10
2238.5081635207
 20
382.64650554648
 30
0.0
  0
LINE
  5
294
330
B
100
AcDbEntity
  8
LEVEL001
  6
Continuous
 62
     7
100
AcDbLine
 10
2240.4827625474
 20
382.32876558428
 30
0.0
 11
2312.5556270236
 21
370.73125696391
 31
0.0
  0
LINE
  5
295
330
B
100
AcDbEntity
  8
LEVEL001
  6
Continuous
 62
     7
100
AcDbLine
 10
2246.8375617915
 20
421.8207461191499
 30
0.0
 11
2240.4827625474
 21
382.32876558428
 31
0.0
  0
ARC
  5
296
330
B
100
AcDbEntity
  8
LEVEL001
  6
Continuous
 62
     7
100
AcDbCircle
 10
2253.3778077685
 20
400.51105390336
 30
0.0
 40
23.842652070085
100
AcDbArc
 50
149.56028371276
 51
192.15709233046
  0
ARC
  5
297
330
B
100
AcDbEntity
  8
LEVEL001
  6
Continuous
 62
     7
100
AcDbCircle
 10
2238.3896125305
 20
416.08034685117
 30
0.0
 40
6.5713209289107
100
AcDbArc
 50
170.85868802157
 51
212.07801038377
  0
ARC
  5
298
330
B
100
AcDbEntity
  8
LEVEL001
  6
Continuous
 62
     7
100
AcDbCircle
 10
2234.2620493446
 20
390.42955305952
 30
0.0
 40
6.5713209289107
100
AcDbArc
 50
129.63936565948
 51
170.85868802166
  0
ARC
  5
299
330
B
100
AcDbEntity
  8
LEVEL001
  6
Continuous
 62
     7
100
AcDbCircle
 10
2218.1457243564
 20
406.18037749771
 30
0.0
 40
23.842652070085
100
AcDbArc
 50
329.56028371272
 51
12.15709233041
  0
ARC
  5
29A
330
B
100
AcDbEntity
  8
LEVEL001
  6
Continuous
 62
     7
100
AcDbCircle
 10
2237.2614827803
 20
416.26187834154
 30
0.0
 40
6.5713209289107
100
AcDbArc
 50
309.63936565936
 51
350.85868802153
  0
ARC
  5
29B
330
B
100
AcDbEntity
  8
LEVEL001
  6
Continuous
 62
     7
100
AcDbCircle
 10
2233.1339195944
 20
390.61108454984
 30
0.0
 40
6.5713209289107
100
AcDbArc
 50
350.85868802194
 51
32.078010384239
  0
LWPOLYLINE
  5
29C
330
B
100
AcDbEntity
  8
LEVEL001
  6
Continuous
 62
     7
100
AcDbPolyline
 90
        4
 70
     0
 43
0.0
 10
2237.3261149956
 20
385.55067384833
 10
2239.381948416701
 20
388.07665287002
 10
2243.9891778686
 20
416.70833875782
 10
2242.8295325769
 20
419.7517322372499
  0
LWPOLYLINE
  5
29D
330
B
100
AcDbEntity
  8
LEVEL001
  6
Continuous
 62
     7
100
AcDbPolyline
 90
        6
 70
     0
 43
0.0
 10
2237.3261149956
 20
385.55067384833
 10
2228.693999548
 20
386.9396991638
 10
2227.5343542563
 20
389.98309264323
 10
2232.1415837082
 20
418.61477853102
 10
2234.1974171293
 20
421.14075755272
 10
2242.8295325769
 20
419.7517322372499
  0
LINE
  5
29E
330
B
100
AcDbEntity
  8
LEVEL001
  6
Continuous
 62
     7
100
AcDbLine
 10
2241.4536781816
 20
411.20146763998
 30
0.0
 11
2232.821562734
 21
412.5904929554499
 31
0.0
  0
LINE
  5
29F
330
B
100
AcDbEntity
  8
LEVEL001
  6
Continuous
 62
     7
100
AcDbLine
 10
2238.701969391
 20
394.1009384456
 30
0.0
 11
2230.0698539433
 21
395.48996376107
 31
0.0
  0
LINE
  5
2A0
330
B
100
AcDbEntity
  8
LEVEL001
  6
Continuous
 62
     7
100
AcDbLine
 10
2220.8841141084
 20
417.8940995397
 30
0.0
 11
2231.7444087555
 21
416.14652974759
 31
0.0
  0
LINE
  5
2A1
330
B
100
AcDbEntity
  8
LEVEL001
  6
Continuous
 62
     7
100
AcDbLine
 10
2217.0712345619
 20
394.19891121877
 30
0.0
 11
2227.931529209
 21
392.45134142666
 31
0.0
  0
LINE
  5
2A2
330
B
100
AcDbEntity
  8
LEVEL001
  6
Continuous
 62
     7
100
AcDbLine
 10
2079.0146931027
 20
413.3755034038499
 30
0.0
 11
2214.6200255919
 21
391.55475264085
 31
0.0
  0
LINE
  5
2A3
330
B
100
AcDbEntity
  8
LEVEL001
  6
Continuous
 62
     7
100
AcDbLine
 10
2214.6200255919
 20
391.55475264085
 30
0.0
 11
2216.9123645808
 21
393.2116117054
 31
0.0
  0
POINT
  5
2A4
330
B
100
AcDbEntity
  8
LEVEL001
 62
     7
100
AcDbPoint
 10
2216.5946246186
 20
391.23701267865
 30
0.0
  0
LINE
  5
2A5
330
B
100
AcDbEntity
  8
LEVEL001
  6
Continuous
 62
     7
100
AcDbLine
 10
2221.0429840895
 20
418.88139905307
 30
0.0
 11
2216.9123645808
 21
393.2116117054
 31
0.0
  0
LINE
  5
2A6
330
B
100
AcDbEntity
  8
LEVEL001
  6
Continuous
 62
     7
100
AcDbLine
 10
2221.0429840895
 20
418.88139905307
 30
0.0
 11
2219.3861250249
 21
421.1737380420199
 31
0.0
  0
POINT
  5
2A7
330
B
100
AcDbEntity
  8
LEVEL001
 62
     7
100
AcDbPoint
 10
2221.3607240517
 20
420.85599807982
 30
0.0
  0
LINE
  5
2A8
330
B
100
AcDbEntity
  8
LEVEL001
  6
Continuous
 62
     7
100
AcDbLine
 10
2219.3861250249
 20
421.1737380420199
 30
0.0
 11
2083.7807925357
 21
442.99448880502
 31
0.0
  0
LINE
  5
2A9
330
B
100
AcDbEntity
  8
LEVEL001
  6
Continuous
 62
     7
100
AcDbLine
 10
2219.3861250249
 20
421.1737380420199
 30
0.0
 11
2214.6200255919
 21
391.55475264085
 31
0.0
  0
LINE
  5
2AA
330
B
100
AcDbEntity
  8
LEVEL001
  6
Continuous
 62
     7
100
AcDbLine
 10
1725.0
 20
527.0
 30
0.0
 11
1818.4084117649
 21
527.0
 31
0.0
  0
LINE
  5
2AB
330
B
100
AcDbEntity
  8
LEVEL001
  6
Continuous
 62
     7
100
AcDbLine
 10
1826.0946013515
 20
527.0
 30
0.0
 11
2211.5614083871
 21
527.0
 31
0.0
  0
LINE
  5
2AC
330
B
100
AcDbEntity
  8
LEVEL001
  6
Continuous
 62
     7
100
AcDbLine
 10
2225.0
 20
237.0
 30
0.0
 11
2225.0
 21
392.92306452966
 31
0.0
  0
LINE
  5
2AD
330
B
100
AcDbEntity
  8
LEVEL001
  6
Continuous
 62
     7
100
AcDbLine
 10
2225.0
 20
417.2317972646999
 30
0.0
 11
2225.0
 21
518.35999881898
 31
0.0
  0
LINE
  5
2AE
330
B
100
AcDbEntity
  8
LEVEL001
  6
Continuous
 62
     7
100
AcDbLine
 10
2270.0
 20
489.4283916725299
 30
0.0
 11
2270.0
 21
418.09359334474
 31
0.0
  0
LINE
  5
2AF
330
B
100
AcDbEntity
  8
LEVEL001
  6
Continuous
 62
     7
100
AcDbLine
 10
2270.0
 20
377.57903878636
 30
0.0
 11
2270.0
 21
192.0
 31
0.0
  0
LINE
  5
2B0
330
B
100
AcDbEntity
  8
LEVEL001
  6
Continuous
 62
     7
100
AcDbLine
 10
2275.0
 20
486.21376865626
 30
0.0
 11
2275.0
 21
417.2890250301199
 31
0.0
  0
LINE
  5
2B1
330
B
100
AcDbEntity
  8
LEVEL001
  6
Continuous
 62
     7
100
AcDbLine
 10
2275.0
 20
376.77447047173
 30
0.0
 11
2275.0
 21
187.0
 31
0.0
  0
LINE
  5
2B2
330
B
100
AcDbEntity
  8
LEVEL001
  6
DASHDOT
 62
     1
100
AcDbLine
 10
1727.5821094881
 20
485.11876566388
 30
0.0
 11
2342.7156494539
 21
386.13537455995
 31
0.0
  0
LINE
  5
2B3
330
B
100
AcDbEntity
  8
LEVEL001
  6
DASHDOT
 62
     1
100
AcDbLine
 10
2147.2
 20
733.0
 30
0.0
 11
1814.0
 21
733.0
 31
0.0
  0
LINE
  5
2B4
330
B
100
AcDbEntity
  8
LEVEL001
  6
DASHDOT
 62
     1
100
AcDbLine
 10
1980.6
 20
897.12333677962
 30
0.0
 11
1980.6
 21
561.4929384862699
 31
0.0
  0
LINE
  5
2B5
330
B
100
AcDbEntity
  8
LEVEL001
  6
DASHDOT
 62
     1
100
AcDbLine
 10
1691.9158854811
 20
868.0
 30
0.0
 11
1937.32968093
 21
868.0
 31
0.0
  0
LINE
  5
2B6
330
B
100
AcDbEntity
  8
LEVEL001
  6
DASHDOT
 62
     1
100
AcDbLine
 10
1814.0
 20
989.3496785307901
 30
0.0
 11
1814.0
 21
745.66111187237
 31
0.0
  0
LINE
  5
2B7
330
B
100
AcDbEntity
  8
LEVEL001
  6
DASHDOT
 62
     1
100
AcDbLine
 10
2028.7668068266
 20
868.0
 30
0.0
 11
2265.554458323
 21
868.0
 31
0.0
  0
LINE
  5
2B8
330
B
100
AcDbEntity
  8
LEVEL001
  6
DASHDOT
 62
     1
100
AcDbLine
 10
2184.1748624462
 20
531.50756289582
 30
0.0
 11
2289.1916747432
 21
754.90989767163
 31
0.0
  0
LINE
  5
2B9
330
B
100
AcDbEntity
  8
LEVEL001
  6
DASHDOT
 62
     1
100
AcDbLine
 10
2261.9137528004
 20
736.5857483248399
 30
0.0
 11
2299.8669939411
 21
718.7447154415799
 31
0.0
  0
LINE
  5
2BA
330
B
100
AcDbEntity
  8
LEVEL001
  6
Continuous
 62
     7
100
AcDbLine
 10
1109.7
 20
1266.3
 30
0.0
 11
1093.7
 21
1266.3
 31
0.0
  0
LINE
  5
2BB
330
B
100
AcDbEntity
  8
LEVEL001
  6
Continuous
 62
     7
100
AcDbLine
 10
178.29999999999
 20
1266.3
 30
0.0
 11
178.29999999999
 21
983.0
 31
0.0
  0
LINE
  5
2BC
330
B
100
AcDbEntity
  8
LEVEL001
  6
Continuous
 62
     7
100
AcDbLine
 10
194.29999999999
 20
1266.3
 30
0.0
 11
178.29999999999
 21
1266.3
 31
0.0
  0
LINE
  5
2BD
330
B
100
AcDbEntity
  8
LEVEL001
  6
Continuous
 62
     7
100
AcDbLine
 10
194.29999999999
 20
1266.3
 30
0.0
 11
194.29999999999
 21
1014.5
 31
0.0
  0
LINE
  5
2BE
330
B
100
AcDbEntity
  8
LEVEL001
  6
Continuous
 62
     7
100
AcDbLine
 10
224.99999999999
 20
1256.3
 30
0.0
 11
1063.0
 21
1256.3
 31
0.0
  0
LINE
  5
2BF
330
B
100
AcDbEntity
  8
LEVEL001
  6
Continuous
 62
     7
100
AcDbLine
 10
224.99999999999
 20
1236.3
 30
0.0
 11
1063.0
 21
1236.3
 31
0.0
  0
LINE
  5
2C0
330
B
100
AcDbEntity
  8
LEVEL001
  6
Continuous
 62
     7
100
AcDbLine
 10
224.99999999999
 20
1256.3
 30
0.0
 11
224.99999999999
 21
1236.3
 31
0.0
  0
LINE
  5
2C1
330
B
100
AcDbEntity
  8
LEVEL001
  6
Continuous
 62
     7
100
AcDbLine
 10
1063.0
 20
1256.3
 30
0.0
 11
1063.0
 21
1236.3
 31
0.0
  0
INSERT
  5
2C2
330
B
100
AcDbEntity
  8
0
100
AcDbBlockReference
  2
EGF13M16
 10
194.29999999999
 20
1246.3
 30
0.0
 50
180.0
  0
INSERT
  5
2C3
330
B
100
AcDbEntity
  8
0
100
AcDbBlockReference
  2
EGF11M16
 10
178.29999999999
 20
1246.3
 30
0.0
 50
180.0
  0
LWPOLYLINE
  5
2C4
330
B
100
AcDbEntity
  8
LEVEL001
  6
Continuous
 62
     7
100
AcDbPolyline
 90
        6
 70
     0
 43
0.0
 10
165.29999999999
 20
1238.3
 10
151.29999999999
 20
1238.3
 10
149.29999999999
 20
1240.3
 10
149.29999999999
 20
1252.3
 10
151.29999999999
 20
1254.3
 10
165.29999999999
 20
1254.3
  0
LINE
  5
2C5
330
B
100
AcDbEntity
  8
LEVEL001
  6
Continuous
 62
     7
100
AcDbLine
 10
151.29999999999
 20
1238.3
 30
0.0
 11
151.29999999999
 21
1254.3
 31
0.0
  0
INSERT
  5
2C6
330
B
100
AcDbEntity
  8
0
100
AcDbBlockReference
  2
EGF13M16
 10
1093.7
 20
1246.3
 30
0.0
  0
INSERT
  5
2C7
330
B
100
AcDbEntity
  8
0
100
AcDbBlockReference
  2
EGF11M16
 10
1109.7
 20
1246.3
 30
0.0
  0
LWPOLYLINE
  5
2C8
330
B
100
AcDbEntity
  8
LEVEL001
  6
Continuous
 62
     7
100
AcDbPolyline
 90
        6
 70
     0
 43
0.0
 10
1122.7
 20
1254.3
 10
1136.7
 20
1254.3
 10
1138.7
 20
1252.3
 10
1138.7
 20
1240.3
 10
1136.7
 20
1238.3
 10
1122.7
 20
1238.3
  0
LINE
  5
2C9
330
B
100
AcDbEntity
  8
LEVEL001
  6
Continuous
 62
     7
100
AcDbLine
 10
1136.7
 20
1254.3
 30
0.0
 11
1136.7
 21
1238.3
 31
0.0
  0
LINE
  5
2CA
330
B
100
AcDbEntity
  8
LEVEL001
  6
Continuous
 62
     7
100
AcDbLine
 10
1063.0
 20
1254.3
 30
0.0
 11
1083.7
 21
1254.3
 31
0.0
  0
LINE
  5
2CB
330
B
100
AcDbEntity
  8
LEVEL001
  6
Continuous
 62
     7
100
AcDbLine
 10
1063.0
 20
1238.3
 30
0.0
 11
1083.7
 21
1238.3
 31
0.0
  0
LINE
  5
2CC
330
B
100
AcDbEntity
  8
LEVEL001
  6
Continuous
 62
     7
100
AcDbLine
 10
204.29999999999
 20
1254.3
 30
0.0
 11
224.99999999999
 21
1254.3
 31
0.0
  0
LINE
  5
2CD
330
B
100
AcDbEntity
  8
LEVEL001
  6
Continuous
 62
     7
100
AcDbLine
 10
204.29999999999
 20
1238.3
 30
0.0
 11
224.99999999999
 21
1238.3
 31
0.0
  0
LINE
  5
2CE
330
B
100
AcDbEntity
  8
LEVEL001
  6
Continuous
 62
     7
100
AcDbLine
 10
389.00000004554
 20
1209.6307621135
 30
0.0
 11
404.00000004554
 21
1213.65
 31
0.0
  0
LINE
  5
2CF
330
B
100
AcDbEntity
  8
LEVEL001
  6
Continuous
 62
     7
100
AcDbLine
 10
404.00000004554
 20
1213.65
 30
0.0
 11
419.0000000455399
 21
1209.6307621135
 31
0.0
  0
LINE
  5
2D0
330
B
100
AcDbEntity
  8
LEVEL001
  6
Continuous
 62
     7
100
AcDbLine
 10
419.0000000455399
 20
1209.6307621135
 30
0.0
 11
434.00000004554
 21
1213.65
 31
0.0
  0
LINE
  5
2D1
330
B
100
AcDbEntity
  8
LEVEL001
  6
Continuous
 62
     7
100
AcDbLine
 10
434.00000004554
 20
1213.65
 30
0.0
 11
449.00000004554
 21
1209.6307621135
 31
0.0
  0
LINE
  5
2D2
330
B
100
AcDbEntity
  8
LEVEL001
  6
Continuous
 62
     7
100
AcDbLine
 10
449.00000004554
 20
1209.6307621135
 30
0.0
 11
464.0000000455399
 21
1213.65
 31
0.0
  0
LINE
  5
2D3
330
B
100
AcDbEntity
  8
LEVEL001
  6
Continuous
 62
     7
100
AcDbLine
 10
464.0000000455399
 20
1213.65
 30
0.0
 11
479.00000004554
 21
1209.6307621135
 31
0.0
  0
LINE
  5
2D4
330
B
100
AcDbEntity
  8
LEVEL001
  6
Continuous
 62
     7
100
AcDbLine
 10
479.00000004554
 20
1209.6307621135
 30
0.0
 11
494.0000000455399
 21
1213.65
 31
0.0
  0
LINE
  5
2D5
330
B
100
AcDbEntity
  8
LEVEL001
  6
Continuous
 62
     7
100
AcDbLine
 10
494.0000000455399
 20
1213.65
 30
0.0
 11
509.00000004554
 21
1209.6307621135
 31
0.0
  0
LINE
  5
2D6
330
B
100
AcDbEntity
  8
LEVEL001
  6
Continuous
 62
     7
100
AcDbLine
 10
509.00000004554
 20
1209.6307621135
 30
0.0
 11
524.00000004554
 21
1213.65
 31
0.0
  0
LINE
  5
2D7
330
B
100
AcDbEntity
  8
LEVEL001
  6
Continuous
 62
     7
100
AcDbLine
 10
524.00000004554
 20
1213.65
 30
0.0
 11
539.0000000455399
 21
1209.6307621135
 31
0.0
  0
LINE
  5
2D8
330
B
100
AcDbEntity
  8
LEVEL001
  6
Continuous
 62
     7
100
AcDbLine
 10
539.0000000455399
 20
1209.6307621135
 30
0.0
 11
554.00000004554
 21
1213.65
 31
0.0
  0
LINE
  5
2D9
330
B
100
AcDbEntity
  8
LEVEL001
  6
Continuous
 62
     7
100
AcDbLine
 10
554.00000004554
 20
1213.65
 30
0.0
 11
569.0000000455399
 21
1209.6307621135
 31
0.0
  0
LINE
  5
2DA
330
B
100
AcDbEntity
  8
LEVEL001
  6
Continuous
 62
     7
100
AcDbLine
 10
569.0000000455399
 20
1209.6307621135
 30
0.0
 11
584.00000004554
 21
1213.65
 31
0.0
  0
LINE
  5
2DB
330
B
100
AcDbEntity
  8
LEVEL001
  6
Continuous
 62
     7
100
AcDbLine
 10
584.00000004554
 20
1213.65
 30
0.0
 11
599.00000004554
 21
1209.6307621135
 31
0.0
  0
LINE
  5
2DC
330
B
100
AcDbEntity
  8
LEVEL001
  6
Continuous
 62
     7
100
AcDbLine
 10
599.00000004554
 20
1209.6307621135
 30
0.0
 11
614.0000000455399
 21
1213.65
 31
0.0
  0
LINE
  5
2DD
330
B
100
AcDbEntity
  8
LEVEL001
  6
Continuous
 62
     7
100
AcDbLine
 10
614.0000000455399
 20
1213.65
 30
0.0
 11
629.00000004554
 21
1209.6307621135
 31
0.0
  0
LINE
  5
2DE
330
B
100
AcDbEntity
  8
LEVEL001
  6
Continuous
 62
     7
100
AcDbLine
 10
629.00000004554
 20
1209.6307621135
 30
0.0
 11
644.0000000455399
 21
1213.65
 31
0.0
  0
LINE
  5
2DF
330
B
100
AcDbEntity
  8
LEVEL001
  6
Continuous
 62
     7
100
AcDbLine
 10
644.0000000455399
 20
1213.65
 30
0.0
 11
659.00000004554
 21
1209.6307621135
 31
0.0
  0
LINE
  5
2E0
330
B
100
AcDbEntity
  8
LEVEL001
  6
Continuous
 62
     7
100
AcDbLine
 10
659.00000004554
 20
1209.6307621135
 30
0.0
 11
674.00000004554
 21
1213.65
 31
0.0
  0
LINE
  5
2E1
330
B
100
AcDbEntity
  8
LEVEL001
  6
Continuous
 62
     7
100
AcDbLine
 10
674.00000004554
 20
1213.65
 30
0.0
 11
689.0000000455399
 21
1209.6307621135
 31
0.0
  0
LINE
  5
2E2
330
B
100
AcDbEntity
  8
LEVEL001
  6
Continuous
 62
     7
100
AcDbLine
 10
689.0000000455399
 20
1209.6307621135
 30
0.0
 11
704.00000004554
 21
1213.65
 31
0.0
  0
LINE
  5
2E3
330
B
100
AcDbEntity
  8
LEVEL001
  6
Continuous
 62
     7
100
AcDbLine
 10
704.00000004554
 20
1213.65
 30
0.0
 11
719.0000000455399
 21
1209.6307621135
 31
0.0
  0
LINE
  5
2E4
330
B
100
AcDbEntity
  8
LEVEL001
  6
Continuous
 62
     7
100
AcDbLine
 10
719.0000000455399
 20
1209.6307621135
 30
0.0
 11
734.00000004554
 21
1213.65
 31
0.0
  0
LINE
  5
2E5
330
B
100
AcDbEntity
  8
LEVEL001
  6
Continuous
 62
     7
100
AcDbLine
 10
734.00000004554
 20
1213.65
 30
0.0
 11
749.00000004554
 21
1209.6307621135
 31
0.0
  0
LINE
  5
2E6
330
B
100
AcDbEntity
  8
LEVEL001
  6
Continuous
 62
     7
100
AcDbLine
 10
749.00000004554
 20
1209.6307621135
 30
0.0
 11
764.0000000455399
 21
1213.65
 31
0.0
  0
LINE
  5
2E7
330
B
100
AcDbEntity
  8
LEVEL001
  6
Continuous
 62
     7
100
AcDbLine
 10
764.0000000455399
 20
1213.65
 30
0.0
 11
779.00000004554
 21
1209.6307621135
 31
0.0
  0
LINE
  5
2E8
330
B
100
AcDbEntity
  8
LEVEL001
  6
Continuous
 62
     7
100
AcDbLine
 10
779.00000004554
 20
1209.6307621135
 30
0.0
 11
794.0000000455399
 21
1213.65
 31
0.0
  0
LINE
  5
2E9
330
B
100
AcDbEntity
  8
LEVEL001
  6
Continuous
 62
     7
100
AcDbLine
 10
794.0000000455399
 20
1213.65
 30
0.0
 11
809.00000004554
 21
1209.6307621135
 31
0.0
  0
LINE
  5
2EA
330
B
100
AcDbEntity
  8
LEVEL001
  6
Continuous
 62
     7
100
AcDbLine
 10
809.00000004554
 20
1209.6307621135
 30
0.0
 11
824.0000000455399
 21
1213.65
 31
0.0
  0
LINE
  5
2EB
330
B
100
AcDbEntity
  8
LEVEL001
  6
Continuous
 62
     7
100
AcDbLine
 10
824.0000000455399
 20
1213.65
 30
0.0
 11
839.0000000455399
 21
1209.6307621135
 31
0.0
  0
LINE
  5
2EC
330
B
100
AcDbEntity
  8
LEVEL001
  6
Continuous
 62
     7
100
AcDbLine
 10
839.0000000455399
 20
1209.6307621135
 30
0.0
 11
854.00000004554
 21
1213.65
 31
0.0
  0
LINE
  5
2ED
330
B
100
AcDbEntity
  8
LEVEL001
  6
Continuous
 62
     7
100
AcDbLine
 10
854.00000004554
 20
1213.65
 30
0.0
 11
869.00000004554
 21
1209.6307621135
 31
0.0
  0
LINE
  5
2EE
330
B
100
AcDbEntity
  8
LEVEL001
  6
Continuous
 62
     7
100
AcDbLine
 10
869.00000004554
 20
1209.6307621135
 30
0.0
 11
883.98336416559
 21
1213.65
 31
0.0
  0
LINE
  5
2EF
330
B
100
AcDbEntity
  8
LEVEL001
  6
Continuous
 62
     7
100
AcDbLine
 10
883.98336416559
 20
1213.65
 30
0.0
 11
899.0000000455399
 21
1209.6307621135
 31
0.0
  0
LINE
  5
2F0
330
B
100
AcDbEntity
  8
LEVEL001
  6
Continuous
 62
     7
100
AcDbLine
 10
299.00000004554
 20
1209.6307621135
 30
0.0
 11
314.00000004554
 21
1213.65
 31
0.0
  0
LINE
  5
2F1
330
B
100
AcDbEntity
  8
LEVEL001
  6
Continuous
 62
     7
100
AcDbLine
 10
314.00000004554
 20
1213.65
 30
0.0
 11
329.00000004554
 21
1209.6307621135
 31
0.0
  0
LINE
  5
2F2
330
B
100
AcDbEntity
  8
LEVEL001
  6
Continuous
 62
     7
100
AcDbLine
 10
329.00000004554
 20
1209.6307621135
 30
0.0
 11
344.00000004554
 21
1213.65
 31
0.0
  0
LINE
  5
2F3
330
B
100
AcDbEntity
  8
LEVEL001
  6
Continuous
 62
     7
100
AcDbLine
 10
344.00000004554
 20
1213.65
 30
0.0
 11
359.00000004554
 21
1209.6307621135
 31
0.0
  0
LINE
  5
2F4
330
B
100
AcDbEntity
  8
LEVEL001
  6
Continuous
 62
     7
100
AcDbLine
 10
359.00000004554
 20
1209.6307621135
 30
0.0
 11
375.07142859082
 21
1213.9370884135
 31
0.0
  0
LINE
  5
2F5
330
B
100
AcDbEntity
  8
LEVEL001
  6
Continuous
 62
     7
100
AcDbLine
 10
375.07142859082
 20
1213.9370884135
 30
0.0
 11
389.00000004554
 21
1209.6307621135
 31
0.0
  0
LINE
  5
2F6
330
B
100
AcDbEntity
  8
LEVEL001
  6
Continuous
 62
     7
100
AcDbLine
 10
288.99999999999
 20
1212.7224835679
 30
0.0
 11
299.00000004554
 21
1209.6307621135
 31
0.0
  0
LINE
  5
2F7
330
B
100
AcDbEntity
  8
LEVEL001
  6
Continuous
 62
     7
100
AcDbLine
 10
929.00000004554
 20
1209.6307621135
 30
0.0
 11
944.00000004554
 21
1213.65
 31
0.0
  0
LINE
  5
2F8
330
B
100
AcDbEntity
  8
LEVEL001
  6
Continuous
 62
     7
100
AcDbLine
 10
944.00000004554
 20
1213.65
 30
0.0
 11
959.00000004554
 21
1209.6307621135
 31
0.0
  0
LINE
  5
2F9
330
B
100
AcDbEntity
  8
LEVEL001
  6
Continuous
 62
     7
100
AcDbLine
 10
959.00000004554
 20
1209.6307621135
 30
0.0
 11
973.98336416559
 21
1213.65
 31
0.0
  0
LINE
  5
2FA
330
B
100
AcDbEntity
  8
LEVEL001
  6
Continuous
 62
     7
100
AcDbLine
 10
973.98336416559
 20
1213.65
 30
0.0
 11
989.0000000455399
 21
1209.6307621135
 31
0.0
  0
LINE
  5
2FB
330
B
100
AcDbEntity
  8
LEVEL001
  6
Continuous
 62
     7
100
AcDbLine
 10
912.9285714741099
 20
1213.9370884205
 30
0.0
 11
929.00000004554
 21
1209.6307621135
 31
0.0
  0
LINE
  5
2FC
330
B
100
AcDbEntity
  8
LEVEL001
  6
Continuous
 62
     7
100
AcDbLine
 10
899.0000000455399
 20
1209.6307621135
 30
0.0
 11
912.9285714741099
 21
1213.9370884205
 31
0.0
  0
LINE
  5
2FD
330
B
100
AcDbEntity
  8
LEVEL001
  6
Continuous
 62
     7
100
AcDbLine
 10
989.0000000455399
 20
1209.6307621135
 30
0.0
 11
998.99999999999
 21
1212.7224835506
 31
0.0
  0
LINE
  5
2FE
330
B
100
AcDbEntity
  8
LEVEL001
  6
Continuous
 62
     7
100
AcDbLine
 10
288.99999999999
 20
1212.7224835679
 30
0.0
 11
288.99999999999
 21
1020.6835550538
 31
0.0
  0
LINE
  5
2FF
330
B
100
AcDbEntity
  8
LEVEL001
  6
Continuous
 62
     7
100
AcDbLine
 10
998.99999999999
 20
1212.7224835506
 30
0.0
 11
998.99999999999
 21
1020.6835550538
 31
0.0
  0
LINE
  5
300
330
B
100
AcDbEntity
  8
LEVEL001
  6
Continuous
 62
     7
100
AcDbLine
 10
299.00000004554
 20
1166.3
 30
0.0
 11
299.00000004554
 21
1046.3
 31
0.0
  0
LINE
  5
301
330
B
100
AcDbEntity
  8
LEVEL001
  6
Continuous
 62
     7
100
AcDbLine
 10
329.00000004554
 20
1166.3
 30
0.0
 11
329.00000004554
 21
1046.3
 31
0.0
  0
LINE
  5
302
330
B
100
AcDbEntity
  8
LEVEL001
  6
Continuous
 62
     7
100
AcDbLine
 10
359.00000004554
 20
1166.3
 30
0.0
 11
359.00000004554
 21
1046.3
 31
0.0
  0
LINE
  5
303
330
B
100
AcDbEntity
  8
LEVEL001
  6
Continuous
 62
     7
100
AcDbLine
 10
389.00000004554
 20
1166.3
 30
0.0
 11
389.00000004554
 21
1046.3
 31
0.0
  0
LINE
  5
304
330
B
100
AcDbEntity
  8
LEVEL001
  6
Continuous
 62
     7
100
AcDbLine
 10
419.0000000455399
 20
1166.3
 30
0.0
 11
419.0000000455399
 21
1046.3
 31
0.0
  0
LINE
  5
305
330
B
100
AcDbEntity
  8
LEVEL001
  6
Continuous
 62
     7
100
AcDbLine
 10
449.00000004554
 20
1166.3
 30
0.0
 11
449.00000004554
 21
1046.3
 31
0.0
  0
LINE
  5
306
330
B
100
AcDbEntity
  8
LEVEL001
  6
Continuous
 62
     7
100
AcDbLine
 10
479.00000004554
 20
1166.3
 30
0.0
 11
479.00000004554
 21
1046.3
 31
0.0
  0
LINE
  5
307
330
B
100
AcDbEntity
  8
LEVEL001
  6
Continuous
 62
     7
100
AcDbLine
 10
509.00000004554
 20
1166.3
 30
0.0
 11
509.00000004554
 21
1046.3
 31
0.0
  0
LINE
  5
308
330
B
100
AcDbEntity
  8
LEVEL001
  6
Continuous
 62
     7
100
AcDbLine
 10
539.0000000455399
 20
1166.3
 30
0.0
 11
539.0000000455399
 21
1046.3
 31
0.0
  0
LINE
  5
309
330
B
100
AcDbEntity
  8
LEVEL001
  6
Continuous
 62
     7
100
AcDbLine
 10
569.0000000455399
 20
1166.3
 30
0.0
 11
569.0000000455399
 21
1046.3
 31
0.0
  0
LINE
  5
30A
330
B
100
AcDbEntity
  8
LEVEL001
  6
Continuous
 62
     7
100
AcDbLine
 10
599.00000004554
 20
1166.3
 30
0.0
 11
599.00000004554
 21
1046.3
 31
0.0
  0
LINE
  5
30B
330
B
100
AcDbEntity
  8
LEVEL001
  6
Continuous
 62
     7
100
AcDbLine
 10
629.00000004554
 20
1166.3
 30
0.0
 11
629.00000004554
 21
1046.3
 31
0.0
  0
LINE
  5
30C
330
B
100
AcDbEntity
  8
LEVEL001
  6
Continuous
 62
     7
100
AcDbLine
 10
659.00000004554
 20
1166.3
 30
0.0
 11
659.00000004554
 21
1046.3
 31
0.0
  0
LINE
  5
30D
330
B
100
AcDbEntity
  8
LEVEL001
  6
Continuous
 62
     7
100
AcDbLine
 10
689.0000000455399
 20
1166.3
 30
0.0
 11
689.0000000455399
 21
1046.3
 31
0.0
  0
LINE
  5
30E
330
B
100
AcDbEntity
  8
LEVEL001
  6
Continuous
 62
     7
100
AcDbLine
 10
719.0000000455399
 20
1166.3
 30
0.0
 11
719.0000000455399
 21
1046.3
 31
0.0
  0
LINE
  5
30F
330
B
100
AcDbEntity
  8
LEVEL001
  6
Continuous
 62
     7
100
AcDbLine
 10
749.00000004554
 20
1166.3
 30
0.0
 11
749.00000004554
 21
1046.3
 31
0.0
  0
LINE
  5
310
330
B
100
AcDbEntity
  8
LEVEL001
  6
Continuous
 62
     7
100
AcDbLine
 10
779.00000004554
 20
1166.3
 30
0.0
 11
779.00000004554
 21
1046.3
 31
0.0
  0
LINE
  5
311
330
B
100
AcDbEntity
  8
LEVEL001
  6
Continuous
 62
     7
100
AcDbLine
 10
809.00000004554
 20
1166.3
 30
0.0
 11
809.00000004554
 21
1046.3
 31
0.0
  0
LINE
  5
312
330
B
100
AcDbEntity
  8
LEVEL001
  6
Continuous
 62
     7
100
AcDbLine
 10
839.0000000455399
 20
1166.3
 30
0.0
 11
839.0000000455399
 21
1046.3
 31
0.0
  0
LINE
  5
313
330
B
100
AcDbEntity
  8
LEVEL001
  6
Continuous
 62
     7
100
AcDbLine
 10
868.98336416558
 20
1166.3
 30
0.0
 11
868.98336416558
 21
1046.3
 31
0.0
  0
LINE
  5
314
330
B
100
AcDbEntity
  8
LEVEL001
  6
Continuous
 62
     7
100
AcDbLine
 10
899.0000000455399
 20
1166.3
 30
0.0
 11
899.0000000455399
 21
1046.3
 31
0.0
  0
LINE
  5
315
330
B
100
AcDbEntity
  8
LEVEL001
  6
Continuous
 62
     7
100
AcDbLine
 10
929.00000004554
 20
1166.3
 30
0.0
 11
929.00000004554
 21
1046.3
 31
0.0
  0
LINE
  5
316
330
B
100
AcDbEntity
  8
LEVEL001
  6
Continuous
 62
     7
100
AcDbLine
 10
958.98336416558
 20
1166.3
 30
0.0
 11
958.98336416558
 21
1046.3
 31
0.0
  0
LINE
  5
317
330
B
100
AcDbEntity
  8
LEVEL001
  6
Continuous
 62
     7
100
AcDbLine
 10
989.0000000455399
 20
1166.3
 30
0.0
 11
989.0000000455399
 21
1046.3
 31
0.0
  0
LINE
  5
318
330
B
100
AcDbEntity
  8
LEVEL001
  6
Continuous
 62
     7
100
AcDbLine
 10
389.00000004554
 20
928.0
 30
0.0
 11
389.00000004554
 21
808.0
 31
0.0
  0
LINE
  5
319
330
B
100
AcDbEntity
  8
LEVEL001
  6
Continuous
 62
     7
100
AcDbLine
 10
419.0000000455399
 20
928.0
 30
0.0
 11
419.0000000455399
 21
808.0
 31
0.0
  0
LINE
  5
31A
330
B
100
AcDbEntity
  8
LEVEL001
  6
Continuous
 62
     7
100
AcDbLine
 10
449.00000004554
 20
928.0
 30
0.0
 11
449.00000004554
 21
808.0
 31
0.0
  0
LINE
  5
31B
330
B
100
AcDbEntity
  8
LEVEL001
  6
Continuous
 62
     7
100
AcDbLine
 10
479.00000004554
 20
928.0
 30
0.0
 11
479.00000004554
 21
808.0
 31
0.0
  0
LINE
  5
31C
330
B
100
AcDbEntity
  8
LEVEL001
  6
Continuous
 62
     7
100
AcDbLine
 10
509.00000004554
 20
928.0
 30
0.0
 11
509.00000004554
 21
808.0
 31
0.0
  0
LINE
  5
31D
330
B
100
AcDbEntity
  8
LEVEL001
  6
Continuous
 62
     7
100
AcDbLine
 10
539.0000000455399
 20
928.0
 30
0.0
 11
539.0000000455399
 21
808.0
 31
0.0
  0
LINE
  5
31E
330
B
100
AcDbEntity
  8
LEVEL001
  6
Continuous
 62
     7
100
AcDbLine
 10
569.0000000455399
 20
928.0
 30
0.0
 11
569.0000000455399
 21
808.0
 31
0.0
  0
LINE
  5
31F
330
B
100
AcDbEntity
  8
LEVEL001
  6
Continuous
 62
     7
100
AcDbLine
 10
599.00000004554
 20
928.0
 30
0.0
 11
599.00000004554
 21
808.0
 31
0.0
  0
LINE
  5
320
330
B
100
AcDbEntity
  8
LEVEL001
  6
Continuous
 62
     7
100
AcDbLine
 10
629.00000004554
 20
928.0
 30
0.0
 11
629.00000004554
 21
808.0
 31
0.0
  0
LINE
  5
321
330
B
100
AcDbEntity
  8
LEVEL001
  6
Continuous
 62
     7
100
AcDbLine
 10
659.00000004554
 20
928.0
 30
0.0
 11
659.00000004554
 21
808.0
 31
0.0
  0
LINE
  5
322
330
B
100
AcDbEntity
  8
LEVEL001
  6
Continuous
 62
     7
100
AcDbLine
 10
689.0000000455399
 20
928.0
 30
0.0
 11
689.0000000455399
 21
808.0
 31
0.0
  0
LINE
  5
323
330
B
100
AcDbEntity
  8
LEVEL001
  6
Continuous
 62
     7
100
AcDbLine
 10
719.0000000455399
 20
928.0
 30
0.0
 11
719.0000000455399
 21
808.0
 31
0.0
  0
LINE
  5
324
330
B
100
AcDbEntity
  8
LEVEL001
  6
Continuous
 62
     7
100
AcDbLine
 10
749.00000004554
 20
928.0
 30
0.0
 11
749.00000004554
 21
808.0
 31
0.0
  0
LINE
  5
325
330
B
100
AcDbEntity
  8
LEVEL001
  6
Continuous
 62
     7
100
AcDbLine
 10
779.00000004554
 20
928.0
 30
0.0
 11
779.00000004554
 21
808.0
 31
0.0
  0
LINE
  5
326
330
B
100
AcDbEntity
  8
LEVEL001
  6
Continuous
 62
     7
100
AcDbLine
 10
809.00000004554
 20
928.0
 30
0.0
 11
809.00000004554
 21
808.0
 31
0.0
  0
LINE
  5
327
330
B
100
AcDbEntity
  8
LEVEL001
  6
Continuous
 62
     7
100
AcDbLine
 10
839.0000000455399
 20
928.0
 30
0.0
 11
839.0000000455399
 21
808.0
 31
0.0
  0
LINE
  5
328
330
B
100
AcDbEntity
  8
LEVEL001
  6
Continuous
 62
     7
100
AcDbLine
 10
868.98336416558
 20
928.0
 30
0.0
 11
868.98336416558
 21
808.0
 31
0.0
  0
LINE
  5
329
330
B
100
AcDbEntity
  8
LEVEL001
  6
Continuous
 62
     7
100
AcDbLine
 10
899.0000000455399
 20
928.0
 30
0.0
 11
899.0000000455399
 21
808.0
 31
0.0
  0
LINE
  5
32A
330
B
100
AcDbEntity
  8
LEVEL001
  6
Continuous
 62
     7
100
AcDbLine
 10
929.00000004554
 20
928.0
 30
0.0
 11
929.00000004554
 21
808.0
 31
0.0
  0
LINE
  5
32B
330
B
100
AcDbEntity
  8
LEVEL001
  6
Continuous
 62
     7
100
AcDbLine
 10
958.98336416558
 20
928.0
 30
0.0
 11
958.98336416558
 21
808.0
 31
0.0
  0
LINE
  5
32C
330
B
100
AcDbEntity
  8
LEVEL001
  6
Continuous
 62
     7
100
AcDbLine
 10
989.0000000455399
 20
928.0
 30
0.0
 11
989.0000000455399
 21
808.0
 31
0.0
  0
LINE
  5
32D
330
B
100
AcDbEntity
  8
LEVEL001
  6
Continuous
 62
     7
100
AcDbLine
 10
299.00000004554
 20
928.0
 30
0.0
 11
299.00000004554
 21
808.0
 31
0.0
  0
LINE
  5
32E
330
B
100
AcDbEntity
  8
LEVEL001
  6
Continuous
 62
     7
100
AcDbLine
 10
329.00000004554
 20
928.0
 30
0.0
 11
329.00000004554
 21
808.0
 31
0.0
  0
LINE
  5
32F
330
B
100
AcDbEntity
  8
LEVEL001
  6
Continuous
 62
     7
100
AcDbLine
 10
359.00000004554
 20
928.0
 30
0.0
 11
359.00000004554
 21
808.0
 31
0.0
  0
LINE
  5
330
330
B
100
AcDbEntity
  8
LEVEL001
  6
Continuous
 62
     7
100
AcDbLine
 10
299.00000004554
 20
760.6499999999999
 30
0.0
 11
299.00000004554
 21
673.0
 31
0.0
  0
LINE
  5
331
330
B
100
AcDbEntity
  8
LEVEL001
  6
Continuous
 62
     7
100
AcDbLine
 10
329.00000004554
 20
760.6499999999999
 30
0.0
 11
329.00000004554
 21
673.0
 31
0.0
  0
LINE
  5
332
330
B
100
AcDbEntity
  8
LEVEL001
  6
Continuous
 62
     7
100
AcDbLine
 10
359.00000004554
 20
760.6499999999999
 30
0.0
 11
359.00000004554
 21
673.0
 31
0.0
  0
LINE
  5
333
330
B
100
AcDbEntity
  8
LEVEL001
  6
Continuous
 62
     7
100
AcDbLine
 10
389.00000004554
 20
760.36291158654
 30
0.0
 11
389.00000004554
 21
673.0
 31
0.0
  0
LINE
  5
334
330
B
100
AcDbEntity
  8
LEVEL001
  6
Continuous
 62
     7
100
AcDbLine
 10
419.0000000455399
 20
760.36291158654
 30
0.0
 11
419.0000000455399
 21
673.0
 31
0.0
  0
LINE
  5
335
330
B
100
AcDbEntity
  8
LEVEL001
  6
Continuous
 62
     7
100
AcDbLine
 10
449.00000004554
 20
760.36291158654
 30
0.0
 11
449.00000004554
 21
673.0
 31
0.0
  0
LINE
  5
336
330
B
100
AcDbEntity
  8
LEVEL001
  6
Continuous
 62
     7
100
AcDbLine
 10
479.00000004554
 20
760.36291158654
 30
0.0
 11
479.00000004554
 21
673.0
 31
0.0
  0
LINE
  5
337
330
B
100
AcDbEntity
  8
LEVEL001
  6
Continuous
 62
     7
100
AcDbLine
 10
509.00000004554
 20
760.36291158654
 30
0.0
 11
509.00000004554
 21
673.0
 31
0.0
  0
LINE
  5
338
330
B
100
AcDbEntity
  8
LEVEL001
  6
Continuous
 62
     7
100
AcDbLine
 10
539.0000000455399
 20
760.36291158654
 30
0.0
 11
539.0000000455399
 21
673.0
 31
0.0
  0
LINE
  5
339
330
B
100
AcDbEntity
  8
LEVEL001
  6
Continuous
 62
     7
100
AcDbLine
 10
569.0000000455399
 20
760.36291158654
 30
0.0
 11
569.0000000455399
 21
673.0
 31
0.0
  0
LINE
  5
33A
330
B
100
AcDbEntity
  8
LEVEL001
  6
Continuous
 62
     7
100
AcDbLine
 10
599.00000004554
 20
760.36291158654
 30
0.0
 11
599.00000004554
 21
673.0
 31
0.0
  0
LINE
  5
33B
330
B
100
AcDbEntity
  8
LEVEL001
  6
Continuous
 62
     7
100
AcDbLine
 10
629.00000004554
 20
760.36291158654
 30
0.0
 11
629.00000004554
 21
673.0
 31
0.0
  0
LINE
  5
33C
330
B
100
AcDbEntity
  8
LEVEL001
  6
Continuous
 62
     7
100
AcDbLine
 10
659.00000004554
 20
760.36291158654
 30
0.0
 11
659.00000004554
 21
673.0
 31
0.0
  0
LINE
  5
33D
330
B
100
AcDbEntity
  8
LEVEL001
  6
Continuous
 62
     7
100
AcDbLine
 10
689.0000000455399
 20
760.36291158654
 30
0.0
 11
689.0000000455399
 21
673.0
 31
0.0
  0
LINE
  5
33E
330
B
100
AcDbEntity
  8
LEVEL001
  6
Continuous
 62
     7
100
AcDbLine
 10
719.0000000455399
 20
760.36291158654
 30
0.0
 11
719.0000000455399
 21
673.0
 31
0.0
  0
LINE
  5
33F
330
B
100
AcDbEntity
  8
LEVEL001
  6
Continuous
 62
     7
100
AcDbLine
 10
749.00000004554
 20
760.36291158654
 30
0.0
 11
749.00000004554
 21
673.0
 31
0.0
  0
LINE
  5
340
330
B
100
AcDbEntity
  8
LEVEL001
  6
Continuous
 62
     7
100
AcDbLine
 10
779.00000004554
 20
760.36291158654
 30
0.0
 11
779.00000004554
 21
673.0
 31
0.0
  0
LINE
  5
341
330
B
100
AcDbEntity
  8
LEVEL001
  6
Continuous
 62
     7
100
AcDbLine
 10
809.00000004554
 20
760.36291158654
 30
0.0
 11
809.00000004554
 21
673.0
 31
0.0
  0
LINE
  5
342
330
B
100
AcDbEntity
  8
LEVEL001
  6
Continuous
 62
     7
100
AcDbLine
 10
839.0000000455399
 20
760.36291158654
 30
0.0
 11
839.0000000455399
 21
673.0
 31
0.0
  0
LINE
  5
343
330
B
100
AcDbEntity
  8
LEVEL001
  6
Continuous
 62
     7
100
AcDbLine
 10
868.98336416558
 20
760.36291158654
 30
0.0
 11
868.98336416558
 21
673.0
 31
0.0
  0
LINE
  5
344
330
B
100
AcDbEntity
  8
LEVEL001
  6
Continuous
 62
     7
100
AcDbLine
 10
899.0000000455399
 20
760.36291158654
 30
0.0
 11
899.0000000455399
 21
673.0
 31
0.0
  0
LINE
  5
345
330
B
100
AcDbEntity
  8
LEVEL001
  6
Continuous
 62
     7
100
AcDbLine
 10
929.00000004554
 20
760.36291158654
 30
0.0
 11
929.00000004554
 21
673.0
 31
0.0
  0
LINE
  5
346
330
B
100
AcDbEntity
  8
LEVEL001
  6
Continuous
 62
     7
100
AcDbLine
 10
958.98336416558
 20
760.36291158654
 30
0.0
 11
958.98336416558
 21
673.0
 31
0.0
  0
LINE
  5
347
330
B
100
AcDbEntity
  8
LEVEL001
  6
Continuous
 62
     7
100
AcDbLine
 10
989.0000000455399
 20
760.36291158654
 30
0.0
 11
989.0000000455399
 21
673.0
 31
0.0
  0
LINE
  5
348
330
B
100
AcDbEntity
  8
LEVEL001
  6
Continuous
 62
     7
100
AcDbLine
 10
210.29999999999
 20
1156.3
 30
0.0
 11
229.29999999999
 21
1156.3
 31
0.0
  0
LINE
  5
349
330
B
100
AcDbEntity
  8
LEVEL001
  6
Continuous
 62
     7
100
AcDbLine
 10
210.29999999999
 20
1056.3
 30
0.0
 11
229.29999999999
 21
1056.3
 31
0.0
  0
LINE
  5
34A
330
B
100
AcDbEntity
  8
LEVEL001
  6
Continuous
 62
     7
100
AcDbLine
 10
229.29999999999
 20
1156.3
 30
0.0
 11
229.29999999999
 21
1056.3
 31
0.0
  0
LINE
  5
34B
330
B
100
AcDbEntity
  8
LEVEL001
  6
Continuous
 62
     7
100
AcDbLine
 10
229.29999999999
 20
1128.8
 30
0.0
 11
288.99999999999
 21
1128.8
 31
0.0
  0
LINE
  5
34C
330
B
100
AcDbEntity
  8
LEVEL001
  6
Continuous
 62
     7
100
AcDbLine
 10
229.29999999999
 20
1083.8
 30
0.0
 11
288.99999999999
 21
1083.8
 31
0.0
  0
LINE
  5
34D
330
B
100
AcDbEntity
  8
LEVEL001
  6
Continuous
 62
     7
100
AcDbLine
 10
1077.7
 20
1156.3
 30
0.0
 11
1058.7
 21
1156.3
 31
0.0
  0
LINE
  5
34E
330
B
100
AcDbEntity
  8
LEVEL001
  6
Continuous
 62
     7
100
AcDbLine
 10
1058.7
 20
1128.8
 30
0.0
 11
998.99999999999
 21
1128.8
 31
0.0
  0
LINE
  5
34F
330
B
100
AcDbEntity
  8
LEVEL001
  6
Continuous
 62
     7
100
AcDbLine
 10
1058.7
 20
1083.8
 30
0.0
 11
998.99999999999
 21
1083.8
 31
0.0
  0
LINE
  5
350
330
B
100
AcDbEntity
  8
LEVEL001
  6
Continuous
 62
     7
100
AcDbLine
 10
1165.7
 20
1186.3
 30
0.0
 11
1165.7
 21
983.0
 31
0.0
  0
LINE
  5
351
330
B
100
AcDbEntity
  8
LEVEL001
  6
Continuous
 62
     7
100
AcDbLine
 10
1109.7
 20
1186.3
 30
0.0
 11
1165.7
 21
1186.3
 31
0.0
  0
LINE
  5
352
330
B
100
AcDbEntity
  8
LEVEL001
  6
Continuous
 62
     7
100
AcDbLine
 10
1675.0
 20
578.0
 30
0.0
 11
2411.0
 21
578.0
 31
0.0
  0
LINE
  5
353
330
B
100
AcDbEntity
  8
LEVEL001
  6
Continuous
 62
     7
100
AcDbLine
 10
2275.0
 20
583.0
 30
0.0
 11
2411.0
 21
583.0
 31
0.0
  0
LINE
  5
354
330
B
100
AcDbEntity
  8
LEVEL001
  6
Continuous
 62
     7
100
AcDbLine
 10
2411.0
 20
582.9999999999199
 30
0.0
 11
2404.0534474259
 21
639.5751306434899
 31
0.0
  0
LINE
  5
355
330
B
100
AcDbEntity
  8
LEVEL001
  6
Continuous
 62
     7
100
AcDbLine
 10
2404.0534474259
 20
639.5751306434899
 30
0.0
 11
2392.1428936062
 21
638.11269852263
 31
0.0
  0
LINE
  5
356
330
B
100
AcDbEntity
  8
LEVEL001
  6
Continuous
 62
     7
100
AcDbLine
 10
2392.1428936062
 20
638.11269852263
 30
0.0
 11
2398.9098820945
 21
583.0
 31
0.0
  0
INSERT
  5
357
330
B
100
AcDbEntity
  8
0
100
AcDbBlockReference
  2
EGF13M12
 10
2394.4584111309
 20
619.25432164146
 30
0.0
 50
7.0000000000001
  0
INSERT
  5
358
330
B
100
AcDbEntity
  8
0
100
AcDbBlockReference
  2
EGF11M12
 10
2406.3689649506
 20
620.7167537623199
 30
0.0
 50
7.0
  0
INSERT
  5
359
330
B
100
AcDbEntity
  8
0
100
AcDbBlockReference
  2
EGF11M12
 10
2378.5776727046
 20
617.30441214697
 30
0.0
 50
187.0
  0
LINE
  5
35A
330
B
100
AcDbEntity
  8
LEVEL001
  6
Continuous
 62
     7
100
AcDbLine
 10
2377.8464566442
 20
623.2596890568199
 30
0.0
 11
2385.7868258573
 21
624.23464380406
 31
0.0
  0
LINE
  5
35B
330
B
100
AcDbEntity
  8
LEVEL001
  6
Continuous
 62
     7
100
AcDbLine
 10
2379.3088887651
 20
611.3491352371299
 30
0.0
 11
2387.2492579782
 21
612.32408998437
 31
0.0
  0
LINE
  5
35C
330
B
100
AcDbEntity
  8
LEVEL001
  6
Continuous
 62
     7
100
AcDbLine
 10
2275.0
 20
618.0
 30
0.0
 11
2368.4171670009
 21
618.0
 31
0.0
  0
LINE
  5
35D
330
B
100
AcDbEntity
  8
LEVEL001
  6
Continuous
 62
     7
100
AcDbLine
 10
2411.0
 20
610.2333380575499
 30
0.0
 11
2411.0
 21
578.0
 31
0.0
  0
LWPOLYLINE
  5
35E
330
B
100
AcDbEntity
  8
LEVEL001
  6
Continuous
 62
     7
100
AcDbPolyline
 90
        6
 70
     0
 43
0.0
 10
2415.5632104066
 20
627.8907241062199
 10
2423.5901795635
 20
628.87631198955
 10
2425.8190105536
 20
627.13495837307
 10
2426.7939653009
 20
619.1945891599401
 10
2425.0526116844
 20
616.9657581698499
 10
2417.0256425274
 20
615.9801702865199
  0
LINE
  5
35F
330
B
100
AcDbEntity
  8
LEVEL001
  6
Continuous
 62
     7
100
AcDbLine
 10
2423.5901795635
 20
628.87631198955
 30
0.0
 11
2425.0526116844
 21
616.9657581698499
 31
0.0
  0
LINE
  5
360
330
B
100
AcDbEntity
  8
LEVEL001
  6
Continuous
 62
     7
100
AcDbLine
 10
270.99999999999
 20
1514.0
 30
0.0
 11
254.99999999999
 21
1514.0
 31
0.0
  0
LINE
  5
361
330
B
100
AcDbEntity
  8
LEVEL001
  6
Continuous
 62
     7
100
AcDbLine
 10
1033.0
 20
1514.0
 30
0.0
 11
1017.0
 21
1514.0
 31
0.0
  0
LINE
  5
362
330
B
100
AcDbEntity
  8
LEVEL001
  6
Continuous
 62
     7
100
AcDbLine
 10
118.99999999999
 20
2114.0
 30
0.0
 11
118.99999999999
 21
1514.0
 31
0.0
  0
LINE
  5
363
330
B
100
AcDbEntity
  8
LEVEL001
  6
Continuous
 62
     7
100
AcDbLine
 10
118.99999999999
 20
1514.0
 30
0.0
 11
254.99999999999
 21
1514.0
 31
0.0
  0
LINE
  5
364
330
B
100
AcDbEntity
  8
LEVEL001
  6
Continuous
 62
     7
100
AcDbLine
 10
1033.0
 20
1514.0
 30
0.0
 11
1184.0
 21
1514.0
 31
0.0
  0
LINE
  5
365
330
B
100
AcDbEntity
  8
LEVEL001
  6
Continuous
 62
     7
100
AcDbLine
 10
1184.0
 20
1514.0
 30
0.0
 11
1184.0
 21
2114.0
 31
0.0
  0
LINE
  5
366
330
B
100
AcDbEntity
  8
LEVEL001
  6
Continuous
 62
     7
100
AcDbLine
 10
171.99999999999
 20
1753.0
 30
0.0
 11
254.99999999999
 21
1753.0
 31
0.0
  0
LINE
  5
367
330
B
100
AcDbEntity
  8
LEVEL001
  6
Continuous
 62
     7
100
AcDbLine
 10
171.99999999999
 20
2075.0
 30
0.0
 11
254.99999999999
 21
2075.0
 31
0.0
  0
LINE
  5
368
330
B
100
AcDbEntity
  8
LEVEL001
  6
Continuous
 62
     7
100
AcDbLine
 10
1168.0
 20
2075.0
 30
0.0
 11
1168.0
 21
1754.0
 31
0.0
  0
LINE
  5
369
330
B
100
AcDbEntity
  8
LEVEL001
  6
Continuous
 62
     7
100
AcDbLine
 10
1033.0
 20
2075.0
 30
0.0
 11
1168.0
 21
2075.0
 31
0.0
  0
LINE
  5
36A
330
B
100
AcDbEntity
  8
LEVEL001
  6
Continuous
 62
     7
100
AcDbLine
 10
1168.0
 20
1754.0
 30
0.0
 11
1063.0
 21
1754.0
 31
0.0
  0
CIRCLE
  5
36B
330
B
100
AcDbEntity
  8
LEVEL001
  6
Continuous
 62
     7
100
AcDbCircle
 10
146.99999999999
 20
1554.0
 30
0.0
 40
20.0
  0
LWPOLYLINE
  5
36C
330
B
100
AcDbEntity
  8
LEVEL001
  6
Continuous
 62
     7
100
AcDbPolyline
 90
        4
 70
     0
 43
0.0
 10
126.99999999999
 20
1554.0
 10
126.99999999999
 20
1584.0
 10
166.99999999999
 20
1584.0
 10
166.99999999999
 20
1554.0
  0
CIRCLE
  5
36D
330
B
100
AcDbEntity
  8
LEVEL001
  6
Continuous
 62
     7
100
AcDbCircle
 10
199.99999999999
 20
1554.0
 30
0.0
 40
17.0
  0
CIRCLE
  5
36E
330
B
100
AcDbEntity
  8
LEVEL001
  6
Continuous
 62
     7
100
AcDbCircle
 10
199.99999999999
 20
1554.0
 30
0.0
 40
15.0
  0
CIRCLE
  5
36F
330
B
100
AcDbEntity
  8
LEVEL001
  6
Continuous
 62
     7
100
AcDbCircle
 10
199.99999999999
 20
1554.0
 30
0.0
 40
13.5
  0
LWPOLYLINE
  5
370
330
B
100
AcDbEntity
  8
LEVEL001
  6
Continuous
 62
     7
100
AcDbPolyline
 90
        4
 70
     1
 43
0.0
 10
194.99999999999
 20
1541.5
 10
204.99999999999
 20
1541.5
 10
204.99999999999
 20
1566.5
 10
194.99999999999
 20
1566.5
  0
LWPOLYLINE
  5
371
330
B
100
AcDbEntity
  8
LEVEL001
  6
Continuous
 62
     7
100
AcDbPolyline
 90
        4
 70
     0
 43
0.0
 10
196.99999999999
 20
1566.5
 10
196.99999999999
 20
1546.5
 10
202.99999999999
 20
1546.5
 10
202.99999999999
 20
1566.5
  0
LINE
  5
372
330
B
100
AcDbEntity
  8
LEVEL001
  6
Continuous
 62
     7
100
AcDbLine
 10
199.99999999999
 20
1548.5
 30
0.0
 11
199.99999999999
 21
1566.5
 31
0.0
  0
ARC
  5
373
330
B
100
AcDbEntity
  8
LEVEL001
  6
Continuous
 62
     7
100
AcDbCircle
 10
199.99999999999
 20
1554.0
 30
0.0
 40
20.0
100
AcDbArc
 50
180.0
 51
0.0
  0
LWPOLYLINE
  5
374
330
B
100
AcDbEntity
  8
LEVEL001
  6
Continuous
 62
     7
100
AcDbPolyline
 90
        4
 70
     0
 43
0.0
 10
179.99999999999
 20
1554.0
 10
179.99999999999
 20
1584.0
 10
219.99999999999
 20
1584.0
 10
219.99999999999
 20
1554.0
  0
LINE
  5
375
330
B
100
AcDbEntity
  8
LEVEL001
  6
Continuous
 62
     7
100
AcDbLine
 10
118.99999999999
 20
983.0
 30
0.0
 11
250.99999999999
 21
983.0
 31
0.0
  0
LINE
  5
376
330
B
100
AcDbEntity
  8
LEVEL001
  6
Continuous
 62
     7
100
AcDbLine
 10
1037.0
 20
983.0
 30
0.0
 11
1184.0
 21
983.0
 31
0.0
  0
LINE
  5
377
330
B
100
AcDbEntity
  8
LEVEL001
  6
Continuous
 62
     7
100
AcDbLine
 10
250.99999999999
 20
1020.6835550538
 30
0.0
 11
1037.0
 21
1020.6835550538
 31
0.0
  0
LINE
  5
378
330
B
100
AcDbEntity
  8
LEVEL001
  6
Continuous
 62
     7
100
AcDbLine
 10
1037.0
 20
1008.1265193121
 30
0.0
 11
250.99999999999
 21
1008.1265193121
 31
0.0
  0
LINE
  5
379
330
B
100
AcDbEntity
  8
LEVEL001
  6
Continuous
 62
     7
100
AcDbLine
 10
270.99999999999
 20
933.0
 30
0.0
 11
270.99999999999
 21
578.0
 31
0.0
  0
LINE
  5
37A
330
B
100
AcDbEntity
  8
LEVEL001
  6
Continuous
 62
     7
100
AcDbLine
 10
1017.0
 20
578.0
 30
0.0
 11
1017.0
 21
933.0
 31
0.0
  0
LINE
  5
37B
330
B
100
AcDbEntity
  8
LEVEL001
  6
Continuous
 62
     7
100
AcDbLine
 10
250.99999999999
 20
933.0
 30
0.0
 11
250.99999999999
 21
1020.6835550538
 31
0.0
  0
LINE
  5
37C
330
B
100
AcDbEntity
  8
LEVEL001
  6
Continuous
 62
     7
100
AcDbLine
 10
254.99999999999
 20
933.0
 30
0.0
 11
254.99999999999
 21
578.0
 31
0.0
  0
LINE
  5
37D
330
B
100
AcDbEntity
  8
LEVEL001
  6
Continuous
 62
     7
100
AcDbLine
 10
1037.0
 20
933.0
 30
0.0
 11
1037.0
 21
1020.6835550538
 31
0.0
  0
LINE
  5
37E
330
B
100
AcDbEntity
  8
LEVEL001
  6
Continuous
 62
     7
100
AcDbLine
 10
1037.0
 20
933.0
 30
0.0
 11
250.99999999999
 21
933.0
 31
0.0
  0
LINE
  5
37F
330
B
100
AcDbEntity
  8
LEVEL001
  6
Continuous
 62
     7
100
AcDbLine
 10
1033.0
 20
578.0
 30
0.0
 11
1033.0
 21
933.0
 31
0.0
  0
LINE
  5
380
330
B
100
AcDbEntity
  8
LEVEL001
  6
Continuous
 62
     7
100
AcDbLine
 10
998.99999999999
 20
840.21606874732
 30
0.0
 11
998.99999999999
 21
933.0
 31
0.0
  0
LINE
  5
381
330
B
100
AcDbEntity
  8
LEVEL001
  6
Continuous
 62
     7
100
AcDbLine
 10
288.99999999999
 20
840.21606874732
 30
0.0
 11
288.99999999999
 21
933.0
 31
0.0
  0
LINE
  5
382
330
B
100
AcDbEntity
  8
LEVEL001
  6
Continuous
 62
     7
100
AcDbLine
 10
1672.0
 20
933.0
 30
0.0
 11
1675.0
 21
933.0
 31
0.0
  0
LINE
  5
383
330
B
100
AcDbEntity
  8
LEVEL001
  6
Continuous
 62
     7
100
AcDbLine
 10
1672.0
 20
971.89817150263
 30
0.0
 11
1672.0
 21
933.0
 31
0.0
  0
LINE
  5
384
330
B
100
AcDbEntity
  8
LEVEL001
  6
Continuous
 62
     7
100
AcDbLine
 10
1536.7939653009
 20
1008.1265193121
 30
0.0
 11
1672.0
 21
971.89817150263
 31
0.0
  0
LINE
  5
385
330
B
100
AcDbEntity
  8
LEVEL001
  6
Continuous
 62
     7
100
AcDbLine
 10
250.99999999999
 20
1514.0
 30
0.0
 11
250.99999999999
 21
1374.0
 31
0.0
  0
LINE
  5
386
330
B
100
AcDbEntity
  8
LEVEL001
  6
Continuous
 62
     7
100
AcDbLine
 10
250.99999999999
 20
1374.0
 30
0.0
 11
1037.0
 21
1374.0
 31
0.0
  0
LINE
  5
387
330
B
100
AcDbEntity
  8
LEVEL001
  6
Continuous
 62
     7
100
AcDbLine
 10
1037.0
 20
1374.0
 30
0.0
 11
1037.0
 21
1514.0
 31
0.0
  0
LINE
  5
388
330
B
100
AcDbEntity
  8
LEVEL001
  6
Continuous
 62
     7
100
AcDbLine
 10
270.99999999999
 20
1594.0
 30
0.0
 11
1017.0
 21
1594.0
 31
0.0
  0
LINE
  5
389
330
B
100
AcDbEntity
  8
LEVEL001
  6
DASHDOT
 62
     1
100
AcDbLine
 10
1046.0
 20
868.0
 30
0.0
 11
245.0
 21
868.0
 31
0.0
  0
LINE
  5
38A
330
B
100
AcDbEntity
  8
LEVEL001
  6
DASHDOT
 62
     1
100
AcDbLine
 10
1046.0
 20
733.0
 30
0.0
 11
245.0
 21
733.0
 31
0.0
  0
LINE
  5
38B
330
B
100
AcDbEntity
  8
LEVEL001
  6
DASHDOT
 62
     1
100
AcDbLine
 10
1133.0
 20
1106.3
 30
0.0
 11
156.0
 21
1106.3
 31
0.0
  0
LINE
  5
38C
330
B
100
AcDbEntity
  8
LEVEL001
  6
Continuous
 62
     7
100
AcDbLine
 10
389.00000004554
 20
2089.5307621135
 30
0.0
 11
404.00000004554
 21
2093.55
 31
0.0
  0
LINE
  5
38D
330
B
100
AcDbEntity
  8
LEVEL001
  6
Continuous
 62
     7
100
AcDbLine
 10
404.00000004554
 20
2093.55
 30
0.0
 11
419.0000000455399
 21
2089.5307621135
 31
0.0
  0
LINE
  5
38E
330
B
100
AcDbEntity
  8
LEVEL001
  6
Continuous
 62
     7
100
AcDbLine
 10
419.0000000455399
 20
2089.5307621135
 30
0.0
 11
434.00000004554
 21
2093.55
 31
0.0
  0
LINE
  5
38F
330
B
100
AcDbEntity
  8
LEVEL001
  6
Continuous
 62
     7
100
AcDbLine
 10
434.00000004554
 20
2093.55
 30
0.0
 11
449.00000004554
 21
2089.5307621135
 31
0.0
  0
LINE
  5
390
330
B
100
AcDbEntity
  8
LEVEL001
  6
Continuous
 62
     7
100
AcDbLine
 10
449.00000004554
 20
2089.5307621135
 30
0.0
 11
464.0000000455399
 21
2093.55
 31
0.0
  0
LINE
  5
391
330
B
100
AcDbEntity
  8
LEVEL001
  6
Continuous
 62
     7
100
AcDbLine
 10
464.0000000455399
 20
2093.55
 30
0.0
 11
479.00000004554
 21
2089.5307621135
 31
0.0
  0
LINE
  5
392
330
B
100
AcDbEntity
  8
LEVEL001
  6
Continuous
 62
     7
100
AcDbLine
 10
479.00000004554
 20
2089.5307621135
 30
0.0
 11
494.0000000455399
 21
2093.55
 31
0.0
  0
LINE
  5
393
330
B
100
AcDbEntity
  8
LEVEL001
  6
Continuous
 62
     7
100
AcDbLine
 10
494.0000000455399
 20
2093.55
 30
0.0
 11
509.00000004554
 21
2089.5307621135
 31
0.0
  0
LINE
  5
394
330
B
100
AcDbEntity
  8
LEVEL001
  6
Continuous
 62
     7
100
AcDbLine
 10
509.00000004554
 20
2089.5307621135
 30
0.0
 11
524.00000004554
 21
2093.55
 31
0.0
  0
LINE
  5
395
330
B
100
AcDbEntity
  8
LEVEL001
  6
Continuous
 62
     7
100
AcDbLine
 10
524.00000004554
 20
2093.55
 30
0.0
 11
539.0000000455399
 21
2089.5307621135
 31
0.0
  0
LINE
  5
396
330
B
100
AcDbEntity
  8
LEVEL001
  6
Continuous
 62
     7
100
AcDbLine
 10
539.0000000455399
 20
2089.5307621135
 30
0.0
 11
554.00000004554
 21
2093.55
 31
0.0
  0
LINE
  5
397
330
B
100
AcDbEntity
  8
LEVEL001
  6
Continuous
 62
     7
100
AcDbLine
 10
554.00000004554
 20
2093.55
 30
0.0
 11
569.0000000455399
 21
2089.5307621135
 31
0.0
  0
LINE
  5
398
330
B
100
AcDbEntity
  8
LEVEL001
  6
Continuous
 62
     7
100
AcDbLine
 10
569.0000000455399
 20
2089.5307621135
 30
0.0
 11
584.00000004554
 21
2093.55
 31
0.0
  0
LINE
  5
399
330
B
100
AcDbEntity
  8
LEVEL001
  6
Continuous
 62
     7
100
AcDbLine
 10
584.00000004554
 20
2093.55
 30
0.0
 11
599.00000004554
 21
2089.5307621135
 31
0.0
  0
LINE
  5
39A
330
B
100
AcDbEntity
  8
LEVEL001
  6
Continuous
 62
     7
100
AcDbLine
 10
599.00000004554
 20
2089.5307621135
 30
0.0
 11
614.0000000455399
 21
2093.55
 31
0.0
  0
LINE
  5
39B
330
B
100
AcDbEntity
  8
LEVEL001
  6
Continuous
 62
     7
100
AcDbLine
 10
614.0000000455399
 20
2093.55
 30
0.0
 11
629.00000004554
 21
2089.5307621135
 31
0.0
  0
LINE
  5
39C
330
B
100
AcDbEntity
  8
LEVEL001
  6
Continuous
 62
     7
100
AcDbLine
 10
629.00000004554
 20
2089.5307621135
 30
0.0
 11
644.0000000455399
 21
2093.55
 31
0.0
  0
LINE
  5
39D
330
B
100
AcDbEntity
  8
LEVEL001
  6
Continuous
 62
     7
100
AcDbLine
 10
644.0000000455399
 20
2093.55
 30
0.0
 11
659.00000004554
 21
2089.5307621135
 31
0.0
  0
LINE
  5
39E
330
B
100
AcDbEntity
  8
LEVEL001
  6
Continuous
 62
     7
100
AcDbLine
 10
659.00000004554
 20
2089.5307621135
 30
0.0
 11
674.00000004554
 21
2093.55
 31
0.0
  0
LINE
  5
39F
330
B
100
AcDbEntity
  8
LEVEL001
  6
Continuous
 62
     7
100
AcDbLine
 10
674.00000004554
 20
2093.55
 30
0.0
 11
689.0000000455399
 21
2089.5307621135
 31
0.0
  0
LINE
  5
3A0
330
B
100
AcDbEntity
  8
LEVEL001
  6
Continuous
 62
     7
100
AcDbLine
 10
689.0000000455399
 20
2089.5307621135
 30
0.0
 11
704.00000004554
 21
2093.55
 31
0.0
  0
LINE
  5
3A1
330
B
100
AcDbEntity
  8
LEVEL001
  6
Continuous
 62
     7
100
AcDbLine
 10
704.00000004554
 20
2093.55
 30
0.0
 11
719.0000000455399
 21
2089.5307621135
 31
0.0
  0
LINE
  5
3A2
330
B
100
AcDbEntity
  8
LEVEL001
  6
Continuous
 62
     7
100
AcDbLine
 10
719.0000000455399
 20
2089.5307621135
 30
0.0
 11
734.00000004554
 21
2093.55
 31
0.0
  0
LINE
  5
3A3
330
B
100
AcDbEntity
  8
LEVEL001
  6
Continuous
 62
     7
100
AcDbLine
 10
734.00000004554
 20
2093.55
 30
0.0
 11
749.00000004554
 21
2089.5307621135
 31
0.0
  0
LINE
  5
3A4
330
B
100
AcDbEntity
  8
LEVEL001
  6
Continuous
 62
     7
100
AcDbLine
 10
749.00000004554
 20
2089.5307621135
 30
0.0
 11
764.0000000455399
 21
2093.55
 31
0.0
  0
LINE
  5
3A5
330
B
100
AcDbEntity
  8
LEVEL001
  6
Continuous
 62
     7
100
AcDbLine
 10
764.0000000455399
 20
2093.55
 30
0.0
 11
779.00000004554
 21
2089.5307621135
 31
0.0
  0
LINE
  5
3A6
330
B
100
AcDbEntity
  8
LEVEL001
  6
Continuous
 62
     7
100
AcDbLine
 10
779.00000004554
 20
2089.5307621135
 30
0.0
 11
794.0000000455399
 21
2093.55
 31
0.0
  0
LINE
  5
3A7
330
B
100
AcDbEntity
  8
LEVEL001
  6
Continuous
 62
     7
100
AcDbLine
 10
794.0000000455399
 20
2093.55
 30
0.0
 11
809.00000004554
 21
2089.5307621135
 31
0.0
  0
LINE
  5
3A8
330
B
100
AcDbEntity
  8
LEVEL001
  6
Continuous
 62
     7
100
AcDbLine
 10
809.00000004554
 20
2089.5307621135
 30
0.0
 11
824.0000000455399
 21
2093.55
 31
0.0
  0
LINE
  5
3A9
330
B
100
AcDbEntity
  8
LEVEL001
  6
Continuous
 62
     7
100
AcDbLine
 10
824.0000000455399
 20
2093.55
 30
0.0
 11
839.0000000455399
 21
2089.5307621135
 31
0.0
  0
LINE
  5
3AA
330
B
100
AcDbEntity
  8
LEVEL001
  6
Continuous
 62
     7
100
AcDbLine
 10
839.0000000455399
 20
2089.5307621135
 30
0.0
 11
854.00000004554
 21
2093.55
 31
0.0
  0
LINE
  5
3AB
330
B
100
AcDbEntity
  8
LEVEL001
  6
Continuous
 62
     7
100
AcDbLine
 10
854.00000004554
 20
2093.55
 30
0.0
 11
869.00000004554
 21
2089.5307621135
 31
0.0
  0
LINE
  5
3AC
330
B
100
AcDbEntity
  8
LEVEL001
  6
Continuous
 62
     7
100
AcDbLine
 10
869.00000004554
 20
2089.5307621135
 30
0.0
 11
883.98336416559
 21
2093.55
 31
0.0
  0
LINE
  5
3AD
330
B
100
AcDbEntity
  8
LEVEL001
  6
Continuous
 62
     7
100
AcDbLine
 10
883.98336416559
 20
2093.55
 30
0.0
 11
899.0000000455399
 21
2089.5307621135
 31
0.0
  0
LINE
  5
3AE
330
B
100
AcDbEntity
  8
LEVEL001
  6
Continuous
 62
     7
100
AcDbLine
 10
299.00000004554
 20
2089.5307621135
 30
0.0
 11
314.00000004554
 21
2093.55
 31
0.0
  0
LINE
  5
3AF
330
B
100
AcDbEntity
  8
LEVEL001
  6
Continuous
 62
     7
100
AcDbLine
 10
314.00000004554
 20
2093.55
 30
0.0
 11
329.00000004554
 21
2089.5307621135
 31
0.0
  0
LINE
  5
3B0
330
B
100
AcDbEntity
  8
LEVEL001
  6
Continuous
 62
     7
100
AcDbLine
 10
329.00000004554
 20
2089.5307621135
 30
0.0
 11
344.00000004554
 21
2093.55
 31
0.0
  0
LINE
  5
3B1
330
B
100
AcDbEntity
  8
LEVEL001
  6
Continuous
 62
     7
100
AcDbLine
 10
344.00000004554
 20
2093.55
 30
0.0
 11
359.00000004554
 21
2089.5307621135
 31
0.0
  0
LINE
  5
3B2
330
B
100
AcDbEntity
  8
LEVEL001
  6
Continuous
 62
     7
100
AcDbLine
 10
359.00000004554
 20
2089.5307621135
 30
0.0
 11
375.07142859082
 21
2093.8370884135
 31
0.0
  0
LINE
  5
3B3
330
B
100
AcDbEntity
  8
LEVEL001
  6
Continuous
 62
     7
100
AcDbLine
 10
375.07142859082
 20
2093.8370884135
 30
0.0
 11
389.00000004554
 21
2089.5307621135
 31
0.0
  0
LINE
  5
3B4
330
B
100
AcDbEntity
  8
LEVEL001
  6
Continuous
 62
     7
100
AcDbLine
 10
288.99999999999
 20
2092.6224835679
 30
0.0
 11
299.00000004554
 21
2089.5307621135
 31
0.0
  0
LINE
  5
3B5
330
B
100
AcDbEntity
  8
LEVEL001
  6
Continuous
 62
     7
100
AcDbLine
 10
929.00000004554
 20
2089.5307621135
 30
0.0
 11
944.00000004554
 21
2093.55
 31
0.0
  0
LINE
  5
3B6
330
B
100
AcDbEntity
  8
LEVEL001
  6
Continuous
 62
     7
100
AcDbLine
 10
944.00000004554
 20
2093.55
 30
0.0
 11
959.00000004554
 21
2089.5307621135
 31
0.0
  0
LINE
  5
3B7
330
B
100
AcDbEntity
  8
LEVEL001
  6
Continuous
 62
     7
100
AcDbLine
 10
959.00000004554
 20
2089.5307621135
 30
0.0
 11
973.98336416559
 21
2093.55
 31
0.0
  0
LINE
  5
3B8
330
B
100
AcDbEntity
  8
LEVEL001
  6
Continuous
 62
     7
100
AcDbLine
 10
973.98336416559
 20
2093.55
 30
0.0
 11
989.0000000455399
 21
2089.5307621135
 31
0.0
  0
LINE
  5
3B9
330
B
100
AcDbEntity
  8
LEVEL001
  6
Continuous
 62
     7
100
AcDbLine
 10
912.9285714741099
 20
2093.8370884205
 30
0.0
 11
929.00000004554
 21
2089.5307621135
 31
0.0
  0
LINE
  5
3BA
330
B
100
AcDbEntity
  8
LEVEL001
  6
Continuous
 62
     7
100
AcDbLine
 10
899.0000000455399
 20
2089.5307621135
 30
0.0
 11
912.9285714741099
 21
2093.8370884205
 31
0.0
  0
LINE
  5
3BB
330
B
100
AcDbEntity
  8
LEVEL001
  6
Continuous
 62
     7
100
AcDbLine
 10
989.0000000455399
 20
2089.5307621135
 30
0.0
 11
998.99999999999
 21
2092.6224835506
 31
0.0
  0
LINE
  5
3BC
330
B
100
AcDbEntity
  8
LEVEL001
  6
Continuous
 62
     7
100
AcDbLine
 10
210.29999999999
 20
2036.2
 30
0.0
 11
229.29999999999
 21
2036.2
 31
0.0
  0
LINE
  5
3BD
330
B
100
AcDbEntity
  8
LEVEL001
  6
Continuous
 62
     7
100
AcDbLine
 10
210.29999999999
 20
1936.2
 30
0.0
 11
229.29999999999
 21
1936.2
 31
0.0
  0
LINE
  5
3BE
330
B
100
AcDbEntity
  8
LEVEL001
  6
Continuous
 62
     7
100
AcDbLine
 10
229.29999999999
 20
2008.7
 30
0.0
 11
288.99999999999
 21
2008.7
 31
0.0
  0
LINE
  5
3BF
330
B
100
AcDbEntity
  8
LEVEL001
  6
Continuous
 62
     7
100
AcDbLine
 10
229.29999999999
 20
1963.7
 30
0.0
 11
288.99999999999
 21
1963.7
 31
0.0
  0
LINE
  5
3C0
330
B
100
AcDbEntity
  8
LEVEL001
  6
Continuous
 62
     7
100
AcDbLine
 10
1058.7
 20
2008.7
 30
0.0
 11
998.99999999999
 21
2008.7
 31
0.0
  0
LINE
  5
3C1
330
B
100
AcDbEntity
  8
LEVEL001
  6
Continuous
 62
     7
100
AcDbLine
 10
1058.7
 20
1963.7
 30
0.0
 11
998.99999999999
 21
1963.7
 31
0.0
  0
LINE
  5
3C2
330
B
100
AcDbEntity
  8
LEVEL001
  6
Continuous
 62
     7
100
AcDbLine
 10
1077.7
 20
2036.2
 30
0.0
 11
1058.7
 21
2036.2
 31
0.0
  0
LINE
  5
3C3
330
B
100
AcDbEntity
  8
LEVEL001
  6
Continuous
 62
     7
100
AcDbLine
 10
1076.7
 20
1936.2
 30
0.0
 11
1058.7
 21
1936.2
 31
0.0
  0
LINE
  5
3C4
330
B
100
AcDbEntity
  8
LEVEL001
  6
Continuous
 62
     7
100
AcDbLine
 10
389.00000004554
 20
1882.8692378865
 30
0.0
 11
404.00000004554
 21
1878.85
 31
0.0
  0
LINE
  5
3C5
330
B
100
AcDbEntity
  8
LEVEL001
  6
Continuous
 62
     7
100
AcDbLine
 10
404.00000004554
 20
1878.85
 30
0.0
 11
419.0000000455399
 21
1882.8692378865
 31
0.0
  0
LINE
  5
3C6
330
B
100
AcDbEntity
  8
LEVEL001
  6
Continuous
 62
     7
100
AcDbLine
 10
419.0000000455399
 20
1882.8692378865
 30
0.0
 11
434.00000004554
 21
1878.85
 31
0.0
  0
LINE
  5
3C7
330
B
100
AcDbEntity
  8
LEVEL001
  6
Continuous
 62
     7
100
AcDbLine
 10
434.00000004554
 20
1878.85
 30
0.0
 11
449.00000004554
 21
1882.8692378865
 31
0.0
  0
LINE
  5
3C8
330
B
100
AcDbEntity
  8
LEVEL001
  6
Continuous
 62
     7
100
AcDbLine
 10
449.00000004554
 20
1882.8692378865
 30
0.0
 11
464.0000000455399
 21
1878.85
 31
0.0
  0
LINE
  5
3C9
330
B
100
AcDbEntity
  8
LEVEL001
  6
Continuous
 62
     7
100
AcDbLine
 10
464.0000000455399
 20
1878.85
 30
0.0
 11
479.00000004554
 21
1882.8692378865
 31
0.0
  0
LINE
  5
3CA
330
B
100
AcDbEntity
  8
LEVEL001
  6
Continuous
 62
     7
100
AcDbLine
 10
479.00000004554
 20
1882.8692378865
 30
0.0
 11
494.0000000455399
 21
1878.85
 31
0.0
  0
LINE
  5
3CB
330
B
100
AcDbEntity
  8
LEVEL001
  6
Continuous
 62
     7
100
AcDbLine
 10
494.0000000455399
 20
1878.85
 30
0.0
 11
509.00000004554
 21
1882.8692378865
 31
0.0
  0
LINE
  5
3CC
330
B
100
AcDbEntity
  8
LEVEL001
  6
Continuous
 62
     7
100
AcDbLine
 10
509.00000004554
 20
1882.8692378865
 30
0.0
 11
524.00000004554
 21
1878.85
 31
0.0
  0
LINE
  5
3CD
330
B
100
AcDbEntity
  8
LEVEL001
  6
Continuous
 62
     7
100
AcDbLine
 10
524.00000004554
 20
1878.85
 30
0.0
 11
539.0000000455399
 21
1882.8692378865
 31
0.0
  0
LINE
  5
3CE
330
B
100
AcDbEntity
  8
LEVEL001
  6
Continuous
 62
     7
100
AcDbLine
 10
539.0000000455399
 20
1882.8692378865
 30
0.0
 11
554.00000004554
 21
1878.85
 31
0.0
  0
LINE
  5
3CF
330
B
100
AcDbEntity
  8
LEVEL001
  6
Continuous
 62
     7
100
AcDbLine
 10
554.00000004554
 20
1878.85
 30
0.0
 11
569.0000000455399
 21
1882.8692378865
 31
0.0
  0
LINE
  5
3D0
330
B
100
AcDbEntity
  8
LEVEL001
  6
Continuous
 62
     7
100
AcDbLine
 10
569.0000000455399
 20
1882.8692378865
 30
0.0
 11
584.00000004554
 21
1878.85
 31
0.0
  0
LINE
  5
3D1
330
B
100
AcDbEntity
  8
LEVEL001
  6
Continuous
 62
     7
100
AcDbLine
 10
584.00000004554
 20
1878.85
 30
0.0
 11
599.00000004554
 21
1882.8692378865
 31
0.0
  0
LINE
  5
3D2
330
B
100
AcDbEntity
  8
LEVEL001
  6
Continuous
 62
     7
100
AcDbLine
 10
599.00000004554
 20
1882.8692378865
 30
0.0
 11
614.0000000455399
 21
1878.85
 31
0.0
  0
LINE
  5
3D3
330
B
100
AcDbEntity
  8
LEVEL001
  6
Continuous
 62
     7
100
AcDbLine
 10
614.0000000455399
 20
1878.85
 30
0.0
 11
629.00000004554
 21
1882.8692378865
 31
0.0
  0
LINE
  5
3D4
330
B
100
AcDbEntity
  8
LEVEL001
  6
Continuous
 62
     7
100
AcDbLine
 10
629.00000004554
 20
1882.8692378865
 30
0.0
 11
644.0000000455399
 21
1878.85
 31
0.0
  0
LINE
  5
3D5
330
B
100
AcDbEntity
  8
LEVEL001
  6
Continuous
 62
     7
100
AcDbLine
 10
644.0000000455399
 20
1878.85
 30
0.0
 11
659.00000004554
 21
1882.8692378865
 31
0.0
  0
LINE
  5
3D6
330
B
100
AcDbEntity
  8
LEVEL001
  6
Continuous
 62
     7
100
AcDbLine
 10
659.00000004554
 20
1882.8692378865
 30
0.0
 11
674.00000004554
 21
1878.85
 31
0.0
  0
LINE
  5
3D7
330
B
100
AcDbEntity
  8
LEVEL001
  6
Continuous
 62
     7
100
AcDbLine
 10
674.00000004554
 20
1878.85
 30
0.0
 11
689.0000000455399
 21
1882.8692378865
 31
0.0
  0
LINE
  5
3D8
330
B
100
AcDbEntity
  8
LEVEL001
  6
Continuous
 62
     7
100
AcDbLine
 10
689.0000000455399
 20
1882.8692378865
 30
0.0
 11
704.00000004554
 21
1878.85
 31
0.0
  0
LINE
  5
3D9
330
B
100
AcDbEntity
  8
LEVEL001
  6
Continuous
 62
     7
100
AcDbLine
 10
704.00000004554
 20
1878.85
 30
0.0
 11
719.0000000455399
 21
1882.8692378865
 31
0.0
  0
LINE
  5
3DA
330
B
100
AcDbEntity
  8
LEVEL001
  6
Continuous
 62
     7
100
AcDbLine
 10
719.0000000455399
 20
1882.8692378865
 30
0.0
 11
734.00000004554
 21
1878.85
 31
0.0
  0
LINE
  5
3DB
330
B
100
AcDbEntity
  8
LEVEL001
  6
Continuous
 62
     7
100
AcDbLine
 10
734.00000004554
 20
1878.85
 30
0.0
 11
749.00000004554
 21
1882.8692378865
 31
0.0
  0
LINE
  5
3DC
330
B
100
AcDbEntity
  8
LEVEL001
  6
Continuous
 62
     7
100
AcDbLine
 10
749.00000004554
 20
1882.8692378865
 30
0.0
 11
764.0000000455399
 21
1878.85
 31
0.0
  0
LINE
  5
3DD
330
B
100
AcDbEntity
  8
LEVEL001
  6
Continuous
 62
     7
100
AcDbLine
 10
764.0000000455399
 20
1878.85
 30
0.0
 11
779.00000004554
 21
1882.8692378865
 31
0.0
  0
LINE
  5
3DE
330
B
100
AcDbEntity
  8
LEVEL001
  6
Continuous
 62
     7
100
AcDbLine
 10
779.00000004554
 20
1882.8692378865
 30
0.0
 11
794.0000000455399
 21
1878.85
 31
0.0
  0
LINE
  5
3DF
330
B
100
AcDbEntity
  8
LEVEL001
  6
Continuous
 62
     7
100
AcDbLine
 10
794.0000000455399
 20
1878.85
 30
0.0
 11
809.00000004554
 21
1882.8692378865
 31
0.0
  0
LINE
  5
3E0
330
B
100
AcDbEntity
  8
LEVEL001
  6
Continuous
 62
     7
100
AcDbLine
 10
809.00000004554
 20
1882.8692378865
 30
0.0
 11
824.0000000455399
 21
1878.85
 31
0.0
  0
LINE
  5
3E1
330
B
100
AcDbEntity
  8
LEVEL001
  6
Continuous
 62
     7
100
AcDbLine
 10
824.0000000455399
 20
1878.85
 30
0.0
 11
839.0000000455399
 21
1882.8692378865
 31
0.0
  0
LINE
  5
3E2
330
B
100
AcDbEntity
  8
LEVEL001
  6
Continuous
 62
     7
100
AcDbLine
 10
839.0000000455399
 20
1882.8692378865
 30
0.0
 11
854.00000004554
 21
1878.85
 31
0.0
  0
LINE
  5
3E3
330
B
100
AcDbEntity
  8
LEVEL001
  6
Continuous
 62
     7
100
AcDbLine
 10
854.00000004554
 20
1878.85
 30
0.0
 11
869.00000004554
 21
1882.8692378865
 31
0.0
  0
LINE
  5
3E4
330
B
100
AcDbEntity
  8
LEVEL001
  6
Continuous
 62
     7
100
AcDbLine
 10
869.00000004554
 20
1882.8692378865
 30
0.0
 11
883.98336416559
 21
1878.85
 31
0.0
  0
LINE
  5
3E5
330
B
100
AcDbEntity
  8
LEVEL001
  6
Continuous
 62
     7
100
AcDbLine
 10
883.98336416559
 20
1878.85
 30
0.0
 11
899.0000000455399
 21
1882.8692378865
 31
0.0
  0
LINE
  5
3E6
330
B
100
AcDbEntity
  8
LEVEL001
  6
Continuous
 62
     7
100
AcDbLine
 10
299.00000004554
 20
1882.8692378865
 30
0.0
 11
314.00000004554
 21
1878.85
 31
0.0
  0
LINE
  5
3E7
330
B
100
AcDbEntity
  8
LEVEL001
  6
Continuous
 62
     7
100
AcDbLine
 10
314.00000004554
 20
1878.85
 30
0.0
 11
329.00000004554
 21
1882.8692378865
 31
0.0
  0
LINE
  5
3E8
330
B
100
AcDbEntity
  8
LEVEL001
  6
Continuous
 62
     7
100
AcDbLine
 10
329.00000004554
 20
1882.8692378865
 30
0.0
 11
344.00000004554
 21
1878.85
 31
0.0
  0
LINE
  5
3E9
330
B
100
AcDbEntity
  8
LEVEL001
  6
Continuous
 62
     7
100
AcDbLine
 10
344.00000004554
 20
1878.85
 30
0.0
 11
359.00000004554
 21
1882.8692378865
 31
0.0
  0
LINE
  5
3EA
330
B
100
AcDbEntity
  8
LEVEL001
  6
Continuous
 62
     7
100
AcDbLine
 10
359.00000004554
 20
1882.8692378865
 30
0.0
 11
375.07142859082
 21
1878.5629115865
 31
0.0
  0
LINE
  5
3EB
330
B
100
AcDbEntity
  8
LEVEL001
  6
Continuous
 62
     7
100
AcDbLine
 10
375.07142859082
 20
1878.5629115865
 30
0.0
 11
389.00000004554
 21
1882.8692378865
 31
0.0
  0
LINE
  5
3EC
330
B
100
AcDbEntity
  8
LEVEL001
  6
Continuous
 62
     7
100
AcDbLine
 10
288.99999999999
 20
1879.7775164321
 30
0.0
 11
299.00000004554
 21
1882.8692378865
 31
0.0
  0
LINE
  5
3ED
330
B
100
AcDbEntity
  8
LEVEL001
  6
Continuous
 62
     7
100
AcDbLine
 10
929.00000004554
 20
1882.8692378865
 30
0.0
 11
944.00000004554
 21
1878.85
 31
0.0
  0
LINE
  5
3EE
330
B
100
AcDbEntity
  8
LEVEL001
  6
Continuous
 62
     7
100
AcDbLine
 10
944.00000004554
 20
1878.85
 30
0.0
 11
959.00000004554
 21
1882.8692378865
 31
0.0
  0
LINE
  5
3EF
330
B
100
AcDbEntity
  8
LEVEL001
  6
Continuous
 62
     7
100
AcDbLine
 10
959.00000004554
 20
1882.8692378865
 30
0.0
 11
973.98336416559
 21
1878.85
 31
0.0
  0
LINE
  5
3F0
330
B
100
AcDbEntity
  8
LEVEL001
  6
Continuous
 62
     7
100
AcDbLine
 10
973.98336416559
 20
1878.85
 30
0.0
 11
989.0000000455399
 21
1882.8692378865
 31
0.0
  0
LINE
  5
3F1
330
B
100
AcDbEntity
  8
LEVEL001
  6
Continuous
 62
     7
100
AcDbLine
 10
912.9285714741099
 20
1878.5629115795
 30
0.0
 11
929.00000004554
 21
1882.8692378865
 31
0.0
  0
LINE
  5
3F2
330
B
100
AcDbEntity
  8
LEVEL001
  6
Continuous
 62
     7
100
AcDbLine
 10
899.0000000455399
 20
1882.8692378865
 30
0.0
 11
912.9285714741099
 21
1878.5629115795
 31
0.0
  0
LINE
  5
3F3
330
B
100
AcDbEntity
  8
LEVEL001
  6
Continuous
 62
     7
100
AcDbLine
 10
989.0000000455399
 20
1882.8692378865
 30
0.0
 11
998.99999999999
 21
1879.7775164494
 31
0.0
  0
LINE
  5
3F4
330
B
100
AcDbEntity
  8
LEVEL001
  6
Continuous
 62
     7
100
AcDbLine
 10
194.29999999999
 20
2051.2
 30
0.0
 11
194.29999999999
 21
1921.2
 31
0.0
  0
LINE
  5
3F5
330
B
100
AcDbEntity
  8
LEVEL001
  6
Continuous
 62
     7
100
AcDbLine
 10
178.29999999999
 20
2051.2
 30
0.0
 11
178.29999999999
 21
1921.2
 31
0.0
  0
LINE
  5
3F6
330
B
100
AcDbEntity
  8
LEVEL001
  6
Continuous
 62
     7
100
AcDbLine
 10
178.29999999999
 20
1921.2
 30
0.0
 11
210.29999999999
 21
1921.2
 31
0.0
  0
LINE
  5
3F7
330
B
100
AcDbEntity
  8
LEVEL001
  6
Continuous
 62
     7
100
AcDbLine
 10
178.29999999999
 20
2051.2
 30
0.0
 11
210.29999999999
 21
2051.2
 31
0.0
  0
LINE
  5
3F8
330
B
100
AcDbEntity
  8
LEVEL001
  6
Continuous
 62
     7
100
AcDbLine
 10
1093.7
 20
2051.2
 30
0.0
 11
1093.7
 21
1921.2
 31
0.0
  0
LINE
  5
3F9
330
B
100
AcDbEntity
  8
LEVEL001
  6
Continuous
 62
     7
100
AcDbLine
 10
1109.7
 20
2051.2
 30
0.0
 11
1109.7
 21
1921.2
 31
0.0
  0
LINE
  5
3FA
330
B
100
AcDbEntity
  8
LEVEL001
  6
Continuous
 62
     7
100
AcDbLine
 10
1093.7
 20
1171.3
 30
0.0
 11
1077.7
 21
1171.3
 31
0.0
  0
LINE
  5
3FB
330
B
100
AcDbEntity
  8
LEVEL001
  6
Continuous
 62
     7
100
AcDbLine
 10
194.29999999999
 20
1171.3
 30
0.0
 11
210.29999999999
 21
1171.3
 31
0.0
  0
LINE
  5
3FC
330
B
100
AcDbEntity
  8
LEVEL001
  6
Continuous
 62
     7
100
AcDbLine
 10
194.29999999999
 20
1041.3
 30
0.0
 11
210.29999999999
 21
1041.3
 31
0.0
  0
LINE
  5
3FD
330
B
100
AcDbEntity
  8
LEVEL001
  6
Continuous
 62
     7
100
AcDbLine
 10
210.29999999999
 20
1171.3
 30
0.0
 11
210.29999999999
 21
1041.3
 31
0.0
  0
LINE
  5
3FE
330
B
100
AcDbEntity
  8
LEVEL001
  6
DASHDOT
 62
     1
100
AcDbLine
 10
140.0
 20
1246.3
 30
0.0
 11
1148.0
 21
1246.3
 31
0.0
  0
LINE
  5
3FF
330
B
100
AcDbEntity
  8
LEVEL001
  6
Continuous
 62
     7
100
AcDbLine
 10
224.99999999999
 20
1996.2
 30
0.0
 11
1063.0
 21
1996.2
 31
0.0
  0
LINE
  5
400
330
B
100
AcDbEntity
  8
LEVEL001
  6
Continuous
 62
     7
100
AcDbLine
 10
224.99999999999
 20
1976.2
 30
0.0
 11
1063.0
 21
1976.2
 31
0.0
  0
LINE
  5
401
330
B
100
AcDbEntity
  8
LEVEL001
  6
Continuous
 62
     7
100
AcDbLine
 10
224.99999999999
 20
1996.2
 30
0.0
 11
224.99999999999
 21
1976.2
 31
0.0
  0
LINE
  5
402
330
B
100
AcDbEntity
  8
LEVEL001
  6
Continuous
 62
     7
100
AcDbLine
 10
1063.0
 20
1996.2
 30
0.0
 11
1063.0
 21
1976.2
 31
0.0
  0
INSERT
  5
403
330
B
100
AcDbEntity
  8
0
100
AcDbBlockReference
  2
EGF13M16
 10
194.29999999999
 20
1986.2
 30
0.0
 50
180.0
  0
INSERT
  5
404
330
B
100
AcDbEntity
  8
0
100
AcDbBlockReference
  2
EGF11M16
 10
178.29999999999
 20
1986.2
 30
0.0
 50
180.0
  0
LWPOLYLINE
  5
405
330
B
100
AcDbEntity
  8
LEVEL001
  6
Continuous
 62
     7
100
AcDbPolyline
 90
        6
 70
     0
 43
0.0
 10
165.29999999999
 20
1978.2
 10
151.29999999999
 20
1978.2
 10
149.29999999999
 20
1980.2
 10
149.29999999999
 20
1992.2
 10
151.29999999999
 20
1994.2
 10
165.29999999999
 20
1994.2
  0
LINE
  5
406
330
B
100
AcDbEntity
  8
LEVEL001
  6
Continuous
 62
     7
100
AcDbLine
 10
151.29999999999
 20
1978.2
 30
0.0
 11
151.29999999999
 21
1994.2
 31
0.0
  0
INSERT
  5
407
330
B
100
AcDbEntity
  8
0
100
AcDbBlockReference
  2
EGF13M16
 10
1093.7
 20
1986.2
 30
0.0
  0
INSERT
  5
408
330
B
100
AcDbEntity
  8
0
100
AcDbBlockReference
  2
EGF11M16
 10
1109.7
 20
1986.2
 30
0.0
  0
LWPOLYLINE
  5
409
330
B
100
AcDbEntity
  8
LEVEL001
  6
Continuous
 62
     7
100
AcDbPolyline
 90
        6
 70
     0
 43
0.0
 10
1122.7
 20
1994.2
 10
1136.7
 20
1994.2
 10
1138.7
 20
1992.2
 10
1138.7
 20
1980.2
 10
1136.7
 20
1978.2
 10
1122.7
 20
1978.2
  0
LINE
  5
40A
330
B
100
AcDbEntity
  8
LEVEL001
  6
Continuous
 62
     7
100
AcDbLine
 10
1136.7
 20
1994.2
 30
0.0
 11
1136.7
 21
1978.2
 31
0.0
  0
LINE
  5
40B
330
B
100
AcDbEntity
  8
LEVEL001
  6
Continuous
 62
     7
100
AcDbLine
 10
1063.0
 20
1994.2
 30
0.0
 11
1083.7
 21
1994.2
 31
0.0
  0
LINE
  5
40C
330
B
100
AcDbEntity
  8
LEVEL001
  6
Continuous
 62
     7
100
AcDbLine
 10
1063.0
 20
1978.2
 30
0.0
 11
1083.7
 21
1978.2
 31
0.0
  0
LINE
  5
40D
330
B
100
AcDbEntity
  8
LEVEL001
  6
Continuous
 62
     7
100
AcDbLine
 10
204.29999999999
 20
1994.2
 30
0.0
 11
224.99999999999
 21
1994.2
 31
0.0
  0
LINE
  5
40E
330
B
100
AcDbEntity
  8
LEVEL001
  6
Continuous
 62
     7
100
AcDbLine
 10
204.29999999999
 20
1978.2
 30
0.0
 11
224.99999999999
 21
1978.2
 31
0.0
  0
LINE
  5
40F
330
B
100
AcDbEntity
  8
LEVEL001
  6
DASHDOT
 62
     1
100
AcDbLine
 10
140.0
 20
1986.2
 30
0.0
 11
1148.0
 21
1986.2
 31
0.0
  0
LINE
  5
410
330
B
100
AcDbEntity
  8
LEVEL001
  6
Continuous
 62
     7
100
AcDbLine
 10
1165.7
 20
2051.2
 30
0.0
 11
1165.7
 21
1921.2
 31
0.0
  0
LINE
  5
411
330
B
100
AcDbEntity
  8
LEVEL001
  6
Continuous
 62
     7
100
AcDbLine
 10
1165.7
 20
1921.2
 30
0.0
 11
1077.7
 21
1921.2
 31
0.0
  0
LINE
  5
412
330
B
100
AcDbEntity
  8
LEVEL001
  6
Continuous
 62
     7
100
AcDbLine
 10
1165.7
 20
2051.2
 30
0.0
 11
1077.7
 21
2051.2
 31
0.0
  0
LINE
  5
413
330
B
100
AcDbEntity
  8
LEVEL001
  6
Continuous
 62
     7
100
AcDbLine
 10
1077.7
 20
2051.2
 30
0.0
 11
1077.7
 21
1994.2
 31
0.0
  0
LINE
  5
414
330
B
100
AcDbEntity
  8
LEVEL001
  6
Continuous
 62
     7
100
AcDbLine
 10
1077.7
 20
1978.2
 30
0.0
 11
1077.7
 21
1921.2
 31
0.0
  0
LINE
  5
415
330
B
100
AcDbEntity
  8
LEVEL001
  6
Continuous
 62
     7
100
AcDbLine
 10
1058.7
 20
2036.2
 30
0.0
 11
1058.7
 21
1996.2
 31
0.0
  0
LINE
  5
416
330
B
100
AcDbEntity
  8
LEVEL001
  6
Continuous
 62
     7
100
AcDbLine
 10
1058.7
 20
1976.2
 30
0.0
 11
1058.7
 21
1936.2
 31
0.0
  0
LINE
  5
417
330
B
100
AcDbEntity
  8
LEVEL001
  6
Continuous
 62
     7
100
AcDbLine
 10
1017.0
 20
1514.0
 30
0.0
 11
1017.0
 21
1961.4692307692
 31
0.0
  0
LINE
  5
418
330
B
100
AcDbEntity
  8
LEVEL001
  6
Continuous
 62
     7
100
AcDbLine
 10
998.99999999999
 20
2092.6224835506
 30
0.0
 11
998.99999999999
 21
1996.2
 31
0.0
  0
LINE
  5
419
330
B
100
AcDbEntity
  8
LEVEL001
  6
Continuous
 62
     7
100
AcDbLine
 10
998.99999999999
 20
1976.2
 30
0.0
 11
998.99999999999
 21
1879.7775164494
 31
0.0
  0
LINE
  5
41A
330
B
100
AcDbEntity
  8
LEVEL001
  6
Continuous
 62
     7
100
AcDbLine
 10
171.99999999999
 20
1753.0
 30
0.0
 11
171.99999999999
 21
1972.3435935395
 31
0.0
  0
LINE
  5
41B
330
B
100
AcDbEntity
  8
LEVEL001
  6
Continuous
 62
     7
100
AcDbLine
 10
171.99999999999
 20
2000.0564064605
 30
0.0
 11
171.99999999999
 21
2075.0
 31
0.0
  0
LINE
  5
41C
330
B
100
AcDbEntity
  8
LEVEL001
  6
Continuous
 62
     7
100
AcDbLine
 10
210.29999999999
 20
2051.2
 30
0.0
 11
210.29999999999
 21
1994.2
 31
0.0
  0
LINE
  5
41D
330
B
100
AcDbEntity
  8
LEVEL001
  6
Continuous
 62
     7
100
AcDbLine
 10
210.29999999999
 20
1978.2
 30
0.0
 11
210.29999999999
 21
1921.2
 31
0.0
  0
LINE
  5
41E
330
B
100
AcDbEntity
  8
LEVEL001
  6
Continuous
 62
     7
100
AcDbLine
 10
229.29999999999
 20
2036.2
 30
0.0
 11
229.29999999999
 21
1996.2
 31
0.0
  0
LINE
  5
41F
330
B
100
AcDbEntity
  8
LEVEL001
  6
Continuous
 62
     7
100
AcDbLine
 10
229.29999999999
 20
1976.2
 30
0.0
 11
229.29999999999
 21
1936.2
 31
0.0
  0
LINE
  5
420
330
B
100
AcDbEntity
  8
LEVEL001
  6
Continuous
 62
     7
100
AcDbLine
 10
254.99999999999
 20
1514.0
 30
0.0
 11
254.99999999999
 21
1963.7
 31
0.0
  0
LINE
  5
421
330
B
100
AcDbEntity
  8
LEVEL001
  6
Continuous
 62
     7
100
AcDbLine
 10
270.99999999999
 20
1963.7
 30
0.0
 11
270.99999999999
 21
1514.0
 31
0.0
  0
LINE
  5
422
330
B
100
AcDbEntity
  8
LEVEL001
  6
Continuous
 62
     7
100
AcDbLine
 10
288.99999999999
 20
2092.6224835679
 30
0.0
 11
288.99999999999
 21
1996.2
 31
0.0
  0
LINE
  5
423
330
B
100
AcDbEntity
  8
LEVEL001
  6
Continuous
 62
     7
100
AcDbLine
 10
288.99999999999
 20
1976.2
 30
0.0
 11
288.99999999999
 21
1879.7775164321
 31
0.0
  0
LINE
  5
424
330
B
100
AcDbEntity
  8
LEVEL001
  6
Continuous
 62
     7
100
AcDbLine
 10
998.99999999999
 20
890.4999999999999
 30
0.0
 11
1017.0
 21
890.4999999999999
 31
0.0
  0
LINE
  5
425
330
B
100
AcDbEntity
  8
LEVEL001
  6
Continuous
 62
     7
100
AcDbLine
 10
1009.0
 20
845.5
 30
0.0
 11
1017.0
 21
845.5
 31
0.0
  0
LINE
  5
426
330
B
100
AcDbEntity
  8
LEVEL001
  6
Continuous
 62
     7
100
AcDbLine
 10
1009.0
 20
755.4999999999999
 30
0.0
 11
1017.0
 21
755.4999999999999
 31
0.0
  0
LINE
  5
427
330
B
100
AcDbEntity
  8
LEVEL001
  6
Continuous
 62
     7
100
AcDbLine
 10
1009.0
 20
710.5
 30
0.0
 11
1017.0
 21
710.5
 31
0.0
  0
LINE
  5
428
330
B
100
AcDbEntity
  8
LEVEL001
  6
Continuous
 62
     7
100
AcDbLine
 10
270.99999999999
 20
890.4999999999999
 30
0.0
 11
288.99999999999
 21
890.4999999999999
 31
0.0
  0
LINE
  5
429
330
B
100
AcDbEntity
  8
LEVEL001
  6
Continuous
 62
     7
100
AcDbLine
 10
270.99999999999
 20
845.5
 30
0.0
 11
278.99999999999
 21
845.5
 31
0.0
  0
LINE
  5
42A
330
B
100
AcDbEntity
  8
LEVEL001
  6
Continuous
 62
     7
100
AcDbLine
 10
270.99999999999
 20
755.4999999999999
 30
0.0
 11
278.99999999999
 21
755.4999999999999
 31
0.0
  0
LINE
  5
42B
330
B
100
AcDbEntity
  8
LEVEL001
  6
Continuous
 62
     7
100
AcDbLine
 10
270.99999999999
 20
710.5
 30
0.0
 11
278.99999999999
 21
710.5
 31
0.0
  0
LINE
  5
42C
330
B
100
AcDbEntity
  8
LEVEL001
  6
Continuous
 62
     7
100
AcDbLine
 10
389.00000004554
 20
1756.3307621135
 30
0.0
 11
404.00000004554
 21
1760.35
 31
0.0
  0
LINE
  5
42D
330
B
100
AcDbEntity
  8
LEVEL001
  6
Continuous
 62
     7
100
AcDbLine
 10
404.00000004554
 20
1760.35
 30
0.0
 11
419.0000000455399
 21
1756.3307621135
 31
0.0
  0
LINE
  5
42E
330
B
100
AcDbEntity
  8
LEVEL001
  6
Continuous
 62
     7
100
AcDbLine
 10
419.0000000455399
 20
1756.3307621135
 30
0.0
 11
434.00000004554
 21
1760.35
 31
0.0
  0
LINE
  5
42F
330
B
100
AcDbEntity
  8
LEVEL001
  6
Continuous
 62
     7
100
AcDbLine
 10
434.00000004554
 20
1760.35
 30
0.0
 11
449.00000004554
 21
1756.3307621135
 31
0.0
  0
LINE
  5
430
330
B
100
AcDbEntity
  8
LEVEL001
  6
Continuous
 62
     7
100
AcDbLine
 10
449.00000004554
 20
1756.3307621135
 30
0.0
 11
464.0000000455399
 21
1760.35
 31
0.0
  0
LINE
  5
431
330
B
100
AcDbEntity
  8
LEVEL001
  6
Continuous
 62
     7
100
AcDbLine
 10
464.0000000455399
 20
1760.35
 30
0.0
 11
479.00000004554
 21
1756.3307621135
 31
0.0
  0
LINE
  5
432
330
B
100
AcDbEntity
  8
LEVEL001
  6
Continuous
 62
     7
100
AcDbLine
 10
479.00000004554
 20
1756.3307621135
 30
0.0
 11
494.0000000455399
 21
1760.35
 31
0.0
  0
LINE
  5
433
330
B
100
AcDbEntity
  8
LEVEL001
  6
Continuous
 62
     7
100
AcDbLine
 10
494.0000000455399
 20
1760.35
 30
0.0
 11
509.00000004554
 21
1756.3307621135
 31
0.0
  0
LINE
  5
434
330
B
100
AcDbEntity
  8
LEVEL001
  6
Continuous
 62
     7
100
AcDbLine
 10
509.00000004554
 20
1756.3307621135
 30
0.0
 11
524.00000004554
 21
1760.35
 31
0.0
  0
LINE
  5
435
330
B
100
AcDbEntity
  8
LEVEL001
  6
Continuous
 62
     7
100
AcDbLine
 10
524.00000004554
 20
1760.35
 30
0.0
 11
539.0000000455399
 21
1756.3307621135
 31
0.0
  0
LINE
  5
436
330
B
100
AcDbEntity
  8
LEVEL001
  6
Continuous
 62
     7
100
AcDbLine
 10
539.0000000455399
 20
1756.3307621135
 30
0.0
 11
554.00000004554
 21
1760.35
 31
0.0
  0
LINE
  5
437
330
B
100
AcDbEntity
  8
LEVEL001
  6
Continuous
 62
     7
100
AcDbLine
 10
554.00000004554
 20
1760.35
 30
0.0
 11
569.0000000455399
 21
1756.3307621135
 31
0.0
  0
LINE
  5
438
330
B
100
AcDbEntity
  8
LEVEL001
  6
Continuous
 62
     7
100
AcDbLine
 10
569.0000000455399
 20
1756.3307621135
 30
0.0
 11
584.00000004554
 21
1760.35
 31
0.0
  0
LINE
  5
439
330
B
100
AcDbEntity
  8
LEVEL001
  6
Continuous
 62
     7
100
AcDbLine
 10
584.00000004554
 20
1760.35
 30
0.0
 11
599.00000004554
 21
1756.3307621135
 31
0.0
  0
LINE
  5
43A
330
B
100
AcDbEntity
  8
LEVEL001
  6
Continuous
 62
     7
100
AcDbLine
 10
599.00000004554
 20
1756.3307621135
 30
0.0
 11
614.0000000455399
 21
1760.35
 31
0.0
  0
LINE
  5
43B
330
B
100
AcDbEntity
  8
LEVEL001
  6
Continuous
 62
     7
100
AcDbLine
 10
614.0000000455399
 20
1760.35
 30
0.0
 11
629.00000004554
 21
1756.3307621135
 31
0.0
  0
LINE
  5
43C
330
B
100
AcDbEntity
  8
LEVEL001
  6
Continuous
 62
     7
100
AcDbLine
 10
629.00000004554
 20
1756.3307621135
 30
0.0
 11
644.0000000455399
 21
1760.35
 31
0.0
  0
LINE
  5
43D
330
B
100
AcDbEntity
  8
LEVEL001
  6
Continuous
 62
     7
100
AcDbLine
 10
644.0000000455399
 20
1760.35
 30
0.0
 11
659.00000004554
 21
1756.3307621135
 31
0.0
  0
LINE
  5
43E
330
B
100
AcDbEntity
  8
LEVEL001
  6
Continuous
 62
     7
100
AcDbLine
 10
659.00000004554
 20
1756.3307621135
 30
0.0
 11
674.00000004554
 21
1760.35
 31
0.0
  0
LINE
  5
43F
330
B
100
AcDbEntity
  8
LEVEL001
  6
Continuous
 62
     7
100
AcDbLine
 10
674.00000004554
 20
1760.35
 30
0.0
 11
689.0000000455399
 21
1756.3307621135
 31
0.0
  0
LINE
  5
440
330
B
100
AcDbEntity
  8
LEVEL001
  6
Continuous
 62
     7
100
AcDbLine
 10
689.0000000455399
 20
1756.3307621135
 30
0.0
 11
704.00000004554
 21
1760.35
 31
0.0
  0
LINE
  5
441
330
B
100
AcDbEntity
  8
LEVEL001
  6
Continuous
 62
     7
100
AcDbLine
 10
704.00000004554
 20
1760.35
 30
0.0
 11
719.0000000455399
 21
1756.3307621135
 31
0.0
  0
LINE
  5
442
330
B
100
AcDbEntity
  8
LEVEL001
  6
Continuous
 62
     7
100
AcDbLine
 10
719.0000000455399
 20
1756.3307621135
 30
0.0
 11
734.00000004554
 21
1760.35
 31
0.0
  0
LINE
  5
443
330
B
100
AcDbEntity
  8
LEVEL001
  6
Continuous
 62
     7
100
AcDbLine
 10
734.00000004554
 20
1760.35
 30
0.0
 11
749.00000004554
 21
1756.3307621135
 31
0.0
  0
LINE
  5
444
330
B
100
AcDbEntity
  8
LEVEL001
  6
Continuous
 62
     7
100
AcDbLine
 10
749.00000004554
 20
1756.3307621135
 30
0.0
 11
764.0000000455399
 21
1760.35
 31
0.0
  0
LINE
  5
445
330
B
100
AcDbEntity
  8
LEVEL001
  6
Continuous
 62
     7
100
AcDbLine
 10
764.0000000455399
 20
1760.35
 30
0.0
 11
779.00000004554
 21
1756.3307621135
 31
0.0
  0
LINE
  5
446
330
B
100
AcDbEntity
  8
LEVEL001
  6
Continuous
 62
     7
100
AcDbLine
 10
779.00000004554
 20
1756.3307621135
 30
0.0
 11
794.0000000455399
 21
1760.35
 31
0.0
  0
LINE
  5
447
330
B
100
AcDbEntity
  8
LEVEL001
  6
Continuous
 62
     7
100
AcDbLine
 10
794.0000000455399
 20
1760.35
 30
0.0
 11
809.00000004554
 21
1756.3307621135
 31
0.0
  0
LINE
  5
448
330
B
100
AcDbEntity
  8
LEVEL001
  6
Continuous
 62
     7
100
AcDbLine
 10
809.00000004554
 20
1756.3307621135
 30
0.0
 11
824.0000000455399
 21
1760.35
 31
0.0
  0
LINE
  5
449
330
B
100
AcDbEntity
  8
LEVEL001
  6
Continuous
 62
     7
100
AcDbLine
 10
824.0000000455399
 20
1760.35
 30
0.0
 11
839.0000000455399
 21
1756.3307621135
 31
0.0
  0
LINE
  5
44A
330
B
100
AcDbEntity
  8
LEVEL001
  6
Continuous
 62
     7
100
AcDbLine
 10
839.0000000455399
 20
1756.3307621135
 30
0.0
 11
854.00000004554
 21
1760.35
 31
0.0
  0
LINE
  5
44B
330
B
100
AcDbEntity
  8
LEVEL001
  6
Continuous
 62
     7
100
AcDbLine
 10
854.00000004554
 20
1760.35
 30
0.0
 11
869.00000004554
 21
1756.3307621135
 31
0.0
  0
LINE
  5
44C
330
B
100
AcDbEntity
  8
LEVEL001
  6
Continuous
 62
     7
100
AcDbLine
 10
869.00000004554
 20
1756.3307621135
 30
0.0
 11
883.98336416559
 21
1760.35
 31
0.0
  0
LINE
  5
44D
330
B
100
AcDbEntity
  8
LEVEL001
  6
Continuous
 62
     7
100
AcDbLine
 10
883.98336416559
 20
1760.35
 30
0.0
 11
899.0000000455399
 21
1756.3307621135
 31
0.0
  0
LINE
  5
44E
330
B
100
AcDbEntity
  8
LEVEL001
  6
Continuous
 62
     7
100
AcDbLine
 10
299.00000004554
 20
1756.3307621135
 30
0.0
 11
314.00000004554
 21
1760.35
 31
0.0
  0
LINE
  5
44F
330
B
100
AcDbEntity
  8
LEVEL001
  6
Continuous
 62
     7
100
AcDbLine
 10
314.00000004554
 20
1760.35
 30
0.0
 11
329.00000004554
 21
1756.3307621135
 31
0.0
  0
LINE
  5
450
330
B
100
AcDbEntity
  8
LEVEL001
  6
Continuous
 62
     7
100
AcDbLine
 10
329.00000004554
 20
1756.3307621135
 30
0.0
 11
344.00000004554
 21
1760.35
 31
0.0
  0
LINE
  5
451
330
B
100
AcDbEntity
  8
LEVEL001
  6
Continuous
 62
     7
100
AcDbLine
 10
344.00000004554
 20
1760.35
 30
0.0
 11
359.00000004554
 21
1756.3307621135
 31
0.0
  0
LINE
  5
452
330
B
100
AcDbEntity
  8
LEVEL001
  6
Continuous
 62
     7
100
AcDbLine
 10
359.00000004554
 20
1756.3307621135
 30
0.0
 11
375.07142859082
 21
1760.6370884135
 31
0.0
  0
LINE
  5
453
330
B
100
AcDbEntity
  8
LEVEL001
  6
Continuous
 62
     7
100
AcDbLine
 10
375.07142859082
 20
1760.6370884135
 30
0.0
 11
389.00000004554
 21
1756.3307621135
 31
0.0
  0
LINE
  5
454
330
B
100
AcDbEntity
  8
LEVEL001
  6
Continuous
 62
     7
100
AcDbLine
 10
288.99999999999
 20
1759.4224835679
 30
0.0
 11
299.00000004554
 21
1756.3307621135
 31
0.0
  0
LINE
  5
455
330
B
100
AcDbEntity
  8
LEVEL001
  6
Continuous
 62
     7
100
AcDbLine
 10
929.00000004554
 20
1756.3307621135
 30
0.0
 11
944.00000004554
 21
1760.35
 31
0.0
  0
LINE
  5
456
330
B
100
AcDbEntity
  8
LEVEL001
  6
Continuous
 62
     7
100
AcDbLine
 10
944.00000004554
 20
1760.35
 30
0.0
 11
959.00000004554
 21
1756.3307621135
 31
0.0
  0
LINE
  5
457
330
B
100
AcDbEntity
  8
LEVEL001
  6
Continuous
 62
     7
100
AcDbLine
 10
959.00000004554
 20
1756.3307621135
 30
0.0
 11
973.98336416559
 21
1760.35
 31
0.0
  0
LINE
  5
458
330
B
100
AcDbEntity
  8
LEVEL001
  6
Continuous
 62
     7
100
AcDbLine
 10
973.98336416559
 20
1760.35
 30
0.0
 11
989.0000000455399
 21
1756.3307621135
 31
0.0
  0
LINE
  5
459
330
B
100
AcDbEntity
  8
LEVEL001
  6
Continuous
 62
     7
100
AcDbLine
 10
912.9285714741099
 20
1760.6370884205
 30
0.0
 11
929.00000004554
 21
1756.3307621135
 31
0.0
  0
LINE
  5
45A
330
B
100
AcDbEntity
  8
LEVEL001
  6
Continuous
 62
     7
100
AcDbLine
 10
899.0000000455399
 20
1756.3307621135
 30
0.0
 11
912.9285714741099
 21
1760.6370884205
 31
0.0
  0
LINE
  5
45B
330
B
100
AcDbEntity
  8
LEVEL001
  6
Continuous
 62
     7
100
AcDbLine
 10
989.0000000455399
 20
1756.3307621135
 30
0.0
 11
998.99999999999
 21
1759.4224835506
 31
0.0
  0
LINE
  5
45C
330
B
100
AcDbEntity
  8
LEVEL001
  6
Continuous
 62
     7
100
AcDbLine
 10
998.99999999999
 20
1759.4224835506
 30
0.0
 11
998.99999999999
 21
1594.0
 31
0.0
  0
LINE
  5
45D
330
B
100
AcDbEntity
  8
LEVEL001
  6
Continuous
 62
     7
100
AcDbLine
 10
989.0000000455399
 20
1713.0
 30
0.0
 11
989.0000000455399
 21
1594.0
 31
0.0
  0
LINE
  5
45E
330
B
100
AcDbEntity
  8
LEVEL001
  6
Continuous
 62
     7
100
AcDbLine
 10
958.98336416558
 20
1713.0
 30
0.0
 11
958.98336416558
 21
1594.0
 31
0.0
  0
LINE
  5
45F
330
B
100
AcDbEntity
  8
LEVEL001
  6
Continuous
 62
     7
100
AcDbLine
 10
929.00000004554
 20
1713.0
 30
0.0
 11
929.00000004554
 21
1594.0
 31
0.0
  0
LINE
  5
460
330
B
100
AcDbEntity
  8
LEVEL001
  6
Continuous
 62
     7
100
AcDbLine
 10
899.0000000455399
 20
1713.0
 30
0.0
 11
899.0000000455399
 21
1594.0
 31
0.0
  0
LINE
  5
461
330
B
100
AcDbEntity
  8
LEVEL001
  6
Continuous
 62
     7
100
AcDbLine
 10
868.98336416558
 20
1713.0
 30
0.0
 11
868.98336416558
 21
1594.0
 31
0.0
  0
LINE
  5
462
330
B
100
AcDbEntity
  8
LEVEL001
  6
Continuous
 62
     7
100
AcDbLine
 10
839.0000000455399
 20
1713.0
 30
0.0
 11
839.0000000455399
 21
1594.0
 31
0.0
  0
LINE
  5
463
330
B
100
AcDbEntity
  8
LEVEL001
  6
Continuous
 62
     7
100
AcDbLine
 10
809.00000004554
 20
1713.0
 30
0.0
 11
809.00000004554
 21
1594.0
 31
0.0
  0
LINE
  5
464
330
B
100
AcDbEntity
  8
LEVEL001
  6
Continuous
 62
     7
100
AcDbLine
 10
779.00000004554
 20
1713.0
 30
0.0
 11
779.00000004554
 21
1594.0
 31
0.0
  0
LINE
  5
465
330
B
100
AcDbEntity
  8
LEVEL001
  6
Continuous
 62
     7
100
AcDbLine
 10
749.00000004554
 20
1713.0
 30
0.0
 11
749.00000004554
 21
1594.0
 31
0.0
  0
LINE
  5
466
330
B
100
AcDbEntity
  8
LEVEL001
  6
Continuous
 62
     7
100
AcDbLine
 10
719.0000000455399
 20
1713.0
 30
0.0
 11
719.0000000455399
 21
1594.0
 31
0.0
  0
LINE
  5
467
330
B
100
AcDbEntity
  8
LEVEL001
  6
Continuous
 62
     7
100
AcDbLine
 10
689.0000000455399
 20
1713.0
 30
0.0
 11
689.0000000455399
 21
1594.0
 31
0.0
  0
LINE
  5
468
330
B
100
AcDbEntity
  8
LEVEL001
  6
Continuous
 62
     7
100
AcDbLine
 10
659.00000004554
 20
1713.0
 30
0.0
 11
659.00000004554
 21
1594.0
 31
0.0
  0
LINE
  5
469
330
B
100
AcDbEntity
  8
LEVEL001
  6
Continuous
 62
     7
100
AcDbLine
 10
629.00000004554
 20
1713.0
 30
0.0
 11
629.00000004554
 21
1594.0
 31
0.0
  0
LINE
  5
46A
330
B
100
AcDbEntity
  8
LEVEL001
  6
Continuous
 62
     7
100
AcDbLine
 10
599.00000004554
 20
1713.0
 30
0.0
 11
599.00000004554
 21
1594.0
 31
0.0
  0
LINE
  5
46B
330
B
100
AcDbEntity
  8
LEVEL001
  6
Continuous
 62
     7
100
AcDbLine
 10
569.0000000455399
 20
1713.0
 30
0.0
 11
569.0000000455399
 21
1594.0
 31
0.0
  0
LINE
  5
46C
330
B
100
AcDbEntity
  8
LEVEL001
  6
Continuous
 62
     7
100
AcDbLine
 10
539.0000000455399
 20
1713.0
 30
0.0
 11
539.0000000455399
 21
1594.0
 31
0.0
  0
LINE
  5
46D
330
B
100
AcDbEntity
  8
LEVEL001
  6
Continuous
 62
     7
100
AcDbLine
 10
509.00000004554
 20
1713.0
 30
0.0
 11
509.00000004554
 21
1594.0
 31
0.0
  0
LINE
  5
46E
330
B
100
AcDbEntity
  8
LEVEL001
  6
Continuous
 62
     7
100
AcDbLine
 10
479.00000004554
 20
1713.0
 30
0.0
 11
479.00000004554
 21
1594.0
 31
0.0
  0
LINE
  5
46F
330
B
100
AcDbEntity
  8
LEVEL001
  6
Continuous
 62
     7
100
AcDbLine
 10
449.00000004554
 20
1713.0
 30
0.0
 11
449.00000004554
 21
1594.0
 31
0.0
  0
LINE
  5
470
330
B
100
AcDbEntity
  8
LEVEL001
  6
Continuous
 62
     7
100
AcDbLine
 10
419.0000000455399
 20
1713.0
 30
0.0
 11
419.0000000455399
 21
1594.0
 31
0.0
  0
LINE
  5
471
330
B
100
AcDbEntity
  8
LEVEL001
  6
Continuous
 62
     7
100
AcDbLine
 10
389.00000004554
 20
1713.0
 30
0.0
 11
389.00000004554
 21
1594.0
 31
0.0
  0
LINE
  5
472
330
B
100
AcDbEntity
  8
LEVEL001
  6
Continuous
 62
     7
100
AcDbLine
 10
359.00000004554
 20
1713.0
 30
0.0
 11
359.00000004554
 21
1594.0
 31
0.0
  0
LINE
  5
473
330
B
100
AcDbEntity
  8
LEVEL001
  6
Continuous
 62
     7
100
AcDbLine
 10
329.00000004554
 20
1713.0
 30
0.0
 11
329.00000004554
 21
1594.0
 31
0.0
  0
LINE
  5
474
330
B
100
AcDbEntity
  8
LEVEL001
  6
Continuous
 62
     7
100
AcDbLine
 10
299.00000004554
 20
1713.0
 30
0.0
 11
299.00000004554
 21
1594.0
 31
0.0
  0
LINE
  5
475
330
B
100
AcDbEntity
  8
LEVEL001
  6
Continuous
 62
     7
100
AcDbLine
 10
288.99999999999
 20
1759.4224835679
 30
0.0
 11
288.99999999999
 21
1594.0
 31
0.0
  0
LINE
  5
476
330
B
100
AcDbEntity
  8
LEVEL001
  6
Continuous
 62
     7
100
AcDbLine
 10
270.99999999999
 20
1630.5
 30
0.0
 11
288.99999999999
 21
1630.5
 31
0.0
  0
LINE
  5
477
330
B
100
AcDbEntity
  8
LEVEL001
  6
Continuous
 62
     7
100
AcDbLine
 10
270.99999999999
 20
1675.5
 30
0.0
 11
288.99999999999
 21
1675.5
 31
0.0
  0
LINE
  5
478
330
B
100
AcDbEntity
  8
LEVEL001
  6
DASHDOT
 62
     1
100
AcDbLine
 10
1053.0
 20
1653.0
 30
0.0
 11
230.0
 21
1653.0
 31
0.0
  0
LINE
  5
479
330
B
100
AcDbEntity
  8
LEVEL001
  6
Continuous
 62
     7
100
AcDbLine
 10
1017.0
 20
1675.5
 30
0.0
 11
998.99999999999
 21
1675.5
 31
0.0
  0
LINE
  5
47A
330
B
100
AcDbEntity
  8
LEVEL001
  6
Continuous
 62
     7
100
AcDbLine
 10
1017.0
 20
1630.5
 30
0.0
 11
998.99999999999
 21
1630.5
 31
0.0
  0
LINE
  5
47B
330
B
100
AcDbEntity
  8
LEVEL001
  6
DASHDOT
 62
     1
100
AcDbLine
 10
1046.0
 20
1819.6
 30
0.0
 11
245.0
 21
1819.6
 31
0.0
  0
LINE
  5
47C
330
B
100
AcDbEntity
  8
LEVEL001
  6
Continuous
 62
     7
100
AcDbLine
 10
1009.0
 20
1842.1
 30
0.0
 11
1017.0
 21
1842.1
 31
0.0
  0
LINE
  5
47D
330
B
100
AcDbEntity
  8
LEVEL001
  6
Continuous
 62
     7
100
AcDbLine
 10
1009.0
 20
1797.1
 30
0.0
 11
1017.0
 21
1797.1
 31
0.0
  0
LINE
  5
47E
330
B
100
AcDbEntity
  8
LEVEL001
  6
Continuous
 62
     7
100
AcDbLine
 10
270.99999999999
 20
1842.1
 30
0.0
 11
278.99999999999
 21
1842.1
 31
0.0
  0
LINE
  5
47F
330
B
100
AcDbEntity
  8
LEVEL001
  6
Continuous
 62
     7
100
AcDbLine
 10
270.99999999999
 20
1797.1
 30
0.0
 11
278.99999999999
 21
1797.1
 31
0.0
  0
LWPOLYLINE
  5
480
330
B
100
AcDbEntity
  8
LEVEL001
  6
Continuous
 62
     7
100
AcDbPolyline
 90
        4
 70
     0
 43
0.0
 10
998.99999999999
 20
1819.6
 10
998.99999999999
 20
1926.8160687473
 10
999.99999999999
 20
1926.8160687473
 10
999.99999999999
 20
1963.7
  0
LINE
  5
481
330
B
100
AcDbEntity
  8
LEVEL001
  6
Continuous
 62
     7
100
AcDbLine
 10
1009.0
 20
1963.7
 30
0.0
 11
1009.0
 21
1819.6
 31
0.0
  0
LWPOLYLINE
  5
482
330
B
100
AcDbEntity
  8
LEVEL001
  6
Continuous
 62
     7
100
AcDbPolyline
 90
        4
 70
     0
 43
0.0
 10
998.99999999999
 20
1819.6
 10
998.99999999999
 20
1712.3839312527
 10
999.99999999999
 20
1712.3839312527
 10
999.99999999999
 20
1675.5
  0
LINE
  5
483
330
B
100
AcDbEntity
  8
LEVEL001
  6
Continuous
 62
     7
100
AcDbLine
 10
1009.0
 20
1675.5
 30
0.0
 11
1009.0
 21
1819.6
 31
0.0
  0
LINE
  5
484
330
B
100
AcDbEntity
  8
LEVEL001
  6
Continuous
 62
     7
100
AcDbLine
 10
278.99999999999
 20
1675.5
 30
0.0
 11
278.99999999999
 21
1819.6
 31
0.0
  0
LWPOLYLINE
  5
485
330
B
100
AcDbEntity
  8
LEVEL001
  6
Continuous
 62
     7
100
AcDbPolyline
 90
        4
 70
     0
 43
0.0
 10
288.99999999999
 20
1819.6
 10
288.99999999999
 20
1712.3839312527
 10
287.99999999999
 20
1712.3839312527
 10
287.99999999999
 20
1675.5
  0
LWPOLYLINE
  5
486
330
B
100
AcDbEntity
  8
LEVEL001
  6
Continuous
 62
     7
100
AcDbPolyline
 90
        4
 70
     0
 43
0.0
 10
288.99999999999
 20
1819.6
 10
288.99999999999
 20
1926.8160687473
 10
287.99999999999
 20
1926.8160687473
 10
287.99999999999
 20
1963.7
  0
LINE
  5
487
330
B
100
AcDbEntity
  8
LEVEL001
  6
Continuous
 62
     7
100
AcDbLine
 10
278.99999999999
 20
1963.7
 30
0.0
 11
278.99999999999
 21
1819.6
 31
0.0
  0
LINE
  5
488
330
B
100
AcDbEntity
  8
LEVEL001
  6
Continuous
 62
     7
100
AcDbLine
 10
989.0000000455399
 20
1878.85
 30
0.0
 11
989.0000000455399
 21
1760.35
 31
0.0
  0
LINE
  5
489
330
B
100
AcDbEntity
  8
LEVEL001
  6
Continuous
 62
     7
100
AcDbLine
 10
958.98336416558
 20
1878.85
 30
0.0
 11
958.98336416558
 21
1760.35
 31
0.0
  0
LINE
  5
48A
330
B
100
AcDbEntity
  8
LEVEL001
  6
Continuous
 62
     7
100
AcDbLine
 10
929.00000004554
 20
1878.5629115795
 30
0.0
 11
929.00000004554
 21
1760.6370884205
 31
0.0
  0
LINE
  5
48B
330
B
100
AcDbEntity
  8
LEVEL001
  6
Continuous
 62
     7
100
AcDbLine
 10
899.0000000455399
 20
1878.5629115795
 30
0.0
 11
899.0000000455399
 21
1760.6370884205
 31
0.0
  0
LINE
  5
48C
330
B
100
AcDbEntity
  8
LEVEL001
  6
Continuous
 62
     7
100
AcDbLine
 10
868.98336416558
 20
1878.85
 30
0.0
 11
868.98336416558
 21
1760.35
 31
0.0
  0
LINE
  5
48D
330
B
100
AcDbEntity
  8
LEVEL001
  6
Continuous
 62
     7
100
AcDbLine
 10
839.0000000455399
 20
1878.85
 30
0.0
 11
839.0000000455399
 21
1760.35
 31
0.0
  0
LINE
  5
48E
330
B
100
AcDbEntity
  8
LEVEL001
  6
Continuous
 62
     7
100
AcDbLine
 10
809.00000004554
 20
1878.85
 30
0.0
 11
809.00000004554
 21
1760.35
 31
0.0
  0
LINE
  5
48F
330
B
100
AcDbEntity
  8
LEVEL001
  6
Continuous
 62
     7
100
AcDbLine
 10
779.00000004554
 20
1878.85
 30
0.0
 11
779.00000004554
 21
1760.35
 31
0.0
  0
LINE
  5
490
330
B
100
AcDbEntity
  8
LEVEL001
  6
Continuous
 62
     7
100
AcDbLine
 10
749.00000004554
 20
1878.85
 30
0.0
 11
749.00000004554
 21
1760.35
 31
0.0
  0
LINE
  5
491
330
B
100
AcDbEntity
  8
LEVEL001
  6
Continuous
 62
     7
100
AcDbLine
 10
719.0000000455399
 20
1878.85
 30
0.0
 11
719.0000000455399
 21
1760.35
 31
0.0
  0
LINE
  5
492
330
B
100
AcDbEntity
  8
LEVEL001
  6
Continuous
 62
     7
100
AcDbLine
 10
689.0000000455399
 20
1878.85
 30
0.0
 11
689.0000000455399
 21
1760.35
 31
0.0
  0
LINE
  5
493
330
B
100
AcDbEntity
  8
LEVEL001
  6
Continuous
 62
     7
100
AcDbLine
 10
659.00000004554
 20
1878.85
 30
0.0
 11
659.00000004554
 21
1760.35
 31
0.0
  0
LINE
  5
494
330
B
100
AcDbEntity
  8
LEVEL001
  6
Continuous
 62
     7
100
AcDbLine
 10
629.00000004554
 20
1878.85
 30
0.0
 11
629.00000004554
 21
1760.35
 31
0.0
  0
LINE
  5
495
330
B
100
AcDbEntity
  8
LEVEL001
  6
Continuous
 62
     7
100
AcDbLine
 10
599.00000004554
 20
1878.85
 30
0.0
 11
599.00000004554
 21
1760.35
 31
0.0
  0
LINE
  5
496
330
B
100
AcDbEntity
  8
LEVEL001
  6
Continuous
 62
     7
100
AcDbLine
 10
569.0000000455399
 20
1878.85
 30
0.0
 11
569.0000000455399
 21
1760.35
 31
0.0
  0
LINE
  5
497
330
B
100
AcDbEntity
  8
LEVEL001
  6
Continuous
 62
     7
100
AcDbLine
 10
539.0000000455399
 20
1878.85
 30
0.0
 11
539.0000000455399
 21
1760.35
 31
0.0
  0
LINE
  5
498
330
B
100
AcDbEntity
  8
LEVEL001
  6
Continuous
 62
     7
100
AcDbLine
 10
509.00000004554
 20
1878.85
 30
0.0
 11
509.00000004554
 21
1760.35
 31
0.0
  0
LINE
  5
499
330
B
100
AcDbEntity
  8
LEVEL001
  6
Continuous
 62
     7
100
AcDbLine
 10
479.00000004554
 20
1878.85
 30
0.0
 11
479.00000004554
 21
1760.35
 31
0.0
  0
LINE
  5
49A
330
B
100
AcDbEntity
  8
LEVEL001
  6
Continuous
 62
     7
100
AcDbLine
 10
449.00000004554
 20
1878.85
 30
0.0
 11
449.00000004554
 21
1760.35
 31
0.0
  0
LINE
  5
49B
330
B
100
AcDbEntity
  8
LEVEL001
  6
Continuous
 62
     7
100
AcDbLine
 10
419.0000000455399
 20
1878.85
 30
0.0
 11
419.0000000455399
 21
1760.35
 31
0.0
  0
LINE
  5
49C
330
B
100
AcDbEntity
  8
LEVEL001
  6
Continuous
 62
     7
100
AcDbLine
 10
389.00000004554
 20
1878.85
 30
0.0
 11
389.00000004554
 21
1760.35
 31
0.0
  0
LINE
  5
49D
330
B
100
AcDbEntity
  8
LEVEL001
  6
Continuous
 62
     7
100
AcDbLine
 10
359.00000004554
 20
1878.5629115865
 30
0.0
 11
359.00000004554
 21
1760.6370884135
 31
0.0
  0
LINE
  5
49E
330
B
100
AcDbEntity
  8
LEVEL001
  6
Continuous
 62
     7
100
AcDbLine
 10
329.00000004554
 20
1878.85
 30
0.0
 11
329.00000004554
 21
1760.35
 31
0.0
  0
LINE
  5
49F
330
B
100
AcDbEntity
  8
LEVEL001
  6
Continuous
 62
     7
100
AcDbLine
 10
299.00000004554
 20
1878.85
 30
0.0
 11
299.00000004554
 21
1760.35
 31
0.0
  0
LINE
  5
4A0
330
B
100
AcDbEntity
  8
LEVEL001
  6
Continuous
 62
     7
100
AcDbLine
 10
224.99999999999
 20
2173.2
 30
0.0
 11
1063.0
 21
2173.2
 31
0.0
  0
LINE
  5
4A1
330
B
100
AcDbEntity
  8
LEVEL001
  6
Continuous
 62
     7
100
AcDbLine
 10
224.99999999999
 20
2153.2
 30
0.0
 11
1063.0
 21
2153.2
 31
0.0
  0
LINE
  5
4A2
330
B
100
AcDbEntity
  8
LEVEL001
  6
Continuous
 62
     7
100
AcDbLine
 10
224.99999999999
 20
2173.2
 30
0.0
 11
224.99999999999
 21
2153.2
 31
0.0
  0
LINE
  5
4A3
330
B
100
AcDbEntity
  8
LEVEL001
  6
Continuous
 62
     7
100
AcDbLine
 10
1063.0
 20
2173.2
 30
0.0
 11
1063.0
 21
2153.2
 31
0.0
  0
INSERT
  5
4A4
330
B
100
AcDbEntity
  8
0
100
AcDbBlockReference
  2
EGF13M16
 10
194.29999999999
 20
2163.2
 30
0.0
 50
180.0
  0
INSERT
  5
4A5
330
B
100
AcDbEntity
  8
0
100
AcDbBlockReference
  2
EGF11M16
 10
178.29999999999
 20
2163.2
 30
0.0
 50
180.0
  0
LWPOLYLINE
  5
4A6
330
B
100
AcDbEntity
  8
LEVEL001
  6
Continuous
 62
     7
100
AcDbPolyline
 90
        6
 70
     0
 43
0.0
 10
165.29999999999
 20
2155.2
 10
151.29999999999
 20
2155.2
 10
149.29999999999
 20
2157.2
 10
149.29999999999
 20
2169.2
 10
151.29999999999
 20
2171.2
 10
165.29999999999
 20
2171.2
  0
LINE
  5
4A7
330
B
100
AcDbEntity
  8
LEVEL001
  6
Continuous
 62
     7
100
AcDbLine
 10
151.29999999999
 20
2155.2
 30
0.0
 11
151.29999999999
 21
2171.2
 31
0.0
  0
INSERT
  5
4A8
330
B
100
AcDbEntity
  8
0
100
AcDbBlockReference
  2
EGF13M16
 10
1093.7
 20
2163.2
 30
0.0
  0
INSERT
  5
4A9
330
B
100
AcDbEntity
  8
0
100
AcDbBlockReference
  2
EGF11M16
 10
1109.7
 20
2163.2
 30
0.0
  0
LWPOLYLINE
  5
4AA
330
B
100
AcDbEntity
  8
LEVEL001
  6
Continuous
 62
     7
100
AcDbPolyline
 90
        6
 70
     0
 43
0.0
 10
1122.7
 20
2171.2
 10
1136.7
 20
2171.2
 10
1138.7
 20
2169.2
 10
1138.7
 20
2157.2
 10
1136.7
 20
2155.2
 10
1122.7
 20
2155.2
  0
LINE
  5
4AB
330
B
100
AcDbEntity
  8
LEVEL001
  6
Continuous
 62
     7
100
AcDbLine
 10
1136.7
 20
2171.2
 30
0.0
 11
1136.7
 21
2155.2
 31
0.0
  0
LINE
  5
4AC
330
B
100
AcDbEntity
  8
LEVEL001
  6
Continuous
 62
     7
100
AcDbLine
 10
1063.0
 20
2171.2
 30
0.0
 11
1083.7
 21
2171.2
 31
0.0
  0
LINE
  5
4AD
330
B
100
AcDbEntity
  8
LEVEL001
  6
Continuous
 62
     7
100
AcDbLine
 10
1063.0
 20
2155.2
 30
0.0
 11
1083.7
 21
2155.2
 31
0.0
  0
LINE
  5
4AE
330
B
100
AcDbEntity
  8
LEVEL001
  6
Continuous
 62
     7
100
AcDbLine
 10
204.29999999999
 20
2171.2
 30
0.0
 11
224.99999999999
 21
2171.2
 31
0.0
  0
LINE
  5
4AF
330
B
100
AcDbEntity
  8
LEVEL001
  6
Continuous
 62
     7
100
AcDbLine
 10
204.29999999999
 20
2155.2
 30
0.0
 11
224.99999999999
 21
2155.2
 31
0.0
  0
LINE
  5
4B0
330
B
100
AcDbEntity
  8
LEVEL001
  6
DASHDOT
 62
     1
100
AcDbLine
 10
140.0
 20
2163.2
 30
0.0
 11
1148.0
 21
2163.2
 31
0.0
  0
LINE
  5
4B1
330
B
100
AcDbEntity
  8
LEVEL001
  6
Continuous
 62
     7
100
AcDbLine
 10
1093.7
 20
2183.2
 30
0.0
 11
1109.7
 21
2183.2
 31
0.0
  0
LINE
  5
4B2
330
B
100
AcDbEntity
  8
LEVEL001
  6
Continuous
 62
     7
100
AcDbLine
 10
1093.7
 20
2114.0
 30
0.0
 11
1093.7
 21
2183.2
 31
0.0
  0
LINE
  5
4B3
330
B
100
AcDbEntity
  8
LEVEL001
  6
Continuous
 62
     7
100
AcDbLine
 10
1109.7
 20
2183.2
 30
0.0
 11
1109.7
 21
2114.0
 31
0.0
  0
LINE
  5
4B4
330
B
100
AcDbEntity
  8
LEVEL001
  6
Continuous
 62
     7
100
AcDbLine
 10
178.29999999999
 20
2183.2
 30
0.0
 11
194.29999999999
 21
2183.2
 31
0.0
  0
LINE
  5
4B5
330
B
100
AcDbEntity
  8
LEVEL001
  6
Continuous
 62
     7
100
AcDbLine
 10
178.29999999999
 20
2114.0
 30
0.0
 11
178.29999999999
 21
2183.2
 31
0.0
  0
LINE
  5
4B6
330
B
100
AcDbEntity
  8
LEVEL001
  6
Continuous
 62
     7
100
AcDbLine
 10
194.29999999999
 20
2183.2
 30
0.0
 11
194.29999999999
 21
2114.0
 31
0.0
  0
LINE
  5
4B7
330
B
100
AcDbEntity
  8
LEVEL001
  6
Continuous
 62
     7
100
AcDbLine
 10
299.00000004554
 20
2046.2
 30
0.0
 11
299.00000004554
 21
1996.2
 31
0.0
  0
LINE
  5
4B8
330
B
100
AcDbEntity
  8
LEVEL001
  6
Continuous
 62
     7
100
AcDbLine
 10
299.00000004554
 20
1976.2
 30
0.0
 11
299.00000004554
 21
1926.2
 31
0.0
  0
LINE
  5
4B9
330
B
100
AcDbEntity
  8
LEVEL001
  6
Continuous
 62
     7
100
AcDbLine
 10
329.00000004554
 20
2046.2
 30
0.0
 11
329.00000004554
 21
1996.2
 31
0.0
  0
LINE
  5
4BA
330
B
100
AcDbEntity
  8
LEVEL001
  6
Continuous
 62
     7
100
AcDbLine
 10
329.00000004554
 20
1976.2
 30
0.0
 11
329.00000004554
 21
1926.2
 31
0.0
  0
LINE
  5
4BB
330
B
100
AcDbEntity
  8
LEVEL001
  6
Continuous
 62
     7
100
AcDbLine
 10
359.00000004554
 20
2046.2
 30
0.0
 11
359.00000004554
 21
1996.2
 31
0.0
  0
LINE
  5
4BC
330
B
100
AcDbEntity
  8
LEVEL001
  6
Continuous
 62
     7
100
AcDbLine
 10
359.00000004554
 20
1976.2
 30
0.0
 11
359.00000004554
 21
1926.2
 31
0.0
  0
LINE
  5
4BD
330
B
100
AcDbEntity
  8
LEVEL001
  6
Continuous
 62
     7
100
AcDbLine
 10
389.00000004554
 20
2046.2
 30
0.0
 11
389.00000004554
 21
1996.2
 31
0.0
  0
LINE
  5
4BE
330
B
100
AcDbEntity
  8
LEVEL001
  6
Continuous
 62
     7
100
AcDbLine
 10
389.00000004554
 20
1976.2
 30
0.0
 11
389.00000004554
 21
1926.2
 31
0.0
  0
LINE
  5
4BF
330
B
100
AcDbEntity
  8
LEVEL001
  6
Continuous
 62
     7
100
AcDbLine
 10
419.0000000455399
 20
2046.2
 30
0.0
 11
419.0000000455399
 21
1996.2
 31
0.0
  0
LINE
  5
4C0
330
B
100
AcDbEntity
  8
LEVEL001
  6
Continuous
 62
     7
100
AcDbLine
 10
419.0000000455399
 20
1976.2
 30
0.0
 11
419.0000000455399
 21
1926.2
 31
0.0
  0
LINE
  5
4C1
330
B
100
AcDbEntity
  8
LEVEL001
  6
Continuous
 62
     7
100
AcDbLine
 10
449.00000004554
 20
2046.2
 30
0.0
 11
449.00000004554
 21
1996.2
 31
0.0
  0
LINE
  5
4C2
330
B
100
AcDbEntity
  8
LEVEL001
  6
Continuous
 62
     7
100
AcDbLine
 10
449.00000004554
 20
1976.2
 30
0.0
 11
449.00000004554
 21
1926.2
 31
0.0
  0
LINE
  5
4C3
330
B
100
AcDbEntity
  8
LEVEL001
  6
Continuous
 62
     7
100
AcDbLine
 10
479.00000004554
 20
2046.2
 30
0.0
 11
479.00000004554
 21
1996.2
 31
0.0
  0
LINE
  5
4C4
330
B
100
AcDbEntity
  8
LEVEL001
  6
Continuous
 62
     7
100
AcDbLine
 10
479.00000004554
 20
1976.2
 30
0.0
 11
479.00000004554
 21
1926.2
 31
0.0
  0
LINE
  5
4C5
330
B
100
AcDbEntity
  8
LEVEL001
  6
Continuous
 62
     7
100
AcDbLine
 10
509.00000004554
 20
2046.2
 30
0.0
 11
509.00000004554
 21
1996.2
 31
0.0
  0
LINE
  5
4C6
330
B
100
AcDbEntity
  8
LEVEL001
  6
Continuous
 62
     7
100
AcDbLine
 10
509.00000004554
 20
1976.2
 30
0.0
 11
509.00000004554
 21
1926.2
 31
0.0
  0
LINE
  5
4C7
330
B
100
AcDbEntity
  8
LEVEL001
  6
Continuous
 62
     7
100
AcDbLine
 10
539.0000000455399
 20
2046.2
 30
0.0
 11
539.0000000455399
 21
1996.2
 31
0.0
  0
LINE
  5
4C8
330
B
100
AcDbEntity
  8
LEVEL001
  6
Continuous
 62
     7
100
AcDbLine
 10
539.0000000455399
 20
1976.2
 30
0.0
 11
539.0000000455399
 21
1926.2
 31
0.0
  0
LINE
  5
4C9
330
B
100
AcDbEntity
  8
LEVEL001
  6
Continuous
 62
     7
100
AcDbLine
 10
569.0000000455399
 20
2046.2
 30
0.0
 11
569.0000000455399
 21
1996.2
 31
0.0
  0
LINE
  5
4CA
330
B
100
AcDbEntity
  8
LEVEL001
  6
Continuous
 62
     7
100
AcDbLine
 10
569.0000000455399
 20
1976.2
 30
0.0
 11
569.0000000455399
 21
1926.2
 31
0.0
  0
LINE
  5
4CB
330
B
100
AcDbEntity
  8
LEVEL001
  6
Continuous
 62
     7
100
AcDbLine
 10
599.00000004554
 20
2046.2
 30
0.0
 11
599.00000004554
 21
1996.2
 31
0.0
  0
LINE
  5
4CC
330
B
100
AcDbEntity
  8
LEVEL001
  6
Continuous
 62
     7
100
AcDbLine
 10
599.00000004554
 20
1976.2
 30
0.0
 11
599.00000004554
 21
1926.2
 31
0.0
  0
LINE
  5
4CD
330
B
100
AcDbEntity
  8
LEVEL001
  6
Continuous
 62
     7
100
AcDbLine
 10
629.00000004554
 20
2046.2
 30
0.0
 11
629.00000004554
 21
1996.2
 31
0.0
  0
LINE
  5
4CE
330
B
100
AcDbEntity
  8
LEVEL001
  6
Continuous
 62
     7
100
AcDbLine
 10
629.00000004554
 20
1976.2
 30
0.0
 11
629.00000004554
 21
1926.2
 31
0.0
  0
LINE
  5
4CF
330
B
100
AcDbEntity
  8
LEVEL001
  6
Continuous
 62
     7
100
AcDbLine
 10
659.00000004554
 20
2046.2
 30
0.0
 11
659.00000004554
 21
1996.2
 31
0.0
  0
LINE
  5
4D0
330
B
100
AcDbEntity
  8
LEVEL001
  6
Continuous
 62
     7
100
AcDbLine
 10
659.00000004554
 20
1976.2
 30
0.0
 11
659.00000004554
 21
1926.2
 31
0.0
  0
LINE
  5
4D1
330
B
100
AcDbEntity
  8
LEVEL001
  6
Continuous
 62
     7
100
AcDbLine
 10
689.0000000455399
 20
2046.2
 30
0.0
 11
689.0000000455399
 21
1996.2
 31
0.0
  0
LINE
  5
4D2
330
B
100
AcDbEntity
  8
LEVEL001
  6
Continuous
 62
     7
100
AcDbLine
 10
689.0000000455399
 20
1976.2
 30
0.0
 11
689.0000000455399
 21
1926.2
 31
0.0
  0
LINE
  5
4D3
330
B
100
AcDbEntity
  8
LEVEL001
  6
Continuous
 62
     7
100
AcDbLine
 10
719.0000000455399
 20
2046.2
 30
0.0
 11
719.0000000455399
 21
1996.2
 31
0.0
  0
LINE
  5
4D4
330
B
100
AcDbEntity
  8
LEVEL001
  6
Continuous
 62
     7
100
AcDbLine
 10
719.0000000455399
 20
1976.2
 30
0.0
 11
719.0000000455399
 21
1926.2
 31
0.0
  0
LINE
  5
4D5
330
B
100
AcDbEntity
  8
LEVEL001
  6
Continuous
 62
     7
100
AcDbLine
 10
749.00000004554
 20
2046.2
 30
0.0
 11
749.00000004554
 21
1996.2
 31
0.0
  0
LINE
  5
4D6
330
B
100
AcDbEntity
  8
LEVEL001
  6
Continuous
 62
     7
100
AcDbLine
 10
749.00000004554
 20
1976.2
 30
0.0
 11
749.00000004554
 21
1926.2
 31
0.0
  0
LINE
  5
4D7
330
B
100
AcDbEntity
  8
LEVEL001
  6
Continuous
 62
     7
100
AcDbLine
 10
779.00000004554
 20
2046.2
 30
0.0
 11
779.00000004554
 21
1996.2
 31
0.0
  0
LINE
  5
4D8
330
B
100
AcDbEntity
  8
LEVEL001
  6
Continuous
 62
     7
100
AcDbLine
 10
779.00000004554
 20
1976.2
 30
0.0
 11
779.00000004554
 21
1926.2
 31
0.0
  0
LINE
  5
4D9
330
B
100
AcDbEntity
  8
LEVEL001
  6
Continuous
 62
     7
100
AcDbLine
 10
809.00000004554
 20
2046.2
 30
0.0
 11
809.00000004554
 21
1996.2
 31
0.0
  0
LINE
  5
4DA
330
B
100
AcDbEntity
  8
LEVEL001
  6
Continuous
 62
     7
100
AcDbLine
 10
809.00000004554
 20
1976.2
 30
0.0
 11
809.00000004554
 21
1926.2
 31
0.0
  0
LINE
  5
4DB
330
B
100
AcDbEntity
  8
LEVEL001
  6
Continuous
 62
     7
100
AcDbLine
 10
839.0000000455399
 20
2046.2
 30
0.0
 11
839.0000000455399
 21
1996.2
 31
0.0
  0
LINE
  5
4DC
330
B
100
AcDbEntity
  8
LEVEL001
  6
Continuous
 62
     7
100
AcDbLine
 10
839.0000000455399
 20
1976.2
 30
0.0
 11
839.0000000455399
 21
1926.2
 31
0.0
  0
LINE
  5
4DD
330
B
100
AcDbEntity
  8
LEVEL001
  6
Continuous
 62
     7
100
AcDbLine
 10
868.98336416558
 20
2046.2
 30
0.0
 11
868.98336416558
 21
1996.2
 31
0.0
  0
LINE
  5
4DE
330
B
100
AcDbEntity
  8
LEVEL001
  6
Continuous
 62
     7
100
AcDbLine
 10
868.98336416558
 20
1976.2
 30
0.0
 11
868.98336416558
 21
1926.2
 31
0.0
  0
LINE
  5
4DF
330
B
100
AcDbEntity
  8
LEVEL001
  6
Continuous
 62
     7
100
AcDbLine
 10
899.0000000455399
 20
2046.2
 30
0.0
 11
899.0000000455399
 21
1996.2
 31
0.0
  0
LINE
  5
4E0
330
B
100
AcDbEntity
  8
LEVEL001
  6
Continuous
 62
     7
100
AcDbLine
 10
899.0000000455399
 20
1976.2
 30
0.0
 11
899.0000000455399
 21
1926.2
 31
0.0
  0
LINE
  5
4E1
330
B
100
AcDbEntity
  8
LEVEL001
  6
Continuous
 62
     7
100
AcDbLine
 10
929.00000004554
 20
2046.2
 30
0.0
 11
929.00000004554
 21
1996.2
 31
0.0
  0
LINE
  5
4E2
330
B
100
AcDbEntity
  8
LEVEL001
  6
Continuous
 62
     7
100
AcDbLine
 10
929.00000004554
 20
1976.2
 30
0.0
 11
929.00000004554
 21
1926.2
 31
0.0
  0
LINE
  5
4E3
330
B
100
AcDbEntity
  8
LEVEL001
  6
Continuous
 62
     7
100
AcDbLine
 10
958.98336416558
 20
2046.2
 30
0.0
 11
958.98336416558
 21
1996.2
 31
0.0
  0
LINE
  5
4E4
330
B
100
AcDbEntity
  8
LEVEL001
  6
Continuous
 62
     7
100
AcDbLine
 10
958.98336416558
 20
1976.2
 30
0.0
 11
958.98336416558
 21
1926.2
 31
0.0
  0
LINE
  5
4E5
330
B
100
AcDbEntity
  8
LEVEL001
  6
Continuous
 62
     7
100
AcDbLine
 10
989.0000000455399
 20
2046.2
 30
0.0
 11
989.0000000455399
 21
1996.2
 31
0.0
  0
LINE
  5
4E6
330
B
100
AcDbEntity
  8
LEVEL001
  6
Continuous
 62
     7
100
AcDbLine
 10
989.0000000455399
 20
1976.2
 30
0.0
 11
989.0000000455399
 21
1926.2
 31
0.0
  0
LINE
  5
4E7
330
B
100
AcDbEntity
  8
LEVEL001
  6
Continuous
 62
     7
100
AcDbLine
 10
1074.5
 20
1109.5115224714
 30
0.0
 11
1074.5
 21
1057.0
 31
0.0
  0
LINE
  5
4E8
330
B
100
AcDbEntity
  8
LEVEL001
  6
Continuous
 62
     7
100
AcDbLine
 10
1084.5
 20
1109.5115224714
 30
0.0
 11
1084.5
 21
1057.0
 31
0.0
  0
LINE
  5
4E9
330
B
100
AcDbEntity
  8
LEVEL001
  6
Continuous
 62
     7
100
AcDbLine
 10
1054.5
 20
1064.0
 30
0.0
 11
1074.5
 21
1064.0
 31
0.0
  0
LINE
  5
4EA
330
B
100
AcDbEntity
  8
LEVEL001
  6
Continuous
 62
     7
100
AcDbLine
 10
1084.5
 20
1064.0
 30
0.0
 11
1104.5
 21
1064.0
 31
0.0
  0
LINE
  5
4EB
330
B
100
AcDbEntity
  8
LEVEL001
  6
Continuous
 62
     7
100
AcDbLine
 10
1074.5
 20
1057.0
 30
0.0
 11
1084.5
 21
1057.0
 31
0.0
  0
LINE
  5
4EC
330
B
100
AcDbEntity
  8
LEVEL001
  6
Continuous
 62
     7
100
AcDbLine
 10
1104.5
 20
1064.0
 30
0.0
 11
1104.5
 21
983.0
 31
0.0
  0
CIRCLE
  5
4ED
330
B
100
AcDbEntity
  8
LEVEL001
  6
Continuous
 62
     7
100
AcDbCircle
 10
1079.5
 20
1126.2820323027
 30
0.0
 40
17.5
  0
LINE
  5
4EE
330
B
100
AcDbEntity
  8
LEVEL001
  6
Continuous
 62
     7
100
AcDbLine
 10
1054.5
 20
1037.0
 30
0.0
 11
1104.5
 21
1037.0
 31
0.0
  0
LINE
  5
4EF
330
B
100
AcDbEntity
  8
LEVEL001
  6
Continuous
 62
     7
100
AcDbLine
 10
1054.5
 20
1032.0
 30
0.0
 11
1104.5
 21
1032.0
 31
0.0
  0
LINE
  5
4F0
330
B
100
AcDbEntity
  8
LEVEL001
  6
Continuous
 62
     7
100
AcDbLine
 10
1054.5
 20
1012.0
 30
0.0
 11
1104.5
 21
1012.0
 31
0.0
  0
LINE
  5
4F1
330
B
100
AcDbEntity
  8
LEVEL001
  6
Continuous
 62
     7
100
AcDbLine
 10
1054.5
 20
1064.0
 30
0.0
 11
1054.5
 21
983.0
 31
0.0
  0
LINE
  5
4F2
330
B
100
AcDbEntity
  8
LEVEL001
  6
Continuous
 62
     7
100
AcDbLine
 10
1109.7
 20
983.0
 30
0.0
 11
1109.7
 21
1266.3
 31
0.0
  0
LINE
  5
4F3
330
B
100
AcDbEntity
  8
LEVEL001
  6
Continuous
 62
     7
100
AcDbLine
 10
1093.7
 20
1266.3
 30
0.0
 11
1093.7
 21
1136.47611838
 31
0.0
  0
LINE
  5
4F4
330
B
100
AcDbEntity
  8
LEVEL001
  6
Continuous
 62
     7
100
AcDbLine
 10
1093.7
 20
1116.0096535434
 30
0.0
 11
1093.7
 21
1064.0
 31
0.0
  0
LINE
  5
4F5
330
B
100
AcDbEntity
  8
LEVEL001
  6
Continuous
 62
     7
100
AcDbLine
 10
1077.7
 20
1171.3
 30
0.0
 11
1077.7
 21
1143.6892147283
 31
0.0
  0
LINE
  5
4F6
330
B
100
AcDbEntity
  8
LEVEL001
  6
Continuous
 62
     7
100
AcDbLine
 10
1058.7
 20
1156.3
 30
0.0
 11
1058.7
 21
1064.0
 31
0.0
  0
LINE
  5
4F7
330
B
100
AcDbEntity
  8
LEVEL001
  6
Continuous
 62
     7
100
AcDbLine
 10
1732.7143763602
 20
1108.7966193417
 30
0.0
 11
1746.7856236398
 21
1116.9206577464
 31
0.0
  0
ARC
  5
4F8
330
B
100
AcDbEntity
  8
LEVEL001
  6
Continuous
 62
     7
100
AcDbCircle
 10
1732.0
 20
1126.2820323027
 30
0.0
 40
17.5
100
AcDbArc
 50
327.66044989946
 51
272.33955010057
  0
LINE
  5
4F9
330
B
100
AcDbEntity
  8
LEVEL001
  6
Continuous
 62
     7
100
AcDbLine
 10
1735.4198729811
 20
1110.3586385441
 30
0.0
 11
1762.5774166239
 21
1063.3203931458
 31
0.0
  0
LINE
  5
4FA
330
B
100
AcDbEntity
  8
LEVEL001
  6
Continuous
 62
     7
100
AcDbLine
 10
1744.0801270189
 20
1115.3586385441
 30
0.0
 11
1773.7454473907
 21
1063.9767964373
 31
0.0
  0
LINE
  5
4FB
330
B
100
AcDbEntity
  8
LEVEL001
  6
Continuous
 62
     7
100
AcDbLine
 10
1768.0
 20
1032.0
 30
0.0
 11
1768.0
 21
1012.0
 31
0.0
  0
LINE
  5
4FC
330
B
100
AcDbEntity
  8
LEVEL001
  6
Continuous
 62
     7
100
AcDbLine
 10
1776.0
 20
1032.0
 30
0.0
 11
1776.0
 21
1012.0
 31
0.0
  0
LINE
  5
4FD
330
B
100
AcDbEntity
  8
LEVEL001
  6
Continuous
 62
     7
100
AcDbLine
 10
1801.0
 20
1012.0
 30
0.0
 11
1801.0
 21
983.0
 31
0.0
  0
LINE
  5
4FE
330
B
100
AcDbEntity
  8
LEVEL001
  6
Continuous
 62
     7
100
AcDbLine
 10
1799.0
 20
1012.0
 30
0.0
 11
1799.0
 21
1032.0
 31
0.0
  0
LINE
  5
4FF
330
B
100
AcDbEntity
  8
LEVEL001
  6
Continuous
 62
     7
100
AcDbLine
 10
1743.0
 20
983.0
 30
0.0
 11
1743.0
 21
1012.0
 31
0.0
  0
LINE
  5
500
330
B
100
AcDbEntity
  8
LEVEL001
  6
Continuous
 62
     7
100
AcDbLine
 10
1745.0
 20
1032.0
 30
0.0
 11
1745.0
 21
1012.0
 31
0.0
  0
LINE
  5
501
330
B
100
AcDbEntity
  8
LEVEL001
  6
Continuous
 62
     7
100
AcDbLine
 10
1743.0
 20
1012.0
 30
0.0
 11
1801.0
 21
1012.0
 31
0.0
  0
LINE
  5
502
330
B
100
AcDbEntity
  8
LEVEL001
  6
Continuous
 62
     7
100
AcDbLine
 10
1743.0
 20
1032.0
 30
0.0
 11
1801.0
 21
1032.0
 31
0.0
  0
LINE
  5
503
330
B
100
AcDbEntity
  8
LEVEL001
  6
Continuous
 62
     7
100
AcDbLine
 10
1743.0
 20
1037.0
 30
0.0
 11
1801.0
 21
1037.0
 31
0.0
  0
LINE
  5
504
330
B
100
AcDbEntity
  8
LEVEL001
  6
Continuous
 62
     7
100
AcDbLine
 10
1801.0
 20
1032.0
 30
0.0
 11
1801.0
 21
1057.2487874989
 31
0.0
  0
LINE
  5
505
330
B
100
AcDbEntity
  8
LEVEL001
  6
Continuous
 62
     7
100
AcDbLine
 10
1743.0
 20
1032.0
 30
0.0
 11
1743.0
 21
1057.2487874989
 31
0.0
  0
ARC
  5
506
330
B
100
AcDbEntity
  8
LEVEL001
  6
Continuous
 62
     7
100
AcDbCircle
 10
1772.0
 20
998.33928571429
 30
0.0
 40
65.66071428571399
100
AcDbArc
 50
63.78987526904499
 51
116.21012473096
  0
LINE
  5
507
330
B
100
AcDbEntity
  8
LEVEL001
  6
Continuous
 62
     7
100
AcDbLine
 10
1017.0
 20
1652.0
 30
0.0
 11
1120.0
 21
1652.0
 31
0.0
  0
LINE
  5
508
330
B
100
AcDbEntity
  8
LEVEL001
  6
Continuous
 62
     7
100
AcDbLine
 10
1120.0
 20
1652.0
 30
0.0
 11
1120.0
 21
1522.0
 31
0.0
  0
LINE
  5
509
330
B
100
AcDbEntity
  8
LEVEL001
  6
Continuous
 62
     7
100
AcDbLine
 10
1120.0
 20
1522.0
 30
0.0
 11
1017.0
 21
1522.0
 31
0.0
  0
LINE
  5
50A
330
B
100
AcDbEntity
  8
LEVEL001
  6
Continuous
 62
     7
100
AcDbLine
 10
1063.0
 20
1754.0
 30
0.0
 11
1063.0
 21
1652.0
 31
0.0
  0
LINE
  5
50B
330
B
100
AcDbEntity
  8
LEVEL001
  6
Continuous
 62
     7
100
AcDbLine
 10
1033.0
 20
1963.7
 30
0.0
 11
1033.0
 21
1652.0
 31
0.0
  0
LINE
  5
50C
330
B
100
AcDbEntity
  8
LEVEL001
  6
Continuous
 62
     7
100
AcDbLine
 10
1033.0
 20
1522.0
 30
0.0
 11
1033.0
 21
1514.0
 31
0.0
  0
LINE
  5
50D
330
B
100
AcDbEntity
  8
LEVEL001
  6
Continuous
 62
     7
100
AcDbLine
 10
1054.5
 20
1640.0
 30
0.0
 11
1104.5
 21
1640.0
 31
0.0
  0
LINE
  5
50E
330
B
100
AcDbEntity
  8
LEVEL001
  6
Continuous
 62
     7
100
AcDbLine
 10
1054.5
 20
1640.0
 30
0.0
 11
1054.5
 21
1582.0
 31
0.0
  0
LINE
  5
50F
330
B
100
AcDbEntity
  8
LEVEL001
  6
Continuous
 62
     7
100
AcDbLine
 10
1104.5
 20
1640.0
 30
0.0
 11
1104.5
 21
1582.0
 31
0.0
  0
CIRCLE
  5
510
330
B
100
AcDbEntity
  8
LEVEL001
  6
Continuous
 62
     7
100
AcDbCircle
 10
1079.5
 20
1571.0
 30
0.0
 40
17.5
  0
ARC
  5
511
330
B
100
AcDbEntity
  8
LEVEL001
  6
Continuous
 62
     7
100
AcDbCircle
 10
1079.5
 20
1621.0
 30
0.0
 40
5.0
100
AcDbArc
 50
0.0
 51
180.0
  0
LINE
  5
512
330
B
100
AcDbEntity
  8
LEVEL001
  6
Continuous
 62
     7
100
AcDbLine
 10
1074.5
 20
1621.0
 30
0.0
 11
1074.5
 21
1587.7730872009
 31
0.0
  0
LINE
  5
513
330
B
100
AcDbEntity
  8
LEVEL001
  6
Continuous
 62
     7
100
AcDbLine
 10
1084.5
 20
1621.0
 30
0.0
 11
1084.5
 21
1587.8299374781
 31
0.0
  0
LINE
  5
514
330
B
100
AcDbEntity
  8
LEVEL001
  6
Continuous
 62
     7
100
AcDbLine
 10
1054.5
 20
1582.0
 30
0.0
 11
1065.8893424112
 21
1582.0
 31
0.0
  0
LINE
  5
515
330
B
100
AcDbEntity
  8
LEVEL001
  6
Continuous
 62
     7
100
AcDbLine
 10
1093.1106575888
 20
1582.0
 30
0.0
 11
1104.5
 21
1582.0
 31
0.0
  0
LINE
  5
516
330
B
100
AcDbEntity
  8
LEVEL001
  6
Continuous
 62
     7
100
AcDbLine
 10
254.99999999999
 20
2008.7
 30
0.0
 11
254.99999999999
 21
2153.2
 31
0.0
  0
LINE
  5
517
330
B
100
AcDbEntity
  8
LEVEL001
  6
Continuous
 62
     7
100
AcDbLine
 10
254.99999999999
 20
2173.2
 30
0.0
 11
254.99999999999
 21
2250.0
 31
0.0
  0
LINE
  5
518
330
B
100
AcDbEntity
  8
LEVEL001
  6
Continuous
 62
     7
100
AcDbLine
 10
1033.0
 20
2250.0
 30
0.0
 11
1033.0
 21
2173.2
 31
0.0
  0
LINE
  5
519
330
B
100
AcDbEntity
  8
LEVEL001
  6
Continuous
 62
     7
100
AcDbLine
 10
1033.0
 20
2153.2
 30
0.0
 11
1033.0
 21
2008.7
 31
0.0
  0
LINE
  5
51A
330
B
100
AcDbEntity
  8
LEVEL001
  6
Continuous
 62
     7
100
AcDbLine
 10
1184.0
 20
2114.0
 30
0.0
 11
1017.0
 21
2114.0
 31
0.0
  0
LINE
  5
51B
330
B
100
AcDbEntity
  8
LEVEL001
  6
Continuous
 62
     7
100
AcDbLine
 10
1017.0
 20
2008.7
 30
0.0
 11
1017.0
 21
2114.0
 31
0.0
  0
LINE
  5
51C
330
B
100
AcDbEntity
  8
LEVEL001
  6
Continuous
 62
     7
100
AcDbLine
 10
1073.0
 20
2155.2
 30
0.0
 11
1073.0
 21
2114.0
 31
0.0
  0
LINE
  5
51D
330
B
100
AcDbEntity
  8
LEVEL001
  6
Continuous
 62
     7
100
AcDbLine
 10
1038.0
 20
2250.0
 30
0.0
 11
1038.0
 21
2173.2
 31
0.0
  0
LINE
  5
51E
330
B
100
AcDbEntity
  8
LEVEL001
  6
Continuous
 62
     7
100
AcDbLine
 10
1038.0
 20
2153.2
 30
0.0
 11
1038.0
 21
2114.0
 31
0.0
  0
LINE
  5
51F
330
B
100
AcDbEntity
  8
LEVEL001
  6
Continuous
 62
     7
100
AcDbLine
 10
1118.0
 20
2250.0
 30
0.0
 11
1118.0
 21
2238.0
 31
0.0
  0
LINE
  5
520
330
B
100
AcDbEntity
  8
LEVEL001
  6
Continuous
 62
     7
100
AcDbLine
 10
1033.0
 20
2250.0
 30
0.0
 11
1118.0
 21
2250.0
 31
0.0
  0
LINE
  5
521
330
B
100
AcDbEntity
  8
LEVEL001
  6
Continuous
 62
     7
100
AcDbLine
 10
1073.0
 20
2238.0
 30
0.0
 11
1073.0
 21
2171.2
 31
0.0
  0
LINE
  5
522
330
B
100
AcDbEntity
  8
LEVEL001
  6
Continuous
 62
     7
100
AcDbLine
 10
1118.0
 20
2238.0
 30
0.0
 11
1038.0
 21
2238.0
 31
0.0
  0
INSERT
  5
523
330
B
100
AcDbEntity
  8
0
100
AcDbBlockReference
  2
EGF13M12
 10
1101.0
 20
2238.0
 30
0.0
 50
90.0
  0
INSERT
  5
524
330
B
100
AcDbEntity
  8
0
100
AcDbBlockReference
  2
EGF11M12
 10
1101.0
 20
2250.0
 30
0.0
 50
90.0
  0
LWPOLYLINE
  5
525
330
B
100
AcDbEntity
  8
LEVEL001
  6
Continuous
 62
     7
100
AcDbPolyline
 90
        6
 70
     0
 43
0.0
 10
1095.0
 20
2260.0
 10
1095.0
 20
2263.0
 10
1097.0
 20
2265.0
 10
1105.0
 20
2265.0
 10
1107.0
 20
2263.0
 10
1107.0
 20
2260.0
  0
LINE
  5
526
330
B
100
AcDbEntity
  8
LEVEL001
  6
Continuous
 62
     7
100
AcDbLine
 10
1095.0
 20
2263.0
 30
0.0
 11
1107.0
 21
2263.0
 31
0.0
  0
LINE
  5
527
330
B
100
AcDbEntity
  8
LEVEL001
  6
Continuous
 62
     7
100
AcDbLine
 10
270.99999999999
 20
2114.0
 30
0.0
 11
118.99999999999
 21
2114.0
 31
0.0
  0
LINE
  5
528
330
B
100
AcDbEntity
  8
LEVEL001
  6
Continuous
 62
     7
100
AcDbLine
 10
270.99999999999
 20
2114.0
 30
0.0
 11
270.99999999999
 21
2008.7
 31
0.0
  0
LINE
  5
529
330
B
100
AcDbEntity
  8
LEVEL001
  6
Continuous
 62
     7
100
AcDbLine
 10
169.99999999999
 20
2250.0
 30
0.0
 11
169.99999999999
 21
2238.0
 31
0.0
  0
LINE
  5
52A
330
B
100
AcDbEntity
  8
LEVEL001
  6
Continuous
 62
     7
100
AcDbLine
 10
254.99999999999
 20
2250.0
 30
0.0
 11
169.99999999999
 21
2250.0
 31
0.0
  0
LINE
  5
52B
330
B
100
AcDbEntity
  8
LEVEL001
  6
Continuous
 62
     7
100
AcDbLine
 10
214.99999999999
 20
2238.0
 30
0.0
 11
214.99999999999
 21
2171.2
 31
0.0
  0
LINE
  5
52C
330
B
100
AcDbEntity
  8
LEVEL001
  6
Continuous
 62
     7
100
AcDbLine
 10
169.99999999999
 20
2238.0
 30
0.0
 11
249.99999999999
 21
2238.0
 31
0.0
  0
INSERT
  5
52D
330
B
100
AcDbEntity
  8
0
100
AcDbBlockReference
  2
EGF13M12
 10
186.99999999999
 20
2238.0
 30
0.0
 42
-1.0
 50
90.0
  0
INSERT
  5
52E
330
B
100
AcDbEntity
  8
0
100
AcDbBlockReference
  2
EGF11M12
 10
186.99999999999
 20
2250.0
 30
0.0
 42
-1.0
 50
90.0
  0
LWPOLYLINE
  5
52F
330
B
100
AcDbEntity
  8
LEVEL001
  6
Continuous
 62
     7
100
AcDbPolyline
 90
        6
 70
     0
 43
0.0
 10
192.99999999999
 20
2260.0
 10
192.99999999999
 20
2263.0
 10
190.99999999999
 20
2265.0
 10
182.99999999999
 20
2265.0
 10
180.99999999999
 20
2263.0
 10
180.99999999999
 20
2260.0
  0
LINE
  5
530
330
B
100
AcDbEntity
  8
LEVEL001
  6
Continuous
 62
     7
100
AcDbLine
 10
192.99999999999
 20
2263.0
 30
0.0
 11
180.99999999999
 21
2263.0
 31
0.0
  0
LINE
  5
531
330
B
100
AcDbEntity
  8
LEVEL001
  6
Continuous
 62
     7
100
AcDbLine
 10
214.99999999999
 20
2155.2
 30
0.0
 11
214.99999999999
 21
2114.0
 31
0.0
  0
LINE
  5
532
330
B
100
AcDbEntity
  8
LEVEL001
  6
Continuous
 62
     7
100
AcDbLine
 10
249.99999999999
 20
2250.0
 30
0.0
 11
249.99999999999
 21
2173.2
 31
0.0
  0
LINE
  5
533
330
B
100
AcDbEntity
  8
LEVEL001
  6
Continuous
 62
     7
100
AcDbLine
 10
249.99999999999
 20
2153.2
 30
0.0
 11
249.99999999999
 21
2114.0
 31
0.0
  0
INSERT
  5
534
330
B
100
AcDbEntity
  8
0
100
AcDbBlockReference
  2
EGF11M12
 10
1101.0
 20
2221.795744134
 30
0.0
 50
270.0
  0
LINE
  5
535
330
B
100
AcDbEntity
  8
LEVEL001
  6
Continuous
 62
     7
100
AcDbLine
 10
1095.0
 20
2230.0
 30
0.0
 11
1095.0
 21
2221.795744134
 31
0.0
  0
LINE
  5
536
330
B
100
AcDbEntity
  8
LEVEL001
  6
Continuous
 62
     7
100
AcDbLine
 10
1107.0
 20
2230.0
 30
0.0
 11
1107.0
 21
2221.795744134
 31
0.0
  0
INSERT
  5
537
330
B
100
AcDbEntity
  8
0
100
AcDbBlockReference
  2
EGF11M12
 10
186.99999999999
 20
2221.795744134
 30
0.0
 42
-1.0
 50
270.0
  0
LINE
  5
538
330
B
100
AcDbEntity
  8
LEVEL001
  6
Continuous
 62
     7
100
AcDbLine
 10
192.99999999999
 20
2230.0
 30
0.0
 11
192.99999999999
 21
2221.795744134
 31
0.0
  0
LINE
  5
539
330
B
100
AcDbEntity
  8
LEVEL001
  6
Continuous
 62
     7
100
AcDbLine
 10
180.99999999999
 20
2230.0
 30
0.0
 11
180.99999999999
 21
2221.795744134
 31
0.0
  0
CIRCLE
  5
53A
330
B
100
AcDbEntity
  8
LEVEL001
  6
Continuous
 62
     7
100
AcDbCircle
 10
2106.6040948917
 20
1244.1154908913
 30
0.0
 40
8.0
  0
ARC
  5
53B
330
B
100
AcDbEntity
  8
LEVEL001
  6
Continuous
 62
     7
100
AcDbCircle
 10
2106.6040948917
 20
1244.1154908914
 30
0.0
 40
20.0
100
AcDbArc
 50
42.338968663391
 51
149.98173733662
  0
LINE
  5
53C
330
B
100
AcDbEntity
  8
LEVEL001
  6
Continuous
 62
     7
100
AcDbLine
 10
2163.9308973865
 20
1210.8951144041
 30
0.0
 11
2121.3875586307
 21
1257.5857989754
 31
0.0
  0
CIRCLE
  5
53D
330
B
100
AcDbEntity
  8
LEVEL001
  6
Continuous
 62
     7
100
AcDbCircle
 10
2111.4331081877
 20
1199.3753452659
 30
0.0
 40
4.0
  0
LINE
  5
53E
330
B
100
AcDbEntity
  8
LEVEL001
  6
Continuous
 62
     7
100
AcDbLine
 10
2130.2445032888
 20
1211.4638279809
 30
0.0
 11
2132.9272884532
 21
1186.6081915223
 31
0.0
  0
LINE
  5
53F
330
B
100
AcDbEntity
  8
LEVEL001
  6
Continuous
 62
     7
100
AcDbLine
 10
2090.4754849551
 20
1207.1713717178
 30
0.0
 11
2130.2445032888
 21
1211.4638279809
 31
0.0
  0
LINE
  5
540
330
B
100
AcDbEntity
  8
LEVEL001
  6
DASHDOT
 62
     1
100
AcDbLine
 10
2102.8739352459
 20
1278.674908215
 30
0.0
 11
2160.6907551198
 21
743.01000480586
 31
0.0
  0
LINE
  5
541
330
B
100
AcDbEntity
  8
LEVEL001
  6
Continuous
 62
     7
100
AcDbLine
 10
2057.6862923068
 20
1199.4276369655
 30
0.0
 11
2089.2867751319
 21
1254.1210111845
 31
0.0
  0
POINT
  5
542
330
B
100
AcDbEntity
  8
LEVEL001
 62
     7
100
AcDbPoint
 10
2177.1308770458
 20
1196.40833211
 30
0.0
  0
LINE
  5
543
330
B
100
AcDbEntity
  8
LEVEL001
  6
Continuous
 62
     7
100
AcDbLine
 10
2034.4989680772
 20
1175.9843622711
 30
0.0
 11
2190.592365037201
 21
1192.8322531038
 31
0.0
  0
ARC
  5
544
330
B
100
AcDbEntity
  8
LEVEL001
  6
Continuous
 62
     7
100
AcDbCircle
 10
2119.5805061697
 20
1170.4841901519
 30
0.0
 40
60.0
100
AcDbArc
 50
20.242365152162
 51
42.338968663403
  0
ARC
  5
545
330
B
100
AcDbEntity
  8
LEVEL001
  6
Continuous
 62
     7
100
AcDbCircle
 10
2121.6276918126
 20
1104.9239267233
 30
0.0
 40
107.35
100
AcDbArc
 50
54.338858404595
 51
62.037079809577
  0
ARC
  5
546
330
B
100
AcDbEntity
  8
LEVEL001
  6
Continuous
 62
     7
100
AcDbCircle
 10
2121.6276918126
 20
1104.9239267233
 30
0.0
 40
107.35
100
AcDbArc
 50
322.76206903102
 51
49.558636968983
  0
POINT
  5
547
330
B
100
AcDbEntity
  8
LEVEL001
 62
     7
100
AcDbPoint
 10
2047.8815674611
 20
1182.4578492549
 30
0.0
  0
LINE
  5
548
330
B
100
AcDbEntity
  8
LEVEL001
  6
Continuous
 62
     7
100
AcDbLine
 10
2090.4754849551
 20
1207.1713717178
 30
0.0
 11
2093.1582701195
 21
1182.3157352592
 31
0.0
  0
ARC
  5
549
330
B
100
AcDbEntity
  8
LEVEL001
  6
Continuous
 62
     7
100
AcDbCircle
 10
2109.6382515862
 20
1169.4110760862
 30
0.0
 40
60.0
100
AcDbArc
 50
149.98173733661
 51
172.07834084785
  0
ARC
  5
54A
330
B
100
AcDbEntity
  8
LEVEL001
  6
Continuous
 62
     7
100
AcDbCircle
 10
2121.6276918126
 20
1104.9239267232
 30
0.0
 40
107.35
100
AcDbArc
 50
130.28362619042
 51
137.9818475954
  0
ARC
  5
54B
330
B
100
AcDbEntity
  8
LEVEL001
  6
Continuous
 62
     7
100
AcDbCircle
 10
2121.6276918126
 20
1104.9239267233
 30
0.0
 40
107.35
100
AcDbArc
 50
143.54456742335
 51
228.77613857665
  0
LINE
  5
54C
330
B
100
AcDbEntity
  8
LEVEL001
  6
DASHDOT
 62
     1
100
AcDbLine
 10
1978.3370743872
 20
1089.4578998012
 30
0.0
 11
2270.1723036253
 21
1120.9570418476
 31
0.0
  0
LINE
  5
54D
330
B
100
AcDbEntity
  8
LEVEL001
  6
Continuous
 62
     7
100
AcDbLine
 10
2190.592365037201
 20
1192.8322531038
 30
0.0
 11
2213.240542105
 21
983.0
 31
0.0
  0
LINE
  5
54E
330
B
100
AcDbEntity
  8
LEVEL001
  6
Continuous
 62
     7
100
AcDbLine
 10
2034.4989680772
 20
1175.9843622711
 30
0.0
 11
2055.3286734413
 21
983.0
 31
0.0
  0
TEXT
  5
54F
330
B
100
AcDbEntity
  8
LEVEL001
 62
     7
100
AcDbText
 10
2592.0
 20
168.0
 30
0.0
 40
24.0
  1
RP-500P 承認図
100
AcDbText
  0
TEXT
  5
550
330
B
100
AcDbEntity
  8
LEVEL001
 62
     7
100
AcDbText
 10
3012.0
 20
168.0
 30
0.0
 40
24.0
  1
RP-500P
 41
0.5
100
AcDbText
  0
TEXT
  5
551
330
B
100
AcDbEntity
  8
LEVEL001
 62
     7
100
AcDbText
 10
3035.0
 20
60.0
 30
0.0
 40
24.0
  1
14. 2.22
 41
0.5
100
AcDbText
  0
TEXT
  5
552
330
B
100
AcDbEntity
  8
LEVEL001
 62
     7
100
AcDbText
 10
2915.0
 20
60.0
 30
0.0
 40
24.0
  1
(A2) 1/6
 41
0.5
100
AcDbText
  0
DIMENSION
  5
553
330
B
100
AcDbEntity
  8
LEVEL001
  6
Continuous
 62
     1
100
AcDbDimension
  2
*D0
 10
1184.0
 20
1301.0
 30
0.0
 11
651.49999999999
 21
1301.0
 31
0.0
 71
     5
 42
-1.0
  3
GMM001
100
AcDbAlignedDimension
 13
118.99999999999
 23
983.0
 33
0.0
 14
1184.0
 24
983.0
 34
0.0
100
AcDbRotatedDimension
  0
DIMENSION
  5
554
330
B
100
AcDbEntity
  8
LEVEL001
  6
Continuous
 62
     1
100
AcDbDimension
  2
*D1
 10
1420.0
 20
34.0
 30
0.0
 11
1420.0
 21
649.0000000291099
 31
0.0
 71
     5
 42
-1.0
  3
GMM001
100
AcDbAlignedDimension
 13
2104.4578667602
 23
1264.0000000582
 33
0.0
 14
1518.6748548989
 24
34.0
 34
0.0
 50
270.0
100
AcDbRotatedDimension
  0
DIMENSION
  5
555
330
B
100
AcDbEntity
  8
LEVEL001
  6
Continuous
 62
     1
100
AcDbDimension
  2
*D2
 10
2426.7939653009
 20
1301.0
 30
0.0
 11
1981.7939653009
 21
1301.0
 31
0.0
 71
     5
 42
-1.0
  3
GMM001
100
AcDbAlignedDimension
 13
1536.7939653009
 23
1008.1265193121
 33
0.0
 14
2426.7939653009
 24
619.1945891599401
 34
0.0
100
AcDbRotatedDimension
  0
TEXT
  5
556
330
B
100
AcDbEntity
  8
LEVEL001
 62
     1
100
AcDbText
 10
1999.0
 20
2009.0
 30
0.0
 40
24.0
  1
寸法（Ｗ×Ｄ×Ｈ）
100
AcDbText
  0
TEXT
  5
557
330
B
100
AcDbEntity
  8
LEVEL001
 62
     1
100
AcDbText
 10
1999.0
 20
1865.0
 30
0.0
 40
24.0
  1
消  費  電  力
100
AcDbText
  0
TEXT
  5
558
330
B
100
AcDbEntity
  8
LEVEL001
 62
     1
100
AcDbText
 10
1999.0
 20
1913.0
 30
0.0
 40
24.0
  1
電          源
100
AcDbText
  0
TEXT
  5
559
330
B
100
AcDbEntity
  8
LEVEL001
 62
     1
100
AcDbText
 10
1999.0
 20
1961.0
 30
0.0
 40
24.0
  1
能          力
100
AcDbText
  0
TEXT
  5
55A
330
B
100
AcDbEntity
  8
LEVEL001
 62
     1
100
AcDbText
 10
1999.0
 20
2057.0
 30
0.0
 40
24.0
  1
型          式
100
AcDbText
  0
TEXT
  5
55B
330
B
100
AcDbEntity
  8
LEVEL001
 62
     1
100
AcDbText
 10
1999.0
 20
2105.0
 30
0.0
 40
24.0
  1
製　  品  　名
100
AcDbText
  0
TEXT
  5
55C
330
B
100
AcDbEntity
  8
LEVEL001
 62
     1
100
AcDbText
 10
2263.0
 20
2105.0
 30
0.0
 40
24.0
  1
手打麺生地プレス成形機
100
AcDbText
  0
TEXT
  5
55D
330
B
100
AcDbEntity
  8
LEVEL001
 62
     1
100
AcDbText
 10
1955.5
 20
1815.5
 30
0.0
 40
24.0
  1
材
100
AcDbText
  0
TEXT
  5
55E
330
B
100
AcDbEntity
  8
LEVEL001
 62
     1
100
AcDbText
 10
1955.5
 20
1783.5
 30
0.0
 40
24.0
  1
質
100
AcDbText
  0
TEXT
  5
55F
330
B
100
AcDbEntity
  8
LEVEL001
 62
     1
100
AcDbText
 10
1999.0
 20
1721.0
 30
0.0
 40
24.0
  1
コ－ド長さ
100
AcDbText
  0
TEXT
  5
560
330
B
100
AcDbEntity
  8
LEVEL001
 62
     1
100
AcDbText
 10
1999.0
 20
1673.0
 30
0.0
 40
24.0
  1
電源プラグ
100
AcDbText
  0
TEXT
  5
561
330
B
100
AcDbEntity
  8
LEVEL001
 62
     1
100
AcDbText
 10
1999.0
 20
1625.0
 30
0.0
 40
24.0
  1
製品重量
100
AcDbText
  0
TEXT
  5
562
330
B
100
AcDbEntity
  8
LEVEL001
 62
     1
100
AcDbText
 10
2263.0
 20
1721.0
 30
0.0
 40
24.0
  1
３．０ｍ
100
AcDbText
  0
TEXT
  5
563
330
B
100
AcDbEntity
  8
LEVEL001
 62
     1
100
AcDbText
 10
1999.0
 20
1817.0
 30
0.0
 40
24.0
  1
凹凸ロ－ル
100
AcDbText
  0
TEXT
  5
564
330
B
100
AcDbEntity
  8
LEVEL001
 62
     1
100
AcDbText
 10
1999.0
 20
1769.0
 30
0.0
 40
24.0
  1
安全カバ－類
100
AcDbText
  0
TEXT
  5
565
330
B
100
AcDbEntity
  8
LEVEL001
 62
     1
100
AcDbText
 10
2263.0
 20
1817.0
 30
0.0
 40
24.0
  1
ポリプロピレン
100
AcDbText
  0
TEXT
  5
566
330
B
100
AcDbEntity
  8
LEVEL001
 62
     1
100
AcDbText
 10
2263.0
 20
1769.0
 30
0.0
 40
24.0
  1
ＳＵＳ４３０，ＳＰＣＣ
100
AcDbText
  0
TEXT
  5
567
330
B
100
AcDbEntity
  8
LEVEL001
 62
     1
100
AcDbText
 10
2263.0
 20
2057.0
 30
0.0
 40
24.0
  1
ロ－リングプレス　ＲＰ－５００Ｐ型
100
AcDbText
  0
TEXT
  5
568
330
B
100
AcDbEntity
  8
LEVEL001
 62
     1
100
AcDbText
 10
2263.0
 20
2009.0
 30
0.0
 40
24.0
  1
１，０６５×８９０×１，２３０
100
AcDbText
  0
TEXT
  5
569
330
B
100
AcDbEntity
  8
LEVEL001
 62
     1
100
AcDbText
 10
2263.0
 20
1961.0
 30
0.0
 40
24.0
  1
１２ｋｇ／回
100
AcDbText
  0
TEXT
  5
56A
330
B
100
AcDbEntity
  8
LEVEL001
 62
     1
100
AcDbText
 10
2263.0
 20
1913.0
 30
0.0
 40
24.0
  1
３相２００Ｖ　５０／６０Ｈｚ
100
AcDbText
  0
TEXT
  5
56B
330
B
100
AcDbEntity
  8
LEVEL001
 62
     1
100
AcDbText
 10
2263.0
 20
1865.0
 30
0.0
 40
24.0
  1
１１５０Ｗ
100
AcDbText
  0
TEXT
  5
56C
330
B
100
AcDbEntity
  8
LEVEL001
 62
     1
100
AcDbText
 10
2263.0
 20
1673.0
 30
0.0
 40
24.0
  1
４Ｐ２０Ａ
100
AcDbText
  0
TEXT
  5
56D
330
B
100
AcDbEntity
  8
LEVEL001
 62
     1
100
AcDbText
 10
2263.0
 20
1625.0
 30
0.0
 40
24.0
  1
５２０ｋｇ
100
AcDbText
  0
ENDSEC
  0
SECTION
  2
OBJECTS
  0
DICTIONARY
  5
4B
330
0
100
AcDbDictionary
281
     1
  3
ACAD_COLOR
350
573
  3
ACAD_GROUP
350
4C
  3
ACAD_LAYOUT
350
576
  3
ACAD_MATERIAL
350
572
  3
ACAD_MLINESTYLE
350
4D
  3
ACAD_PLOTSETTINGS
350
577
  3
ACAD_PLOTSTYLENAME
350
570
  3
ACAD_TABLESTYLE
350
574
  3
ACDBHEADERROUNDTRIPXREC
350
582
  3
AcDbVariableDictionary
350
57D
  0
DICTIONARY
  5
573
102
{ACAD_REACTORS
330
4B
102
}
330
4B
100
AcDbDictionary
281
     1
  0
DICTIONARY
  5
4C
102
{ACAD_REACTORS
330
4B
102
}
330
0
100
AcDbDictionary
281
     1
  0
DICTIONARY
  5
576
102
{ACAD_REACTORS
330
4B
102
}
330
4B
100
AcDbDictionary
281
     1
  3
Model
350
578
  3
レイアウト1
350
579
  0
DICTIONARY
  5
572
102
{ACAD_REACTORS
330
4B
102
}
330
4B
100
AcDbDictionary
281
     1
  0
DICTIONARY
  5
4D
102
{ACAD_REACTORS
330
4B
102
}
330
0
100
AcDbDictionary
281
     1
  3
STANDARD
350
4E
  0
DICTIONARY
  5
577
102
{ACAD_REACTORS
330
4B
102
}
330
4B
100
AcDbDictionary
281
     1
  0
ACDBDICTIONARYWDFLT
  5
570
102
{ACAD_REACTORS
330
4B
102
}
330
4B
100
AcDbDictionary
281
     1
  3
Normal
350
571
100
AcDbDictionaryWithDefault
340
571
  0
DICTIONARY
  5
574
102
{ACAD_REACTORS
330
4B
102
}
330
4B
100
AcDbDictionary
281
     1
  3
Standard
350
575
  0
DICTIONARY
  5
582
102
{ACAD_REACTORS
330
4B
102
}
330
4B
100
AcDbDictionary
281
     1
  0
DICTIONARY
  5
57D
102
{ACAD_REACTORS
330
4B
102
}
330
4B
100
AcDbDictionary
281
     1
  3
CTABLESTYLE
350
57E
  3
DIMASSOC
350
57F
  3
PROJECTNAME
350
580
  0
LAYOUT
  5
578
102
{ACAD_XDICTIONARY
360
583
102
}
102
{ACAD_REACTORS
330
576
102
}
330
576
100
AcDbPlotSettings
  1

  2
Microsoft XPS Document Writer
  4

  6

 40
0.0
 41
0.0
 42
0.0
 43
0.0
 44
0.0
 45
0.0
 46
0.0
 47
0.0
 48
0.0
 49
0.0
140
0.0
141
0.0
142
1.0
143
1.0
 70
  1712
 72
     0
 73
     0
 74
     0
  7

 75
     0
147
1.0
148
0.0
149
0.0
100
AcDbLayout
  1
Model
 70
     1
 71
     0
 10
0.0
 20
0.0
 11
12.0
 21
9.0
 12
0.0
 22
0.0
 32
0.0
 14
0.0
 24
0.0
 34
0.0
 15
0.0
 25
0.0
 35
0.0
146
0.0
 13
0.0
 23
0.0
 33
0.0
 16
1.0
 26
0.0
 36
0.0
 17
0.0
 27
1.0
 37
0.0
 76
     0
330
B
  0
LAYOUT
  5
579
102
{ACAD_XDICTIONARY
360
585
102
}
102
{ACAD_REACTORS
330
576
102
}
330
576
100
AcDbPlotSettings
  1

  2
Microsoft XPS Document Writer
  4

  6

 40
0.0
 41
0.0
 42
0.0
 43
0.0
 44
0.0
 45
0.0
 46
0.0
 47
0.0
 48
0.0
 49
0.0
140
0.0
141
0.0
142
1.0
143
1.0
 70
   688
 72
     0
 73
     0
 74
     5
  7

 75
    16
147
1.0
148
0.0
149
0.0
100
AcDbLayout
  1
レイアウト1
 70
     1
 71
     1
 10
0.0
 20
0.0
 11
12.0
 21
9.0
 12
0.0
 22
0.0
 32
0.0
 14
1.000000000000000E+20
 24
1.000000000000000E+20
 34
1.000000000000000E+20
 15
-1.000000000000000E+20
 25
-1.000000000000000E+20
 35
-1.000000000000000E+20
146
0.0
 13
0.0
 23
0.0
 33
0.0
 16
1.0
 26
0.0
 36
0.0
 17
0.0
 27
1.0
 37
0.0
 76
     0
330
C
  0
MLINESTYLE
  5
4E
102
{ACAD_REACTORS
330
4D
102
}
330
0
100
AcDbMlineStyle
  2
STANDARD
 70
     0
  3

 62
   256
 51
90.0
 52
90.0
 71
     2
 49
0.5
 62
   256
  6
BYLAYER
 49
-0.5
 62
   256
  6
BYLAYER
  0
ACDBPLACEHOLDER
  5
571
102
{ACAD_REACTORS
330
570
102
}
330
570
  0
TABLESTYLE
  5
575
102
{ACAD_REACTORS
330
574
102
}
330
574
100
AcDbTableStyle
  3
Standard
 70
     0
 71
     0
 40
0.06
 41
0.06
280
     0
281
     0
  7
STANDARD
140
0.18
170
     2
 62
     0
 63
     7
283
     0
274
    -2
284
     1
 64
     0
275
    -2
285
     1
 65
     0
276
    -2
286
     1
 66
     0
277
    -2
287
     1
 67
     0
278
    -2
288
     1
 68
     0
279
    -2
289
     1
 69
     0
  7
STANDARD
140
0.25
170
     5
 62
     0
 63
     7
283
     0
274
    -2
284
     1
 64
     0
275
    -2
285
     1
 65
     0
276
    -2
286
     1
 66
     0
277
    -2
287
     1
 67
     0
278
    -2
288
     1
 68
     0
279
    -2
289
     1
 69
     0
  7
STANDARD
140
0.18
170
     5
 62
     0
 63
     7
283
     0
274
    -2
284
     1
 64
     0
275
    -2
285
     1
 65
     0
276
    -2
286
     1
 66
     0
277
    -2
287
     1
 67
     0
278
    -2
288
     1
 68
     0
279
    -2
289
     1
 69
     0
  0
DICTIONARYVAR
  5
57E
102
{ACAD_REACTORS
330
57D
102
}
330
57D
100
DictionaryVariables
280
     0
  1
STANDARD
  0
DICTIONARYVAR
  5
57F
102
{ACAD_REACTORS
330
57D
102
}
330
57D
100
DictionaryVariables
280
     0
  1
1
  0
DICTIONARYVAR
  5
580
102
{ACAD_REACTORS
330
57D
102
}
330
57D
100
DictionaryVariables
280
     0
  1

  0
DICTIONARY
  5
583
330
578
100
AcDbDictionary
280
     1
281
     1
  3
ACAD_XREC_ROUNDTRIP
360
584
  0
DICTIONARY
  5
585
330
579
100
AcDbDictionary
280
     1
281
     1
  3
ACAD_XREC_ROUNDTRIP
360
586
  0
XRECORD
  5
584
102
{ACAD_REACTORS
330
583
102
}
330
583
100
AcDbXrecord
280
     1
102
SHADEPLOT
 70
     0
102
SHADEPLOTRESLEVEL
 70
     2
102
SHADEPLOTCUSTOMDPI
 70
   300
  0
XRECORD
  5
586
102
{ACAD_REACTORS
330
585
102
}
330
585
100
AcDbXrecord
280
     1
102
SHADEPLOT
 70
     0
102
SHADEPLOTRESLEVEL
 70
     2
102
SHADEPLOTCUSTOMDPI
 70
   300
  0
ENDSEC
  0
EOF
