   0
SECTION
   2
HEADER
   9
$ACADVER
   1
AC1015
   9
$DWGCODEPAGE
   3
ANSI_932
   9
$LIMMIN
  10
0.0
  20
0.0
   9
$LIMMAX
  10
 3564.0000000000
  20
 2520.0000000000
   9
$EXTMIN
  10
0.0
  20
0.0
  30
0.0
   9
$EXTMAX
  10
 3564.0000000000
  20
 2520.0000000000
  30
0.0
   9
$LTSCALE
  40
 71.280000000000
   9
$HANDSEED
   5
4BF
   0
ENDSEC
   0
SECTION
   2
TABLES
  0
TABLE
  2
VPORT
  5
8
100
AcDbSymbolTable
 70
     1
  0
VPORT
  5
4BE
100
AcDbSymbolTableRecord
100
AcDbViewportTableRecord
  2
*ACTIVE
 70
     0
 10
0.0
 20
0.0
 11
1.0
 21
1.0
  12
 1782.0000000000
  22
 1260.0000000000
 13
0.0
 23
0.0
 14
1.0
 24
1.0
 15
0.0
 25
0.0
 16
0.0
 26
0.0
 36
1.0
 17
0.0
 27
0.0
 37
0.0
  40
 3564.0000000000
  41
 1.4787878787879
 42
50.0
 43
0.0
 44
0.0
 50
0.0
 51
0.0
 71
     0
 72
   100
 73
     1
 74
     1
 75
     0
 76
     0
 77
     0
 78
     0
  0
ENDTAB
  0
TABLE
  2
LTYPE
  5
5
100
AcDbSymbolTable
 70
    25
  0
LTYPE
  5
12
100
AcDbSymbolTableRecord
100
AcDbLinetypeTableRecord
  2
BYBLOCK
 70
     0
  3

 72
    65
 73
     0
 40
0.0
  0
LTYPE
  5
13
100
AcDbSymbolTableRecord
100
AcDbLinetypeTableRecord
  2
BYLAYER
 70
     0
  3

 72
    65
 73
     0
 40
0.0
  0
LTYPE
  5
14
100
AcDbSymbolTableRecord
100
AcDbLinetypeTableRecord
  2
CONTINUOUS
 70
     0
  3
Solid line
 72
    65
 73
     0
 40
0.0
  0
LTYPE
  5
20
100
AcDbSymbolTableRecord
100
AcDbLinetypeTableRecord
  2
BORDER
 70
     0
  3
__ __ . __ __ . __ __ . __ __ . __ __ . __ __ .
 72
    65
 73
     6
 40
1.75
 49
0.5
 74
     0
 49
-0.25
 74
     0
 49
0.5
 74
     0
 49
-0.25
 74
     0
 49
0.0
 74
     0
 49
-0.25
 74
     0
  0
LTYPE
  5
21
100
AcDbSymbolTableRecord
100
AcDbLinetypeTableRecord
  2
BORDER2
 70
     0
  3
__.__.__.__.__.__.__.__.__.__.__.__.__.__.__.__
 72
    65
 73
     6
 40
0.875
 49
0.25
 74
     0
 49
-0.125
 74
     0
 49
0.25
 74
     0
 49
-0.125
 74
     0
 49
0.0
 74
     0
 49
-0.125
 74
     0
  0
LTYPE
  5
22
100
AcDbSymbolTableRecord
100
AcDbLinetypeTableRecord
  2
BORDERX2
 70
     0
  3
____  ____  .  ____  ____  .  ____  ____  .  __
 72
    65
 73
     6
 40
3.5
 49
1.0
 74
     0
 49
-0.5
 74
     0
 49
1.0
 74
     0
 49
-0.5
 74
     0
 49
0.0
 74
     0
 49
-0.5
 74
     0
  0
LTYPE
  5
23
100
AcDbSymbolTableRecord
100
AcDbLinetypeTableRecord
  2
CENTER
 70
     0
  3
____ _ ____ _ ____ _ ____ _ ____ _ ____ _ ____ 
 72
    65
 73
     4
 40
2.0
 49
1.25
 74
     0
 49
-0.25
 74
     0
 49
0.25
 74
     0
 49
-0.25
 74
     0
  0
LTYPE
  5
24
100
AcDbSymbolTableRecord
100
AcDbLinetypeTableRecord
  2
CENTER2
 70
     0
  3
___ _ ___ _ ___ _ ___ _ ___ _ ___ _ ___ _ ___ _
 72
    65
 73
     4
 40
1.125
 49
0.75
 74
     0
 49
-0.125
 74
     0
 49
0.125
 74
     0
 49
-0.125
 74
     0
  0
LTYPE
  5
25
100
AcDbSymbolTableRecord
100
AcDbLinetypeTableRecord
  2
CENTERX2
 70
     0
  3
________  __  ________  __  ________  __  _____
 72
    65
 73
     4
 40
4.0
 49
2.5
 74
     0
 49
-0.5
 74
     0
 49
0.5
 74
     0
 49
-0.5
 74
     0
  0
LTYPE
  5
26
100
AcDbSymbolTableRecord
100
AcDbLinetypeTableRecord
  2
DASHDOT
 70
     0
  3
__ . __ . __ . __ . __ . __ . __ . __ . __ . __
 72
    65
 73
     4
 40
1.0
 49
0.5
 74
     0
 49
-0.25
 74
     0
 49
0.0
 74
     0
 49
-0.25
 74
     0
  0
LTYPE
  5
27
100
AcDbSymbolTableRecord
100
AcDbLinetypeTableRecord
  2
DASHDOT2
 70
     0
  3
_._._._._._._._._._._._._._._._._._._._._._._._
 72
    65
 73
     4
 40
0.5
 49
0.25
 74
     0
 49
-0.125
 74
     0
 49
0.0
 74
     0
 49
-0.125
 74
     0
  0
LTYPE
  5
28
100
AcDbSymbolTableRecord
100
AcDbLinetypeTableRecord
  2
DASHDOTX2
 70
     0
  3
____  .  ____  .  ____  .  ____  .  ____  .  __
 72
    65
 73
     4
 40
2.0
 49
1.0
 74
     0
 49
-0.5
 74
     0
 49
0.0
 74
     0
 49
-0.5
 74
     0
  0
LTYPE
  5
29
100
AcDbSymbolTableRecord
100
AcDbLinetypeTableRecord
  2
DASHED
 70
     0
  3
__ __ __ __ __ __ __ __ __ __ __ __ __ __ __ __
 72
    65
 73
     2
 40
0.75
 49
0.5
 74
     0
 49
-0.25
 74
     0
  0
LTYPE
  5
2A
100
AcDbSymbolTableRecord
100
AcDbLinetypeTableRecord
  2
DASHED2
 70
     0
  3
_ _ _ _ _ _ _ _ _ _ _ _ _ _ _ _ _ _ _ _ _ _ _ _
 72
    65
 73
     2
 40
0.375
 49
0.25
 74
     0
 49
-0.125
 74
     0
  0
LTYPE
  5
2B
100
AcDbSymbolTableRecord
100
AcDbLinetypeTableRecord
  2
DASHEDX2
 70
     0
  3
____  ____  ____  ____  ____  ____  ____  ____ 
 72
    65
 73
     2
 40
1.5
 49
1.0
 74
     0
 49
-0.5
 74
     0
  0
LTYPE
  5
2C
100
AcDbSymbolTableRecord
100
AcDbLinetypeTableRecord
  2
DIVIDE
 70
     0
  3
____ . . ____ . . ____ . . ____ . . ____ . . __
 72
    65
 73
     6
 40
1.25
 49
0.5
 74
     0
 49
-0.25
 74
     0
 49
0.0
 74
     0
 49
-0.25
 74
     0
 49
0.0
 74
     0
 49
-0.25
 74
     0
  0
LTYPE
  5
2D
100
AcDbSymbolTableRecord
100
AcDbLinetypeTableRecord
  2
DIVIDE2
 70
     0
  3
__..__..__..__..__..__..__..__..__..__..__..__.
 72
    65
 73
     6
 40
0.625
 49
0.25
 74
     0
 49
-0.125
 74
     0
 49
0.0
 74
     0
 49
-0.125
 74
     0
 49
0.0
 74
     0
 49
-0.125
 74
     0
  0
LTYPE
  5
2E
100
AcDbSymbolTableRecord
100
AcDbLinetypeTableRecord
  2
DIVIDEX2
 70
     0
  3
________  .  .  ________  .  .  ________  .  . 
 72
    65
 73
     6
 40
2.5
 49
1.0
 74
     0
 49
-0.5
 74
     0
 49
0.0
 74
     0
 49
-0.5
 74
     0
 49
0.0
 74
     0
 49
-0.5
 74
     0
  0
LTYPE
  5
2F
100
AcDbSymbolTableRecord
100
AcDbLinetypeTableRecord
  2
DOT
 70
     0
  3
. . . . . . . . . . . . . . . . . . . . . . . .
 72
    65
 73
     2
 40
0.25
 49
0.0
 74
     0
 49
-0.25
 74
     0
  0
LTYPE
  5
30
100
AcDbSymbolTableRecord
100
AcDbLinetypeTableRecord
  2
DOT2
 70
     0
  3
...............................................
 72
    65
 73
     2
 40
0.125
 49
0.0
 74
     0
 49
-0.125
 74
     0
  0
LTYPE
  5
31
100
AcDbSymbolTableRecord
100
AcDbLinetypeTableRecord
  2
DOTX2
 70
     0
  3
.  .  .  .  .  .  .  .  .  .  .  .  .  .  .  . 
 72
    65
 73
     2
 40
0.5
 49
0.0
 74
     0
 49
-0.5
 74
     0
  0
LTYPE
  5
32
100
AcDbSymbolTableRecord
100
AcDbLinetypeTableRecord
  2
HIDDEN
 70
     0
  3
__ __ __ __ __ __ __ __ __ __ __ __ __ __ __ __
 72
    65
 73
     2
 40
0.375
 49
0.25
 74
     0
 49
-0.125
 74
     0
  0
LTYPE
  5
33
100
AcDbSymbolTableRecord
100
AcDbLinetypeTableRecord
  2
HIDDEN2
 70
     0
  3
_ _ _ _ _ _ _ _ _ _ _ _ _ _ _ _ _ _ _ _ _ _ _ _
 72
    65
 73
     2
 40
0.1875
 49
0.125
 74
     0
 49
-0.0625
 74
     0
  0
LTYPE
  5
34
100
AcDbSymbolTableRecord
100
AcDbLinetypeTableRecord
  2
HIDDENX2
 70
     0
  3
____ ____ ____ ____ ____ ____ ____ ____ ____ __
 72
    65
 73
     2
 40
0.75
 49
0.5
 74
     0
 49
-0.25
 74
     0
  0
LTYPE
  5
35
100
AcDbSymbolTableRecord
100
AcDbLinetypeTableRecord
  2
PHANTOM
 70
     0
  3
______  __  __  ______  __  __  ______  __  __ 
 72
    65
 73
     6
 40
2.5
 49
1.25
 74
     0
 49
-0.25
 74
     0
 49
0.25
 74
     0
 49
-0.25
 74
     0
 49
0.25
 74
     0
 49
-0.25
 74
     0
  0
LTYPE
  5
36
100
AcDbSymbolTableRecord
100
AcDbLinetypeTableRecord
  2
PHANTOM2
 70
     0
  3
___ _ _ ___ _ _ ___ _ _ ___ _ _ ___ _ _ ___ _ _
 72
    65
 73
     6
 40
1.25
 49
0.625
 74
     0
 49
-0.125
 74
     0
 49
0.125
 74
     0
 49
-0.125
 74
     0
 49
0.125
 74
     0
 49
-0.125
 74
     0
  0
LTYPE
  5
37
100
AcDbSymbolTableRecord
100
AcDbLinetypeTableRecord
  2
PHANTOMX2
 70
     0
  3
____________    ____    ____    ____________   
 72
    65
 73
     6
 40
5.0
 49
2.5
 74
     0
 49
-0.5
 74
     0
 49
0.5
 74
     0
 49
-0.5
 74
     0
 49
0.5
 74
     0
 49
-0.5
 74
     0
  0
ENDTAB
   0
TABLE
   2
LAYER
   5
2
 100
AcDbSymbolTable
  70
6
   0
LAYER
   5
E
 100
AcDbSymbolTableRecord
 100
AcDbLayerTableRecord
   2
0
  70
0
  62
7
   6
CONTINUOUS
 390
30
   0
LAYER
   5
39
 100
AcDbSymbolTableRecord
 100
AcDbLayerTableRecord
   2
LEVEL001
  70
0
  62
7
   6
CONTINUOUS
 390
30
   0
LAYER
   5
3A
 100
AcDbSymbolTableRecord
 100
AcDbLayerTableRecord
   2
LEVEL002
  70
0
  62
7
   6
CONTINUOUS
 390
30
   0
LAYER
   5
3B
 100
AcDbSymbolTableRecord
 100
AcDbLayerTableRecord
   2
内図枠(作図領域)
  70
0
  62
7
   6
CONTINUOUS
 390
30
   0
LAYER
   5
3C
 100
AcDbSymbolTableRecord
 100
AcDbLayerTableRecord
   2
外図枠(出力紙領域)
  70
0
  62
7
   6
CONTINUOUS
 390
30
   0
LAYER
   5
3D
 100
AcDbSymbolTableRecord
 100
AcDbLayerTableRecord
   2
部品表金額表示用
  70
0
  62
7
   6
CONTINUOUS
 390
30
   0
ENDTAB
  0
TABLE
  2
STYLE
  5
3
100
AcDbSymbolTable
  70
4
  0
STYLE
  5
F
100
AcDbSymbolTableRecord
100
AcDbTextStyleTableRecord
  2
STANDARD
 70
     0
 40
0.0
 41
1.0
 50
0.0
 71
     0
 42
0.2
  3
TXT
  4
BIGFONT
  0
STYLE
  5
38
100
AcDbSymbolTableRecord
100
AcDbTextStyleTableRecord
  2
STANDARD1
 70
     4
 40
0.0
 41
1.0
 50
0.0
 71
     0
 42
0.2
  3
TXT
  4
BIGFONT
   0
STYLE
   5
3E
 100
AcDbSymbolTableRecord
 100
AcDbTextStyleTableRecord
   2
GMM001
  70
0
  40
0.0
  41
 1.0000000000000
  50
0.0
  71
     0
  42
1.0
   3
txt.shx
   4
bigfont.shx
   0
STYLE
   5
3F
 100
AcDbSymbolTableRecord
 100
AcDbTextStyleTableRecord
   2
GMM002
  70
0
  40
0.0
  41
 0.50000000000000
  50
0.0
  71
     0
  42
1.0
   3
txt.shx
   4
bigfont.shx
   0
ENDTAB
  0
TABLE
  2
VIEW
  5
6
100
AcDbSymbolTable
 70
     0
  0
ENDTAB
  0
TABLE
  2
UCS
  5
7
100
AcDbSymbolTable
 70
     0
  0
ENDTAB
  0
TABLE
  2
APPID
  5
9
100
AcDbSymbolTable
 70
     1
  0
APPID
  5
10
100
AcDbSymbolTableRecord
100
AcDbRegAppTableRecord
  2
ACAD
 70
     0
  0
ENDTAB
   0
TABLE
   2
DIMSTYLE
   5
A
 100
AcDbSymbolTable
  70
3
 100
AcDbDimStyleTable
  0
DIMSTYLE
105
1D
100
AcDbSymbolTableRecord
100
AcDbDimStyleTableRecord
  2
STANDARD
 70
     0
  3

  4

  5

  6

  7

 40
1.0
 41
0.18
 42
0.0625
 43
0.38
 44
0.18
 45
0.0
 46
0.0
 47
0.0
 48
0.0
140
0.18
141
0.09
142
0.0
143
25.4
144
1.0
145
0.0
146
1.0
147
0.09
 71
     0
 72
     0
 73
     1
 74
     1
 75
     0
 76
     0
 77
     0
 78
     0
170
     0
171
     2
172
     0
173
     0
174
     0
175
     0
176
     0
177
     0
178
     0
270
     2
271
     4
272
     4
273
     2
274
     2
340
F
275
     0
280
     0
281
     0
282
     0
283
     1
284
     0
285
     0
286
     0
287
     3
288
     0
   0
DIMSTYLE
 105
40
 100
AcDbSymbolTableRecord
 100
AcDbDimStyleTableRecord
   2
GMM001
  70
0
   3

   4

   5

   6
_OPEN30
   7
_OPEN30
  40
 1.0000000000000
  41
 18.000000000000
  42
0.0
  43
 48.000000000000
  44
 12.000000000000
  45
0.0
  46
0.0
  47
0.0
  48
0.0
 140
 24.000000000000
 141
 6.0000000000000
 142
0.0
 143
 0.39400000000000E-1
 144
 1.0000000000000
 145
0.0
 146
 0.62500000000000
 147
 10.285714285714
  71
0
  72
0
  73
0
  74
0
  75
0
  76
0
  77
3
  78
8
 170
0
 171
2
 172
1
 173
1
 174
0
 175
0
 176
1
 177
1
 178
7
 270
2
 271
6
 272
0
 273
2
 274
2
 340
3E
 275
0
 280
0
 281
0
 282
0
 283
1
 284
0
 285
0
 286
0
 287
3
 288
0
   0
ENDTAB
  0
TABLE
  2
BLOCK_RECORD
  5
1
100
AcDbSymbolTable
 70
     0
  0
BLOCK_RECORD
  5
18
100
AcDbSymbolTableRecord
100
AcDbBlockTableRecord
  2
*MODEL_SPACE
  0
BLOCK_RECORD
  5
15
100
AcDbSymbolTableRecord
100
AcDbBlockTableRecord
  2
*PAPER_SPACE
   0
BLOCK_RECORD
   5
41
 100
AcDbSymbolTableRecord
 100
AcDbBlockTableRecord
   2
GMM001
   0
BLOCK_RECORD
   5
42
 100
AcDbSymbolTableRecord
 100
AcDbBlockTableRecord
   2
*D1
   0
BLOCK_RECORD
   5
43
 100
AcDbSymbolTableRecord
 100
AcDbBlockTableRecord
   2
*D2
   0
BLOCK_RECORD
   5
44
 100
AcDbSymbolTableRecord
 100
AcDbBlockTableRecord
   2
*D3
   0
BLOCK_RECORD
   5
45
 100
AcDbSymbolTableRecord
 100
AcDbBlockTableRecord
   2
*D4
   0
BLOCK_RECORD
   5
46
 100
AcDbSymbolTableRecord
 100
AcDbBlockTableRecord
   2
*D5
   0
BLOCK_RECORD
   5
47
 100
AcDbSymbolTableRecord
 100
AcDbBlockTableRecord
   2
*D6
   0
BLOCK_RECORD
   5
48
 100
AcDbSymbolTableRecord
 100
AcDbBlockTableRecord
   2
*D7
   0
BLOCK_RECORD
   5
49
 100
AcDbSymbolTableRecord
 100
AcDbBlockTableRecord
   2
*D8
   0
BLOCK_RECORD
   5
4A
 100
AcDbSymbolTableRecord
 100
AcDbBlockTableRecord
   2
_ARCHTICK
   0
BLOCK_RECORD
   5
4B
 100
AcDbSymbolTableRecord
 100
AcDbBlockTableRecord
   2
_BOXBLANK
   0
BLOCK_RECORD
   5
4C
 100
AcDbSymbolTableRecord
 100
AcDbBlockTableRecord
   2
_BOXFILLED
   0
BLOCK_RECORD
   5
4D
 100
AcDbSymbolTableRecord
 100
AcDbBlockTableRecord
   2
_CLOSED
   0
BLOCK_RECORD
   5
4E
 100
AcDbSymbolTableRecord
 100
AcDbBlockTableRecord
   2
_CLOSEDBLANK
   0
BLOCK_RECORD
   5
4F
 100
AcDbSymbolTableRecord
 100
AcDbBlockTableRecord
   2
_DATUMBLANK
   0
BLOCK_RECORD
   5
50
 100
AcDbSymbolTableRecord
 100
AcDbBlockTableRecord
   2
_DATUMFILLED
   0
BLOCK_RECORD
   5
51
 100
AcDbSymbolTableRecord
 100
AcDbBlockTableRecord
   2
_DOT
   0
BLOCK_RECORD
   5
52
 100
AcDbSymbolTableRecord
 100
AcDbBlockTableRecord
   2
_DOTBLANK
   0
BLOCK_RECORD
   5
53
 100
AcDbSymbolTableRecord
 100
AcDbBlockTableRecord
   2
_DOTSMALL
   0
BLOCK_RECORD
   5
54
 100
AcDbSymbolTableRecord
 100
AcDbBlockTableRecord
   2
_INTEGRAL
   0
BLOCK_RECORD
   5
55
 100
AcDbSymbolTableRecord
 100
AcDbBlockTableRecord
   2
_NONE
   0
BLOCK_RECORD
   5
56
 100
AcDbSymbolTableRecord
 100
AcDbBlockTableRecord
   2
_OBLIQUE
   0
BLOCK_RECORD
   5
57
 100
AcDbSymbolTableRecord
 100
AcDbBlockTableRecord
   2
_OPEN
   0
BLOCK_RECORD
   5
58
 100
AcDbSymbolTableRecord
 100
AcDbBlockTableRecord
   2
_OPEN30
   0
BLOCK_RECORD
   5
59
 100
AcDbSymbolTableRecord
 100
AcDbBlockTableRecord
   2
_OPEN90
   0
BLOCK_RECORD
   5
5A
 100
AcDbSymbolTableRecord
 100
AcDbBlockTableRecord
   2
_ORIGIN
   0
ENDTAB
   0
ENDSEC
  0
SECTION
  2
BLOCKS
  0
BLOCK
  5
19
100
AcDbEntity
  8
0
100
AcDbBlockBegin
  2
*MODEL_SPACE
 70
     0
 10
0.0
 20
0.0
 30
0.0
  3
*MODEL_SPACE
  1

  0
ENDBLK
  5
1A
100
AcDbEntity
  8
0
100
AcDbBlockEnd
  0
BLOCK
  5
16
100
AcDbEntity
 67
     1
  8
0
100
AcDbBlockBegin
  2
*PAPER_SPACE
 70
     0
 10
0.0
 20
0.0
 30
0.0
  3
*PAPER_SPACE
  1

  0
ENDBLK
  5
17
100
AcDbEntity
 67
     1
  8
0
100
AcDbBlockEnd
   0
BLOCK
   5
5B
 100
AcDbEntity
   8
0
 100
AcDbBlockBegin
   2
_ARCHTICK
  70
0
  10
0.0
  20
0.0
  30
0.0
   3
_ARCHTICK
   0
POLYLINE
   5
5C
 100
AcDbEntity
   8
0
 370
-2
   6
BYBLOCK
  62
0
 100
AcDb2dPolyline
  66
1
  10
0.0
  20
0.0
  30
0.0
  70
1
  40
 0.15000000000000
  41
 0.15000000000000
   0
VERTEX
   5
5D
 100
AcDbEntity
   8
0
   6
BYBLOCK
  62
0
 100
AcDbVertex
 100
AcDb2dVertex
  10
-0.50000000000000
  20
-0.50000000000000
  30
0.0
  40
 0.15000000000000
  41
 0.15000000000000
   0
VERTEX
   5
5E
 100
AcDbEntity
   8
0
   6
BYBLOCK
  62
0
 100
AcDbVertex
 100
AcDb2dVertex
  10
 0.50000000000000
  20
 0.50000000000000
  30
0.0
  40
 0.15000000000000
  41
 0.15000000000000
   0
SEQEND
   5
5F
 100
AcDbEntity
   8
0
   6
BYBLOCK
  62
0
   0
ENDBLK
   5
60
 100
AcDbEntity
   8
0
 100
AcDbBlockEnd
   0
BLOCK
   5
61
 100
AcDbEntity
   8
0
 100
AcDbBlockBegin
   2
_OBLIQUE
  70
0
  10
0.0
  20
0.0
  30
0.0
   3
_OBLIQUE
   0
LINE
   5
62
 100
AcDbEntity
   8
0
 370
-2
 100
AcDbLine
   6
BYBLOCK
  62
0
  10
-0.50000000000000
  20
-0.50000000000000
  30
0.0
  11
 0.50000000000000
  21
 0.50000000000000
  31
0.0
   0
ENDBLK
   5
63
 100
AcDbEntity
   8
0
 100
AcDbBlockEnd
   0
BLOCK
   5
64
 100
AcDbEntity
   8
0
 100
AcDbBlockBegin
   2
_BOXBLANK
  70
0
  10
0.0
  20
0.0
  30
0.0
   3
_BOXBLANK
   0
LINE
   5
65
 100
AcDbEntity
   8
0
 370
-2
 100
AcDbLine
   6
BYBLOCK
  62
0
  10
-0.50000000000000
  20
-0.50000000000000
  30
0.0
  11
 0.50000000000000
  21
-0.50000000000000
  31
0.0
   0
LINE
   5
66
 100
AcDbEntity
   8
0
 370
-2
 100
AcDbLine
   6
BYBLOCK
  62
0
  10
 0.50000000000000
  20
-0.50000000000000
  30
0.0
  11
 0.50000000000000
  21
 0.50000000000000
  31
0.0
   0
LINE
   5
67
 100
AcDbEntity
   8
0
 370
-2
 100
AcDbLine
   6
BYBLOCK
  62
0
  10
 0.50000000000000
  20
 0.50000000000000
  30
0.0
  11
-0.50000000000000
  21
 0.50000000000000
  31
0.0
   0
LINE
   5
68
 100
AcDbEntity
   8
0
 370
-2
 100
AcDbLine
   6
BYBLOCK
  62
0
  10
-0.50000000000000
  20
 0.50000000000000
  30
0.0
  11
-0.50000000000000
  21
-0.50000000000000
  31
0.0
   0
LINE
   5
69
 100
AcDbEntity
   8
0
 370
-2
 100
AcDbLine
   6
BYBLOCK
  62
0
  10
-0.50000000000000
  20
0.0
  30
0.0
  11
-1.0000000000000
  21
0.0
  31
0.0
   0
ENDBLK
   5
6A
 100
AcDbEntity
   8
0
 100
AcDbBlockEnd
   0
BLOCK
   5
6B
 100
AcDbEntity
   8
0
 100
AcDbBlockBegin
   2
_BOXFILLED
  70
0
  10
0.0
  20
0.0
  30
0.0
   3
_BOXFILLED
   0
SOLID
   5
6C
 100
AcDbEntity
   8
0
 100
AcDbTrace
   6
BYBLOCK
  62
0
  10
-0.50000000000000
  20
 0.50000000000000
  30
0.0
  11
 0.50000000000000
  21
 0.50000000000000
  31
0.0
  12
-0.50000000000000
  22
-0.50000000000000
  32
0.0
  13
 0.50000000000000
  23
-0.50000000000000
  33
0.0
   0
LINE
   5
6D
 100
AcDbEntity
   8
0
 370
-2
 100
AcDbLine
   6
BYBLOCK
  62
0
  10
-0.50000000000000
  20
0.0
  30
0.0
  11
-1.0000000000000
  21
0.0
  31
0.0
   0
ENDBLK
   5
6E
 100
AcDbEntity
   8
0
 100
AcDbBlockEnd
   0
BLOCK
   5
6F
 100
AcDbEntity
   8
0
 100
AcDbBlockBegin
   2
_CLOSED
  70
0
  10
0.0
  20
0.0
  30
0.0
   3
_CLOSED
   0
LINE
   5
70
 100
AcDbEntity
   8
0
 370
-2
 100
AcDbLine
   6
BYBLOCK
  62
0
  10
-1.0000000000000
  20
 0.16666666666667
  30
0.0
  11
0.0
  21
0.0
  31
0.0
   0
LINE
   5
71
 100
AcDbEntity
   8
0
 370
-2
 100
AcDbLine
   6
BYBLOCK
  62
0
  10
0.0
  20
0.0
  30
0.0
  11
-1.0000000000000
  21
-0.16666666666667
  31
0.0
   0
LINE
   5
72
 100
AcDbEntity
   8
0
 370
-2
 100
AcDbLine
   6
BYBLOCK
  62
0
  10
-1.0000000000000
  20
 0.16666666666667
  30
0.0
  11
-1.0000000000000
  21
-0.16666666666667
  31
0.0
   0
LINE
   5
73
 100
AcDbEntity
   8
0
 370
-2
 100
AcDbLine
   6
BYBLOCK
  62
0
  10
0.0
  20
0.0
  30
0.0
  11
-1.0000000000000
  21
0.0
  31
0.0
   0
ENDBLK
   5
74
 100
AcDbEntity
   8
0
 100
AcDbBlockEnd
   0
BLOCK
   5
75
 100
AcDbEntity
   8
0
 100
AcDbBlockBegin
   2
_OPEN
  70
0
  10
0.0
  20
0.0
  30
0.0
   3
_OPEN
   0
LINE
   5
76
 100
AcDbEntity
   8
0
 370
-2
 100
AcDbLine
   6
BYBLOCK
  62
0
  10
-1.0000000000000
  20
 0.16666666666667
  30
0.0
  11
0.0
  21
0.0
  31
0.0
   0
LINE
   5
77
 100
AcDbEntity
   8
0
 370
-2
 100
AcDbLine
   6
BYBLOCK
  62
0
  10
0.0
  20
0.0
  30
0.0
  11
-1.0000000000000
  21
-0.16666666666667
  31
0.0
   0
LINE
   5
78
 100
AcDbEntity
   8
0
 370
-2
 100
AcDbLine
   6
BYBLOCK
  62
0
  10
0.0
  20
0.0
  30
0.0
  11
-1.0000000000000
  21
0.0
  31
0.0
   0
ENDBLK
   5
79
 100
AcDbEntity
   8
0
 100
AcDbBlockEnd
   0
BLOCK
   5
7A
 100
AcDbEntity
   8
0
 100
AcDbBlockBegin
   2
_OPEN30
  70
0
  10
0.0
  20
0.0
  30
0.0
   3
_OPEN30
   0
LINE
   5
7B
 100
AcDbEntity
   8
0
 370
-2
 100
AcDbLine
   6
BYBLOCK
  62
0
  10
-1.0000000000000
  20
 0.26794919243110
  30
0.0
  11
0.0
  21
0.0
  31
0.0
   0
LINE
   5
7C
 100
AcDbEntity
   8
0
 370
-2
 100
AcDbLine
   6
BYBLOCK
  62
0
  10
0.0
  20
0.0
  30
0.0
  11
-1.0000000000000
  21
-0.26794919243110
  31
0.0
   0
LINE
   5
7D
 100
AcDbEntity
   8
0
 370
-2
 100
AcDbLine
   6
BYBLOCK
  62
0
  10
0.0
  20
0.0
  30
0.0
  11
-1.0000000000000
  21
0.0
  31
0.0
   0
ENDBLK
   5
7E
 100
AcDbEntity
   8
0
 100
AcDbBlockEnd
   0
BLOCK
   5
7F
 100
AcDbEntity
   8
0
 100
AcDbBlockBegin
   2
_OPEN90
  70
0
  10
0.0
  20
0.0
  30
0.0
   3
_OPEN90
   0
LINE
   5
80
 100
AcDbEntity
   8
0
 370
-2
 100
AcDbLine
   6
BYBLOCK
  62
0
  10
-0.50000000000000
  20
 0.50000000000000
  30
0.0
  11
0.0
  21
0.0
  31
0.0
   0
LINE
   5
81
 100
AcDbEntity
   8
0
 370
-2
 100
AcDbLine
   6
BYBLOCK
  62
0
  10
0.0
  20
0.0
  30
0.0
  11
-0.50000000000000
  21
-0.50000000000000
  31
0.0
   0
LINE
   5
82
 100
AcDbEntity
   8
0
 370
-2
 100
AcDbLine
   6
BYBLOCK
  62
0
  10
0.0
  20
0.0
  30
0.0
  11
-1.0000000000000
  21
0.0
  31
0.0
   0
ENDBLK
   5
83
 100
AcDbEntity
   8
0
 100
AcDbBlockEnd
   0
BLOCK
   5
84
 100
AcDbEntity
   8
0
 100
AcDbBlockBegin
   2
_CLOSEDBLANK
  70
0
  10
0.0
  20
0.0
  30
0.0
   3
_CLOSEDBLANK
   0
LINE
   5
85
 100
AcDbEntity
   8
0
 370
-2
 100
AcDbLine
   6
BYBLOCK
  62
0
  10
-1.0000000000000
  20
 0.16666666666667
  30
0.0
  11
0.0
  21
0.0
  31
0.0
   0
LINE
   5
86
 100
AcDbEntity
   8
0
 370
-2
 100
AcDbLine
   6
BYBLOCK
  62
0
  10
0.0
  20
0.0
  30
0.0
  11
-1.0000000000000
  21
-0.16666666666667
  31
0.0
   0
LINE
   5
87
 100
AcDbEntity
   8
0
 370
-2
 100
AcDbLine
   6
BYBLOCK
  62
0
  10
-1.0000000000000
  20
 0.16666666666667
  30
0.0
  11
-1.0000000000000
  21
-0.16666666666667
  31
0.0
   0
ENDBLK
   5
88
 100
AcDbEntity
   8
0
 100
AcDbBlockEnd
   0
BLOCK
   5
89
 100
AcDbEntity
   8
0
 100
AcDbBlockBegin
   2
_DOT
  70
0
  10
0.0
  20
0.0
  30
0.0
   3
_DOT
   0
POLYLINE
   5
8A
 100
AcDbEntity
   8
0
 370
-2
   6
BYBLOCK
  62
0
 100
AcDb2dPolyline
  66
1
  10
0.0
  20
0.0
  30
0.0
  70
1
  40
 0.50000000000000
  41
 0.50000000000000
   0
VERTEX
   5
8B
 100
AcDbEntity
   8
0
   6
BYBLOCK
  62
0
 100
AcDbVertex
 100
AcDb2dVertex
  10
-0.25000000000000
  20
0.0
  30
0.0
  42
 1.0000000000000
  40
 0.50000000000000
  41
 0.50000000000000
   0
VERTEX
   5
8C
 100
AcDbEntity
   8
0
   6
BYBLOCK
  62
0
 100
AcDbVertex
 100
AcDb2dVertex
  10
 0.25000000000000
  20
0.0
  30
0.0
  42
 1.0000000000000
  40
 0.50000000000000
  41
 0.50000000000000
   0
SEQEND
   5
8D
 100
AcDbEntity
   8
0
   6
BYBLOCK
  62
0
   0
LINE
   5
8E
 100
AcDbEntity
   8
0
 370
-2
 100
AcDbLine
   6
BYBLOCK
  62
0
  10
-0.50000000000000
  20
0.0
  30
0.0
  11
-1.0000000000000
  21
0.0
  31
0.0
   0
ENDBLK
   5
8F
 100
AcDbEntity
   8
0
 100
AcDbBlockEnd
   0
BLOCK
   5
90
 100
AcDbEntity
   8
0
 100
AcDbBlockBegin
   2
_DOTSMALL
  70
0
  10
0.0
  20
0.0
  30
0.0
   3
_DOTSMALL
   0
POLYLINE
   5
91
 100
AcDbEntity
   8
0
 370
-2
   6
BYBLOCK
  62
0
 100
AcDb2dPolyline
  66
1
  10
0.0
  20
0.0
  30
0.0
  70
1
  40
 0.50000000000000
  41
 0.50000000000000
   0
VERTEX
   5
92
 100
AcDbEntity
   8
0
   6
BYBLOCK
  62
0
 100
AcDbVertex
 100
AcDb2dVertex
  10
-0.62500000000000E-1
  20
0.0
  30
0.0
  42
 1.0000000000000
  40
 0.50000000000000
  41
 0.50000000000000
   0
VERTEX
   5
93
 100
AcDbEntity
   8
0
   6
BYBLOCK
  62
0
 100
AcDbVertex
 100
AcDb2dVertex
  10
 0.62500000000000E-1
  20
0.0
  30
0.0
  42
 1.0000000000000
  40
 0.50000000000000
  41
 0.50000000000000
   0
SEQEND
   5
94
 100
AcDbEntity
   8
0
   6
BYBLOCK
  62
0
   0
ENDBLK
   5
95
 100
AcDbEntity
   8
0
 100
AcDbBlockEnd
   0
BLOCK
   5
96
 100
AcDbEntity
   8
0
 100
AcDbBlockBegin
   2
_DATUMBLANK
  70
0
  10
0.0
  20
0.0
  30
0.0
   3
_DATUMBLANK
   0
LINE
   5
97
 100
AcDbEntity
   8
0
 370
-2
 100
AcDbLine
   6
BYBLOCK
  62
0
  10
0.0
  20
 0.57735027000000
  30
0.0
  11
-1.0000000000000
  21
0.0
  31
0.0
   0
LINE
   5
98
 100
AcDbEntity
   8
0
 370
-2
 100
AcDbLine
   6
BYBLOCK
  62
0
  10
-1.0000000000000
  20
0.0
  30
0.0
  11
0.0
  21
-0.57735027000000
  31
0.0
   0
LINE
   5
99
 100
AcDbEntity
   8
0
 370
-2
 100
AcDbLine
   6
BYBLOCK
  62
0
  10
0.0
  20
-0.57735027000000
  30
0.0
  11
0.0
  21
 0.57735027000000
  31
0.0
   0
ENDBLK
   5
9A
 100
AcDbEntity
   8
0
 100
AcDbBlockEnd
   0
BLOCK
   5
9B
 100
AcDbEntity
   8
0
 100
AcDbBlockBegin
   2
_DATUMFILLED
  70
0
  10
0.0
  20
0.0
  30
0.0
   3
_DATUMFILLED
   0
SOLID
   5
9C
 100
AcDbEntity
   8
0
 100
AcDbTrace
   6
BYBLOCK
  62
0
  10
0.0
  20
 0.57735027000000
  30
0.0
  11
-1.0000000000000
  21
0.0
  31
0.0
  12
0.0
  22
-0.57735027000000
  32
0.0
  13
0.0
  23
-0.57735027000000
  33
0.0
   0
ENDBLK
   5
9D
 100
AcDbEntity
   8
0
 100
AcDbBlockEnd
   0
BLOCK
   5
9E
 100
AcDbEntity
   8
0
 100
AcDbBlockBegin
   2
_ORIGIN
  70
0
  10
0.0
  20
0.0
  30
0.0
   3
_ORIGIN
   0
CIRCLE
   5
9F
 100
AcDbEntity
   8
0
 370
-2
 100
AcDbCircle
   6
BYBLOCK
  62
0
  10
0.0
  20
0.0
  30
0.0
  40
 0.50000000000000
   0
LINE
   5
A0
 100
AcDbEntity
   8
0
 370
-2
 100
AcDbLine
   6
BYBLOCK
  62
0
  10
0.0
  20
0.0
  30
0.0
  11
-1.0000000000000
  21
0.0
  31
0.0
   0
ENDBLK
   5
A1
 100
AcDbEntity
   8
0
 100
AcDbBlockEnd
   0
BLOCK
   5
A2
 100
AcDbEntity
   8
0
 100
AcDbBlockBegin
   2
_NONE
  70
0
  10
0.0
  20
0.0
  30
0.0
   3
_NONE
   0
CIRCLE
   5
A3
 100
AcDbEntity
   8
0
 370
-2
 100
AcDbCircle
   6
BYBLOCK
  62
0
  10
0.0
  20
0.0
  30
0.0
  40
 0.25000000000000
   0
ENDBLK
   5
A4
 100
AcDbEntity
   8
0
 100
AcDbBlockEnd
   0
BLOCK
   5
A5
 100
AcDbEntity
   8
0
 100
AcDbBlockBegin
   2
_DOTBLANK
  70
0
  10
0.0
  20
0.0
  30
0.0
   3
_DOTBLANK
   0
CIRCLE
   5
A6
 100
AcDbEntity
   8
0
 370
-2
 100
AcDbCircle
   6
BYBLOCK
  62
0
  10
0.0
  20
0.0
  30
0.0
  40
 0.50000000000000
   0
LINE
   5
A7
 100
AcDbEntity
   8
0
 370
-2
 100
AcDbLine
   6
BYBLOCK
  62
0
  10
-0.50000000000000
  20
0.0
  30
0.0
  11
-1.0000000000000
  21
0.0
  31
0.0
   0
ENDBLK
   5
A8
 100
AcDbEntity
   8
0
 100
AcDbBlockEnd
   0
BLOCK
   5
A9
 100
AcDbEntity
   8
0
 100
AcDbBlockBegin
   2
_INTEGRAL
  70
0
  10
0.0
  20
0.0
  30
0.0
   3
_INTEGRAL
   0
ARC
   5
AA
 100
AcDbEntity
   8
0
 370
-2
   6
BYBLOCK
  62
0
 100
AcDbCircle
  10
 0.44488800000000
  20
-0.91335000000000E-1
  30
0.0
  40
 0.45416700000000
 100
AcDbArc
  50
 102.00000000000
  51
 168.00000000000
   0
ARC
   5
AB
 100
AcDbEntity
   8
0
 370
-2
   6
BYBLOCK
  62
0
 100
AcDbCircle
  10
-0.44488800000000
  20
 0.91335000000000E-1
  30
0.0
  40
 0.45416700000000
 100
AcDbArc
  50
 282.00000000000
  51
 348.00000000000
   0
ENDBLK
   5
AC
 100
AcDbEntity
   8
0
 100
AcDbBlockEnd
   0
BLOCK
   5
AD
 100
AcDbEntity
   8
0
 100
AcDbBlockBegin
   2
GMM001
  70
64
  10
0.0
  20
0.0
  30
0.0
   3
GMM001
   0
LWPOLYLINE
   5
AE
 100
AcDbEntity
   8
LEVEL001
 370
30
   6
CONTINUOUS
  62
7
 100
AcDbPolyline
  90
4
  70
1
  10
-568.00000000000
  20
 394.00000000000
  10
-568.00000000000
  20
0.0
  10
0.0
  20
0.0
  10
0.0
  20
 394.00000000000
   0
LINE
   5
AF
 100
AcDbEntity
   8
LEVEL001
 370
30
 100
AcDbLine
   6
CONTINUOUS
  62
7
  10
-135.00000000000
  20
 10.000000000000
  30
0.0
  11
0.0
  21
 10.000000000000
  31
0.0
   0
LINE
   5
B0
 100
AcDbEntity
   8
LEVEL001
 370
30
 100
AcDbLine
   6
CONTINUOUS
  62
7
  10
0.0
  20
 18.000000000000
  30
0.0
  11
-97.000000000000
  21
 18.000000000000
  31
0.0
   0
LINE
   5
B1
 100
AcDbEntity
   8
LEVEL001
 370
30
 100
AcDbLine
   6
CONTINUOUS
  62
7
  10
-135.00000000000
  20
 26.000000000000
  30
0.0
  11
0.0
  21
 26.000000000000
  31
0.0
   0
LINE
   5
B2
 100
AcDbEntity
   8
LEVEL001
 370
30
 100
AcDbLine
   6
CONTINUOUS
  62
7
  10
-97.000000000000
  20
 26.000000000000
  30
0.0
  11
-97.000000000000
  21
 10.000000000000
  31
0.0
   0
LINE
   5
B3
 100
AcDbEntity
   8
LEVEL001
 370
30
 100
AcDbLine
   6
CONTINUOUS
  62
7
  10
-39.000000000000
  20
 26.000000000000
  30
0.0
  11
-39.000000000000
  21
 10.000000000000
  31
0.0
   0
LINE
   5
B4
 100
AcDbEntity
   8
LEVEL001
 370
30
 100
AcDbLine
   6
CONTINUOUS
  62
7
  10
-31.000000000000
  20
 26.000000000000
  30
0.0
  11
-31.000000000000
  21
 10.000000000000
  31
0.0
   0
LINE
   5
B5
 100
AcDbEntity
   8
LEVEL001
 370
30
 100
AcDbLine
   6
CONTINUOUS
  62
7
  10
-23.000000000000
  20
 26.000000000000
  30
0.0
  11
-23.000000000000
  21
 10.000000000000
  31
0.0
   0
LINE
   5
B6
 100
AcDbEntity
   8
LEVEL001
 370
30
 100
AcDbLine
   6
CONTINUOUS
  62
7
  10
-15.000000000000
  20
 26.000000000000
  30
0.0
  11
-15.000000000000
  21
 10.000000000000
  31
0.0
   0
MTEXT
   5
B8
 100
AcDbEntity
   8
LEVEL001
 370
30
  62
7
 100
AcDbMText
  10
-66.768592015439
  20
 19.890823176117
  30
0.0
  40
 3.6000000000000
  41
0.0
  71
7
  72
1
   1
\T1.000000;個
   7
GMM001
  44
 0.79999984000003
   0
MTEXT
   5
BA
 100
AcDbEntity
   8
LEVEL001
 370
30
  62
7
 100
AcDbMText
  10
-63.168592015439
  20
 19.890823176117
  30
0.0
  40
 3.6000000000000
  41
0.0
  71
7
  72
1
   1
\T1.000000;数
   7
GMM001
  44
 0.79999984000003
   0
MTEXT
   5
BC
 100
AcDbEntity
   8
LEVEL001
 370
30
  62
7
 100
AcDbMText
  10
-54.799712276311
  20
 20.036370662307
  30
0.0
  40
 3.6000000000000
  41
0.0
  71
7
  72
1
   1
\T1.000000;尺
   7
GMM001
  44
 0.79999984000003
   0
MTEXT
   5
BE
 100
AcDbEntity
   8
LEVEL001
 370
30
  62
7
 100
AcDbMText
  10
-36.905811353661
  20
 20.191231118064
  30
0.0
  40
 3.6000000000000
  41
0.0
  71
7
  72
1
   1
\T1.000000;年
   7
GMM001
  44
 0.79999984000003
   0
MTEXT
   5
C0
 100
AcDbEntity
   8
LEVEL001
 370
30
  62
7
 100
AcDbMText
  10
-29.006925672360
  20
 20.076338823367
  30
0.0
  40
 3.6000000000000
  41
0.0
  71
7
  72
1
   1
\T1.000000;月
   7
GMM001
  44
 0.79999984000003
   0
MTEXT
   5
C2
 100
AcDbEntity
   8
LEVEL001
 370
30
  62
7
 100
AcDbMText
  10
-133.05073750221
  20
 13.474059353471
  30
0.0
  40
 3.6000000000000
  41
0.0
  71
7
  72
1
   1
\T1.000000;法
   7
GMM001
  44
 0.79999984000003
   0
MTEXT
   5
C4
 100
AcDbEntity
   8
LEVEL001
 370
30
  62
7
 100
AcDbMText
  10
-133.05073750221
  20
 19.495906200318
  30
0.0
  40
 3.6000000000000
  41
0.0
  71
7
  72
1
   1
\T1.000000;画
   7
GMM001
  44
 0.79999984000003
   0
MTEXT
   5
C6
 100
AcDbEntity
   8
LEVEL001
 370
30
  62
7
 100
AcDbMText
  10
-123.09620208444
  20
 15.917386504151
  30
0.0
  40
 3.6000000000000
  41
0.0
  71
7
  72
1
   1
\T1.000000;第
   7
GMM001
  44
 0.79999984000003
   0
MTEXT
   5
C8
 100
AcDbEntity
   8
LEVEL001
 370
30
  62
7
 100
AcDbMText
  10
-105.66588610669
  20
 15.917386504151
  30
0.0
  40
 3.6000000000000
  41
0.0
  71
7
  72
1
   1
\T1.000000;法
   7
GMM001
  44
 0.79999984000003
   0
MTEXT
   5
CA
 100
AcDbEntity
   8
LEVEL001
 370
30
  62
7
 100
AcDbMText
  10
-111.85332648825
  20
 15.917386504151
  30
0.0
  40
 3.6000000000000
  41
0.0
  71
7
  72
1
   1
\T1.000000;画
   7
GMM001
  44
 0.79999984000003
   0
MTEXT
   5
CC
 100
AcDbEntity
   8
LEVEL001
 370
30
  62
7
 100
AcDbMText
  10
-117.44781178237
  20
 15.917386504151
  30
0.0
  40
 3.6000000000000
  41
0.0
  71
7
  72
1
   1
\T1.000000;三
   7
GMM001
  44
 0.79999984000003
   0
MTEXT
   5
CE
 100
AcDbEntity
   8
LEVEL001
 370
30
  62
7
 100
AcDbMText
  10
-93.366063857976
  20
 19.826214449744
  30
0.0
  40
 3.6000000000000
  41
0.0
  71
7
  72
1
   1
\T1.000000;共
   7
GMM001
  44
 0.79999984000003
   0
MTEXT
   5
D0
 100
AcDbEntity
   8
LEVEL001
 370
30
  62
7
 100
AcDbMText
  10
-75.234982776895
  20
 19.826214449744
  30
0.0
  40
 3.6000000000000
  41
0.0
  71
7
  72
1
   1
\T1.000000;種
   7
GMM001
  44
 0.79999984000003
   0
MTEXT
   5
D2
 100
AcDbEntity
   8
LEVEL001
 370
30
  62
7
 100
AcDbMText
  10
-81.422423158452
  20
 19.826214449744
  30
0.0
  40
 3.6000000000000
  41
0.0
  71
7
  72
1
   1
\T1.000000;機
   7
GMM001
  44
 0.79999984000003
   0
MTEXT
   5
D4
 100
AcDbEntity
   8
LEVEL001
 370
30
  62
7
 100
AcDbMText
  10
-87.502053524112
  20
 19.826214449744
  30
0.0
  40
 3.6000000000000
  41
0.0
  71
7
  72
1
   1
\T1.000000;通
   7
GMM001
  44
 0.79999984000003
   0
MTEXT
   5
D6
 100
AcDbEntity
   8
LEVEL001
 370
30
  62
7
 100
AcDbMText
  10
-48.666176902702
  20
 20.036370662307
  30
0.0
  40
 3.6000000000000
  41
0.0
  71
7
  72
1
   1
\T1.000000;度
   7
GMM001
  44
 0.79999984000003
   0
MTEXT
   5
D8
 100
AcDbEntity
   8
LEVEL001
 370
30
  62
7
 100
AcDbMText
  10
-21.032113419726
  20
 19.874883349168
  30
0.0
  40
 3.6000000000000
  41
0.0
  71
7
  72
1
   1
\T1.000000;日
   7
GMM001
  44
 0.79999984000003
   0
MTEXT
   5
DA
 100
AcDbEntity
   8
LEVEL001
 370
30
  62
7
 100
AcDbMText
  10
-107.53500000000
  20
 2.2398892493447
  30
0.0
  40
 5.0700000000000
  41
0.0
  71
7
  72
1
   1
\T1.000000;さ
   7
GMM001
  44
 0.79999984000003
   0
MTEXT
   5
DC
 100
AcDbEntity
   8
LEVEL001
 370
30
  62
7
 100
AcDbMText
  10
-97.535000000000
  20
 2.2398892493447
  30
0.0
  40
 5.0700000000000
  41
0.0
  71
7
  72
1
   1
\T1.000000;ぬ
   7
GMM001
  44
 0.79999984000003
   0
MTEXT
   5
DE
 100
AcDbEntity
   8
LEVEL001
 370
30
  62
7
 100
AcDbMText
  10
-87.535000000000
  20
 2.2398892493447
  30
0.0
  40
 5.0700000000000
  41
0.0
  71
7
  72
1
   1
\T1.000000;き
   7
GMM001
  44
 0.79999984000003
   0
MTEXT
   5
E0
 100
AcDbEntity
   8
LEVEL001
 370
30
  62
7
 100
AcDbMText
  10
-27.384057622806
  20
 2.2398892493447
  30
0.0
  40
 5.0700000000000
  41
0.0
  71
7
  72
1
   1
\T1.000000;社
   7
GMM001
  44
 0.79999984000003
   0
MTEXT
   5
E2
 100
AcDbEntity
   8
LEVEL001
 370
30
  62
7
 100
AcDbMText
  10
-37.384057622806
  20
 2.2398892493447
  30
0.0
  40
 5.0700000000000
  41
0.0
  71
7
  72
1
   1
\T1.000000;会
   7
GMM001
  44
 0.79999984000003
   0
MTEXT
   5
E4
 100
AcDbEntity
   8
LEVEL001
 370
30
  62
7
 100
AcDbMText
  10
-47.384057622806
  20
 2.2398892493447
  30
0.0
  40
 5.0700000000000
  41
0.0
  71
7
  72
1
   1
\T1.000000;式
   7
GMM001
  44
 0.79999984000003
   0
MTEXT
   5
E6
 100
AcDbEntity
   8
LEVEL001
 370
30
  62
7
 100
AcDbMText
  10
-57.384057622806
  20
 2.2398892493447
  30
0.0
  40
 5.0700000000000
  41
0.0
  71
7
  72
1
   1
\T1.000000;株
   7
GMM001
  44
 0.79999984000003
   0
MTEXT
   5
E8
 100
AcDbEntity
   8
LEVEL001
 370
30
  62
7
 100
AcDbMText
  10
-67.535000000000
  20
 2.2398892493447
  30
0.0
  40
 5.0700000000000
  41
0.0
  71
7
  72
1
   1
\T1.000000;機
   7
GMM001
  44
 0.79999984000003
   0
MTEXT
   5
EA
 100
AcDbEntity
   8
LEVEL001
 370
30
  62
7
 100
AcDbMText
  10
-77.535000000000
  20
 2.2398892493447
  30
0.0
  40
 5.0700000000000
  41
0.0
  71
7
  72
1
   1
\T1.000000;麺
   7
GMM001
  44
 0.79999984000003
   0
MTEXT
   5
EC
 100
AcDbEntity
   8
LEVEL001
 370
30
  62
7
 100
AcDbMText
  10
-7.0395193042363
  20
 19.867801070369
  30
0.0
  40
 3.6000000000000
  41
0.0
  71
7
  72
1
   1
\T1.000000;図
   7
GMM001
  44
 0.79999984000003
   0
MTEXT
   5
EE
 100
AcDbEntity
   8
LEVEL001
 370
30
  62
7
 100
AcDbMText
  10
-12.256669542710
  20
 19.867801070369
  30
0.0
  40
 3.6000000000000
  41
0.0
  71
7
  72
1
   1
\T1.000000;製
   7
GMM001
  44
 0.79999984000003
   0
LINE
   5
EF
 100
AcDbEntity
   8
LEVEL001
 370
30
 100
AcDbLine
   6
CONTINUOUS
  62
7
  10
0.0
  20
0.0
  30
0.0
  11
0.0
  21
 38.000000000000
  31
0.0
   0
LINE
   5
F0
 100
AcDbEntity
   8
LEVEL001
 370
30
 100
AcDbLine
   6
CONTINUOUS
  62
7
  10
-59.000000000000
  20
 38.000000000000
  30
0.0
  11
-59.000000000000
  21
 10.000000000000
  31
0.0
   0
LINE
   5
F1
 100
AcDbEntity
   8
LEVEL001
 370
30
 100
AcDbLine
   6
CONTINUOUS
  62
7
  10
-67.000000000000
  20
 38.000000000000
  30
0.0
  11
-67.000000000000
  21
 10.000000000000
  31
0.0
   0
LINE
   5
F2
 100
AcDbEntity
   8
LEVEL001
 370
30
 100
AcDbLine
   6
CONTINUOUS
  62
7
  10
-127.00000000000
  20
 38.000000000000
  30
0.0
  11
-127.00000000000
  21
 10.000000000000
  31
0.0
   0
MTEXT
   5
F4
 100
AcDbEntity
   8
LEVEL001
 370
30
  62
7
 100
AcDbMText
  10
-64.988844727080
  20
 33.040849283540
  30
0.0
  40
 3.6000000000000
  41
0.0
  71
7
  72
1
   1
\T1.000000;図
   7
GMM001
  44
 0.79999984000003
   0
MTEXT
   5
F6
 100
AcDbEntity
   8
LEVEL001
 370
30
  62
7
 100
AcDbMText
  10
-64.964975431747
  20
 26.999645926203
  30
0.0
  40
 3.6000000000000
  41
0.0
  71
7
  72
1
   1
\T1.000000;番
   7
GMM001
  44
 0.79999984000003
   0
MTEXT
   5
F8
 100
AcDbEntity
   8
LEVEL001
 370
30
  62
7
 100
AcDbMText
  10
-132.92204869229
  20
 33.000109852500
  30
0.0
  40
 3.6000000000000
  41
0.0
  71
7
  72
1
   1
\T1.000000;名
   7
GMM001
  44
 0.79999984000003
   0
MTEXT
   5
FA
 100
AcDbEntity
   8
LEVEL001
 370
30
  62
7
 100
AcDbMText
  10
-132.75496362496
  20
 27.340815220497
  30
0.0
  40
 3.6000000000000
  41
0.0
  71
7
  72
1
   1
\T1.000000;称
   7
GMM001
  44
 0.79999984000003
   0
LINE
   5
FB
 100
AcDbEntity
   8
LEVEL001
 370
30
 100
AcDbLine
   6
CONTINUOUS
  62
7
  10
0.0
  20
 38.000000000000
  30
0.0
  11
-135.00000000000
  21
 38.000000000000
  31
0.0
   0
LINE
   5
FC
 100
AcDbEntity
   8
LEVEL001
 370
30
 100
AcDbLine
   6
CONTINUOUS
  62
7
  10
-135.00000000000
  20
0.0
  30
0.0
  11
-135.00000000000
  21
 38.000000000000
  31
0.0
   0
ENDBLK
   5
FD
 100
AcDbEntity
   8
0
 100
AcDbBlockEnd
   0
BLOCK
   5
FE
 100
AcDbEntity
   8
0
 100
AcDbBlockBegin
   2
*D1
  70
65
  10
0.0
  20
0.0
  30
0.0
   3
*D1
   0
LINE
   5
FF
 100
AcDbEntity
   8
LEVEL001
 370
9
 100
AcDbLine
   6
CONTINUOUS
  62
1
  10
 2393.9546686196
  20
 1323.3793103448
  30
0.0
  11
 1912.7132893093
  21
 1323.3793103448
  31
0.0
   0
LINE
   5
100
 100
AcDbEntity
   8
LEVEL001
 370
9
 100
AcDbLine
   6
CONTINUOUS
  62
1
  10
 2078.2305306886
  20
 353.37931034483
  30
0.0
  11
 1912.7132893093
  21
 353.37931034483
  31
0.0
   0
LINE
   5
101
 100
AcDbEntity
   8
LEVEL001
 370
9
 100
AcDbLine
   6
CONTINUOUS
  62
1
  10
 1924.7132893093
  20
 1323.3793103448
  30
0.0
  11
 1924.7132893093
  21
 838.37931034483
  31
0.0
   0
LINE
   5
102
 100
AcDbEntity
   8
LEVEL001
 370
9
 100
AcDbLine
   6
CONTINUOUS
  62
1
  10
 1924.7132893093
  20
 353.37931034483
  30
0.0
  11
 1924.7132893093
  21
 838.37931034483
  31
0.0
   0
INSERT
   5
103
 100
AcDbEntity
   8
LEVEL001
   6
CONTINUOUS
  62
1
 100
AcDbBlockReference
   2
_OPEN30
  10
 1924.7132893093
  20
 1323.3793103448
  30
0.0
  41
 18.000000000000
  42
 18.000000000000
  43
 18.000000000000
  50
 90.000000000000
   0
INSERT
   5
104
 100
AcDbEntity
   8
LEVEL001
   6
CONTINUOUS
  62
1
 100
AcDbBlockReference
   2
_OPEN30
  10
 1924.7132893093
  20
 353.37931034483
  30
0.0
  41
 18.000000000000
  42
 18.000000000000
  43
 18.000000000000
  50
 270.00000000000
   0
MTEXT
   5
105
 100
AcDbEntity
   8
LEVEL001
 370
30
  62
7
 100
AcDbMText
  10
 1914.4275750235
  20
 838.37931034483
  30
0.0
  40
 24.000000000000
  41
0.0
  71
8
  72
1
   1
\A1;970
   7
GMM001
  11
0.0
  21
 1.0000000000000
  31
0.0
   0
ENDBLK
   5
106
 100
AcDbEntity
   8
0
 100
AcDbBlockEnd
   0
BLOCK
   5
107
 100
AcDbEntity
   8
0
 100
AcDbBlockBegin
   2
*D2
  70
65
  10
0.0
  20
0.0
  30
0.0
   3
*D2
   0
LINE
   5
108
 100
AcDbEntity
   8
LEVEL001
 370
9
 100
AcDbLine
   6
CONTINUOUS
  62
1
  10
 2078.2305306886
  20
 353.37931034483
  30
0.0
  11
 1839.8584574659
  21
 353.37931034483
  31
0.0
   0
LINE
   5
109
 100
AcDbEntity
   8
LEVEL001
 370
9
 100
AcDbLine
   6
CONTINUOUS
  62
1
  10
 2219.6490066358
  20
 1463.3793103448
  30
0.0
  11
 1839.8584574659
  21
 1463.3793103448
  31
0.0
   0
LINE
   5
10A
 100
AcDbEntity
   8
LEVEL001
 370
9
 100
AcDbLine
   6
CONTINUOUS
  62
1
  10
 1851.8584574659
  20
 353.37931034483
  30
0.0
  11
 1851.8584574659
  21
 908.37931034483
  31
0.0
   0
LINE
   5
10B
 100
AcDbEntity
   8
LEVEL001
 370
9
 100
AcDbLine
   6
CONTINUOUS
  62
1
  10
 1851.8584574659
  20
 1463.3793103448
  30
0.0
  11
 1851.8584574659
  21
 908.37931034483
  31
0.0
   0
INSERT
   5
10C
 100
AcDbEntity
   8
LEVEL001
   6
CONTINUOUS
  62
1
 100
AcDbBlockReference
   2
_OPEN30
  10
 1851.8584574659
  20
 353.37931034483
  30
0.0
  41
 18.000000000000
  42
 18.000000000000
  43
 18.000000000000
  50
 270.00000000000
   0
INSERT
   5
10D
 100
AcDbEntity
   8
LEVEL001
   6
CONTINUOUS
  62
1
 100
AcDbBlockReference
   2
_OPEN30
  10
 1851.8584574659
  20
 1463.3793103448
  30
0.0
  41
 18.000000000000
  42
 18.000000000000
  43
 18.000000000000
  50
 90.000000000000
   0
MTEXT
   5
10E
 100
AcDbEntity
   8
LEVEL001
 370
30
  62
7
 100
AcDbMText
  10
 1841.5727431802
  20
 908.37931034483
  30
0.0
  40
 24.000000000000
  41
0.0
  71
8
  72
1
   1
\A1;1110
   7
GMM001
  11
0.0
  21
 1.0000000000000
  31
0.0
   0
ENDBLK
   5
10F
 100
AcDbEntity
   8
0
 100
AcDbBlockEnd
   0
BLOCK
   5
110
 100
AcDbEntity
   8
0
 100
AcDbBlockBegin
   2
*D3
  70
65
  10
0.0
  20
0.0
  30
0.0
   3
*D3
   0
LINE
   5
111
 100
AcDbEntity
   8
LEVEL001
 370
9
 100
AcDbLine
   6
CONTINUOUS
  62
1
  10
 2328.2566844450
  20
 1274.9990258942
  30
0.0
  11
 2328.2566844450
  21
 1567.2961081223
  31
0.0
   0
LINE
   5
112
 100
AcDbEntity
   8
LEVEL001
 370
9
 100
AcDbLine
   6
CONTINUOUS
  62
1
  10
 2828.2566844450
  20
 1163.9645431356
  30
0.0
  11
 2828.2566844450
  21
 1567.2961081223
  31
0.0
   0
LINE
   5
113
 100
AcDbEntity
   8
LEVEL001
 370
9
 100
AcDbLine
   6
CONTINUOUS
  62
1
  10
 2328.2566844450
  20
 1555.2961081223
  30
0.0
  11
 2578.2566844450
  21
 1555.2961081223
  31
0.0
   0
LINE
   5
114
 100
AcDbEntity
   8
LEVEL001
 370
9
 100
AcDbLine
   6
CONTINUOUS
  62
1
  10
 2828.2566844450
  20
 1555.2961081223
  30
0.0
  11
 2578.2566844450
  21
 1555.2961081223
  31
0.0
   0
INSERT
   5
115
 100
AcDbEntity
   8
LEVEL001
   6
CONTINUOUS
  62
1
 100
AcDbBlockReference
   2
_OPEN30
  10
 2328.2566844450
  20
 1555.2961081223
  30
0.0
  41
 18.000000000000
  42
 18.000000000000
  43
 18.000000000000
  50
 180.00000000000
   0
INSERT
   5
116
 100
AcDbEntity
   8
LEVEL001
   6
CONTINUOUS
  62
1
 100
AcDbBlockReference
   2
_OPEN30
  10
 2828.2566844450
  20
 1555.2961081223
  30
0.0
  41
 18.000000000000
  42
 18.000000000000
  43
 18.000000000000
  50
0.0
   0
MTEXT
   5
117
 100
AcDbEntity
   8
LEVEL001
 370
30
  62
7
 100
AcDbMText
  10
 2578.2566844450
  20
 1565.5818224080
  30
0.0
  40
 24.000000000000
  41
0.0
  71
8
  72
1
   1
\A1;500
   7
GMM001
   0
ENDBLK
   5
118
 100
AcDbEntity
   8
0
 100
AcDbBlockEnd
   0
BLOCK
   5
119
 100
AcDbEntity
   8
0
 100
AcDbBlockBegin
   2
*D4
  70
65
  10
0.0
  20
0.0
  30
0.0
   3
*D4
   0
LINE
   5
11A
 100
AcDbEntity
   8
LEVEL001
 370
9
 100
AcDbLine
   6
CONTINUOUS
  62
1
  10
 2328.2566844450
  20
 1485.8870086155
  30
0.0
  11
 2328.2566844450
  21
 1567.2961081223
  31
0.0
   0
LINE
   5
11B
 100
AcDbEntity
   8
LEVEL001
 370
9
 100
AcDbLine
   6
CONTINUOUS
  62
1
  10
 2068.2566844450
  20
 1230.0249396499
  30
0.0
  11
 2068.2566844450
  21
 1567.2961081223
  31
0.0
   0
LINE
   5
11C
 100
AcDbEntity
   8
LEVEL001
 370
9
 100
AcDbLine
   6
CONTINUOUS
  62
1
  10
 2328.2566844450
  20
 1555.2961081223
  30
0.0
  11
 2198.2566844450
  21
 1555.2961081223
  31
0.0
   0
LINE
   5
11D
 100
AcDbEntity
   8
LEVEL001
 370
9
 100
AcDbLine
   6
CONTINUOUS
  62
1
  10
 2068.2566844450
  20
 1555.2961081223
  30
0.0
  11
 2198.2566844450
  21
 1555.2961081223
  31
0.0
   0
INSERT
   5
11E
 100
AcDbEntity
   8
LEVEL001
   6
CONTINUOUS
  62
1
 100
AcDbBlockReference
   2
_OPEN30
  10
 2328.2566844450
  20
 1555.2961081223
  30
0.0
  41
 18.000000000000
  42
 18.000000000000
  43
 18.000000000000
  50
0.0
   0
INSERT
   5
11F
 100
AcDbEntity
   8
LEVEL001
   6
CONTINUOUS
  62
1
 100
AcDbBlockReference
   2
_OPEN30
  10
 2068.2566844450
  20
 1555.2961081223
  30
0.0
  41
 18.000000000000
  42
 18.000000000000
  43
 18.000000000000
  50
 180.00000000000
   0
MTEXT
   5
120
 100
AcDbEntity
   8
LEVEL001
 370
30
  62
7
 100
AcDbMText
  10
 2198.2566844450
  20
 1565.5818224080
  30
0.0
  40
 24.000000000000
  41
0.0
  71
8
  72
1
   1
\A1;260
   7
GMM001
   0
ENDBLK
   5
121
 100
AcDbEntity
   8
0
 100
AcDbBlockEnd
   0
BLOCK
   5
122
 100
AcDbEntity
   8
0
 100
AcDbBlockBegin
   2
*D5
  70
65
  10
0.0
  20
0.0
  30
0.0
   3
*D5
   0
LINE
   5
123
 100
AcDbEntity
   8
LEVEL001
 370
9
 100
AcDbLine
   6
CONTINUOUS
  62
1
  10
 2828.2566844450
  20
 1173.0716160821
  30
0.0
  11
 2828.2566844450
  21
 1567.2961081223
  31
0.0
   0
LINE
   5
124
 100
AcDbEntity
   8
LEVEL001
 370
9
 100
AcDbLine
   6
CONTINUOUS
  62
1
  10
 2903.2566844450
  20
 1128.6578229786
  30
0.0
  11
 2903.2566844450
  21
 1567.2961081223
  31
0.0
   0
LINE
   5
125
 100
AcDbEntity
   8
LEVEL001
 370
9
 100
AcDbLine
   6
CONTINUOUS
  62
1
  10
 2828.2566844450
  20
 1555.2961081223
  30
0.0
  11
 2865.7566844450
  21
 1555.2961081223
  31
0.0
   0
LINE
   5
126
 100
AcDbEntity
   8
LEVEL001
 370
9
 100
AcDbLine
   6
CONTINUOUS
  62
1
  10
 2903.2566844450
  20
 1555.2961081223
  30
0.0
  11
 2865.7566844450
  21
 1555.2961081223
  31
0.0
   0
INSERT
   5
127
 100
AcDbEntity
   8
LEVEL001
   6
CONTINUOUS
  62
1
 100
AcDbBlockReference
   2
_OPEN30
  10
 2828.2566844450
  20
 1555.2961081223
  30
0.0
  41
 18.000000000000
  42
 18.000000000000
  43
 18.000000000000
  50
 180.00000000000
   0
INSERT
   5
128
 100
AcDbEntity
   8
LEVEL001
   6
CONTINUOUS
  62
1
 100
AcDbBlockReference
   2
_OPEN30
  10
 2903.2566844450
  20
 1555.2961081223
  30
0.0
  41
 18.000000000000
  42
 18.000000000000
  43
 18.000000000000
  50
0.0
   0
MTEXT
   5
129
 100
AcDbEntity
   8
LEVEL001
 370
30
  62
7
 100
AcDbMText
  10
 2865.7566844450
  20
 1565.5818224080
  30
0.0
  40
 24.000000000000
  41
0.0
  71
8
  72
1
   1
\A1;75
   7
GMM001
   0
ENDBLK
   5
12A
 100
AcDbEntity
   8
0
 100
AcDbBlockEnd
   0
BLOCK
   5
12B
 100
AcDbEntity
   8
0
 100
AcDbBlockBegin
   2
*D6
  70
65
  10
0.0
  20
0.0
  30
0.0
   3
*D6
   0
LINE
   5
12C
 100
AcDbEntity
   8
LEVEL001
 370
9
 100
AcDbLine
   6
CONTINUOUS
  62
1
  10
 2060.7566844450
  20
 1560.4585892622
  30
0.0
  11
 2060.7566844450
  21
 1632.1060988407
  31
0.0
   0
LINE
   5
12D
 100
AcDbEntity
   8
LEVEL001
 370
9
 100
AcDbLine
   6
CONTINUOUS
  62
1
  10
 2910.7566844450
  20
 1560.9949877296
  30
0.0
  11
 2910.7566844450
  21
 1632.1060988407
  31
0.0
   0
LINE
   5
12E
 100
AcDbEntity
   8
LEVEL001
 370
9
 100
AcDbLine
   6
CONTINUOUS
  62
1
  10
 2060.7566844450
  20
 1620.1060988407
  30
0.0
  11
 2485.7566844450
  21
 1620.1060988407
  31
0.0
   0
LINE
   5
12F
 100
AcDbEntity
   8
LEVEL001
 370
9
 100
AcDbLine
   6
CONTINUOUS
  62
1
  10
 2910.7566844450
  20
 1620.1060988407
  30
0.0
  11
 2485.7566844450
  21
 1620.1060988407
  31
0.0
   0
INSERT
   5
130
 100
AcDbEntity
   8
LEVEL001
   6
CONTINUOUS
  62
1
 100
AcDbBlockReference
   2
_OPEN30
  10
 2060.7566844450
  20
 1620.1060988407
  30
0.0
  41
 18.000000000000
  42
 18.000000000000
  43
 18.000000000000
  50
 180.00000000000
   0
INSERT
   5
131
 100
AcDbEntity
   8
LEVEL001
   6
CONTINUOUS
  62
1
 100
AcDbBlockReference
   2
_OPEN30
  10
 2910.7566844450
  20
 1620.1060988407
  30
0.0
  41
 18.000000000000
  42
 18.000000000000
  43
 18.000000000000
  50
0.0
   0
MTEXT
   5
132
 100
AcDbEntity
   8
LEVEL001
 370
30
  62
7
 100
AcDbMText
  10
 2485.7566844450
  20
 1630.3918131264
  30
0.0
  40
 24.000000000000
  41
0.0
  71
8
  72
1
   1
\A1;850
   7
GMM001
   0
ENDBLK
   5
133
 100
AcDbEntity
   8
0
 100
AcDbBlockEnd
   0
BLOCK
   5
134
 100
AcDbEntity
   8
0
 100
AcDbBlockBegin
   2
*D7
  70
65
  10
0.0
  20
0.0
  30
0.0
   3
*D7
   0
LINE
   5
135
 100
AcDbEntity
   8
LEVEL001
 370
9
 100
AcDbLine
   6
CONTINUOUS
  62
1
  10
 883.25668439940
  20
 1209.7612712545
  30
0.0
  11
 883.25668439940
  21
 1334.7467417799
  31
0.0
   0
LINE
   5
136
 100
AcDbEntity
   8
LEVEL001
 370
9
 100
AcDbLine
   6
CONTINUOUS
  62
1
  10
 1419.2566844450
  20
 1212.6578229786
  30
0.0
  11
 1419.2566844450
  21
 1334.7467417799
  31
0.0
   0
LINE
   5
137
 100
AcDbEntity
   8
LEVEL001
 370
9
 100
AcDbLine
   6
CONTINUOUS
  62
1
  10
 883.25668439940
  20
 1322.7467417799
  30
0.0
  11
 1151.2566844222
  21
 1322.7467417799
  31
0.0
   0
LINE
   5
138
 100
AcDbEntity
   8
LEVEL001
 370
9
 100
AcDbLine
   6
CONTINUOUS
  62
1
  10
 1419.2566844450
  20
 1322.7467417799
  30
0.0
  11
 1151.2566844222
  21
 1322.7467417799
  31
0.0
   0
INSERT
   5
139
 100
AcDbEntity
   8
LEVEL001
   6
CONTINUOUS
  62
1
 100
AcDbBlockReference
   2
_OPEN30
  10
 883.25668439940
  20
 1322.7467417799
  30
0.0
  41
 18.000000000000
  42
 18.000000000000
  43
 18.000000000000
  50
 180.00000000000
   0
INSERT
   5
13A
 100
AcDbEntity
   8
LEVEL001
   6
CONTINUOUS
  62
1
 100
AcDbBlockReference
   2
_OPEN30
  10
 1419.2566844450
  20
 1322.7467417799
  30
0.0
  41
 18.000000000000
  42
 18.000000000000
  43
 18.000000000000
  50
0.0
   0
MTEXT
   5
13B
 100
AcDbEntity
   8
LEVEL001
 370
30
  62
7
 100
AcDbMText
  10
 1151.2566844222
  20
 1333.0324560656
  30
0.0
  40
 24.000000000000
  41
0.0
  71
8
  72
1
   1
\A1;536
   7
GMM001
   0
ENDBLK
   5
13C
 100
AcDbEntity
   8
0
 100
AcDbBlockEnd
   0
BLOCK
   5
13D
 100
AcDbEntity
   8
0
 100
AcDbBlockBegin
   2
*D8
  70
65
  10
0.0
  20
0.0
  30
0.0
   3
*D8
   0
LINE
   5
13E
 100
AcDbEntity
   8
LEVEL001
 370
9
 100
AcDbLine
   6
CONTINUOUS
  62
1
  10
 705.25668439940
  20
 1151.6356306687
  30
0.0
  11
 705.25668439940
  21
 1400.2946345002
  31
0.0
   0
LINE
   5
13F
 100
AcDbEntity
   8
LEVEL001
 370
9
 100
AcDbLine
   6
CONTINUOUS
  62
1
  10
 1597.2566844450
  20
 1153.6739448450
  30
0.0
  11
 1597.2566844450
  21
 1400.2946345002
  31
0.0
   0
LINE
   5
140
 100
AcDbEntity
   8
LEVEL001
 370
9
 100
AcDbLine
   6
CONTINUOUS
  62
1
  10
 705.25668439940
  20
 1388.2946345002
  30
0.0
  11
 1151.2566844222
  21
 1388.2946345002
  31
0.0
   0
LINE
   5
141
 100
AcDbEntity
   8
LEVEL001
 370
9
 100
AcDbLine
   6
CONTINUOUS
  62
1
  10
 1597.2566844450
  20
 1388.2946345002
  30
0.0
  11
 1151.2566844222
  21
 1388.2946345002
  31
0.0
   0
INSERT
   5
142
 100
AcDbEntity
   8
LEVEL001
   6
CONTINUOUS
  62
1
 100
AcDbBlockReference
   2
_OPEN30
  10
 705.25668439940
  20
 1388.2946345002
  30
0.0
  41
 18.000000000000
  42
 18.000000000000
  43
 18.000000000000
  50
 180.00000000000
   0
INSERT
   5
143
 100
AcDbEntity
   8
LEVEL001
   6
CONTINUOUS
  62
1
 100
AcDbBlockReference
   2
_OPEN30
  10
 1597.2566844450
  20
 1388.2946345002
  30
0.0
  41
 18.000000000000
  42
 18.000000000000
  43
 18.000000000000
  50
0.0
   0
MTEXT
   5
144
 100
AcDbEntity
   8
LEVEL001
 370
30
  62
7
 100
AcDbMText
  10
 1151.2566844222
  20
 1398.5803487859
  30
0.0
  40
 24.000000000000
  41
0.0
  71
8
  72
1
   1
\A1;892
   7
GMM001
   0
ENDBLK
   5
145
 100
AcDbEntity
   8
0
 100
AcDbBlockEnd
   0
ENDSEC
   0
SECTION
   2
ENTITIES
   0
INSERT
   5
146
 100
AcDbEntity
   8
0
 100
AcDbBlockReference
   2
GMM001
  10
 3473.5862068966
  20
 95.586206896552
  30
0.0
  41
 6.0000000000000
  42
 6.0000000000000
   0
ARC
   5
147
 100
AcDbEntity
   8
LEVEL002
 370
30
   6
CONTINUOUS
  62
7
 100
AcDbCircle
  10
 1406.2566844450
  20
 390.85087357857
  30
0.0
  40
 10.000000000000
 100
AcDbArc
  50
 175.14623704396
  51
 317.35539255468
   0
ARC
   5
148
 100
AcDbEntity
   8
LEVEL002
 370
30
   6
CONTINUOUS
  62
7
 100
AcDbCircle
  10
 1406.2566844450
  20
 390.85087357856
  30
0.0
  40
 37.500000000000
 100
AcDbArc
  50
 242.45119623663
  51
 31.934610914848
   0
ARC
   5
149
 100
AcDbEntity
   8
LEVEL002
 370
30
   6
CONTINUOUS
  62
7
 100
AcDbCircle
  10
 1406.2566844450
  20
 390.85087357856
  30
0.0
  40
 37.500000000000
 100
AcDbArc
  50
 100.61224699736
  51
 242.45119623663
   0
ARC
   5
14A
 100
AcDbEntity
   8
LEVEL002
 370
30
   6
CONTINUOUS
  62
7
 100
AcDbCircle
  10
 896.25668444495
  20
 390.85087357857
  30
0.0
  40
 10.000000000000
 100
AcDbArc
  50
 222.64460744531
  51
 4.8537629560475
   0
ARC
   5
14B
 100
AcDbEntity
   8
LEVEL002
 370
30
   6
CONTINUOUS
  62
7
 100
AcDbCircle
  10
 896.25668444495
  20
 390.85087357856
  30
0.0
  40
 37.500000000000
 100
AcDbArc
  50
 148.06538908515
  51
 297.54880376337
   0
ARC
   5
14C
 100
AcDbEntity
   8
LEVEL002
 370
30
   6
CONTINUOUS
  62
7
 100
AcDbCircle
  10
 896.25668444495
  20
 390.85087357856
  30
0.0
  40
 37.500000000000
 100
AcDbArc
  50
 297.54880376336
  51
 79.387753002639
   0
LINE
   5
14D
 100
AcDbEntity
   8
LEVEL002
 370
30
 100
AcDbLine
   6
CONTINUOUS
  62
7
  10
 866.25668444495
  20
 918.85087357856
  30
0.0
  11
 1436.2566844450
  21
 918.85087357856
  31
0.0
   0
LINE
   5
14E
 100
AcDbEntity
   8
LEVEL002
 370
30
 100
AcDbLine
   6
CONTINUOUS
  62
7
  10
 866.25668444495
  20
 898.85087357856
  30
0.0
  11
 1436.2566844450
  21
 898.85087357856
  31
0.0
   0
ARC
   5
14F
 100
AcDbEntity
   8
LEVEL002
 370
30
   6
CONTINUOUS
  62
7
 100
AcDbCircle
  10
 1504.7570925862
  20
 1245.9107679582
  30
0.0
  40
 16.500408261289
 100
AcDbArc
  50
 157.36304777339
  51
 202.63695222661
   0
ARC
   5
150
 100
AcDbEntity
   8
LEVEL002
 370
30
   6
CONTINUOUS
  62
7
 100
AcDbCircle
  10
 1492.8584697054
  20
 1236.3844885166
  30
0.0
  40
 4.6017853805129
 100
AcDbArc
  50
 136.36654413315
  51
 180.00000000001
   0
LINE
   5
151
 100
AcDbEntity
   8
LEVEL002
 370
30
 100
AcDbLine
   6
CONTINUOUS
  62
7
  10
 1499.2566843249
  20
 1258.6124738804
  30
0.0
  11
 1499.2566843249
  21
 1233.2090620361
  31
0.0
   0
LINE
   5
152
 100
AcDbEntity
   8
LEVEL002
 370
30
 100
AcDbLine
   6
CONTINUOUS
  62
7
  10
 1499.2566843249
  20
 1233.2090620361
  30
0.0
  11
 1489.5278398318
  21
 1233.2090620361
  31
0.0
   0
LINE
   5
153
 100
AcDbEntity
   8
LEVEL002
 370
30
 100
AcDbLine
   6
CONTINUOUS
  62
7
  10
 1489.5278398318
  20
 1233.2090620361
  30
0.0
  11
 1488.2566843249
  21
 1235.4107679582
  31
0.0
   0
LINE
   5
154
 100
AcDbEntity
   8
LEVEL002
 370
30
 100
AcDbLine
   6
CONTINUOUS
  62
7
  10
 1488.2566843249
  20
 1235.4107679582
  30
0.0
  11
 1488.2566843249
  21
 1256.4107679582
  31
0.0
   0
LINE
   5
155
 100
AcDbEntity
   8
LEVEL002
 370
30
 100
AcDbLine
   6
CONTINUOUS
  62
7
  10
 1488.2566843249
  20
 1256.4107679582
  30
0.0
  11
 1489.5278398318
  21
 1258.6124738804
  31
0.0
   0
LINE
   5
156
 100
AcDbEntity
   8
LEVEL002
 370
30
 100
AcDbLine
   6
CONTINUOUS
  62
7
  10
 1489.5278398318
  20
 1258.6124738804
  30
0.0
  11
 1499.2566843249
  21
 1258.6124738804
  31
0.0
   0
LINE
   5
157
 100
AcDbEntity
   8
LEVEL002
 370
30
 100
AcDbLine
   6
CONTINUOUS
  62
7
  10
 1499.2566843249
  20
 1239.5599149972
  30
0.0
  11
 1489.5278398318
  21
 1239.5599149972
  31
0.0
   0
ARC
   5
158
 100
AcDbEntity
   8
LEVEL002
 370
30
   6
CONTINUOUS
  62
7
 100
AcDbCircle
  10
 1492.8584697054
  20
 1255.4370473998
  30
0.0
  40
 4.6017853805129
 100
AcDbArc
  50
 180.00000000000
  51
 223.63345586687
   0
LINE
   5
159
 100
AcDbEntity
   8
LEVEL002
 370
30
 100
AcDbLine
   6
CONTINUOUS
  62
7
  10
 1499.2566843249
  20
 1252.2616209193
  30
0.0
  11
 1489.5278398318
  21
 1252.2616209193
  31
0.0
   0
ARC
   5
15A
 100
AcDbEntity
   8
LEVEL002
 370
30
   6
CONTINUOUS
  62
7
 100
AcDbCircle
  10
 797.75627613811
  20
 1245.9107679582
  30
0.0
  40
 16.500408261289
 100
AcDbArc
  50
 337.36304777339
  51
 22.636952226609
   0
ARC
   5
15B
 100
AcDbEntity
   8
LEVEL002
 370
30
   6
CONTINUOUS
  62
7
 100
AcDbCircle
  10
 809.65489901889
  20
 1255.4370473998
  30
0.0
  40
 4.6017853805129
 100
AcDbArc
  50
 316.36654413313
  51
0.0
   0
LINE
   5
15C
 100
AcDbEntity
   8
LEVEL002
 370
30
 100
AcDbLine
   6
CONTINUOUS
  62
7
  10
 803.25668439940
  20
 1233.2090620361
  30
0.0
  11
 803.25668439940
  21
 1258.6124738804
  31
0.0
   0
LINE
   5
15D
 100
AcDbEntity
   8
LEVEL002
 370
30
 100
AcDbLine
   6
CONTINUOUS
  62
7
  10
 803.25668439940
  20
 1258.6124738804
  30
0.0
  11
 812.98552889248
  21
 1258.6124738804
  31
0.0
   0
LINE
   5
15E
 100
AcDbEntity
   8
LEVEL002
 370
30
 100
AcDbLine
   6
CONTINUOUS
  62
7
  10
 812.98552889248
  20
 1258.6124738804
  30
0.0
  11
 814.25668439940
  21
 1256.4107679582
  31
0.0
   0
LINE
   5
15F
 100
AcDbEntity
   8
LEVEL002
 370
30
 100
AcDbLine
   6
CONTINUOUS
  62
7
  10
 814.25668439940
  20
 1256.4107679582
  30
0.0
  11
 814.25668439940
  21
 1235.4107679582
  31
0.0
   0
LINE
   5
160
 100
AcDbEntity
   8
LEVEL002
 370
30
 100
AcDbLine
   6
CONTINUOUS
  62
7
  10
 814.25668439940
  20
 1235.4107679582
  30
0.0
  11
 812.98552889248
  21
 1233.2090620361
  31
0.0
   0
LINE
   5
161
 100
AcDbEntity
   8
LEVEL002
 370
30
 100
AcDbLine
   6
CONTINUOUS
  62
7
  10
 812.98552889248
  20
 1233.2090620361
  30
0.0
  11
 803.25668439940
  21
 1233.2090620361
  31
0.0
   0
LINE
   5
162
 100
AcDbEntity
   8
LEVEL002
 370
30
 100
AcDbLine
   6
CONTINUOUS
  62
7
  10
 803.25668439940
  20
 1252.2616209193
  30
0.0
  11
 812.98552889248
  21
 1252.2616209193
  31
0.0
   0
ARC
   5
163
 100
AcDbEntity
   8
LEVEL002
 370
30
   6
CONTINUOUS
  62
7
 100
AcDbCircle
  10
 809.65489901889
  20
 1236.3844885166
  30
0.0
  40
 4.6017853805129
 100
AcDbArc
  50
0.0
  51
 43.633455866870
   0
LINE
   5
164
 100
AcDbEntity
   8
LEVEL002
 370
30
 100
AcDbLine
   6
CONTINUOUS
  62
7
  10
 803.25668439940
  20
 1239.5599149972
  30
0.0
  11
 812.98552889248
  21
 1239.5599149972
  31
0.0
   0
ARC
   5
165
 100
AcDbEntity
   8
LEVEL002
 370
30
   6
CONTINUOUS
  62
7
 100
AcDbCircle
  10
 796.75709266069
  20
 1245.9107679582
  30
0.0
  40
 16.500408261289
 100
AcDbArc
  50
 157.36304777339
  51
 202.63695222661
   0
ARC
   5
166
 100
AcDbEntity
   8
LEVEL002
 370
30
   6
CONTINUOUS
  62
7
 100
AcDbCircle
  10
 784.85846977991
  20
 1236.3844885166
  30
0.0
  40
 4.6017853805129
 100
AcDbArc
  50
 136.36654413313
  51
 180.00000000000
   0
LINE
   5
167
 100
AcDbEntity
   8
LEVEL002
 370
30
 100
AcDbLine
   6
CONTINUOUS
  62
7
  10
 791.25668439940
  20
 1258.6124738804
  30
0.0
  11
 791.25668439940
  21
 1233.2090620361
  31
0.0
   0
LINE
   5
168
 100
AcDbEntity
   8
LEVEL002
 370
30
 100
AcDbLine
   6
CONTINUOUS
  62
7
  10
 791.25668439940
  20
 1233.2090620361
  30
0.0
  11
 781.52783990632
  21
 1233.2090620361
  31
0.0
   0
LINE
   5
169
 100
AcDbEntity
   8
LEVEL002
 370
30
 100
AcDbLine
   6
CONTINUOUS
  62
7
  10
 781.52783990632
  20
 1233.2090620361
  30
0.0
  11
 780.25668439940
  21
 1235.4107679582
  31
0.0
   0
LINE
   5
16A
 100
AcDbEntity
   8
LEVEL002
 370
30
 100
AcDbLine
   6
CONTINUOUS
  62
7
  10
 780.25668439940
  20
 1235.4107679582
  30
0.0
  11
 780.25668439940
  21
 1256.4107679582
  31
0.0
   0
LINE
   5
16B
 100
AcDbEntity
   8
LEVEL002
 370
30
 100
AcDbLine
   6
CONTINUOUS
  62
7
  10
 780.25668439940
  20
 1256.4107679582
  30
0.0
  11
 781.52783990632
  21
 1258.6124738804
  31
0.0
   0
LINE
   5
16C
 100
AcDbEntity
   8
LEVEL002
 370
30
 100
AcDbLine
   6
CONTINUOUS
  62
7
  10
 781.52783990632
  20
 1258.6124738804
  30
0.0
  11
 791.25668439940
  21
 1258.6124738804
  31
0.0
   0
LINE
   5
16D
 100
AcDbEntity
   8
LEVEL002
 370
30
 100
AcDbLine
   6
CONTINUOUS
  62
7
  10
 791.25668439940
  20
 1239.5599149972
  30
0.0
  11
 781.52783990632
  21
 1239.5599149972
  31
0.0
   0
ARC
   5
16E
 100
AcDbEntity
   8
LEVEL002
 370
30
   6
CONTINUOUS
  62
7
 100
AcDbCircle
  10
 784.85846977991
  20
 1255.4370473998
  30
0.0
  40
 4.6017853805129
 100
AcDbArc
  50
 180.00000000000
  51
 223.63345586687
   0
LINE
   5
16F
 100
AcDbEntity
   8
LEVEL002
 370
30
 100
AcDbLine
   6
CONTINUOUS
  62
7
  10
 791.25668439940
  20
 1252.2616209193
  30
0.0
  11
 781.52783990632
  21
 1252.2616209193
  31
0.0
   0
LINE
   5
170
 100
AcDbEntity
   8
LEVEL002
 370
30
 100
AcDbLine
   6
CONTINUOUS
  62
7
  10
 814.25668439940
  20
 1253.9107679582
  30
0.0
  11
 1488.4227898464
  21
 1253.9107679582
  31
0.0
   0
LINE
   5
171
 100
AcDbEntity
   8
LEVEL002
 370
30
 100
AcDbLine
   6
CONTINUOUS
  62
7
  10
 814.25668439940
  20
 1237.9107679582
  30
0.0
  11
 1488.2566843249
  21
 1237.9107679582
  31
0.0
   0
LINE
   5
172
 100
AcDbEntity
   8
LEVEL002
 370
30
 100
AcDbLine
   6
CONTINUOUS
  62
7
  10
 1419.2566844450
  20
 1183.9216089166
  30
0.0
  11
 1457.1943190390
  21
 1183.9216089166
  31
0.0
   0
LINE
   5
173
 100
AcDbEntity
   8
LEVEL002
 370
30
 100
AcDbLine
   6
CONTINUOUS
  62
7
  10
 1459.0566843249
  20
 1143.9216089166
  30
0.0
  11
 1459.0566843249
  21
 1183.9216089166
  31
0.0
   0
LINE
   5
174
 100
AcDbEntity
   8
LEVEL002
 370
30
 100
AcDbLine
   6
CONTINUOUS
  62
7
  10
 1468.2566843249
  20
 1183.9216089166
  30
0.0
  11
 1457.1943190390
  21
 1183.9216089166
  31
0.0
   0
LINE
   5
175
 100
AcDbEntity
   8
LEVEL002
 370
30
 100
AcDbLine
   6
CONTINUOUS
  62
7
  10
 883.25668439940
  20
 1183.9216089166
  30
0.0
  11
 841.67601307883
  21
 1183.9216089166
  31
0.0
   0
LINE
   5
176
 100
AcDbEntity
   8
LEVEL002
 370
30
 100
AcDbLine
   6
CONTINUOUS
  62
7
  10
 834.25668439940
  20
 1183.9216089166
  30
0.0
  11
 841.67601307883
  21
 1183.9216089166
  31
0.0
   0
LINE
   5
177
 100
AcDbEntity
   8
LEVEL002
 370
30
 100
AcDbLine
   6
CONTINUOUS
  62
7
  10
 843.45668439940
  20
 1143.9216089166
  30
0.0
  11
 843.45668439940
  21
 1183.9216089166
  31
0.0
   0
LINE
   5
178
 100
AcDbEntity
   8
LEVEL002
 370
30
 100
AcDbLine
   6
CONTINUOUS
  62
7
  10
 1419.2566844450
  20
 1237.9107679582
  30
0.0
  11
 1419.2566844450
  21
 1156.8964986202
  31
0.0
   0
LINE
   5
179
 100
AcDbEntity
   8
LEVEL002
 370
30
 100
AcDbLine
   6
CONTINUOUS
  62
7
  10
 883.25668439940
  20
 1237.9107679582
  30
0.0
  11
 883.25668439940
  21
 1156.8964986202
  31
0.0
   0
LINE
   5
17A
 100
AcDbEntity
   8
LEVEL002
 370
9
 100
AcDbLine
   6
DASHDOT
  62
1
  10
 1501.8696837063
  20
 1163.9216089166
  30
0.0
  11
 816.42671747860
  21
 1163.9216089166
  31
0.0
   0
LINE
   5
17B
 100
AcDbEntity
   8
LEVEL002
 370
9
 100
AcDbLine
   6
DASHDOT
  62
1
  10
 1461.3508876731
  20
 1038.8508735786
  30
0.0
  11
 826.55641648689
  21
 1038.8508735786
  31
0.0
   0
ARC
   5
17C
 100
AcDbEntity
   8
LEVEL002
 370
30
   6
CONTINUOUS
  62
7
 100
AcDbCircle
  10
 1562.9066843374
  20
 1293.2807948712
  30
0.0
  40
 13.650000000000
 100
AcDbArc
  50
 89.999999999998
  51
 179.99999999999
   0
ARC
   5
17D
 100
AcDbEntity
   8
LEVEL002
 370
30
   6
CONTINUOUS
  62
7
 100
AcDbCircle
  10
 1562.9066843374
  20
 1293.2807948712
  30
0.0
  40
 13.650000000000
 100
AcDbArc
  50
0.0
  51
 89.999999999990
   0
LINE
   5
17E
 100
AcDbEntity
   8
LEVEL002
 370
30
 100
AcDbLine
   6
CONTINUOUS
  62
7
  10
 1544.7795166003
  20
 1065.3971588503
  30
0.0
  11
 1544.7795166003
  21
 960.84265324970
  31
0.0
   0
LINE
   5
17F
 100
AcDbEntity
   8
LEVEL002
 370
30
 100
AcDbLine
   6
CONTINUOUS
  62
7
  10
 1580.7076684720
  20
 1063.9448604728
  30
0.0
  11
 1580.7076684720
  21
 961.78489100357
  31
0.0
   0
ELLIPSE
   5
180
 100
AcDbEntity
   8
LEVEL002
 370
30
   6
CONTINUOUS
  62
7
 100
AcDbEllipse
  10
 1562.7732189709
  20
 962.23951261142
  30
0.0
  11
-18.000000000000
  21
0.0
  31
0.0
  40
 0.72222222222222
  41
0.0
  42
 6.2831853071796
   0
LINE
   5
181
 100
AcDbEntity
   8
LEVEL002
 370
30
 100
AcDbLine
   6
CONTINUOUS
  62
7
  10
 1576.5566843374
  20
 1293.2807948712
  30
0.0
  11
 1576.5566843374
  21
 1074.1245216409
  31
0.0
   0
LINE
   5
182
 100
AcDbEntity
   8
LEVEL002
 370
30
 100
AcDbLine
   6
CONTINUOUS
  62
7
  10
 1549.2566843374
  20
 1074.3488254920
  30
0.0
  11
 1549.2566843374
  21
 1293.2807948712
  31
0.0
   0
ELLIPSE
   5
183
 100
AcDbEntity
   8
LEVEL002
 370
30
   6
CONTINUOUS
  62
7
 100
AcDbEllipse
  10
 1562.7732189709
  20
 1065.7636933066
  30
0.0
  11
 18.000000000000
  21
0.0
  31
0.0
  40
 0.72222222222222
  41
-0.13950940369621
  42
-3.1133953029615
   0
LINE
   5
184
 100
AcDbEntity
   8
LEVEL002
 370
30
 100
AcDbLine
   6
CONTINUOUS
  62
7
  10
 1549.2566843374
  20
 1245.2135396755
  30
0.0
  11
 1537.2566843311
  21
 1245.2135396755
  31
0.0
   0
LINE
   5
185
 100
AcDbEntity
   8
LEVEL002
 370
30
 100
AcDbLine
   6
CONTINUOUS
  62
7
  10
 1537.2566843311
  20
 1245.2135396755
  30
0.0
  11
 1537.2566843311
  21
 1143.8508735785
  31
0.0
   0
LINE
   5
186
 100
AcDbEntity
   8
LEVEL002
 370
30
 100
AcDbLine
   6
CONTINUOUS
  62
7
  10
 868.25668444495
  20
 1144.8769102486
  30
0.0
  11
 1434.2566844450
  21
 1144.8769102486
  31
0.0
   0
LINE
   5
187
 100
AcDbEntity
   8
LEVEL002
 370
30
 100
AcDbLine
   6
CONTINUOUS
  62
7
  10
 1436.2566844450
  20
 1143.9216089166
  30
0.0
  11
 1549.2566843374
  21
 1143.9216089166
  31
0.0
   0
POINT
   5
188
 100
AcDbEntity
   8
LEVEL002
 100
AcDbPoint
  62
7
  10
 842.75668444495
  20
 453.85087357856
  30
0.0
   0
POINT
   5
189
 100
AcDbEntity
   8
LEVEL002
 100
AcDbPoint
  62
7
  10
 905.75668444495
  20
 453.85087357856
  30
0.0
   0
POINT
   5
18A
 100
AcDbEntity
   8
LEVEL002
 100
AcDbPoint
  62
7
  10
 874.25668444495
  20
 453.85087357856
  30
0.0
   0
POINT
   5
18B
 100
AcDbEntity
   8
LEVEL002
 100
AcDbPoint
  62
7
  10
 1396.7566844450
  20
 453.85087357856
  30
0.0
   0
POINT
   5
18C
 100
AcDbEntity
   8
LEVEL002
 100
AcDbPoint
  62
7
  10
 1428.2566844450
  20
 453.85087357856
  30
0.0
   0
POINT
   5
18D
 100
AcDbEntity
   8
LEVEL002
 100
AcDbPoint
  62
7
  10
 1459.7566844450
  20
 453.85087357856
  30
0.0
   0
LINE
   5
18E
 100
AcDbEntity
   8
LEVEL002
 370
30
 100
AcDbLine
   6
CONTINUOUS
  62
7
  10
 713.25668431948
  20
 1168.8508735785
  30
0.0
  11
 713.25668431948
  21
 1164.8508735785
  31
0.0
   0
LINE
   5
18F
 100
AcDbEntity
   8
LEVEL002
 370
30
 100
AcDbLine
   6
CONTINUOUS
  62
7
  10
 713.25668431948
  20
 1164.8508735785
  30
0.0
  11
 753.25668431948
  21
 1164.8508735785
  31
0.0
   0
LINE
   5
190
 100
AcDbEntity
   8
LEVEL002
 370
30
 100
AcDbLine
   6
CONTINUOUS
  62
7
  10
 753.25668431948
  20
 1164.8508735785
  30
0.0
  11
 753.25668431948
  21
 1168.8508735785
  31
0.0
   0
LINE
   5
191
 100
AcDbEntity
   8
LEVEL002
 370
30
 100
AcDbLine
   6
CONTINUOUS
  62
7
  10
 750.25668431948
  20
 1146.3508735785
  30
0.0
  11
 750.25668431948
  21
 1152.3508735785
  31
0.0
   0
LINE
   5
192
 100
AcDbEntity
   8
LEVEL002
 370
30
 100
AcDbLine
   6
CONTINUOUS
  62
7
  10
 750.25668431948
  20
 1152.3508735785
  30
0.0
  11
 748.25668431948
  21
 1158.3508735785
  31
0.0
   0
LINE
   5
193
 100
AcDbEntity
   8
LEVEL002
 370
30
 100
AcDbLine
   6
CONTINUOUS
  62
7
  10
 748.25668431948
  20
 1158.3508735785
  30
0.0
  11
 718.25668431948
  21
 1158.3508735785
  31
0.0
   0
LINE
   5
194
 100
AcDbEntity
   8
LEVEL002
 370
30
 100
AcDbLine
   6
CONTINUOUS
  62
7
  10
 718.25668431948
  20
 1158.3508735785
  30
0.0
  11
 716.25668431948
  21
 1152.3508735785
  31
0.0
   0
LINE
   5
195
 100
AcDbEntity
   8
LEVEL002
 370
30
 100
AcDbLine
   6
CONTINUOUS
  62
7
  10
 716.25668431948
  20
 1152.3508735785
  30
0.0
  11
 716.25668431948
  21
 1146.3508735785
  31
0.0
   0
LINE
   5
196
 100
AcDbEntity
   8
LEVEL002
 370
30
 100
AcDbLine
   6
CONTINUOUS
  62
7
  10
 716.25668431948
  20
 1146.3508735785
  30
0.0
  11
 750.25668431948
  21
 1146.3508735785
  31
0.0
   0
LINE
   5
197
 100
AcDbEntity
   8
LEVEL002
 370
30
 100
AcDbLine
   6
CONTINUOUS
  62
7
  10
 750.25668431948
  20
 1152.3508735785
  30
0.0
  11
 716.25668431948
  21
 1152.3508735785
  31
0.0
   0
LINE
   5
198
 100
AcDbEntity
   8
LEVEL002
 370
30
 100
AcDbLine
   6
CONTINUOUS
  62
7
  10
 745.75668431948
  20
 1158.3508735785
  30
0.0
  11
 745.75668431948
  21
 1164.8508735785
  31
0.0
   0
LINE
   5
199
 100
AcDbEntity
   8
LEVEL002
 370
30
 100
AcDbLine
   6
CONTINUOUS
  62
7
  10
 720.75668431948
  20
 1158.3508735785
  30
0.0
  11
 720.75668431948
  21
 1164.8508735785
  31
0.0
   0
LINE
   5
19A
 100
AcDbEntity
   8
LEVEL002
 370
30
 100
AcDbLine
   6
CONTINUOUS
  62
7
  10
 713.25668431948
  20
 1143.8508735785
  30
0.0
  11
 753.25668431948
  21
 1143.8508735785
  31
0.0
   0
LINE
   5
19B
 100
AcDbEntity
   8
LEVEL002
 370
30
 100
AcDbLine
   6
CONTINUOUS
  62
7
  10
 753.25668431948
  20
 1143.8508735785
  30
0.0
  11
 753.25668431948
  21
 1146.3508735785
  31
0.0
   0
LINE
   5
19C
 100
AcDbEntity
   8
LEVEL002
 370
30
 100
AcDbLine
   6
CONTINUOUS
  62
7
  10
 753.25668431948
  20
 1146.3508735785
  30
0.0
  11
 713.25668431948
  21
 1146.3508735785
  31
0.0
   0
LINE
   5
19D
 100
AcDbEntity
   8
LEVEL002
 370
30
 100
AcDbLine
   6
CONTINUOUS
  62
7
  10
 713.25668431948
  20
 1146.3508735785
  30
0.0
  11
 713.25668431948
  21
 1143.8508735785
  31
0.0
   0
ARC
   5
19E
 100
AcDbEntity
   8
LEVEL002
 370
30
   6
CONTINUOUS
  62
7
 100
AcDbCircle
  10
 733.25668431948
  20
 1069.8508735786
  30
0.0
  40
 101.00000000000
 100
AcDbArc
  50
 78.578813725000
  51
 101.42118627500
   0
LINE
   5
19F
 100
AcDbEntity
   8
LEVEL002
 370
30
 100
AcDbLine
   6
CONTINUOUS
  62
7
  10
 803.25668431948
  20
 1146.3508735785
  30
0.0
  11
 803.25668431948
  21
 1152.3508735785
  31
0.0
   0
LINE
   5
1A0
 100
AcDbEntity
   8
LEVEL002
 370
30
 100
AcDbLine
   6
CONTINUOUS
  62
7
  10
 803.25668431948
  20
 1152.3508735785
  30
0.0
  11
 801.25668431948
  21
 1158.3508735785
  31
0.0
   0
LINE
   5
1A1
 100
AcDbEntity
   8
LEVEL002
 370
30
 100
AcDbLine
   6
CONTINUOUS
  62
7
  10
 801.25668431948
  20
 1158.3508735785
  30
0.0
  11
 771.25668431948
  21
 1158.3508735785
  31
0.0
   0
LINE
   5
1A2
 100
AcDbEntity
   8
LEVEL002
 370
30
 100
AcDbLine
   6
CONTINUOUS
  62
7
  10
 771.25668431948
  20
 1158.3508735785
  30
0.0
  11
 769.25668431948
  21
 1152.3508735785
  31
0.0
   0
LINE
   5
1A3
 100
AcDbEntity
   8
LEVEL002
 370
30
 100
AcDbLine
   6
CONTINUOUS
  62
7
  10
 769.25668431948
  20
 1152.3508735785
  30
0.0
  11
 769.25668431948
  21
 1146.3508735785
  31
0.0
   0
LINE
   5
1A4
 100
AcDbEntity
   8
LEVEL002
 370
30
 100
AcDbLine
   6
CONTINUOUS
  62
7
  10
 769.25668431948
  20
 1146.3508735785
  30
0.0
  11
 803.25668431948
  21
 1146.3508735785
  31
0.0
   0
LINE
   5
1A5
 100
AcDbEntity
   8
LEVEL002
 370
30
 100
AcDbLine
   6
CONTINUOUS
  62
7
  10
 803.25668431948
  20
 1152.3508735785
  30
0.0
  11
 769.25668431948
  21
 1152.3508735785
  31
0.0
   0
LINE
   5
1A6
 100
AcDbEntity
   8
LEVEL002
 370
30
 100
AcDbLine
   6
CONTINUOUS
  62
7
  10
 766.25668431948
  20
 1143.8508735785
  30
0.0
  11
 806.25668431948
  21
 1143.8508735785
  31
0.0
   0
LINE
   5
1A7
 100
AcDbEntity
   8
LEVEL002
 370
30
 100
AcDbLine
   6
CONTINUOUS
  62
7
  10
 806.25668431948
  20
 1143.8508735785
  30
0.0
  11
 806.25668431948
  21
 1146.3508735785
  31
0.0
   0
LINE
   5
1A8
 100
AcDbEntity
   8
LEVEL002
 370
30
 100
AcDbLine
   6
CONTINUOUS
  62
7
  10
 806.25668431948
  20
 1146.3508735785
  30
0.0
  11
 766.25668431948
  21
 1146.3508735785
  31
0.0
   0
LINE
   5
1A9
 100
AcDbEntity
   8
LEVEL002
 370
30
 100
AcDbLine
   6
CONTINUOUS
  62
7
  10
 766.25668431948
  20
 1146.3508735785
  30
0.0
  11
 766.25668431948
  21
 1143.8508735785
  31
0.0
   0
LINE
   5
1AA
 100
AcDbEntity
   8
LEVEL002
 370
30
 100
AcDbLine
   6
CONTINUOUS
  62
7
  10
 791.25668431948
  20
 1165.3508735785
  30
0.0
  11
 772.75668431948
  21
 1165.3508735785
  31
0.0
   0
LINE
   5
1AB
 100
AcDbEntity
   8
LEVEL002
 370
30
 100
AcDbLine
   6
CONTINUOUS
  62
7
  10
 772.75668431948
  20
 1165.3508735785
  30
0.0
  11
 772.75668431948
  21
 1158.3508735785
  31
0.0
   0
LINE
   5
1AC
 100
AcDbEntity
   8
LEVEL002
 370
30
 100
AcDbLine
   6
CONTINUOUS
  62
7
  10
 772.75668431948
  20
 1158.3508735785
  30
0.0
  11
 799.75668431948
  21
 1158.3508735785
  31
0.0
   0
LINE
   5
1AD
 100
AcDbEntity
   8
LEVEL002
 370
30
 100
AcDbLine
   6
CONTINUOUS
  62
7
  10
 799.75668431948
  20
 1158.3508735785
  30
0.0
  11
 799.75668431948
  21
 1165.3508735785
  31
0.0
   0
LINE
   5
1AE
 100
AcDbEntity
   8
LEVEL002
 370
30
 100
AcDbLine
   6
CONTINUOUS
  62
7
  10
 799.75668431948
  20
 1165.3508735785
  30
0.0
  11
 791.25668431948
  21
 1165.3508735785
  31
0.0
   0
LINE
   5
1AF
 100
AcDbEntity
   8
LEVEL002
 370
30
 100
AcDbLine
   6
CONTINUOUS
  62
7
  10
 791.25668431948
  20
 1165.3508735785
  30
0.0
  11
 791.25668431948
  21
 1175.3508735785
  31
0.0
   0
LINE
   5
1B0
 100
AcDbEntity
   8
LEVEL002
 370
30
 100
AcDbLine
   6
CONTINUOUS
  62
7
  10
 791.25668431948
  20
 1175.3508735785
  30
0.0
  11
 781.25668431948
  21
 1175.3508735785
  31
0.0
   0
LINE
   5
1B1
 100
AcDbEntity
   8
LEVEL002
 370
30
 100
AcDbLine
   6
CONTINUOUS
  62
7
  10
 781.25668431948
  20
 1175.3508735785
  30
0.0
  11
 781.25668431948
  21
 1165.3508735785
  31
0.0
   0
LINE
   5
1B2
 100
AcDbEntity
   8
LEVEL002
 370
30
 100
AcDbLine
   6
CONTINUOUS
  62
7
  10
 745.75668431948
  20
 1164.6681220844
  30
0.0
  11
 772.75668431948
  21
 1164.6681220844
  31
0.0
   0
LINE
   5
1B3
 100
AcDbEntity
   8
LEVEL002
 370
30
 100
AcDbLine
   6
CONTINUOUS
  62
7
  10
 1682.2566844450
  20
 353.37931034483
  30
0.0
  11
 599.25668444496
  21
 353.37931034483
  31
0.0
   0
LINE
   5
1B4
 100
AcDbEntity
   8
LEVEL002
 370
30
 100
AcDbLine
   6
CONTINUOUS
  62
7
  10
 1419.2566844450
  20
 1791.9940037110
  30
0.0
  11
 1420.2566844450
  21
 1791.9940037110
  31
0.0
   0
LINE
   5
1B5
 100
AcDbEntity
   8
LEVEL002
 370
30
 100
AcDbLine
   6
CONTINUOUS
  62
7
  10
 883.25668444495
  20
 1791.9940037111
  30
0.0
  11
 882.25668444495
  21
 1791.9940037111
  31
0.0
   0
LINE
   5
1B6
 100
AcDbEntity
   8
LEVEL002
 370
30
 100
AcDbLine
   6
CONTINUOUS
  62
7
  10
 1419.2566844450
  20
 1956.7646169786
  30
0.0
  11
 1420.2566844450
  21
 1956.7646169786
  31
0.0
   0
LINE
   5
1B7
 100
AcDbEntity
   8
LEVEL002
 370
30
 100
AcDbLine
   6
CONTINUOUS
  62
7
  10
 1420.2566844450
  20
 1991.8793103448
  30
0.0
  11
 1426.7566844450
  21
 1991.8793103448
  31
0.0
   0
LINE
   5
1B8
 100
AcDbEntity
   8
LEVEL002
 370
30
 100
AcDbLine
   6
CONTINUOUS
  62
7
  10
 875.75668444495
  20
 1991.8793103448
  30
0.0
  11
 882.25668444495
  21
 1991.8793103448
  31
0.0
   0
LINE
   5
1B9
 100
AcDbEntity
   8
LEVEL002
 370
30
 100
AcDbLine
   6
CONTINUOUS
  62
7
  10
 882.25668444495
  20
 1956.8638196752
  30
0.0
  11
 882.25668444495
  21
 1991.8793103448
  31
0.0
   0
LINE
   5
1BA
 100
AcDbEntity
   8
LEVEL002
 370
30
 100
AcDbLine
   6
CONTINUOUS
  62
7
  10
 882.25668444495
  20
 1958.4300834472
  30
0.0
  11
 882.25668444495
  21
 1956.8638196752
  31
0.0
   0
LINE
   5
1BB
 100
AcDbEntity
   8
LEVEL002
 370
30
 100
AcDbLine
   6
CONTINUOUS
  62
7
  10
 1420.2566844450
  20
 1956.7646169786
  30
0.0
  11
 1420.2566844450
  21
 1991.8793103448
  31
0.0
   0
LINE
   5
1BC
 100
AcDbEntity
   8
LEVEL002
 370
30
 100
AcDbLine
   6
CONTINUOUS
  62
7
  10
 1499.2566843249
  20
 2299.1793102754
  30
0.0
  11
 1511.2566843249
  21
 2299.1793102754
  31
0.0
   0
LINE
   5
1BD
 100
AcDbEntity
   8
LEVEL002
 370
30
 100
AcDbLine
   6
CONTINUOUS
  62
7
  10
 1499.2566843249
  20
 1903.7468871107
  30
0.0
  11
 1511.2566843249
  21
 1903.7468871107
  31
0.0
   0
LINE
   5
1BE
 100
AcDbEntity
   8
LEVEL002
 370
30
 100
AcDbLine
   6
CONTINUOUS
  62
7
  10
 791.25668439940
  20
 2299.1793102754
  30
0.0
  11
 803.25668439940
  21
 2299.1793102754
  31
0.0
   0
ARC
   5
1BF
 100
AcDbEntity
   8
LEVEL002
 370
30
   6
CONTINUOUS
  62
7
 100
AcDbCircle
  10
 1505.7562760636
  20
 2279.1793102539
  30
0.0
  40
 16.500408261289
 100
AcDbArc
  50
 337.36304777339
  51
 22.636952226609
   0
ARC
   5
1C0
 100
AcDbEntity
   8
LEVEL002
 370
30
   6
CONTINUOUS
  62
7
 100
AcDbCircle
  10
 1517.6548989443
  20
 2288.7055896955
  30
0.0
  40
 4.6017853805129
 100
AcDbArc
  50
 316.36654413311
  51
0.0
   0
LINE
   5
1C1
 100
AcDbEntity
   8
LEVEL002
 370
30
 100
AcDbLine
   6
CONTINUOUS
  62
7
  10
 1511.2566843249
  20
 2266.4776043318
  30
0.0
  11
 1511.2566843249
  21
 2291.8810161761
  31
0.0
   0
LINE
   5
1C2
 100
AcDbEntity
   8
LEVEL002
 370
30
 100
AcDbLine
   6
CONTINUOUS
  62
7
  10
 1511.2566843249
  20
 2291.8810161761
  30
0.0
  11
 1520.9855288179
  21
 2291.8810161761
  31
0.0
   0
LINE
   5
1C3
 100
AcDbEntity
   8
LEVEL002
 370
30
 100
AcDbLine
   6
CONTINUOUS
  62
7
  10
 1520.9855288179
  20
 2291.8810161761
  30
0.0
  11
 1522.2566843249
  21
 2289.6793102539
  31
0.0
   0
LINE
   5
1C4
 100
AcDbEntity
   8
LEVEL002
 370
30
 100
AcDbLine
   6
CONTINUOUS
  62
7
  10
 1522.2566843249
  20
 2289.6793102539
  30
0.0
  11
 1522.2566843249
  21
 2268.6793102539
  31
0.0
   0
LINE
   5
1C5
 100
AcDbEntity
   8
LEVEL002
 370
30
 100
AcDbLine
   6
CONTINUOUS
  62
7
  10
 1522.2566843249
  20
 2268.6793102539
  30
0.0
  11
 1520.9855288179
  21
 2266.4776043318
  31
0.0
   0
LINE
   5
1C6
 100
AcDbEntity
   8
LEVEL002
 370
30
 100
AcDbLine
   6
CONTINUOUS
  62
7
  10
 1520.9855288179
  20
 2266.4776043318
  30
0.0
  11
 1511.2566843249
  21
 2266.4776043318
  31
0.0
   0
LINE
   5
1C7
 100
AcDbEntity
   8
LEVEL002
 370
30
 100
AcDbLine
   6
CONTINUOUS
  62
7
  10
 1511.2566843249
  20
 2285.5301632150
  30
0.0
  11
 1520.9855288179
  21
 2285.5301632150
  31
0.0
   0
ARC
   5
1C8
 100
AcDbEntity
   8
LEVEL002
 370
30
   6
CONTINUOUS
  62
7
 100
AcDbCircle
  10
 1517.6548989443
  20
 2269.6530308123
  30
0.0
  40
 4.6017853805129
 100
AcDbArc
  50
 0.11323910958944E-10
  51
 43.633455866888
   0
LINE
   5
1C9
 100
AcDbEntity
   8
LEVEL002
 370
30
 100
AcDbLine
   6
CONTINUOUS
  62
7
  10
 1511.2566843249
  20
 2272.8284572929
  30
0.0
  11
 1520.9855288179
  21
 2272.8284572929
  31
0.0
   0
ARC
   5
1CA
 100
AcDbEntity
   8
LEVEL002
 370
30
   6
CONTINUOUS
  62
7
 100
AcDbCircle
  10
 1504.7570925862
  20
 2279.1793102539
  30
0.0
  40
 16.500408261289
 100
AcDbArc
  50
 157.36304777339
  51
 202.63695222661
   0
ARC
   5
1CB
 100
AcDbEntity
   8
LEVEL002
 370
30
   6
CONTINUOUS
  62
7
 100
AcDbCircle
  10
 1492.8584697054
  20
 2269.6530308123
  30
0.0
  40
 4.6017853805129
 100
AcDbArc
  50
 136.36654413314
  51
 180.00000000001
   0
LINE
   5
1CC
 100
AcDbEntity
   8
LEVEL002
 370
30
 100
AcDbLine
   6
CONTINUOUS
  62
7
  10
 1499.2566843249
  20
 2291.8810161761
  30
0.0
  11
 1499.2566843249
  21
 2266.4776043318
  31
0.0
   0
LINE
   5
1CD
 100
AcDbEntity
   8
LEVEL002
 370
30
 100
AcDbLine
   6
CONTINUOUS
  62
7
  10
 1499.2566843249
  20
 2266.4776043318
  30
0.0
  11
 1489.5278398318
  21
 2266.4776043318
  31
0.0
   0
LINE
   5
1CE
 100
AcDbEntity
   8
LEVEL002
 370
30
 100
AcDbLine
   6
CONTINUOUS
  62
7
  10
 1489.5278398318
  20
 2266.4776043318
  30
0.0
  11
 1488.2566843249
  21
 2268.6793102539
  31
0.0
   0
LINE
   5
1CF
 100
AcDbEntity
   8
LEVEL002
 370
30
 100
AcDbLine
   6
CONTINUOUS
  62
7
  10
 1488.2566843249
  20
 2268.6793102539
  30
0.0
  11
 1488.2566843249
  21
 2289.6793102539
  31
0.0
   0
LINE
   5
1D0
 100
AcDbEntity
   8
LEVEL002
 370
30
 100
AcDbLine
   6
CONTINUOUS
  62
7
  10
 1488.2566843249
  20
 2289.6793102539
  30
0.0
  11
 1489.5278398318
  21
 2291.8810161761
  31
0.0
   0
LINE
   5
1D1
 100
AcDbEntity
   8
LEVEL002
 370
30
 100
AcDbLine
   6
CONTINUOUS
  62
7
  10
 1489.5278398318
  20
 2291.8810161761
  30
0.0
  11
 1499.2566843249
  21
 2291.8810161761
  31
0.0
   0
LINE
   5
1D2
 100
AcDbEntity
   8
LEVEL002
 370
30
 100
AcDbLine
   6
CONTINUOUS
  62
7
  10
 1499.2566843249
  20
 2272.8284572929
  30
0.0
  11
 1489.5278398318
  21
 2272.8284572929
  31
0.0
   0
ARC
   5
1D3
 100
AcDbEntity
   8
LEVEL002
 370
30
   6
CONTINUOUS
  62
7
 100
AcDbCircle
  10
 1492.8584697054
  20
 2288.7055896955
  30
0.0
  40
 4.6017853805129
 100
AcDbArc
  50
 180.00000000000
  51
 223.63345586687
   0
LINE
   5
1D4
 100
AcDbEntity
   8
LEVEL002
 370
30
 100
AcDbLine
   6
CONTINUOUS
  62
7
  10
 1499.2566843249
  20
 2285.5301632150
  30
0.0
  11
 1489.5278398318
  21
 2285.5301632150
  31
0.0
   0
ARC
   5
1D5
 100
AcDbEntity
   8
LEVEL002
 370
30
   6
CONTINUOUS
  62
7
 100
AcDbCircle
  10
 797.75627613811
  20
 2279.1793102539
  30
0.0
  40
 16.500408261289
 100
AcDbArc
  50
 337.36304777339
  51
 22.636952226609
   0
ARC
   5
1D6
 100
AcDbEntity
   8
LEVEL002
 370
30
   6
CONTINUOUS
  62
7
 100
AcDbCircle
  10
 809.65489901889
  20
 2288.7055896955
  30
0.0
  40
 4.6017853805129
 100
AcDbArc
  50
 316.36654413313
  51
0.0
   0
LINE
   5
1D7
 100
AcDbEntity
   8
LEVEL002
 370
30
 100
AcDbLine
   6
CONTINUOUS
  62
7
  10
 803.25668439940
  20
 2266.4776043318
  30
0.0
  11
 803.25668439940
  21
 2291.8810161761
  31
0.0
   0
LINE
   5
1D8
 100
AcDbEntity
   8
LEVEL002
 370
30
 100
AcDbLine
   6
CONTINUOUS
  62
7
  10
 803.25668439940
  20
 2291.8810161761
  30
0.0
  11
 812.98552889248
  21
 2291.8810161761
  31
0.0
   0
LINE
   5
1D9
 100
AcDbEntity
   8
LEVEL002
 370
30
 100
AcDbLine
   6
CONTINUOUS
  62
7
  10
 812.98552889248
  20
 2291.8810161761
  30
0.0
  11
 814.25668439940
  21
 2289.6793102539
  31
0.0
   0
LINE
   5
1DA
 100
AcDbEntity
   8
LEVEL002
 370
30
 100
AcDbLine
   6
CONTINUOUS
  62
7
  10
 814.25668439940
  20
 2289.6793102539
  30
0.0
  11
 814.25668439940
  21
 2268.6793102539
  31
0.0
   0
LINE
   5
1DB
 100
AcDbEntity
   8
LEVEL002
 370
30
 100
AcDbLine
   6
CONTINUOUS
  62
7
  10
 814.25668439940
  20
 2268.6793102539
  30
0.0
  11
 812.98552889248
  21
 2266.4776043318
  31
0.0
   0
LINE
   5
1DC
 100
AcDbEntity
   8
LEVEL002
 370
30
 100
AcDbLine
   6
CONTINUOUS
  62
7
  10
 812.98552889248
  20
 2266.4776043318
  30
0.0
  11
 803.25668439940
  21
 2266.4776043318
  31
0.0
   0
LINE
   5
1DD
 100
AcDbEntity
   8
LEVEL002
 370
30
 100
AcDbLine
   6
CONTINUOUS
  62
7
  10
 803.25668439940
  20
 2285.5301632150
  30
0.0
  11
 812.98552889248
  21
 2285.5301632150
  31
0.0
   0
ARC
   5
1DE
 100
AcDbEntity
   8
LEVEL002
 370
30
   6
CONTINUOUS
  62
7
 100
AcDbCircle
  10
 809.65489901889
  20
 2269.6530308123
  30
0.0
  40
 4.6017853805129
 100
AcDbArc
  50
0.0
  51
 43.633455866872
   0
LINE
   5
1DF
 100
AcDbEntity
   8
LEVEL002
 370
30
 100
AcDbLine
   6
CONTINUOUS
  62
7
  10
 803.25668439940
  20
 2272.8284572929
  30
0.0
  11
 812.98552889248
  21
 2272.8284572929
  31
0.0
   0
ARC
   5
1E0
 100
AcDbEntity
   8
LEVEL002
 370
30
   6
CONTINUOUS
  62
7
 100
AcDbCircle
  10
 796.75709266069
  20
 2279.1793102539
  30
0.0
  40
 16.500408261289
 100
AcDbArc
  50
 157.36304777339
  51
 202.63695222661
   0
ARC
   5
1E1
 100
AcDbEntity
   8
LEVEL002
 370
30
   6
CONTINUOUS
  62
7
 100
AcDbCircle
  10
 784.85846977991
  20
 2269.6530308123
  30
0.0
  40
 4.6017853805129
 100
AcDbArc
  50
 136.36654413313
  51
 180.00000000000
   0
LINE
   5
1E2
 100
AcDbEntity
   8
LEVEL002
 370
30
 100
AcDbLine
   6
CONTINUOUS
  62
7
  10
 791.25668439940
  20
 2291.8810161761
  30
0.0
  11
 791.25668439940
  21
 2266.4776043318
  31
0.0
   0
LINE
   5
1E3
 100
AcDbEntity
   8
LEVEL002
 370
30
 100
AcDbLine
   6
CONTINUOUS
  62
7
  10
 791.25668439940
  20
 2266.4776043318
  30
0.0
  11
 781.52783990632
  21
 2266.4776043318
  31
0.0
   0
LINE
   5
1E4
 100
AcDbEntity
   8
LEVEL002
 370
30
 100
AcDbLine
   6
CONTINUOUS
  62
7
  10
 781.52783990632
  20
 2266.4776043318
  30
0.0
  11
 780.25668439940
  21
 2268.6793102539
  31
0.0
   0
LINE
   5
1E5
 100
AcDbEntity
   8
LEVEL002
 370
30
 100
AcDbLine
   6
CONTINUOUS
  62
7
  10
 780.25668439940
  20
 2268.6793102539
  30
0.0
  11
 780.25668439940
  21
 2289.6793102539
  31
0.0
   0
LINE
   5
1E6
 100
AcDbEntity
   8
LEVEL002
 370
30
 100
AcDbLine
   6
CONTINUOUS
  62
7
  10
 780.25668439940
  20
 2289.6793102539
  30
0.0
  11
 781.52783990632
  21
 2291.8810161761
  31
0.0
   0
LINE
   5
1E7
 100
AcDbEntity
   8
LEVEL002
 370
30
 100
AcDbLine
   6
CONTINUOUS
  62
7
  10
 781.52783990632
  20
 2291.8810161761
  30
0.0
  11
 791.25668439940
  21
 2291.8810161761
  31
0.0
   0
LINE
   5
1E8
 100
AcDbEntity
   8
LEVEL002
 370
30
 100
AcDbLine
   6
CONTINUOUS
  62
7
  10
 791.25668439940
  20
 2272.8284572929
  30
0.0
  11
 781.52783990632
  21
 2272.8284572929
  31
0.0
   0
ARC
   5
1E9
 100
AcDbEntity
   8
LEVEL002
 370
30
   6
CONTINUOUS
  62
7
 100
AcDbCircle
  10
 784.85846977991
  20
 2288.7055896955
  30
0.0
  40
 4.6017853805129
 100
AcDbArc
  50
 180.00000000000
  51
 223.63345586687
   0
LINE
   5
1EA
 100
AcDbEntity
   8
LEVEL002
 370
30
 100
AcDbLine
   6
CONTINUOUS
  62
7
  10
 791.25668439940
  20
 2285.5301632150
  30
0.0
  11
 781.52783990632
  21
 2285.5301632150
  31
0.0
   0
LINE
   5
1EB
 100
AcDbEntity
   8
LEVEL002
 370
30
 100
AcDbLine
   6
CONTINUOUS
  62
7
  10
 814.25668439940
  20
 2287.1793102539
  30
0.0
  11
 1488.4227898464
  21
 2287.1793102539
  31
0.0
   0
LINE
   5
1EC
 100
AcDbEntity
   8
LEVEL002
 370
30
 100
AcDbLine
   6
CONTINUOUS
  62
7
  10
 814.25668439940
  20
 2271.1793102539
  30
0.0
  11
 1488.2566843249
  21
 2271.1793102539
  31
0.0
   0
ARC
   5
1ED
 100
AcDbEntity
   8
LEVEL002
 370
30
   6
CONTINUOUS
  62
7
 100
AcDbCircle
  10
 1504.7570925862
  20
 1943.9793099682
  30
0.0
  40
 16.500408261289
 100
AcDbArc
  50
 157.36304777339
  51
 202.63695222661
   0
ARC
   5
1EE
 100
AcDbEntity
   8
LEVEL002
 370
30
   6
CONTINUOUS
  62
7
 100
AcDbCircle
  10
 1492.8584697054
  20
 1934.4530305266
  30
0.0
  40
 4.6017853805129
 100
AcDbArc
  50
 136.36654413315
  51
 180.00000000001
   0
LINE
   5
1EF
 100
AcDbEntity
   8
LEVEL002
 370
30
 100
AcDbLine
   6
CONTINUOUS
  62
7
  10
 1499.2566843249
  20
 1956.6810158904
  30
0.0
  11
 1499.2566843249
  21
 1931.2776040461
  31
0.0
   0
LINE
   5
1F0
 100
AcDbEntity
   8
LEVEL002
 370
30
 100
AcDbLine
   6
CONTINUOUS
  62
7
  10
 1499.2566843249
  20
 1931.2776040461
  30
0.0
  11
 1489.5278398318
  21
 1931.2776040461
  31
0.0
   0
LINE
   5
1F1
 100
AcDbEntity
   8
LEVEL002
 370
30
 100
AcDbLine
   6
CONTINUOUS
  62
7
  10
 1489.5278398318
  20
 1931.2776040461
  30
0.0
  11
 1488.2566843249
  21
 1933.4793099682
  31
0.0
   0
LINE
   5
1F2
 100
AcDbEntity
   8
LEVEL002
 370
30
 100
AcDbLine
   6
CONTINUOUS
  62
7
  10
 1488.2566843249
  20
 1933.4793099682
  30
0.0
  11
 1488.2566843249
  21
 1954.4793099682
  31
0.0
   0
LINE
   5
1F3
 100
AcDbEntity
   8
LEVEL002
 370
30
 100
AcDbLine
   6
CONTINUOUS
  62
7
  10
 1488.2566843249
  20
 1954.4793099682
  30
0.0
  11
 1489.5278398318
  21
 1956.6810158904
  31
0.0
   0
LINE
   5
1F4
 100
AcDbEntity
   8
LEVEL002
 370
30
 100
AcDbLine
   6
CONTINUOUS
  62
7
  10
 1489.5278398318
  20
 1956.6810158904
  30
0.0
  11
 1499.2566843249
  21
 1956.6810158904
  31
0.0
   0
LINE
   5
1F5
 100
AcDbEntity
   8
LEVEL002
 370
30
 100
AcDbLine
   6
CONTINUOUS
  62
7
  10
 1499.2566843249
  20
 1937.6284570072
  30
0.0
  11
 1489.5278398318
  21
 1937.6284570072
  31
0.0
   0
ARC
   5
1F6
 100
AcDbEntity
   8
LEVEL002
 370
30
   6
CONTINUOUS
  62
7
 100
AcDbCircle
  10
 1492.8584697054
  20
 1953.5055894098
  30
0.0
  40
 4.6017853805129
 100
AcDbArc
  50
 180.00000000000
  51
 223.63345586687
   0
LINE
   5
1F7
 100
AcDbEntity
   8
LEVEL002
 370
30
 100
AcDbLine
   6
CONTINUOUS
  62
7
  10
 1499.2566843249
  20
 1950.3301629293
  30
0.0
  11
 1489.5278398318
  21
 1950.3301629293
  31
0.0
   0
ARC
   5
1F8
 100
AcDbEntity
   8
LEVEL002
 370
30
   6
CONTINUOUS
  62
7
 100
AcDbCircle
  10
 797.75627613811
  20
 1943.9793099682
  30
0.0
  40
 16.500408261289
 100
AcDbArc
  50
 337.36304777339
  51
 22.636952226610
   0
ARC
   5
1F9
 100
AcDbEntity
   8
LEVEL002
 370
30
   6
CONTINUOUS
  62
7
 100
AcDbCircle
  10
 809.65489901889
  20
 1953.5055894098
  30
0.0
  40
 4.6017853805129
 100
AcDbArc
  50
 316.36654413313
  51
0.0
   0
LINE
   5
1FA
 100
AcDbEntity
   8
LEVEL002
 370
30
 100
AcDbLine
   6
CONTINUOUS
  62
7
  10
 803.25668439940
  20
 1931.2776040461
  30
0.0
  11
 803.25668439940
  21
 1956.6810158904
  31
0.0
   0
LINE
   5
1FB
 100
AcDbEntity
   8
LEVEL002
 370
30
 100
AcDbLine
   6
CONTINUOUS
  62
7
  10
 803.25668439940
  20
 1956.6810158904
  30
0.0
  11
 812.98552889248
  21
 1956.6810158904
  31
0.0
   0
LINE
   5
1FC
 100
AcDbEntity
   8
LEVEL002
 370
30
 100
AcDbLine
   6
CONTINUOUS
  62
7
  10
 812.98552889248
  20
 1956.6810158904
  30
0.0
  11
 814.25668439940
  21
 1954.4793099682
  31
0.0
   0
LINE
   5
1FD
 100
AcDbEntity
   8
LEVEL002
 370
30
 100
AcDbLine
   6
CONTINUOUS
  62
7
  10
 814.25668439940
  20
 1954.4793099682
  30
0.0
  11
 814.25668439940
  21
 1933.4793099682
  31
0.0
   0
LINE
   5
1FE
 100
AcDbEntity
   8
LEVEL002
 370
30
 100
AcDbLine
   6
CONTINUOUS
  62
7
  10
 814.25668439940
  20
 1933.4793099682
  30
0.0
  11
 812.98552889248
  21
 1931.2776040461
  31
0.0
   0
LINE
   5
1FF
 100
AcDbEntity
   8
LEVEL002
 370
30
 100
AcDbLine
   6
CONTINUOUS
  62
7
  10
 812.98552889248
  20
 1931.2776040461
  30
0.0
  11
 803.25668439940
  21
 1931.2776040461
  31
0.0
   0
LINE
   5
200
 100
AcDbEntity
   8
LEVEL002
 370
30
 100
AcDbLine
   6
CONTINUOUS
  62
7
  10
 803.25668439940
  20
 1950.3301629293
  30
0.0
  11
 812.98552889248
  21
 1950.3301629293
  31
0.0
   0
ARC
   5
201
 100
AcDbEntity
   8
LEVEL002
 370
30
   6
CONTINUOUS
  62
7
 100
AcDbCircle
  10
 809.65489901889
  20
 1934.4530305266
  30
0.0
  40
 4.6017853805129
 100
AcDbArc
  50
0.0
  51
 43.633455866870
   0
LINE
   5
202
 100
AcDbEntity
   8
LEVEL002
 370
30
 100
AcDbLine
   6
CONTINUOUS
  62
7
  10
 803.25668439940
  20
 1937.6284570072
  30
0.0
  11
 812.98552889248
  21
 1937.6284570072
  31
0.0
   0
ARC
   5
203
 100
AcDbEntity
   8
LEVEL002
 370
30
   6
CONTINUOUS
  62
7
 100
AcDbCircle
  10
 796.75709266069
  20
 1943.9793099682
  30
0.0
  40
 16.500408261289
 100
AcDbArc
  50
 157.36304777339
  51
 202.63695222661
   0
ARC
   5
204
 100
AcDbEntity
   8
LEVEL002
 370
30
   6
CONTINUOUS
  62
7
 100
AcDbCircle
  10
 784.85846977991
  20
 1934.4530305266
  30
0.0
  40
 4.6017853805129
 100
AcDbArc
  50
 136.36654413313
  51
 180.00000000000
   0
LINE
   5
205
 100
AcDbEntity
   8
LEVEL002
 370
30
 100
AcDbLine
   6
CONTINUOUS
  62
7
  10
 791.25668439940
  20
 1956.6810158904
  30
0.0
  11
 791.25668439940
  21
 1931.2776040461
  31
0.0
   0
LINE
   5
206
 100
AcDbEntity
   8
LEVEL002
 370
30
 100
AcDbLine
   6
CONTINUOUS
  62
7
  10
 791.25668439940
  20
 1931.2776040461
  30
0.0
  11
 781.52783990632
  21
 1931.2776040461
  31
0.0
   0
LINE
   5
207
 100
AcDbEntity
   8
LEVEL002
 370
30
 100
AcDbLine
   6
CONTINUOUS
  62
7
  10
 781.52783990632
  20
 1931.2776040461
  30
0.0
  11
 780.25668439940
  21
 1933.4793099682
  31
0.0
   0
LINE
   5
208
 100
AcDbEntity
   8
LEVEL002
 370
30
 100
AcDbLine
   6
CONTINUOUS
  62
7
  10
 780.25668439940
  20
 1933.4793099682
  30
0.0
  11
 780.25668439940
  21
 1954.4793099682
  31
0.0
   0
LINE
   5
209
 100
AcDbEntity
   8
LEVEL002
 370
30
 100
AcDbLine
   6
CONTINUOUS
  62
7
  10
 780.25668439940
  20
 1954.4793099682
  30
0.0
  11
 781.52783990632
  21
 1956.6810158904
  31
0.0
   0
LINE
   5
20A
 100
AcDbEntity
   8
LEVEL002
 370
30
 100
AcDbLine
   6
CONTINUOUS
  62
7
  10
 781.52783990632
  20
 1956.6810158904
  30
0.0
  11
 791.25668439940
  21
 1956.6810158904
  31
0.0
   0
LINE
   5
20B
 100
AcDbEntity
   8
LEVEL002
 370
30
 100
AcDbLine
   6
CONTINUOUS
  62
7
  10
 791.25668439940
  20
 1937.6284570072
  30
0.0
  11
 781.52783990632
  21
 1937.6284570072
  31
0.0
   0
ARC
   5
20C
 100
AcDbEntity
   8
LEVEL002
 370
30
   6
CONTINUOUS
  62
7
 100
AcDbCircle
  10
 784.85846977991
  20
 1953.5055894098
  30
0.0
  40
 4.6017853805129
 100
AcDbArc
  50
 180.00000000000
  51
 223.63345586687
   0
LINE
   5
20D
 100
AcDbEntity
   8
LEVEL002
 370
30
 100
AcDbLine
   6
CONTINUOUS
  62
7
  10
 791.25668439940
  20
 1950.3301629293
  30
0.0
  11
 781.52783990632
  21
 1950.3301629293
  31
0.0
   0
LINE
   5
20E
 100
AcDbEntity
   8
LEVEL002
 370
30
 100
AcDbLine
   6
CONTINUOUS
  62
7
  10
 814.25668439940
  20
 1951.9793099682
  30
0.0
  11
 1488.4227898464
  21
 1951.9793099682
  31
0.0
   0
LINE
   5
20F
 100
AcDbEntity
   8
LEVEL002
 370
30
 100
AcDbLine
   6
CONTINUOUS
  62
7
  10
 814.25668439940
  20
 1935.9793099682
  30
0.0
  11
 1488.2566843249
  21
 1935.9793099682
  31
0.0
   0
LINE
   5
210
 100
AcDbEntity
   8
LEVEL002
 370
30
 100
AcDbLine
   6
CONTINUOUS
  62
7
  10
 1426.7566844450
  20
 1951.9793099682
  30
0.0
  11
 1426.7566844450
  21
 1991.8793103448
  31
0.0
   0
LINE
   5
211
 100
AcDbEntity
   8
LEVEL002
 370
30
 100
AcDbLine
   6
CONTINUOUS
  62
7
  10
 1419.2566844450
  20
 1935.9793099682
  30
0.0
  11
 1419.2566844450
  21
 1791.9940037110
  31
0.0
   0
LINE
   5
212
 100
AcDbEntity
   8
LEVEL002
 370
30
 100
AcDbLine
   6
CONTINUOUS
  62
7
  10
 1436.2566844450
  20
 1935.9793099682
  30
0.0
  11
 1436.2566844450
  21
 1734.3793103448
  31
0.0
   0
LINE
   5
213
 100
AcDbEntity
   8
LEVEL002
 370
30
 100
AcDbLine
   6
CONTINUOUS
  62
7
  10
 1448.2566843249
  20
 1935.9793099682
  30
0.0
  11
 1448.2566843249
  21
 1902.3793103448
  31
0.0
   0
LINE
   5
214
 100
AcDbEntity
   8
LEVEL002
 370
30
 100
AcDbLine
   6
CONTINUOUS
  62
7
  10
 875.75668444495
  20
 1951.9793099682
  30
0.0
  11
 875.75668444495
  21
 1991.8793103448
  31
0.0
   0
LINE
   5
215
 100
AcDbEntity
   8
LEVEL002
 370
30
 100
AcDbLine
   6
CONTINUOUS
  62
7
  10
 883.25668444495
  20
 1935.9793099682
  30
0.0
  11
 883.25668444495
  21
 1791.9940037111
  31
0.0
   0
LINE
   5
216
 100
AcDbEntity
   8
LEVEL002
 370
30
 100
AcDbLine
   6
CONTINUOUS
  62
7
  10
 866.25668439940
  20
 1935.9793099682
  30
0.0
  11
 866.25668439940
  21
 1734.3793103448
  31
0.0
   0
LINE
   5
217
 100
AcDbEntity
   8
LEVEL002
 370
30
 100
AcDbLine
   6
CONTINUOUS
  62
7
  10
 854.25668439940
  20
 1935.9793099682
  30
0.0
  11
 854.25668439940
  21
 1884.3793104269
  31
0.0
   0
LINE
   5
218
 100
AcDbEntity
   8
LEVEL002
 370
30
 100
AcDbLine
   6
CONTINUOUS
  62
7
  10
 1419.2566844450
  20
 2037.3126434507
  30
0.0
  11
 1457.1943190390
  21
 2037.3126434507
  31
0.0
   0
LINE
   5
219
 100
AcDbEntity
   8
LEVEL002
 370
30
 100
AcDbLine
   6
CONTINUOUS
  62
7
  10
 883.25668439940
  20
 2037.3126434507
  30
0.0
  11
 841.67601307883
  21
 2037.3126434507
  31
0.0
   0
LINE
   5
21A
 100
AcDbEntity
   8
LEVEL002
 370
30
 100
AcDbLine
   6
CONTINUOUS
  62
7
  10
 834.25668439940
  20
 2037.3126434507
  30
0.0
  11
 841.67601307883
  21
 2037.3126434507
  31
0.0
   0
LINE
   5
21B
 100
AcDbEntity
   8
LEVEL002
 370
30
 100
AcDbLine
   6
CONTINUOUS
  62
7
  10
 843.45668439940
  20
 1997.3126434507
  30
0.0
  11
 843.45668439940
  21
 2037.3126434507
  31
0.0
   0
LINE
   5
21C
 100
AcDbEntity
   8
LEVEL002
 370
30
 100
AcDbLine
   6
CONTINUOUS
  62
7
  10
 854.25668439940
  20
 2194.3793104080
  30
0.0
  11
 854.25668439940
  21
 2037.3126434507
  31
0.0
   0
LINE
   5
21D
 100
AcDbEntity
   8
LEVEL002
 370
30
 100
AcDbLine
   6
CONTINUOUS
  62
7
  10
 866.25668439940
  20
 2234.3793103448
  30
0.0
  11
 866.25668439940
  21
 2037.3126434507
  31
0.0
   0
LINE
   5
21E
 100
AcDbEntity
   8
LEVEL002
 370
30
 100
AcDbLine
   6
CONTINUOUS
  62
7
  10
 866.25668439940
  20
 1997.3126434507
  30
0.0
  11
 866.25668439940
  21
 1951.9793099682
  31
0.0
   0
LINE
   5
21F
 100
AcDbEntity
   8
LEVEL002
 370
30
 100
AcDbLine
   6
CONTINUOUS
  62
7
  10
 854.25668439940
  20
 1997.3126434507
  30
0.0
  11
 854.25668439940
  21
 1951.9793099682
  31
0.0
   0
LINE
   5
220
 100
AcDbEntity
   8
LEVEL002
 370
30
 100
AcDbLine
   6
CONTINUOUS
  62
7
  10
 1459.0566843249
  20
 1997.3126434507
  30
0.0
  11
 1459.0566843249
  21
 2037.3126434507
  31
0.0
   0
LINE
   5
221
 100
AcDbEntity
   8
LEVEL002
 370
30
 100
AcDbLine
   6
CONTINUOUS
  62
7
  10
 1468.2566843249
  20
 2037.3126434507
  30
0.0
  11
 1457.1943190390
  21
 2037.3126434507
  31
0.0
   0
LINE
   5
222
 100
AcDbEntity
   8
LEVEL002
 370
30
 100
AcDbLine
   6
CONTINUOUS
  62
7
  10
 1433.2566844450
  20
 2234.3793103448
  30
0.0
  11
 1433.2566844450
  21
 2037.3126434507
  31
0.0
   0
LINE
   5
223
 100
AcDbEntity
   8
LEVEL002
 370
30
 100
AcDbLine
   6
CONTINUOUS
  62
7
  10
 1436.2566844450
  20
 2234.3793103448
  30
0.0
  11
 1436.2566844450
  21
 2037.3126434507
  31
0.0
   0
LINE
   5
224
 100
AcDbEntity
   8
LEVEL002
 370
30
 100
AcDbLine
   6
CONTINUOUS
  62
7
  10
 1448.2566843249
  20
 2194.3793103448
  30
0.0
  11
 1448.2566843249
  21
 2037.3126434507
  31
0.0
   0
LINE
   5
225
 100
AcDbEntity
   8
LEVEL002
 370
30
 100
AcDbLine
   6
CONTINUOUS
  62
7
  10
 1436.2566844450
  20
 1997.3126434507
  30
0.0
  11
 1436.2566844450
  21
 1951.9793099682
  31
0.0
   0
LINE
   5
226
 100
AcDbEntity
   8
LEVEL002
 370
30
 100
AcDbLine
   6
CONTINUOUS
  62
7
  10
 1448.2566843249
  20
 1997.3126434507
  30
0.0
  11
 1448.2566843249
  21
 1951.9793099682
  31
0.0
   0
LINE
   5
227
 100
AcDbEntity
   8
LEVEL002
 370
9
 100
AcDbLine
   6
DASHDOT
  62
1
  10
 1556.4217208141
  20
 1943.9793099682
  30
0.0
  11
 731.25668439940
  21
 1943.9793099682
  31
0.0
   0
LINE
   5
228
 100
AcDbEntity
   8
LEVEL002
 370
30
 100
AcDbLine
   6
CONTINUOUS
  62
7
  10
 1511.2566843249
  20
 2299.1793102754
  30
0.0
  11
 1511.2566843249
  21
 2234.3793103448
  31
0.0
   0
LINE
   5
229
 100
AcDbEntity
   8
LEVEL002
 370
30
 100
AcDbLine
   6
CONTINUOUS
  62
7
  10
 1511.2566843249
  20
 2194.3793103448
  30
0.0
  11
 1511.2566843249
  21
 1903.7468871107
  31
0.0
   0
LINE
   5
22A
 100
AcDbEntity
   8
LEVEL002
 370
30
 100
AcDbLine
   6
CONTINUOUS
  62
7
  10
 1499.2566843249
  20
 2299.1793102754
  30
0.0
  11
 1499.2566843249
  21
 2234.3793103448
  31
0.0
   0
LINE
   5
22B
 100
AcDbEntity
   8
LEVEL002
 370
30
 100
AcDbLine
   6
CONTINUOUS
  62
7
  10
 791.25668439940
  20
 2234.3793103448
  30
0.0
  11
 791.25668439940
  21
 2299.1793102754
  31
0.0
   0
LINE
   5
22C
 100
AcDbEntity
   8
LEVEL002
 370
30
 100
AcDbLine
   6
CONTINUOUS
  62
7
  10
 803.25668439940
  20
 2299.1793102754
  30
0.0
  11
 803.25668439940
  21
 2234.3793103448
  31
0.0
   0
LINE
   5
22D
 100
AcDbEntity
   8
LEVEL002
 370
9
 100
AcDbLine
   6
DASHDOT
  62
1
  10
 866.25668439940
  20
 2129.1793103448
  30
0.0
  11
 1436.2566844450
  21
 2129.1793103448
  31
0.0
   0
LINE
   5
22E
 100
AcDbEntity
   8
LEVEL002
 370
30
 100
AcDbLine
   6
CONTINUOUS
  62
7
  10
 1420.2566844450
  20
 1791.9940037110
  30
0.0
  11
 1420.2566844450
  21
 1784.9396569814
  31
0.0
   0
LINE
   5
22F
 100
AcDbEntity
   8
LEVEL002
 370
30
 100
AcDbLine
   6
CONTINUOUS
  62
7
  10
 1426.7566844450
  20
 1784.9396569814
  30
0.0
  11
 1426.7566844450
  21
 1935.9793099682
  31
0.0
   0
LINE
   5
230
 100
AcDbEntity
   8
LEVEL002
 370
30
 100
AcDbLine
   6
CONTINUOUS
  62
7
  10
 882.25668444495
  20
 1791.9940037111
  30
0.0
  11
 882.25668444495
  21
 1784.9396569814
  31
0.0
   0
LINE
   5
231
 100
AcDbEntity
   8
LEVEL002
 370
30
 100
AcDbLine
   6
CONTINUOUS
  62
7
  10
 875.75668444495
  20
 1784.9396569814
  30
0.0
  11
 875.75668444495
  21
 1935.9793099682
  31
0.0
   0
LINE
   5
232
 100
AcDbEntity
   8
LEVEL002
 370
30
 100
AcDbLine
   6
CONTINUOUS
  62
7
  10
 791.25668439940
  20
 2015.1542293970
  30
0.0
  11
 803.25668439940
  21
 2015.1542293970
  31
0.0
   0
LINE
   5
233
 100
AcDbEntity
   8
LEVEL002
 370
9
 100
AcDbLine
   6
DASHDOT
  62
1
  10
 1556.6168466748
  20
 2017.3126434507
  30
0.0
  11
 805.40969513043
  21
 2017.3126434507
  31
0.0
   0
LINE
   5
234
 100
AcDbEntity
   8
LEVEL002
 370
30
 100
AcDbLine
   6
CONTINUOUS
  62
7
  10
 1576.5566843374
  20
 2061.0106036075
  30
0.0
  11
 1549.2566843374
  21
 2061.0106036075
  31
0.0
   0
LINE
   5
235
 100
AcDbEntity
   8
LEVEL002
 370
30
 100
AcDbLine
   6
CONTINUOUS
  62
7
  10
 1544.7795166003
  20
 1591.7106080583
  30
0.0
  11
 1544.7795166003
  21
 1487.1561024578
  31
0.0
   0
LINE
   5
236
 100
AcDbEntity
   8
LEVEL002
 370
30
 100
AcDbLine
   6
CONTINUOUS
  62
7
  10
 1580.7076684720
  20
 1590.2583096809
  30
0.0
  11
 1580.7076684720
  21
 1488.0983402116
  31
0.0
   0
LINE
   5
237
 100
AcDbEntity
   8
LEVEL002
 370
30
 100
AcDbLine
   6
CONTINUOUS
  62
7
  10
 1576.5566843374
  20
 1592.0222247455
  30
0.0
  11
 1576.5566843374
  21
 2061.0106036075
  31
0.0
   0
ELLIPSE
   5
238
 100
AcDbEntity
   8
LEVEL002
 370
30
   6
CONTINUOUS
  62
7
 100
AcDbEllipse
  10
 1562.7732189709
  20
 1591.3667551843
  30
0.0
  11
 18.000000000000
  21
0.0
  31
0.0
  40
 0.72222222222222
  41
 2.4202482801038
  42
 0.69859263973510
   0
ELLIPSE
   5
239
 100
AcDbEntity
   8
LEVEL002
 370
30
   6
CONTINUOUS
  62
7
 100
AcDbEllipse
  10
 1562.9074288419
  20
 1591.9177824418
  30
0.0
  11
 13.650000000000
  21
0.0
  31
0.0
  40
 0.73260073260073
  41
 3.0504924922239
  42
 0.91100161365901E-1
   0
ELLIPSE
   5
23A
 100
AcDbEntity
   8
LEVEL002
 370
30
   6
CONTINUOUS
  62
7
 100
AcDbEllipse
  10
 1562.7732189709
  20
 1488.5529618195
  30
0.0
  11
 18.000000000000
  21
0.0
  31
0.0
  40
 0.72222222222222
  41
 3.1151393473796
  42
 0.85368692800290E-1
   0
LINE
   5
23B
 100
AcDbEntity
   8
LEVEL002
 370
30
 100
AcDbLine
   6
CONTINUOUS
  62
7
  10
 1549.2566843374
  20
 1734.3793103447
  30
0.0
  11
 1434.2566844450
  21
 1734.3793103447
  31
0.0
   0
LINE
   5
23C
 100
AcDbEntity
   8
LEVEL002
 370
30
 100
AcDbLine
   6
CONTINUOUS
  62
7
  10
 1537.2566843374
  20
 2176.6793103449
  30
0.0
  11
 1537.2566843374
  21
 1947.6103901395
  31
0.0
   0
LINE
   5
23D
 100
AcDbEntity
   8
LEVEL002
 370
30
 100
AcDbLine
   6
CONTINUOUS
  62
7
  10
 1537.2566843374
  20
 1947.6103901395
  30
0.0
  11
 1549.2566843374
  21
 1947.6103901395
  31
0.0
   0
LINE
   5
23E
 100
AcDbEntity
   8
LEVEL002
 370
30
 100
AcDbLine
   6
CONTINUOUS
  62
7
  10
 1549.2566843374
  20
 2176.6793103449
  30
0.0
  11
 1537.2566843374
  21
 2176.6793103449
  31
0.0
   0
LINE
   5
23F
 100
AcDbEntity
   8
LEVEL002
 370
30
 100
AcDbLine
   6
CONTINUOUS
  62
7
  10
 1499.2566843249
  20
 2194.3793103448
  30
0.0
  11
 1499.2566843249
  21
 1903.7468871107
  31
0.0
   0
LINE
   5
240
 100
AcDbEntity
   8
LEVEL002
 370
30
 100
AcDbLine
   6
CONTINUOUS
  62
7
  10
 883.25668439940
  20
 1997.3126434507
  30
0.0
  11
 834.25668439941
  21
 1997.3126434507
  31
0.0
   0
LINE
   5
241
 100
AcDbEntity
   8
LEVEL002
 370
9
 100
AcDbLine
   6
DASHDOT
  62
1
  10
 1513.8728403198
  20
 1874.3793103448
  30
0.0
  11
 835.86925967536
  21
 1874.3793103448
  31
0.0
   0
LINE
   5
242
 100
AcDbEntity
   8
LEVEL002
 370
30
 100
AcDbLine
   6
CONTINUOUS
  62
7
  10
 1549.2566843374
  20
 1591.9523336440
  30
0.0
  11
 1549.2566843374
  21
 2176.6793103449
  31
0.0
   0
LINE
   5
243
 100
AcDbEntity
   8
LEVEL002
 370
9
 100
AcDbLine
   6
DASHDOT
  62
1
  10
 1536.5201001338
  20
 2279.1793102539
  30
0.0
  11
 765.98774548670
  21
 2279.1793102539
  31
0.0
   0
LINE
   5
244
 100
AcDbEntity
   8
LEVEL002
 370
30
 100
AcDbLine
   6
CONTINUOUS
  62
7
  10
 1468.2566843249
  20
 1997.3126434507
  30
0.0
  11
 1419.2566843249
  21
 1997.3126434507
  31
0.0
   0
POINT
   5
245
 100
AcDbEntity
   8
LEVEL002
 100
AcDbPoint
  62
1
  10
 841.25668444495
  20
 1764.3793103448
  30
0.0
   0
POINT
   5
246
 100
AcDbEntity
   8
LEVEL002
 100
AcDbPoint
  62
1
  10
 1461.2566844450
  20
 1764.3793103448
  30
0.0
   0
POINT
   5
247
 100
AcDbEntity
   8
LEVEL002
 100
AcDbPoint
  62
1
  10
 1461.2566844450
  20
 2209.3793103448
  30
0.0
   0
POINT
   5
248
 100
AcDbEntity
   8
LEVEL002
 100
AcDbPoint
  62
1
  10
 841.25668444495
  20
 2209.3793103448
  30
0.0
   0
CIRCLE
   5
249
 100
AcDbEntity
   8
LEVEL002
 370
30
 100
AcDbCircle
   6
CONTINUOUS
  62
7
  10
 733.25668431948
  20
 1794.3793104273
  30
0.0
  40
 20.000000000000
   0
LINE
   5
24A
 100
AcDbEntity
   8
LEVEL002
 370
30
 100
AcDbLine
   6
CONTINUOUS
  62
7
  10
 713.25668431948
  20
 1794.3793104273
  30
0.0
  11
 713.25668431948
  21
 1824.3793104273
  31
0.0
   0
LINE
   5
24B
 100
AcDbEntity
   8
LEVEL002
 370
30
 100
AcDbLine
   6
CONTINUOUS
  62
7
  10
 713.25668431948
  20
 1824.3793104273
  30
0.0
  11
 753.25668431948
  21
 1824.3793104273
  31
0.0
   0
LINE
   5
24C
 100
AcDbEntity
   8
LEVEL002
 370
30
 100
AcDbLine
   6
CONTINUOUS
  62
7
  10
 753.25668431948
  20
 1824.3793104273
  30
0.0
  11
 753.25668431948
  21
 1794.3793104273
  31
0.0
   0
CIRCLE
   5
24D
 100
AcDbEntity
   8
LEVEL002
 370
30
 100
AcDbCircle
   6
CONTINUOUS
  62
7
  10
 786.25668431948
  20
 1794.3793104273
  30
0.0
  40
 17.000000000000
   0
CIRCLE
   5
24E
 100
AcDbEntity
   8
LEVEL002
 370
30
 100
AcDbCircle
   6
CONTINUOUS
  62
7
  10
 786.25668431948
  20
 1794.3793104273
  30
0.0
  40
 15.000000000000
   0
CIRCLE
   5
24F
 100
AcDbEntity
   8
LEVEL002
 370
30
 100
AcDbCircle
   6
CONTINUOUS
  62
7
  10
 786.25668431948
  20
 1794.3793104273
  30
0.0
  40
 13.500000000000
   0
LINE
   5
250
 100
AcDbEntity
   8
LEVEL002
 370
30
 100
AcDbLine
   6
CONTINUOUS
  62
7
  10
 781.25668431948
  20
 1781.8793104273
  30
0.0
  11
 791.25668431948
  21
 1781.8793104273
  31
0.0
   0
LINE
   5
251
 100
AcDbEntity
   8
LEVEL002
 370
30
 100
AcDbLine
   6
CONTINUOUS
  62
7
  10
 791.25668431948
  20
 1781.8793104273
  30
0.0
  11
 791.25668431948
  21
 1806.8793104273
  31
0.0
   0
LINE
   5
252
 100
AcDbEntity
   8
LEVEL002
 370
30
 100
AcDbLine
   6
CONTINUOUS
  62
7
  10
 791.25668431948
  20
 1806.8793104273
  30
0.0
  11
 781.25668431948
  21
 1806.8793104273
  31
0.0
   0
LINE
   5
253
 100
AcDbEntity
   8
LEVEL002
 370
30
 100
AcDbLine
   6
CONTINUOUS
  62
7
  10
 781.25668431948
  20
 1806.8793104273
  30
0.0
  11
 781.25668431948
  21
 1781.8793104273
  31
0.0
   0
LINE
   5
254
 100
AcDbEntity
   8
LEVEL002
 370
30
 100
AcDbLine
   6
CONTINUOUS
  62
7
  10
 783.25668431948
  20
 1806.8793104273
  30
0.0
  11
 783.25668431948
  21
 1786.8793104273
  31
0.0
   0
LINE
   5
255
 100
AcDbEntity
   8
LEVEL002
 370
30
 100
AcDbLine
   6
CONTINUOUS
  62
7
  10
 783.25668431948
  20
 1786.8793104273
  30
0.0
  11
 789.25668431948
  21
 1786.8793104273
  31
0.0
   0
LINE
   5
256
 100
AcDbEntity
   8
LEVEL002
 370
30
 100
AcDbLine
   6
CONTINUOUS
  62
7
  10
 789.25668431948
  20
 1786.8793104273
  30
0.0
  11
 789.25668431948
  21
 1806.8793104273
  31
0.0
   0
LINE
   5
257
 100
AcDbEntity
   8
LEVEL002
 370
30
 100
AcDbLine
   6
CONTINUOUS
  62
7
  10
 786.25668431948
  20
 1788.8793104273
  30
0.0
  11
 786.25668431948
  21
 1806.8793104273
  31
0.0
   0
ARC
   5
258
 100
AcDbEntity
   8
LEVEL002
 370
30
   6
CONTINUOUS
  62
7
 100
AcDbCircle
  10
 786.25668431948
  20
 1794.3793104273
  30
0.0
  40
 20.000000000000
 100
AcDbArc
  50
 180.00000000000
  51
0.0
   0
LINE
   5
259
 100
AcDbEntity
   8
LEVEL002
 370
30
 100
AcDbLine
   6
CONTINUOUS
  62
7
  10
 766.25668431948
  20
 1794.3793104273
  30
0.0
  11
 766.25668431948
  21
 1824.3793104273
  31
0.0
   0
LINE
   5
25A
 100
AcDbEntity
   8
LEVEL002
 370
30
 100
AcDbLine
   6
CONTINUOUS
  62
7
  10
 766.25668431948
  20
 1824.3793104273
  30
0.0
  11
 806.25668431948
  21
 1824.3793104273
  31
0.0
   0
LINE
   5
25B
 100
AcDbEntity
   8
LEVEL002
 370
30
 100
AcDbLine
   6
CONTINUOUS
  62
7
  10
 806.25668431948
  20
 1824.3793104273
  30
0.0
  11
 806.25668431948
  21
 1794.3793104273
  31
0.0
   0
LINE
   5
25C
 100
AcDbEntity
   8
LEVEL002
 370
30
 100
AcDbLine
   6
CONTINUOUS
  62
7
  10
 2025.9315393439
  20
 353.37931034483
  30
0.0
  11
 2934.2566844450
  21
 353.37931034483
  31
0.0
   0
ARC
   5
25D
 100
AcDbEntity
   8
LEVEL002
 370
30
   6
CONTINUOUS
  62
7
 100
AcDbCircle
  10
 2468.2566844450
  20
 1038.8508735786
  30
0.0
  40
 117.50000000000
 100
AcDbArc
  50
 63.331339402646
  51
 116.66866059736
   0
CIRCLE
   5
25E
 100
AcDbEntity
   8
LEVEL002
 370
9
 100
AcDbCircle
   6
HIDDEN
  62
1
  10
 2595.6566844450
  20
 933.85087357856
  30
0.0
  40
 82.500000000000
   0
CIRCLE
   5
25F
 100
AcDbEntity
   8
LEVEL002
 370
9
 100
AcDbCircle
   6
HIDDEN
  62
1
  10
 2723.0566844450
  20
 1038.8508735786
  30
0.0
  40
 82.500000000000
   0
ARC
   5
260
 100
AcDbEntity
   8
LEVEL002
 370
9
   6
HIDDEN
  62
1
 100
AcDbCircle
  10
 2468.2566844450
  20
 1038.8508735786
  30
0.0
  40
 117.50000000000
 100
AcDbArc
  50
 116.66866059736
  51
 63.331339402647
   0
CIRCLE
   5
261
 100
AcDbEntity
   8
LEVEL002
 370
9
 100
AcDbCircle
   6
HIDDEN
  62
1
  10
 2468.2566844450
  20
 1038.8508735786
  30
0.0
  40
 82.500000000000
   0
LINE
   5
262
 100
AcDbEntity
   8
LEVEL002
 370
30
 100
AcDbLine
   6
CONTINUOUS
  62
7
  10
 2278.1735441058
  20
 1143.9604154836
  30
0.0
  11
 2328.2566844450
  21
 1130.5406784754
  31
0.0
   0
LINE
   5
263
 100
AcDbEntity
   8
LEVEL002
 370
30
 100
AcDbLine
   6
CONTINUOUS
  62
7
  10
 2277.3758019108
  20
 1143.1388936801
  30
0.0
  11
 2328.2566844450
  21
 1129.5054022949
  31
0.0
   0
LINE
   5
264
 100
AcDbEntity
   8
LEVEL002
 370
30
 100
AcDbLine
   6
CONTINUOUS
  62
7
  10
 2228.0753959140
  20
 1153.9677624386
  30
0.0
  11
 2245.3445431837
  21
 1149.3405083737
  31
0.0
   0
LINE
   5
265
 100
AcDbEntity
   8
LEVEL002
 370
30
 100
AcDbLine
   6
CONTINUOUS
  62
7
  10
 2275.5409948623
  20
 1141.2493935321
  30
0.0
  11
 2328.2566844450
  21
 1127.1242670800
  31
0.0
   0
LINE
   5
266
 100
AcDbEntity
   8
LEVEL002
 370
30
 100
AcDbLine
   6
CONTINUOUS
  62
7
  10
 2270.7545416923
  20
 1136.3202627112
  30
0.0
  11
 2328.2566844450
  21
 1120.9126099976
  31
0.0
   0
LINE
   5
267
 100
AcDbEntity
   8
LEVEL002
 370
9
 100
AcDbLine
   6
DASHDOT
  62
1
  10
 2646.4709138690
  20
 1195.4778020219
  30
0.0
  11
 2566.9464977330
  21
 1124.3490016211
  31
0.0
   0
ARC
   5
268
 100
AcDbEntity
   8
LEVEL002
 370
30
   6
CONTINUOUS
  62
7
 100
AcDbCircle
  10
 2071.6149960978
  20
 973.30321249777
  30
0.0
  40
 3.0000000000000
 100
AcDbArc
  50
 135.84135340122
  51
 225.84135340088
   0
LINE
   5
269
 100
AcDbEntity
   8
LEVEL002
 370
30
 100
AcDbLine
   6
CONTINUOUS
  62
7
  10
 2091.9800993701
  20
 949.34590528873
  30
0.0
  11
 2069.5250536310
  21
 971.15097169212
  31
0.0
   0
ARC
   5
26A
 100
AcDbEntity
   8
LEVEL002
 370
30
   6
CONTINUOUS
  62
7
 100
AcDbCircle
  10
 2094.0700418368
  20
 951.49814609437
  30
0.0
  40
 3.0000000000000
 100
AcDbArc
  50
 225.84135340127
  51
 315.84135340187
   0
LINE
   5
26B
 100
AcDbEntity
   8
LEVEL002
 370
30
 100
AcDbLine
   6
CONTINUOUS
  62
7
  10
 2069.4627552921
  20
 975.39315496456
  30
0.0
  11
 2169.7799936974
  21
 1078.7007136364
  31
0.0
   0
LINE
   5
26C
 100
AcDbEntity
   8
LEVEL002
 370
30
 100
AcDbLine
   6
CONTINUOUS
  62
7
  10
 2196.5395210478
  20
 1052.7157622995
  30
0.0
  11
 2096.2222826425
  21
 949.40820362762
  31
0.0
   0
LINE
   5
26D
 100
AcDbEntity
   8
LEVEL002
 370
30
 100
AcDbLine
   6
CONTINUOUS
  62
7
  10
 2175.4570041736
  20
 1077.3697169975
  30
0.0
  11
 2354.9830620697
  21
 1262.2472022039
  31
0.0
   0
LINE
   5
26E
 100
AcDbEntity
   8
LEVEL002
 370
30
 100
AcDbLine
   6
CONTINUOUS
  62
7
  10
 2195.0423955051
  20
 1058.3512405498
  30
0.0
  11
 2374.5684534013
  21
 1243.2287257563
  31
0.0
   0
ARC
   5
26F
 100
AcDbEntity
   8
LEVEL002
 370
30
   6
CONTINUOUS
  62
7
 100
AcDbCircle
  10
 2171.9322345031
  20
 1076.6107711697
  30
0.0
  40
 3.0000000000000
 100
AcDbArc
  50
 45.841353401221
  51
 135.84135340252
   0
LINE
   5
270
 100
AcDbEntity
   8
LEVEL002
 370
30
 100
AcDbLine
   6
CONTINUOUS
  62
7
  10
 2174.0221769699
  20
 1078.7630119753
  30
0.0
  11
 2196.4772227089
  21
 1056.9579455719
  31
0.0
   0
ARC
   5
271
 100
AcDbEntity
   8
LEVEL002
 370
30
   6
CONTINUOUS
  62
7
 100
AcDbCircle
  10
 2194.3872802421
  20
 1054.8057047662
  30
0.0
  40
 3.0000000000000
 100
AcDbArc
  50
 315.84135340301
  51
 45.841353401148
   0
ARC
   5
272
 100
AcDbEntity
   8
LEVEL002
 370
30
   6
CONTINUOUS
  62
7
 100
AcDbCircle
  10
 2460.6580856278
  20
 1159.6310270852
  30
0.0
  40
 120.00000000000
 100
AcDbArc
  50
 45.841353401224
  51
 135.84135340122
   0
ARC
   5
273
 100
AcDbEntity
   8
LEVEL002
 370
30
   6
CONTINUOUS
  62
7
 100
AcDbCircle
  10
 2460.6580856278
  20
 1159.6310270852
  30
0.0
  40
 147.30000000000
 100
AcDbArc
  50
 45.841353401223
  51
 135.84135340122
   0
LINE
   5
274
 100
AcDbEntity
   8
LEVEL002
 370
30
 100
AcDbLine
   6
CONTINUOUS
  62
7
  10
 2654.8879777076
  20
 1176.3441663075
  30
0.0
  11
 2563.2742607465
  21
 1265.3060506433
  31
0.0
   0
LINE
   5
275
 100
AcDbEntity
   8
LEVEL002
 370
30
 100
AcDbLine
   6
CONTINUOUS
  62
7
  10
 2544.2557842989
  20
 1245.7206593117
  30
0.0
  11
 2635.8695012599
  21
 1156.7587749759
  31
0.0
   0
LINE
   5
276
 100
AcDbEntity
   8
LEVEL002
 370
30
 100
AcDbLine
   6
CONTINUOUS
  62
7
  10
 2541.4877642397
  20
 1210.2854993015
  30
0.0
  11
 2609.9027156859
  21
 1143.8508735785
  31
0.0
   0
LINE
   5
277
 100
AcDbEntity
   8
LEVEL002
 370
30
 100
AcDbLine
   6
CONTINUOUS
  62
7
  10
 2623.3352294366
  20
 1143.8508735785
  30
0.0
  11
 2654.8879777076
  21
 1176.3441663075
  31
0.0
   0
LINE
   5
278
 100
AcDbEntity
   8
LEVEL002
 370
30
 100
AcDbLine
   6
CONTINUOUS
  62
7
  10
 2652.3452143730
  20
 1173.7256066605
  30
0.0
  11
 2683.1104725653
  21
 1143.8508735785
  31
0.0
   0
ARC
   5
279
 100
AcDbEntity
   8
LEVEL002
 370
30
   6
CONTINUOUS
  62
7
 100
AcDbCircle
  10
 2592.1313883838
  20
 1260.2298038739
  30
0.0
  40
 20.000000000000
 100
AcDbArc
  50
 41.810314999984
  51
 109.88977232933
   0
LINE
   5
27A
 100
AcDbEntity
   8
LEVEL002
 370
30
 100
AcDbLine
   6
CONTINUOUS
  62
7
  10
 2607.0385082095
  20
 1273.5631372344
  30
0.0
  11
 2723.0566842542
  21
 1143.8508735785
  31
0.0
   0
LINE
   5
27B
 100
AcDbEntity
   8
LEVEL002
 370
30
 100
AcDbLine
   6
CONTINUOUS
  62
7
  10
 2609.0316034972
  20
 1271.3347889681
  30
0.0
  11
 2616.4851634101
  21
 1278.0014556484
  31
0.0
   0
LINE
   5
27C
 100
AcDbEntity
   8
LEVEL002
 370
30
 100
AcDbLine
   6
CONTINUOUS
  62
7
  10
 2616.4851634101
  20
 1278.0014556484
  30
0.0
  11
 2736.4730921411
  21
 1143.8508735785
  31
0.0
   0
LINE
   5
27D
 100
AcDbEntity
   8
LEVEL002
 370
30
 100
AcDbLine
   6
CONTINUOUS
  62
7
  10
 2499.6612907691
  20
 1202.4149032263
  30
0.0
  11
 2524.4058102039
  21
 1252.5495925742
  31
0.0
   0
ARC
   5
27E
 100
AcDbEntity
   8
LEVEL002
 370
30
   6
CONTINUOUS
  62
7
 100
AcDbCircle
  10
 2517.5957892551
  20
 1193.5631370717
  30
0.0
  40
 20.000000000000
 100
AcDbArc
  50
 153.73085767058
  51
 221.81031499995
   0
LINE
   5
27F
 100
AcDbEntity
   8
LEVEL002
 370
30
 100
AcDbLine
   6
CONTINUOUS
  62
7
  10
 2502.6886694293
  20
 1180.2298037112
  30
0.0
  11
 2535.2269738386
  21
 1143.8508735785
  31
0.0
   0
LINE
   5
280
 100
AcDbEntity
   8
LEVEL002
 370
30
 100
AcDbLine
   6
CONTINUOUS
  62
7
  10
 2504.6817647169
  20
 1178.0014554450
  30
0.0
  11
 2489.7746448911
  21
 1164.6681220844
  31
0.0
   0
LINE
   5
281
 100
AcDbEntity
   8
LEVEL002
 370
30
 100
AcDbLine
   6
CONTINUOUS
  62
7
  10
 2489.7746448911
  20
 1164.6681220844
  30
0.0
  11
 2501.5104544531
  21
 1151.5470881567
  31
0.0
   0
ARC
   5
282
 100
AcDbEntity
   8
LEVEL002
 370
30
   6
CONTINUOUS
  62
7
 100
AcDbCircle
  10
 2873.0566843541
  20
 1088.8508738516
  30
0.0
  40
 20.000000000000
 100
AcDbArc
  50
 0.10422106717980E-6
  51
 90.000000104236
   0
LINE
   5
283
 100
AcDbEntity
   8
LEVEL002
 370
30
 100
AcDbLine
   6
CONTINUOUS
  62
7
  10
 2828.2566844450
  20
 1108.8508737701
  30
0.0
  11
 2873.0566843177
  21
 1108.8508738516
  31
0.0
   0
LINE
   5
284
 100
AcDbEntity
   8
LEVEL002
 370
30
 100
AcDbLine
   6
CONTINUOUS
  62
7
  10
 2893.0566843541
  20
 1088.8508738880
  30
0.0
  11
 2893.0566844451
  21
 1038.8508738879
  31
0.0
   0
ARC
   5
285
 100
AcDbEntity
   8
LEVEL002
 370
30
   6
CONTINUOUS
  62
7
 100
AcDbCircle
  10
 2873.0566844451
  20
 1038.8508738516
  30
0.0
  40
 20.000000000000
 100
AcDbArc
  50
 266.17744637495
  51
 0.10418003039107E-6
   0
LINE
   5
286
 100
AcDbEntity
   8
LEVEL002
 370
30
 100
AcDbLine
   6
CONTINUOUS
  62
7
  10
 2873.0566844814
  20
 1018.8508738515
  30
0.0
  11
 2828.2566844450
  21
 1018.8508737701
  31
0.0
   0
POINT
   5
287
 100
AcDbEntity
   8
LEVEL002
 100
AcDbPoint
  62
1
  10
 2566.9823961002
  20
 1207.8311671530
  30
0.0
   0
POINT
   5
288
 100
AcDbEntity
   8
LEVEL002
 100
AcDbPoint
  62
1
  10
 2613.6142802229
  20
 1162.5490803729
  30
0.0
   0
POINT
   5
289
 100
AcDbEntity
   8
LEVEL002
 100
AcDbPoint
  62
1
  10
 2873.0566844451
  20
 1038.8508738516
  30
0.0
   0
POINT
   5
28A
 100
AcDbEntity
   8
LEVEL002
 100
AcDbPoint
  62
1
  10
 2873.0566843541
  20
 1088.8508738516
  30
0.0
   0
POINT
   5
28B
 100
AcDbEntity
   8
LEVEL002
 100
AcDbPoint
  62
1
  10
 2639.2041354252
  20
 963.85087342616
  30
0.0
   0
POINT
   5
28C
 100
AcDbEntity
   8
LEVEL002
 100
AcDbPoint
  62
1
  10
 2802.7612238174
  20
 822.00280770952
  30
0.0
   0
POINT
   5
28D
 100
AcDbEntity
   8
LEVEL002
 100
AcDbPoint
  62
1
  10
 2353.2566844450
  20
 1118.8508735785
  30
0.0
   0
POINT
   5
28E
 100
AcDbEntity
   8
LEVEL002
 100
AcDbPoint
  62
7
  10
 2341.7566844450
  20
 453.85087357856
  30
0.0
   0
POINT
   5
28F
 100
AcDbEntity
   8
LEVEL002
 100
AcDbPoint
  62
7
  10
 2373.2566844450
  20
 453.85087357856
  30
0.0
   0
POINT
   5
290
 100
AcDbEntity
   8
LEVEL002
 100
AcDbPoint
  62
7
  10
 2404.7566844450
  20
 453.85087357856
  30
0.0
   0
LINE
   5
291
 100
AcDbEntity
   8
LEVEL002
 370
9
 100
AcDbLine
   6
DASHDOT
  62
1
  10
 2873.0566845696
  20
 1038.8508739629
  30
0.0
  11
 2802.7612238174
  21
 822.00280770952
  31
0.0
   0
LINE
   5
292
 100
AcDbEntity
   8
LEVEL002
 370
9
 100
AcDbLine
   6
DASHDOT
  62
1
  10
 2765.7566844450
  20
 707.85087357856
  30
0.0
  11
 2802.7612238174
  21
 822.00280770952
  31
0.0
   0
LINE
   5
293
 100
AcDbEntity
   8
LEVEL002
 370
30
 100
AcDbLine
   6
CONTINUOUS
  62
7
  10
 2405.2566844450
  20
 1146.3508735785
  30
0.0
  11
 2405.2566844450
  21
 1152.3508735785
  31
0.0
   0
LINE
   5
294
 100
AcDbEntity
   8
LEVEL002
 370
30
 100
AcDbLine
   6
CONTINUOUS
  62
7
  10
 2405.2566844450
  20
 1152.3508735785
  30
0.0
  11
 2403.2566844450
  21
 1158.3508735785
  31
0.0
   0
LINE
   5
295
 100
AcDbEntity
   8
LEVEL002
 370
30
 100
AcDbLine
   6
CONTINUOUS
  62
7
  10
 2403.2566844450
  20
 1158.3508735785
  30
0.0
  11
 2373.2566844450
  21
 1158.3508735785
  31
0.0
   0
LINE
   5
296
 100
AcDbEntity
   8
LEVEL002
 370
30
 100
AcDbLine
   6
CONTINUOUS
  62
7
  10
 2373.2566844450
  20
 1158.3508735785
  30
0.0
  11
 2371.2566844450
  21
 1152.3508735785
  31
0.0
   0
LINE
   5
297
 100
AcDbEntity
   8
LEVEL002
 370
30
 100
AcDbLine
   6
CONTINUOUS
  62
7
  10
 2371.2566844450
  20
 1152.3508735785
  30
0.0
  11
 2371.2566844450
  21
 1146.3508735785
  31
0.0
   0
LINE
   5
298
 100
AcDbEntity
   8
LEVEL002
 370
30
 100
AcDbLine
   6
CONTINUOUS
  62
7
  10
 2371.2566844450
  20
 1146.3508735785
  30
0.0
  11
 2405.2566844450
  21
 1146.3508735785
  31
0.0
   0
LINE
   5
299
 100
AcDbEntity
   8
LEVEL002
 370
30
 100
AcDbLine
   6
CONTINUOUS
  62
7
  10
 2405.2566844450
  20
 1152.3508735785
  30
0.0
  11
 2371.2566844450
  21
 1152.3508735785
  31
0.0
   0
LINE
   5
29A
 100
AcDbEntity
   8
LEVEL002
 370
30
 100
AcDbLine
   6
CONTINUOUS
  62
7
  10
 2400.7566844450
  20
 1165.3508735785
  30
0.0
  11
 2374.7566844450
  21
 1165.3508735785
  31
0.0
   0
LINE
   5
29B
 100
AcDbEntity
   8
LEVEL002
 370
30
 100
AcDbLine
   6
CONTINUOUS
  62
7
  10
 2374.7566844450
  20
 1165.3508735785
  30
0.0
  11
 2374.7566844450
  21
 1158.3508735785
  31
0.0
   0
LINE
   5
29C
 100
AcDbEntity
   8
LEVEL002
 370
30
 100
AcDbLine
   6
CONTINUOUS
  62
7
  10
 2374.7566844450
  20
 1158.3508735785
  30
0.0
  11
 2401.7566844450
  21
 1158.3508735785
  31
0.0
   0
LINE
   5
29D
 100
AcDbEntity
   8
LEVEL002
 370
30
 100
AcDbLine
   6
CONTINUOUS
  62
7
  10
 2401.7566844450
  20
 1158.3508735785
  30
0.0
  11
 2401.7566844450
  21
 1165.3508735785
  31
0.0
   0
LINE
   5
29E
 100
AcDbEntity
   8
LEVEL002
 370
30
 100
AcDbLine
   6
CONTINUOUS
  62
7
  10
 2401.7566844450
  20
 1165.3508735785
  30
0.0
  11
 2400.7566844450
  21
 1165.3508735785
  31
0.0
   0
LINE
   5
29F
 100
AcDbEntity
   8
LEVEL002
 370
30
 100
AcDbLine
   6
CONTINUOUS
  62
7
  10
 2400.7566844450
  20
 1165.3508735785
  30
0.0
  11
 2400.7566844450
  21
 1175.3508735785
  31
0.0
   0
LINE
   5
2A0
 100
AcDbEntity
   8
LEVEL002
 370
30
 100
AcDbLine
   6
CONTINUOUS
  62
7
  10
 2400.7566844450
  20
 1175.3508735785
  30
0.0
  11
 2375.7566844450
  21
 1175.3508735785
  31
0.0
   0
LINE
   5
2A1
 100
AcDbEntity
   8
LEVEL002
 370
30
 100
AcDbLine
   6
CONTINUOUS
  62
7
  10
 2375.7566844450
  20
 1175.3508735785
  30
0.0
  11
 2375.7566844450
  21
 1165.3508735785
  31
0.0
   0
LINE
   5
2A2
 100
AcDbEntity
   8
LEVEL002
 370
30
 100
AcDbLine
   6
CONTINUOUS
  62
7
  10
 2368.2566844450
  20
 1143.8508735785
  30
0.0
  11
 2418.2566844450
  21
 1143.8508735785
  31
0.0
   0
LINE
   5
2A3
 100
AcDbEntity
   8
LEVEL002
 370
30
 100
AcDbLine
   6
CONTINUOUS
  62
7
  10
 2418.2566844450
  20
 1143.8508735785
  30
0.0
  11
 2418.2566844450
  21
 1146.3508735785
  31
0.0
   0
LINE
   5
2A4
 100
AcDbEntity
   8
LEVEL002
 370
30
 100
AcDbLine
   6
CONTINUOUS
  62
7
  10
 2418.2566844450
  20
 1146.3508735785
  30
0.0
  11
 2368.2566844450
  21
 1146.3508735785
  31
0.0
   0
LINE
   5
2A5
 100
AcDbEntity
   8
LEVEL002
 370
30
 100
AcDbLine
   6
CONTINUOUS
  62
7
  10
 2368.2566844450
  20
 1146.3508735785
  30
0.0
  11
 2368.2566844450
  21
 1143.8508735785
  31
0.0
   0
ARC
   5
2A6
 100
AcDbEntity
   8
LEVEL002
 370
30
   6
CONTINUOUS
  62
7
 100
AcDbCircle
  10
 2388.2566844450
  20
 1069.8508735786
  30
0.0
  40
 101.00000000000
 100
AcDbArc
  50
 97.109290193016
  51
 101.42118627499
   0
ARC
   5
2A7
 100
AcDbEntity
   8
LEVEL002
 370
30
   6
CONTINUOUS
  62
7
 100
AcDbCircle
  10
 2388.2566844450
  20
 1069.8508735786
  30
0.0
  40
 101.00000000000
 100
AcDbArc
  50
 78.578813725006
  51
 82.890709806983
   0
LINE
   5
2A8
 100
AcDbEntity
   8
LEVEL002
 370
30
 100
AcDbLine
   6
CONTINUOUS
  62
7
  10
 2368.2566844450
  20
 1168.8508735785
  30
0.0
  11
 2368.2566844450
  21
 1164.8508735785
  31
0.0
   0
LINE
   5
2A9
 100
AcDbEntity
   8
LEVEL002
 370
30
 100
AcDbLine
   6
CONTINUOUS
  62
7
  10
 2368.2566844450
  20
 1164.8508735785
  30
0.0
  11
 2374.7566844450
  21
 1164.8508735785
  31
0.0
   0
LINE
   5
2AA
 100
AcDbEntity
   8
LEVEL002
 370
30
 100
AcDbLine
   6
CONTINUOUS
  62
7
  10
 2401.7566844450
  20
 1164.8508735785
  30
0.0
  11
 2408.2566844450
  21
 1164.8508735785
  31
0.0
   0
LINE
   5
2AB
 100
AcDbEntity
   8
LEVEL002
 370
30
 100
AcDbLine
   6
CONTINUOUS
  62
7
  10
 2408.2566844450
  20
 1164.8508735785
  30
0.0
  11
 2408.2566844450
  21
 1168.8508735785
  31
0.0
   0
ARC
   5
2AC
 100
AcDbEntity
   8
LEVEL002
 370
9
   6
DIVIDE
  62
1
 100
AcDbCircle
  10
 2222.0164409712
  20
 1460.3143282334
  30
0.0
  40
 3.0000000000000
 100
AcDbArc
  50
 90.025855683014
  51
 180.02585568328
   0
LINE
   5
2AD
 100
AcDbEntity
   8
LEVEL002
 370
9
 100
AcDbLine
   6
DIVIDE
  62
1
  10
 2219.0305659270
  20
 1429.0129776200
  30
0.0
  11
 2219.0164412766
  21
 1460.3129744330
  31
0.0
   0
ARC
   5
2AE
 100
AcDbEntity
   8
LEVEL002
 370
9
   6
DIVIDE
  62
1
 100
AcDbCircle
  10
 2222.0305656215
  20
 1429.0143314204
  30
0.0
  40
 3.0000000000000
 100
AcDbArc
  50
 180.02585568307
  51
 270.02585568279
   0
LINE
   5
2AF
 100
AcDbEntity
   8
LEVEL002
 370
9
 100
AcDbLine
   6
DIVIDE
  62
1
  10
 2222.0150871708
  20
 1463.3143279279
  30
0.0
  11
 2366.0150725087
  21
 1463.3793103448
  31
0.0
   0
LINE
   5
2B0
 100
AcDbEntity
   8
LEVEL002
 370
9
 100
AcDbLine
   6
DIVIDE
  62
1
  10
 2366.0319047597
  20
 1426.0793141427
  30
0.0
  11
 2222.0319194219
  21
 1426.0143317258
  31
0.0
   0
LINE
   5
2B1
 100
AcDbEntity
   8
LEVEL002
 370
9
 100
AcDbLine
   6
DIVIDE
  62
1
  10
 2369.0173285371
  20
 1458.3806646543
  30
0.0
  11
 2626.7173022979
  21
 1458.4969561045
  31
0.0
   0
LINE
   5
2B2
 100
AcDbEntity
   8
LEVEL002
 370
9
 100
AcDbLine
   6
DIVIDE
  62
1
  10
 2369.0296481203
  20
 1431.0806674340
  30
0.0
  11
 2626.7296218811
  21
 1431.1969588842
  31
0.0
   0
ARC
   5
2B3
 100
AcDbEntity
   8
LEVEL002
 370
9
   6
DIVIDE
  62
1
 100
AcDbCircle
  10
 2366.0164263090
  20
 1460.3793106503
  30
0.0
  40
 3.0000000000000
 100
AcDbArc
  50
 0.25855683027178E-1
  51
 90.025855683327
   0
LINE
   5
2B4
 100
AcDbEntity
   8
LEVEL002
 370
9
 100
AcDbLine
   6
DIVIDE
  62
1
  10
 2369.0164260036
  20
 1460.3806644506
  30
0.0
  11
 2369.0305506539
  21
 1429.0806676376
  31
0.0
   0
ARC
   5
2B5
 100
AcDbEntity
   8
LEVEL002
 370
9
   6
DIVIDE
  62
1
 100
AcDbCircle
  10
 2366.0305509593
  20
 1429.0793138373
  30
0.0
  40
 3.0000000000000
 100
AcDbArc
  50
 270.02585568315
  51
 0.25855682966383E-1
   0
ARC
   5
2B6
 100
AcDbEntity
   8
LEVEL002
 370
9
   6
DIVIDE
  62
1
 100
AcDbCircle
  10
 2626.7837738951
  20
 1311.1969711027
  30
0.0
  40
 120.00000000000
 100
AcDbArc
  50
 0.25855683026962E-1
  51
 90.025855683025
   0
ARC
   5
2B7
 100
AcDbEntity
   8
LEVEL002
 370
9
   6
DIVIDE
  62
1
 100
AcDbCircle
  10
 2626.7837738951
  20
 1311.1969711027
  30
0.0
  40
 147.30000000000
 100
AcDbArc
  50
 0.25855683025561E-1
  51
 90.025855683025
   0
LINE
   5
2B8
 100
AcDbEntity
   8
LEVEL002
 370
9
 100
AcDbLine
   6
DIVIDE
  62
1
  10
 2774.1413856652
  20
 1183.5634557025
  30
0.0
  11
 2774.0837588969
  21
 1311.2634426999
  31
0.0
   0
LINE
   5
2B9
 100
AcDbEntity
   8
LEVEL002
 370
9
 100
AcDbLine
   6
DIVIDE
  62
1
  10
 2746.7837616766
  20
 1311.2511231167
  30
0.0
  11
 2746.8413884449
  21
 1183.5511361193
  31
0.0
   0
LINE
   5
2BA
 100
AcDbEntity
   8
LEVEL002
 370
9
 100
AcDbLine
   6
DIVIDE
  62
1
  10
 2770.4913860368
  20
 1183.5618085787
  30
0.0
  11
 2770.5092965964
  21
 1143.8722980595
  31
0.0
   0
ARC
   5
2BB
 100
AcDbEntity
   8
LEVEL002
 370
9
   6
DASHDOT
  62
1
 100
AcDbCircle
  10
 2723.0566844452
  20
 1038.8508735786
  30
0.0
  40
 657.71606284179
 100
AcDbArc
  50
 139.95639368772
  51
 185.71956394033
   0
LINE
   5
2BC
 100
AcDbEntity
   8
LEVEL002
 370
9
 100
AcDbLine
   6
DASHDOT
  62
1
  10
 2468.2566844450
  20
 1108.3793103448
  30
0.0
  11
 2468.2566844450
  21
 969.32243681230
  31
0.0
   0
LINE
   5
2BD
 100
AcDbEntity
   8
LEVEL002
 370
9
 100
AcDbLine
   6
DASHDOT
  62
1
  10
 2537.2566844450
  20
 1038.8508735786
  30
0.0
  11
 2399.2566844450
  21
 1038.8508735786
  31
0.0
   0
LINE
   5
2BE
 100
AcDbEntity
   8
LEVEL002
 370
9
 100
AcDbLine
   6
DASHDOT
  62
1
  10
 2595.6566844450
  20
 1003.3793103448
  30
0.0
  11
 2595.6566844450
  21
 864.32243681230
  31
0.0
   0
LINE
   5
2BF
 100
AcDbEntity
   8
LEVEL002
 370
9
 100
AcDbLine
   6
DASHDOT
  62
1
  10
 2664.6566844450
  20
 933.85087357856
  30
0.0
  11
 2526.6566844450
  21
 933.85087357856
  31
0.0
   0
LINE
   5
2C0
 100
AcDbEntity
   8
LEVEL002
 370
9
 100
AcDbLine
   6
DASHDOT
  62
1
  10
 2765.7566844450
  20
 737.37931034483
  30
0.0
  11
 2765.7566844450
  21
 678.32243681230
  31
0.0
   0
LINE
   5
2C1
 100
AcDbEntity
   8
LEVEL002
 370
9
 100
AcDbLine
   6
DASHDOT
  62
1
  10
 2797.2566844450
  20
 707.85087357856
  30
0.0
  11
 2734.2566844450
  21
 707.85087357856
  31
0.0
   0
LINE
   5
2C2
 100
AcDbEntity
   8
LEVEL002
 370
9
 100
AcDbLine
   6
DASHDOT
  62
1
  10
 2555.3856861003
  20
 1261.5891840641
  30
0.0
  11
 2518.6669050041
  21
 1228.7469077111
  31
0.0
   0
LINE
   5
2C3
 100
AcDbEntity
   8
LEVEL002
 370
9
 100
AcDbLine
   6
DASHDOT
  62
1
  10
 2516.1010911677
  20
 1270.2342601776
  30
0.0
  11
 2766.3423979477
  21
 990.45597483257
  31
0.0
   0
LINE
   5
2C4
 100
AcDbEntity
   8
LEVEL002
 370
9
 100
AcDbLine
   6
DASHDOT
  62
1
  10
 2723.0566844450
  20
 1109.3793103448
  30
0.0
  11
 2723.0566844450
  21
 968.37931034483
  31
0.0
   0
LINE
   5
2C5
 100
AcDbEntity
   8
LEVEL002
 370
9
 100
AcDbLine
   6
DASHDOT
  62
1
  10
 2911.0346248934
  20
 1038.8508735786
  30
0.0
  11
 2653.2566844450
  21
 1038.8508735786
  31
0.0
   0
LINE
   5
2C6
 100
AcDbEntity
   8
LEVEL002
 370
9
 100
AcDbLine
   6
DASHDOT
  62
1
  10
 2873.0566845696
  20
 1068.3793103448
  30
0.0
  11
 2873.0566845696
  21
 1009.3224375810
  31
0.0
   0
LINE
   5
2C7
 100
AcDbEntity
   8
LEVEL002
 370
30
 100
AcDbLine
   6
CONTINUOUS
  62
7
  10
 911.25668444495
  20
 2054.3793103448
  30
0.0
  11
 911.25668444495
  21
 1980.2459765567
  31
0.0
   0
LINE
   5
2C8
 100
AcDbEntity
   8
LEVEL002
 370
30
 100
AcDbLine
   6
CONTINUOUS
  62
7
  10
 941.25668444495
  20
 2054.3793103448
  30
0.0
  11
 941.25668444495
  21
 1980.2459765567
  31
0.0
   0
LINE
   5
2C9
 100
AcDbEntity
   8
LEVEL002
 370
30
 100
AcDbLine
   6
CONTINUOUS
  62
7
  10
 971.25668444495
  20
 2054.3793103448
  30
0.0
  11
 971.25668444495
  21
 1980.2459765567
  31
0.0
   0
LINE
   5
2CA
 100
AcDbEntity
   8
LEVEL002
 370
30
 100
AcDbLine
   6
CONTINUOUS
  62
7
  10
 1001.2566844450
  20
 2054.3793103448
  30
0.0
  11
 1001.2566844450
  21
 1980.2459765567
  31
0.0
   0
LINE
   5
2CB
 100
AcDbEntity
   8
LEVEL002
 370
30
 100
AcDbLine
   6
CONTINUOUS
  62
7
  10
 1031.2566844450
  20
 2054.3793103448
  30
0.0
  11
 1031.2566844450
  21
 1980.2459765567
  31
0.0
   0
LINE
   5
2CC
 100
AcDbEntity
   8
LEVEL002
 370
30
 100
AcDbLine
   6
CONTINUOUS
  62
7
  10
 1061.2566844450
  20
 2054.3793103448
  30
0.0
  11
 1061.2566844450
  21
 1980.2459765567
  31
0.0
   0
LINE
   5
2CD
 100
AcDbEntity
   8
LEVEL002
 370
30
 100
AcDbLine
   6
CONTINUOUS
  62
7
  10
 1091.2566844450
  20
 2054.3793103448
  30
0.0
  11
 1091.2566844450
  21
 1980.2459765567
  31
0.0
   0
LINE
   5
2CE
 100
AcDbEntity
   8
LEVEL002
 370
30
 100
AcDbLine
   6
CONTINUOUS
  62
7
  10
 1121.2566844450
  20
 2054.3793103448
  30
0.0
  11
 1121.2566844450
  21
 1980.2459765567
  31
0.0
   0
LINE
   5
2CF
 100
AcDbEntity
   8
LEVEL002
 370
30
 100
AcDbLine
   6
CONTINUOUS
  62
7
  10
 1151.2566844450
  20
 2054.3793103448
  30
0.0
  11
 1151.2566844450
  21
 1980.2459765567
  31
0.0
   0
LINE
   5
2D0
 100
AcDbEntity
   8
LEVEL002
 370
30
 100
AcDbLine
   6
CONTINUOUS
  62
7
  10
 1181.2566844450
  20
 2054.3793103448
  30
0.0
  11
 1181.2566844450
  21
 1980.2459765567
  31
0.0
   0
LINE
   5
2D1
 100
AcDbEntity
   8
LEVEL002
 370
30
 100
AcDbLine
   6
CONTINUOUS
  62
7
  10
 1211.2566844450
  20
 2054.3793103448
  30
0.0
  11
 1211.2566844450
  21
 1980.2459765567
  31
0.0
   0
LINE
   5
2D2
 100
AcDbEntity
   8
LEVEL002
 370
30
 100
AcDbLine
   6
CONTINUOUS
  62
7
  10
 1241.2566844450
  20
 2054.3793103448
  30
0.0
  11
 1241.2566844450
  21
 1980.2459765567
  31
0.0
   0
LINE
   5
2D3
 100
AcDbEntity
   8
LEVEL002
 370
30
 100
AcDbLine
   6
CONTINUOUS
  62
7
  10
 1271.2566844450
  20
 2054.3793103448
  30
0.0
  11
 1271.2566844450
  21
 1980.2459765567
  31
0.0
   0
LINE
   5
2D4
 100
AcDbEntity
   8
LEVEL002
 370
30
 100
AcDbLine
   6
CONTINUOUS
  62
7
  10
 1301.2566844450
  20
 2054.3793103448
  30
0.0
  11
 1301.2566844450
  21
 1980.2459765567
  31
0.0
   0
LINE
   5
2D5
 100
AcDbEntity
   8
LEVEL002
 370
30
 100
AcDbLine
   6
CONTINUOUS
  62
7
  10
 1331.2566844450
  20
 2054.3793103448
  30
0.0
  11
 1331.2566844450
  21
 1980.2459765567
  31
0.0
   0
LINE
   5
2D6
 100
AcDbEntity
   8
LEVEL002
 370
30
 100
AcDbLine
   6
CONTINUOUS
  62
7
  10
 1361.2566844450
  20
 2054.3793103448
  30
0.0
  11
 1361.2566844450
  21
 1980.2459765567
  31
0.0
   0
LINE
   5
2D7
 100
AcDbEntity
   8
LEVEL002
 370
30
 100
AcDbLine
   6
CONTINUOUS
  62
7
  10
 1391.2400485650
  20
 2054.3793103448
  30
0.0
  11
 1391.2400485650
  21
 1980.2459765567
  31
0.0
   0
LINE
   5
2D8
 100
AcDbEntity
   8
LEVEL002
 370
30
 100
AcDbLine
   6
CONTINUOUS
  62
7
  10
 896.25668444495
  20
 1911.4459772389
  30
0.0
  11
 896.25668444495
  21
 1837.3126434508
  31
0.0
   0
LINE
   5
2D9
 100
AcDbEntity
   8
LEVEL002
 370
30
 100
AcDbLine
   6
CONTINUOUS
  62
7
  10
 926.25668444495
  20
 1911.4459772389
  30
0.0
  11
 926.25668444495
  21
 1837.3126434508
  31
0.0
   0
LINE
   5
2DA
 100
AcDbEntity
   8
LEVEL002
 370
30
 100
AcDbLine
   6
CONTINUOUS
  62
7
  10
 956.25668444495
  20
 1911.4459772389
  30
0.0
  11
 956.25668444495
  21
 1837.3126434508
  31
0.0
   0
LINE
   5
2DB
 100
AcDbEntity
   8
LEVEL002
 370
30
 100
AcDbLine
   6
CONTINUOUS
  62
7
  10
 986.25668444495
  20
 1911.4459772389
  30
0.0
  11
 986.25668444495
  21
 1837.3126434508
  31
0.0
   0
LINE
   5
2DC
 100
AcDbEntity
   8
LEVEL002
 370
30
 100
AcDbLine
   6
CONTINUOUS
  62
7
  10
 1016.2566844450
  20
 1911.4459772389
  30
0.0
  11
 1016.2566844450
  21
 1837.3126434508
  31
0.0
   0
LINE
   5
2DD
 100
AcDbEntity
   8
LEVEL002
 370
30
 100
AcDbLine
   6
CONTINUOUS
  62
7
  10
 1046.2566844450
  20
 1911.4459772389
  30
0.0
  11
 1046.2566844450
  21
 1837.3126434508
  31
0.0
   0
LINE
   5
2DE
 100
AcDbEntity
   8
LEVEL002
 370
30
 100
AcDbLine
   6
CONTINUOUS
  62
7
  10
 1076.2566844450
  20
 1911.4459772389
  30
0.0
  11
 1076.2566844450
  21
 1837.3126434508
  31
0.0
   0
LINE
   5
2DF
 100
AcDbEntity
   8
LEVEL002
 370
30
 100
AcDbLine
   6
CONTINUOUS
  62
7
  10
 1106.2566844450
  20
 1911.4459772389
  30
0.0
  11
 1106.2566844450
  21
 1837.3126434508
  31
0.0
   0
LINE
   5
2E0
 100
AcDbEntity
   8
LEVEL002
 370
30
 100
AcDbLine
   6
CONTINUOUS
  62
7
  10
 1136.2566844450
  20
 1911.4459772389
  30
0.0
  11
 1136.2566844450
  21
 1837.3126434508
  31
0.0
   0
LINE
   5
2E1
 100
AcDbEntity
   8
LEVEL002
 370
30
 100
AcDbLine
   6
CONTINUOUS
  62
7
  10
 1166.2566844450
  20
 1911.4459772389
  30
0.0
  11
 1166.2566844450
  21
 1837.3126434508
  31
0.0
   0
LINE
   5
2E2
 100
AcDbEntity
   8
LEVEL002
 370
30
 100
AcDbLine
   6
CONTINUOUS
  62
7
  10
 1196.2566844450
  20
 1911.4459772389
  30
0.0
  11
 1196.2566844450
  21
 1837.3126434508
  31
0.0
   0
LINE
   5
2E3
 100
AcDbEntity
   8
LEVEL002
 370
30
 100
AcDbLine
   6
CONTINUOUS
  62
7
  10
 1226.2566844450
  20
 1911.4459772389
  30
0.0
  11
 1226.2566844450
  21
 1837.3126434508
  31
0.0
   0
LINE
   5
2E4
 100
AcDbEntity
   8
LEVEL002
 370
30
 100
AcDbLine
   6
CONTINUOUS
  62
7
  10
 1256.2566844450
  20
 1911.4459772389
  30
0.0
  11
 1256.2566844450
  21
 1837.3126434508
  31
0.0
   0
LINE
   5
2E5
 100
AcDbEntity
   8
LEVEL002
 370
30
 100
AcDbLine
   6
CONTINUOUS
  62
7
  10
 1286.2566844450
  20
 1911.4459772389
  30
0.0
  11
 1286.2566844450
  21
 1837.3126434508
  31
0.0
   0
LINE
   5
2E6
 100
AcDbEntity
   8
LEVEL002
 370
30
 100
AcDbLine
   6
CONTINUOUS
  62
7
  10
 1316.2566844450
  20
 1911.4459772389
  30
0.0
  11
 1316.2566844450
  21
 1837.3126434508
  31
0.0
   0
LINE
   5
2E7
 100
AcDbEntity
   8
LEVEL002
 370
30
 100
AcDbLine
   6
CONTINUOUS
  62
7
  10
 1346.2566844450
  20
 1911.4459772389
  30
0.0
  11
 1346.2566844450
  21
 1837.3126434508
  31
0.0
   0
LINE
   5
2E8
 100
AcDbEntity
   8
LEVEL002
 370
30
 100
AcDbLine
   6
CONTINUOUS
  62
7
  10
 1376.2400485650
  20
 1911.4459772389
  30
0.0
  11
 1376.2400485650
  21
 1837.3126434508
  31
0.0
   0
LINE
   5
2E9
 100
AcDbEntity
   8
LEVEL002
 370
30
 100
AcDbLine
   6
CONTINUOUS
  62
7
  10
 1406.2566844450
  20
 1911.4459772389
  30
0.0
  11
 1406.2566844450
  21
 1837.3126434508
  31
0.0
   0
LINE
   5
2EA
 100
AcDbEntity
   8
LEVEL002
 370
30
 100
AcDbLine
   6
CONTINUOUS
  62
7
  10
 896.25668444495
  20
 2166.2459772389
  30
0.0
  11
 896.25668444495
  21
 2099.8318813372
  31
0.0
   0
LINE
   5
2EB
 100
AcDbEntity
   8
LEVEL002
 370
30
 100
AcDbLine
   6
CONTINUOUS
  62
7
  10
 926.25668444495
  20
 2166.2459772389
  30
0.0
  11
 926.25668444495
  21
 2099.8318813372
  31
0.0
   0
LINE
   5
2EC
 100
AcDbEntity
   8
LEVEL002
 370
30
 100
AcDbLine
   6
CONTINUOUS
  62
7
  10
 956.25668444495
  20
 2166.2459772389
  30
0.0
  11
 956.25668444495
  21
 2099.8318813372
  31
0.0
   0
LINE
   5
2ED
 100
AcDbEntity
   8
LEVEL002
 370
30
 100
AcDbLine
   6
CONTINUOUS
  62
7
  10
 986.25668444495
  20
 2166.2459772389
  30
0.0
  11
 986.25668444495
  21
 2099.8318813372
  31
0.0
   0
LINE
   5
2EE
 100
AcDbEntity
   8
LEVEL002
 370
30
 100
AcDbLine
   6
CONTINUOUS
  62
7
  10
 1016.2566844450
  20
 2166.2459772389
  30
0.0
  11
 1016.2566844450
  21
 2099.8318813372
  31
0.0
   0
LINE
   5
2EF
 100
AcDbEntity
   8
LEVEL002
 370
30
 100
AcDbLine
   6
CONTINUOUS
  62
7
  10
 1046.2566844450
  20
 2166.2459772389
  30
0.0
  11
 1046.2566844450
  21
 2099.8318813372
  31
0.0
   0
LINE
   5
2F0
 100
AcDbEntity
   8
LEVEL002
 370
30
 100
AcDbLine
   6
CONTINUOUS
  62
7
  10
 1076.2566844450
  20
 2166.2459772389
  30
0.0
  11
 1076.2566844450
  21
 2099.8318813372
  31
0.0
   0
LINE
   5
2F1
 100
AcDbEntity
   8
LEVEL002
 370
30
 100
AcDbLine
   6
CONTINUOUS
  62
7
  10
 1106.2566844450
  20
 2166.2459772389
  30
0.0
  11
 1106.2566844450
  21
 2099.8318813372
  31
0.0
   0
LINE
   5
2F2
 100
AcDbEntity
   8
LEVEL002
 370
30
 100
AcDbLine
   6
CONTINUOUS
  62
7
  10
 1136.2566844450
  20
 2166.2459772389
  30
0.0
  11
 1136.2566844450
  21
 2099.8318813372
  31
0.0
   0
LINE
   5
2F3
 100
AcDbEntity
   8
LEVEL002
 370
30
 100
AcDbLine
   6
CONTINUOUS
  62
7
  10
 1166.2566844450
  20
 2166.2459772389
  30
0.0
  11
 1166.2566844450
  21
 2099.8318813372
  31
0.0
   0
LINE
   5
2F4
 100
AcDbEntity
   8
LEVEL002
 370
30
 100
AcDbLine
   6
CONTINUOUS
  62
7
  10
 1196.2566844450
  20
 2166.2459772389
  30
0.0
  11
 1196.2566844450
  21
 2099.8318813372
  31
0.0
   0
LINE
   5
2F5
 100
AcDbEntity
   8
LEVEL002
 370
30
 100
AcDbLine
   6
CONTINUOUS
  62
7
  10
 1226.2566844450
  20
 2166.2459772389
  30
0.0
  11
 1226.2566844450
  21
 2099.8318813372
  31
0.0
   0
LINE
   5
2F6
 100
AcDbEntity
   8
LEVEL002
 370
30
 100
AcDbLine
   6
CONTINUOUS
  62
7
  10
 1256.2566844450
  20
 2166.2459772389
  30
0.0
  11
 1256.2566844450
  21
 2099.8318813372
  31
0.0
   0
LINE
   5
2F7
 100
AcDbEntity
   8
LEVEL002
 370
30
 100
AcDbLine
   6
CONTINUOUS
  62
7
  10
 1286.2566844450
  20
 2166.2459772389
  30
0.0
  11
 1286.2566844450
  21
 2099.8318813372
  31
0.0
   0
LINE
   5
2F8
 100
AcDbEntity
   8
LEVEL002
 370
30
 100
AcDbLine
   6
CONTINUOUS
  62
7
  10
 1316.2566844450
  20
 2166.2459772389
  30
0.0
  11
 1316.2566844450
  21
 2099.8318813372
  31
0.0
   0
LINE
   5
2F9
 100
AcDbEntity
   8
LEVEL002
 370
30
 100
AcDbLine
   6
CONTINUOUS
  62
7
  10
 1346.2566844450
  20
 2166.2459772389
  30
0.0
  11
 1346.2566844450
  21
 2099.8318813372
  31
0.0
   0
LINE
   5
2FA
 100
AcDbEntity
   8
LEVEL002
 370
30
 100
AcDbLine
   6
CONTINUOUS
  62
7
  10
 1376.2566844450
  20
 2166.2459772389
  30
0.0
  11
 1376.2566844450
  21
 2099.8318813372
  31
0.0
   0
LINE
   5
2FB
 100
AcDbEntity
   8
LEVEL002
 370
30
 100
AcDbLine
   6
CONTINUOUS
  62
7
  10
 1406.2566844450
  20
 2166.2459772389
  30
0.0
  11
 1406.2566844450
  21
 2099.8318813372
  31
0.0
   0
LINE
   5
2FC
 100
AcDbEntity
   8
LEVEL002
 370
30
 100
AcDbLine
   6
CONTINUOUS
  62
7
  10
 896.25668444495
  20
 1075.9175404726
  30
0.0
  11
 896.25668444495
  21
 1001.7842066845
  31
0.0
   0
LINE
   5
2FD
 100
AcDbEntity
   8
LEVEL002
 370
30
 100
AcDbLine
   6
CONTINUOUS
  62
7
  10
 926.25668444495
  20
 1075.9175404726
  30
0.0
  11
 926.25668444495
  21
 1001.7842066845
  31
0.0
   0
LINE
   5
2FE
 100
AcDbEntity
   8
LEVEL002
 370
30
 100
AcDbLine
   6
CONTINUOUS
  62
7
  10
 956.25668444495
  20
 1075.9175404726
  30
0.0
  11
 956.25668444495
  21
 1001.7842066845
  31
0.0
   0
LINE
   5
2FF
 100
AcDbEntity
   8
LEVEL002
 370
30
 100
AcDbLine
   6
CONTINUOUS
  62
7
  10
 986.25668444495
  20
 1075.9175404726
  30
0.0
  11
 986.25668444495
  21
 1001.7842066845
  31
0.0
   0
LINE
   5
300
 100
AcDbEntity
   8
LEVEL002
 370
30
 100
AcDbLine
   6
CONTINUOUS
  62
7
  10
 1016.2566844450
  20
 1075.9175404726
  30
0.0
  11
 1016.2566844450
  21
 1001.7842066845
  31
0.0
   0
LINE
   5
301
 100
AcDbEntity
   8
LEVEL002
 370
30
 100
AcDbLine
   6
CONTINUOUS
  62
7
  10
 1046.2566844450
  20
 1075.9175404726
  30
0.0
  11
 1046.2566844450
  21
 1001.7842066845
  31
0.0
   0
LINE
   5
302
 100
AcDbEntity
   8
LEVEL002
 370
30
 100
AcDbLine
   6
CONTINUOUS
  62
7
  10
 1076.2566844450
  20
 1075.9175404726
  30
0.0
  11
 1076.2566844450
  21
 1001.7842066845
  31
0.0
   0
LINE
   5
303
 100
AcDbEntity
   8
LEVEL002
 370
30
 100
AcDbLine
   6
CONTINUOUS
  62
7
  10
 1106.2566844450
  20
 1075.9175404726
  30
0.0
  11
 1106.2566844450
  21
 1001.7842066845
  31
0.0
   0
LINE
   5
304
 100
AcDbEntity
   8
LEVEL002
 370
30
 100
AcDbLine
   6
CONTINUOUS
  62
7
  10
 1136.2566844450
  20
 1075.9175404726
  30
0.0
  11
 1136.2566844450
  21
 1001.7842066845
  31
0.0
   0
LINE
   5
305
 100
AcDbEntity
   8
LEVEL002
 370
30
 100
AcDbLine
   6
CONTINUOUS
  62
7
  10
 1166.2566844450
  20
 1075.9175404726
  30
0.0
  11
 1166.2566844450
  21
 1001.7842066845
  31
0.0
   0
LINE
   5
306
 100
AcDbEntity
   8
LEVEL002
 370
30
 100
AcDbLine
   6
CONTINUOUS
  62
7
  10
 1196.2566844450
  20
 1075.9175404726
  30
0.0
  11
 1196.2566844450
  21
 1001.7842066845
  31
0.0
   0
LINE
   5
307
 100
AcDbEntity
   8
LEVEL002
 370
30
 100
AcDbLine
   6
CONTINUOUS
  62
7
  10
 1226.2566844450
  20
 1075.9175404726
  30
0.0
  11
 1226.2566844450
  21
 1001.7842066845
  31
0.0
   0
LINE
   5
308
 100
AcDbEntity
   8
LEVEL002
 370
30
 100
AcDbLine
   6
CONTINUOUS
  62
7
  10
 1256.2566844450
  20
 1075.9175404726
  30
0.0
  11
 1256.2566844450
  21
 1001.7842066845
  31
0.0
   0
LINE
   5
309
 100
AcDbEntity
   8
LEVEL002
 370
30
 100
AcDbLine
   6
CONTINUOUS
  62
7
  10
 1286.2566844450
  20
 1075.9175404726
  30
0.0
  11
 1286.2566844450
  21
 1001.7842066845
  31
0.0
   0
LINE
   5
30A
 100
AcDbEntity
   8
LEVEL002
 370
30
 100
AcDbLine
   6
CONTINUOUS
  62
7
  10
 1316.2566844450
  20
 1075.9175404726
  30
0.0
  11
 1316.2566844450
  21
 1001.7842066845
  31
0.0
   0
LINE
   5
30B
 100
AcDbEntity
   8
LEVEL002
 370
30
 100
AcDbLine
   6
CONTINUOUS
  62
7
  10
 1346.2566844450
  20
 1075.9175404726
  30
0.0
  11
 1346.2566844450
  21
 1001.7842066845
  31
0.0
   0
LINE
   5
30C
 100
AcDbEntity
   8
LEVEL002
 370
30
 100
AcDbLine
   6
CONTINUOUS
  62
7
  10
 1376.2400485650
  20
 1075.9175404726
  30
0.0
  11
 1376.2400485650
  21
 1001.7842066845
  31
0.0
   0
LINE
   5
30D
 100
AcDbEntity
   8
LEVEL002
 370
30
 100
AcDbLine
   6
CONTINUOUS
  62
7
  10
 1406.2566844450
  20
 1075.9175404726
  30
0.0
  11
 1406.2566844450
  21
 1001.7842066845
  31
0.0
   0
LINE
   5
30E
 100
AcDbEntity
   8
LEVEL002
 370
30
 100
AcDbLine
   6
CONTINUOUS
  62
7
  10
 911.25668444495
  20
 1200.9882758107
  30
0.0
  11
 911.25668444495
  21
 1156.8964986202
  31
0.0
   0
LINE
   5
30F
 100
AcDbEntity
   8
LEVEL002
 370
30
 100
AcDbLine
   6
CONTINUOUS
  62
7
  10
 941.25668444495
  20
 1200.9882758107
  30
0.0
  11
 941.25668444495
  21
 1156.8964986202
  31
0.0
   0
LINE
   5
310
 100
AcDbEntity
   8
LEVEL002
 370
30
 100
AcDbLine
   6
CONTINUOUS
  62
7
  10
 971.25668444495
  20
 1200.9882758107
  30
0.0
  11
 971.25668444495
  21
 1156.8964986202
  31
0.0
   0
LINE
   5
311
 100
AcDbEntity
   8
LEVEL002
 370
30
 100
AcDbLine
   6
CONTINUOUS
  62
7
  10
 1001.2566844450
  20
 1200.9882758107
  30
0.0
  11
 1001.2566844450
  21
 1156.8964986202
  31
0.0
   0
LINE
   5
312
 100
AcDbEntity
   8
LEVEL002
 370
30
 100
AcDbLine
   6
CONTINUOUS
  62
7
  10
 1031.2566844450
  20
 1200.9882758107
  30
0.0
  11
 1031.2566844450
  21
 1156.8964986202
  31
0.0
   0
LINE
   5
313
 100
AcDbEntity
   8
LEVEL002
 370
30
 100
AcDbLine
   6
CONTINUOUS
  62
7
  10
 1061.2566844450
  20
 1200.9882758107
  30
0.0
  11
 1061.2566844450
  21
 1156.8964986202
  31
0.0
   0
LINE
   5
314
 100
AcDbEntity
   8
LEVEL002
 370
30
 100
AcDbLine
   6
CONTINUOUS
  62
7
  10
 1091.2566844450
  20
 1200.9882758107
  30
0.0
  11
 1091.2566844450
  21
 1156.8964986202
  31
0.0
   0
LINE
   5
315
 100
AcDbEntity
   8
LEVEL002
 370
30
 100
AcDbLine
   6
CONTINUOUS
  62
7
  10
 1121.2566844450
  20
 1200.9882758107
  30
0.0
  11
 1121.2566844450
  21
 1156.8964986202
  31
0.0
   0
LINE
   5
316
 100
AcDbEntity
   8
LEVEL002
 370
30
 100
AcDbLine
   6
CONTINUOUS
  62
7
  10
 1151.2566844450
  20
 1200.9882758107
  30
0.0
  11
 1151.2566844450
  21
 1156.8964986202
  31
0.0
   0
LINE
   5
317
 100
AcDbEntity
   8
LEVEL002
 370
30
 100
AcDbLine
   6
CONTINUOUS
  62
7
  10
 1181.2566844450
  20
 1200.9882758107
  30
0.0
  11
 1181.2566844450
  21
 1156.8964986202
  31
0.0
   0
LINE
   5
318
 100
AcDbEntity
   8
LEVEL002
 370
30
 100
AcDbLine
   6
CONTINUOUS
  62
7
  10
 1211.2566844450
  20
 1200.9882758107
  30
0.0
  11
 1211.2566844450
  21
 1156.8964986202
  31
0.0
   0
LINE
   5
319
 100
AcDbEntity
   8
LEVEL002
 370
30
 100
AcDbLine
   6
CONTINUOUS
  62
7
  10
 1241.2566844450
  20
 1200.9882758107
  30
0.0
  11
 1241.2566844450
  21
 1156.8964986202
  31
0.0
   0
LINE
   5
31A
 100
AcDbEntity
   8
LEVEL002
 370
30
 100
AcDbLine
   6
CONTINUOUS
  62
7
  10
 1271.2566844450
  20
 1200.9882758107
  30
0.0
  11
 1271.2566844450
  21
 1156.8964986202
  31
0.0
   0
LINE
   5
31B
 100
AcDbEntity
   8
LEVEL002
 370
30
 100
AcDbLine
   6
CONTINUOUS
  62
7
  10
 1301.2566844450
  20
 1200.9882758107
  30
0.0
  11
 1301.2566844450
  21
 1156.8964986202
  31
0.0
   0
LINE
   5
31C
 100
AcDbEntity
   8
LEVEL002
 370
30
 100
AcDbLine
   6
CONTINUOUS
  62
7
  10
 1331.2566844450
  20
 1200.9882758107
  30
0.0
  11
 1331.2566844450
  21
 1156.8964986202
  31
0.0
   0
LINE
   5
31D
 100
AcDbEntity
   8
LEVEL002
 370
30
 100
AcDbLine
   6
CONTINUOUS
  62
7
  10
 1361.2566844450
  20
 1200.9882758107
  30
0.0
  11
 1361.2566844450
  21
 1156.8964986202
  31
0.0
   0
LINE
   5
31E
 100
AcDbEntity
   8
LEVEL002
 370
30
 100
AcDbLine
   6
CONTINUOUS
  62
7
  10
 1391.2400485650
  20
 1200.9882758107
  30
0.0
  11
 1391.2400485650
  21
 1156.8964986202
  31
0.0
   0
CIRCLE
   5
31F
 100
AcDbEntity
   8
LEVEL002
 370
30
 100
AcDbCircle
   6
CONTINUOUS
  62
7
  10
 1406.2566844450
  20
 390.85087357856
  30
0.0
  40
 5.0000000000000
   0
CIRCLE
   5
320
 100
AcDbEntity
   8
LEVEL002
 370
30
 100
AcDbCircle
   6
CONTINUOUS
  62
7
  10
 896.25668444495
  20
 390.85087357856
  30
0.0
  40
 5.0000000000000
   0
LINE
   5
321
 100
AcDbEntity
   8
LEVEL002
 370
30
 100
AcDbLine
   6
CONTINUOUS
  62
7
  10
 2585.3271544393
  20
 1279.0367813139
  30
0.0
  11
 2558.8274390976
  21
 1269.4493681732
  31
0.0
   0
ARC
   5
322
 100
AcDbEntity
   8
LEVEL002
 370
30
   6
CONTINUOUS
  62
7
 100
AcDbCircle
  10
 2537.8566840684
  20
 1245.9107679583
  30
0.0
  40
 15.000000000000
 100
AcDbArc
  50
 125.35088826533
  51
 153.73085767063
   0
LINE
   5
323
 100
AcDbEntity
   8
LEVEL002
 370
9
 100
AcDbLine
   6
DIVIDE
  62
1
  10
 2719.4440082174
  20
 1288.5387832815
  30
0.0
  11
 2719.4913912297
  21
 1183.5387939727
  31
0.0
   0
LINE
   5
324
 100
AcDbEntity
   8
LEVEL002
 370
9
 100
AcDbLine
   6
DIVIDE
  62
1
  10
 2719.4913912297
  20
 1183.5387939727
  30
0.0
  11
 2774.1413856652
  21
 1183.5634557025
  31
0.0
   0
LINE
   5
325
 100
AcDbEntity
   8
LEVEL002
 370
30
 100
AcDbLine
   6
CONTINUOUS
  62
7
  10
 2828.2566844450
  20
 462.85087357856
  30
0.0
  11
 2828.2566844450
  21
 1143.8508735785
  31
0.0
   0
LINE
   5
326
 100
AcDbEntity
   8
LEVEL002
 370
30
 100
AcDbLine
   6
CONTINUOUS
  62
7
  10
 2828.2566844450
  20
 1143.8508735785
  30
0.0
  11
 2328.2566844450
  21
 1143.8508735785
  31
0.0
   0
LINE
   5
327
 100
AcDbEntity
   8
LEVEL002
 370
30
 100
AcDbLine
   6
CONTINUOUS
  62
7
  10
 2328.2566844450
  20
 1143.8508735785
  30
0.0
  11
 2328.2566844450
  21
 462.85087357856
  31
0.0
   0
LINE
   5
328
 100
AcDbEntity
   8
LEVEL002
 370
30
 100
AcDbLine
   6
CONTINUOUS
  62
7
  10
 2328.2566844450
  20
 462.85087357856
  30
0.0
  11
 2828.2566844450
  21
 462.85087357856
  31
0.0
   0
LINE
   5
329
 100
AcDbEntity
   8
LEVEL002
 370
30
 100
AcDbLine
   6
CONTINUOUS
  62
7
  10
 2328.2566844450
  20
 808.85087357854
  30
0.0
  11
 2325.2566844450
  21
 808.85087357854
  31
0.0
   0
LINE
   5
32A
 100
AcDbEntity
   8
LEVEL002
 370
30
 100
AcDbLine
   6
CONTINUOUS
  62
7
  10
 2325.2566844450
  20
 808.85087357854
  30
0.0
  11
 2325.2566844450
  21
 793.85087357856
  31
0.0
   0
LINE
   5
32B
 100
AcDbEntity
   8
LEVEL002
 370
30
 100
AcDbLine
   6
CONTINUOUS
  62
7
  10
 2325.2566844450
  20
 793.85087357856
  30
0.0
  11
 2326.2566844450
  21
 793.85087357856
  31
0.0
   0
LINE
   5
32C
 100
AcDbEntity
   8
LEVEL002
 370
30
 100
AcDbLine
   6
CONTINUOUS
  62
7
  10
 2326.2566844450
  20
 793.85087357856
  30
0.0
  11
 2326.2566844450
  21
 807.85087357846
  31
0.0
   0
LINE
   5
32D
 100
AcDbEntity
   8
LEVEL002
 370
30
 100
AcDbLine
   6
CONTINUOUS
  62
7
  10
 2326.2566844450
  20
 807.85087357846
  30
0.0
  11
 2328.2566844450
  21
 807.85087357846
  31
0.0
   0
LINE
   5
32E
 100
AcDbEntity
   8
LEVEL002
 370
30
 100
AcDbLine
   6
CONTINUOUS
  62
7
  10
 2354.2566844450
  20
 353.37931034483
  30
0.0
  11
 2392.2566844450
  21
 353.37931034483
  31
0.0
   0
LINE
   5
32F
 100
AcDbEntity
   8
LEVEL002
 370
30
 100
AcDbLine
   6
CONTINUOUS
  62
7
  10
 2392.2566844450
  20
 353.37931034483
  30
0.0
  11
 2392.2566844450
  21
 428.37931034482
  31
0.0
   0
LINE
   5
330
 100
AcDbEntity
   8
LEVEL002
 370
30
 100
AcDbLine
   6
CONTINUOUS
  62
7
  10
 2392.2566844450
  20
 428.37931034482
  30
0.0
  11
 2354.2566844450
  21
 428.37931034482
  31
0.0
   0
LINE
   5
331
 100
AcDbEntity
   8
LEVEL002
 370
30
 100
AcDbLine
   6
CONTINUOUS
  62
7
  10
 2354.2566844450
  20
 428.37931034482
  30
0.0
  11
 2354.2566844450
  21
 353.37931034483
  31
0.0
   0
LINE
   5
332
 100
AcDbEntity
   8
LEVEL002
 370
30
 100
AcDbLine
   6
CONTINUOUS
  62
7
  10
 2332.2566844450
  20
 453.85087357856
  30
0.0
  11
 2332.2566844450
  21
 451.85087357856
  31
0.0
   0
LINE
   5
333
 100
AcDbEntity
   8
LEVEL002
 370
30
 100
AcDbLine
   6
CONTINUOUS
  62
7
  10
 2332.2566844450
  20
 451.85087357856
  30
0.0
  11
 2414.2566844450
  21
 451.85087357856
  31
0.0
   0
LINE
   5
334
 100
AcDbEntity
   8
LEVEL002
 370
30
 100
AcDbLine
   6
CONTINUOUS
  62
7
  10
 2414.2566844450
  20
 451.85087357856
  30
0.0
  11
 2414.2566844450
  21
 453.85087357856
  31
0.0
   0
LINE
   5
335
 100
AcDbEntity
   8
LEVEL002
 370
30
 100
AcDbLine
   6
CONTINUOUS
  62
7
  10
 2345.2566846431
  20
 451.85087357856
  30
0.0
  11
 2345.2566846431
  21
 438.37931040323
  31
0.0
   0
LINE
   5
336
 100
AcDbEntity
   8
LEVEL002
 370
30
 100
AcDbLine
   6
CONTINUOUS
  62
7
  10
 2345.2566846431
  20
 438.37931040323
  30
0.0
  11
 2401.2566842625
  21
 438.37931040323
  31
0.0
   0
LINE
   5
337
 100
AcDbEntity
   8
LEVEL002
 370
30
 100
AcDbLine
   6
CONTINUOUS
  62
7
  10
 2401.2566842625
  20
 438.37931040323
  30
0.0
  11
 2401.2566842625
  21
 451.85087357856
  31
0.0
   0
LINE
   5
338
 100
AcDbEntity
   8
LEVEL002
 370
30
 100
AcDbLine
   6
CONTINUOUS
  62
7
  10
 2345.2566846431
  20
 446.85087350565
  30
0.0
  11
 2401.2566842625
  21
 446.85087350565
  31
0.0
   0
LINE
   5
339
 100
AcDbEntity
   8
LEVEL002
 370
30
 100
AcDbLine
   6
CONTINUOUS
  62
7
  10
 2348.2566846289
  20
 438.37931040323
  30
0.0
  11
 2348.2566846289
  21
 380.87931034484
  31
0.0
   0
LINE
   5
33A
 100
AcDbEntity
   8
LEVEL002
 370
30
 100
AcDbLine
   6
CONTINUOUS
  62
7
  10
 2348.2566846289
  20
 380.87931034484
  30
0.0
  11
 2353.2566844450
  21
 380.87931034484
  31
0.0
   0
LINE
   5
33B
 100
AcDbEntity
   8
LEVEL002
 370
30
 100
AcDbLine
   6
CONTINUOUS
  62
7
  10
 2353.2566844450
  20
 380.87931034484
  30
0.0
  11
 2353.2566844450
  21
 430.37931040322
  31
0.0
   0
LINE
   5
33C
 100
AcDbEntity
   8
LEVEL002
 370
30
 100
AcDbLine
   6
CONTINUOUS
  62
7
  10
 2353.2566844450
  20
 430.37931040322
  30
0.0
  11
 2393.2566844450
  21
 430.37931040322
  31
0.0
   0
LINE
   5
33D
 100
AcDbEntity
   8
LEVEL002
 370
30
 100
AcDbLine
   6
CONTINUOUS
  62
7
  10
 2393.2566844450
  20
 430.37931040322
  30
0.0
  11
 2393.2566844450
  21
 380.87931034484
  31
0.0
   0
LINE
   5
33E
 100
AcDbEntity
   8
LEVEL002
 370
30
 100
AcDbLine
   6
CONTINUOUS
  62
7
  10
 2393.2566844450
  20
 380.87931034484
  30
0.0
  11
 2398.2566845186
  21
 380.87931034484
  31
0.0
   0
LINE
   5
33F
 100
AcDbEntity
   8
LEVEL002
 370
30
 100
AcDbLine
   6
CONTINUOUS
  62
7
  10
 2398.2566845186
  20
 380.87931034484
  30
0.0
  11
 2398.2566845186
  21
 438.37931040321
  31
0.0
   0
LINE
   5
340
 100
AcDbEntity
   8
LEVEL002
 370
30
 100
AcDbLine
   6
CONTINUOUS
  62
7
  10
 2328.2566844450
  20
 462.85087357856
  30
0.0
  11
 2328.2566844450
  21
 453.85087357856
  31
0.0
   0
LINE
   5
341
 100
AcDbEntity
   8
LEVEL002
 370
30
 100
AcDbLine
   6
CONTINUOUS
  62
7
  10
 2328.2566844450
  20
 453.85087357856
  30
0.0
  11
 2418.2566844450
  21
 453.85087357856
  31
0.0
   0
LINE
   5
342
 100
AcDbEntity
   8
LEVEL002
 370
30
 100
AcDbLine
   6
CONTINUOUS
  62
7
  10
 2418.2566844450
  20
 453.85087357856
  30
0.0
  11
 2418.2566844450
  21
 462.85087357856
  31
0.0
   0
POINT
   5
343
 100
AcDbEntity
   8
LEVEL002
 100
AcDbPoint
  62
7
  10
 2751.7566844450
  20
 453.85087357856
  30
0.0
   0
POINT
   5
344
 100
AcDbEntity
   8
LEVEL002
 100
AcDbPoint
  62
7
  10
 2783.2566844450
  20
 453.85087357856
  30
0.0
   0
POINT
   5
345
 100
AcDbEntity
   8
LEVEL002
 100
AcDbPoint
  62
7
  10
 2814.7566844450
  20
 453.85087357856
  30
0.0
   0
LINE
   5
346
 100
AcDbEntity
   8
LEVEL002
 370
30
 100
AcDbLine
   6
CONTINUOUS
  62
7
  10
 2764.2566844450
  20
 353.37931034483
  30
0.0
  11
 2802.2566844450
  21
 353.37931034483
  31
0.0
   0
LINE
   5
347
 100
AcDbEntity
   8
LEVEL002
 370
30
 100
AcDbLine
   6
CONTINUOUS
  62
7
  10
 2802.2566844450
  20
 353.37931034483
  30
0.0
  11
 2802.2566844450
  21
 428.37931034482
  31
0.0
   0
LINE
   5
348
 100
AcDbEntity
   8
LEVEL002
 370
30
 100
AcDbLine
   6
CONTINUOUS
  62
7
  10
 2802.2566844450
  20
 428.37931034482
  30
0.0
  11
 2764.2566844450
  21
 428.37931034482
  31
0.0
   0
LINE
   5
349
 100
AcDbEntity
   8
LEVEL002
 370
30
 100
AcDbLine
   6
CONTINUOUS
  62
7
  10
 2764.2566844450
  20
 428.37931034482
  30
0.0
  11
 2764.2566844450
  21
 353.37931034483
  31
0.0
   0
LINE
   5
34A
 100
AcDbEntity
   8
LEVEL002
 370
30
 100
AcDbLine
   6
CONTINUOUS
  62
7
  10
 2742.2566844450
  20
 453.85087357856
  30
0.0
  11
 2742.2566844450
  21
 451.85087357856
  31
0.0
   0
LINE
   5
34B
 100
AcDbEntity
   8
LEVEL002
 370
30
 100
AcDbLine
   6
CONTINUOUS
  62
7
  10
 2742.2566844450
  20
 451.85087357856
  30
0.0
  11
 2824.2566844450
  21
 451.85087357856
  31
0.0
   0
LINE
   5
34C
 100
AcDbEntity
   8
LEVEL002
 370
30
 100
AcDbLine
   6
CONTINUOUS
  62
7
  10
 2824.2566844450
  20
 451.85087357856
  30
0.0
  11
 2824.2566844450
  21
 453.85087357856
  31
0.0
   0
LINE
   5
34D
 100
AcDbEntity
   8
LEVEL002
 370
30
 100
AcDbLine
   6
CONTINUOUS
  62
7
  10
 2755.2566846431
  20
 451.85087357856
  30
0.0
  11
 2755.2566846431
  21
 438.37931040323
  31
0.0
   0
LINE
   5
34E
 100
AcDbEntity
   8
LEVEL002
 370
30
 100
AcDbLine
   6
CONTINUOUS
  62
7
  10
 2755.2566846431
  20
 438.37931040323
  30
0.0
  11
 2811.2566842625
  21
 438.37931040323
  31
0.0
   0
LINE
   5
34F
 100
AcDbEntity
   8
LEVEL002
 370
30
 100
AcDbLine
   6
CONTINUOUS
  62
7
  10
 2811.2566842625
  20
 438.37931040323
  30
0.0
  11
 2811.2566842625
  21
 451.85087357856
  31
0.0
   0
LINE
   5
350
 100
AcDbEntity
   8
LEVEL002
 370
30
 100
AcDbLine
   6
CONTINUOUS
  62
7
  10
 2755.2566846431
  20
 446.85087350565
  30
0.0
  11
 2811.2566842625
  21
 446.85087350565
  31
0.0
   0
LINE
   5
351
 100
AcDbEntity
   8
LEVEL002
 370
30
 100
AcDbLine
   6
CONTINUOUS
  62
7
  10
 2758.2566846289
  20
 438.37931040323
  30
0.0
  11
 2758.2566846289
  21
 380.87931034484
  31
0.0
   0
LINE
   5
352
 100
AcDbEntity
   8
LEVEL002
 370
30
 100
AcDbLine
   6
CONTINUOUS
  62
7
  10
 2758.2566846289
  20
 380.87931034484
  30
0.0
  11
 2763.2566844450
  21
 380.87931034484
  31
0.0
   0
LINE
   5
353
 100
AcDbEntity
   8
LEVEL002
 370
30
 100
AcDbLine
   6
CONTINUOUS
  62
7
  10
 2763.2566844450
  20
 380.87931034484
  30
0.0
  11
 2763.2566844450
  21
 430.37931040322
  31
0.0
   0
LINE
   5
354
 100
AcDbEntity
   8
LEVEL002
 370
30
 100
AcDbLine
   6
CONTINUOUS
  62
7
  10
 2763.2566844450
  20
 430.37931040322
  30
0.0
  11
 2803.2566844450
  21
 430.37931040322
  31
0.0
   0
LINE
   5
355
 100
AcDbEntity
   8
LEVEL002
 370
30
 100
AcDbLine
   6
CONTINUOUS
  62
7
  10
 2803.2566844450
  20
 430.37931040322
  30
0.0
  11
 2803.2566844450
  21
 380.87931034484
  31
0.0
   0
LINE
   5
356
 100
AcDbEntity
   8
LEVEL002
 370
30
 100
AcDbLine
   6
CONTINUOUS
  62
7
  10
 2803.2566844450
  20
 380.87931034484
  30
0.0
  11
 2808.2566845186
  21
 380.87931034484
  31
0.0
   0
LINE
   5
357
 100
AcDbEntity
   8
LEVEL002
 370
30
 100
AcDbLine
   6
CONTINUOUS
  62
7
  10
 2808.2566845186
  20
 380.87931034484
  30
0.0
  11
 2808.2566845186
  21
 438.37931040321
  31
0.0
   0
LINE
   5
358
 100
AcDbEntity
   8
LEVEL002
 370
30
 100
AcDbLine
   6
CONTINUOUS
  62
7
  10
 2738.2566844450
  20
 462.85087357856
  30
0.0
  11
 2738.2566844450
  21
 453.85087357856
  31
0.0
   0
LINE
   5
359
 100
AcDbEntity
   8
LEVEL002
 370
30
 100
AcDbLine
   6
CONTINUOUS
  62
7
  10
 2738.2566844450
  20
 453.85087357856
  30
0.0
  11
 2828.2566844450
  21
 453.85087357856
  31
0.0
   0
LINE
   5
35A
 100
AcDbEntity
   8
LEVEL002
 370
30
 100
AcDbLine
   6
CONTINUOUS
  62
7
  10
 2828.2566844450
  20
 453.85087357856
  30
0.0
  11
 2828.2566844450
  21
 462.85087357856
  31
0.0
   0
LINE
   5
35B
 100
AcDbEntity
   8
LEVEL002
 370
30
 100
AcDbLine
   6
CONTINUOUS
  62
7
  10
 868.25668444495
  20
 1734.3793103448
  30
0.0
  11
 706.25668439937
  21
 1734.3793103448
  31
0.0
   0
LINE
   5
35C
 100
AcDbEntity
   8
LEVEL002
 370
30
 100
AcDbLine
   6
CONTINUOUS
  62
7
  10
 706.25668439937
  20
 1734.3793103448
  30
0.0
  11
 706.25668439937
  21
 2234.3793103448
  31
0.0
   0
LINE
   5
35D
 100
AcDbEntity
   8
LEVEL002
 370
30
 100
AcDbLine
   6
CONTINUOUS
  62
7
  10
 706.25668439937
  20
 2234.3793103448
  30
0.0
  11
 1596.2566844449
  21
 2234.3793103448
  31
0.0
   0
LINE
   5
35E
 100
AcDbEntity
   8
LEVEL002
 370
30
 100
AcDbLine
   6
CONTINUOUS
  62
7
  10
 1596.2566844449
  20
 2234.3793103448
  30
0.0
  11
 1596.2566844449
  21
 1734.3793103447
  31
0.0
   0
LINE
   5
35F
 100
AcDbEntity
   8
LEVEL002
 370
30
 100
AcDbLine
   6
CONTINUOUS
  62
7
  10
 1596.2566844449
  20
 1734.3793103447
  30
0.0
  11
 1576.5566843374
  21
 1734.3793103447
  31
0.0
   0
LINE
   5
360
 100
AcDbEntity
   8
LEVEL002
 370
30
 100
AcDbLine
   6
CONTINUOUS
  62
7
  10
 866.25668439940
  20
 2194.3793104080
  30
0.0
  11
 816.25668439940
  21
 2194.3793104080
  31
0.0
   0
LINE
   5
361
 100
AcDbEntity
   8
LEVEL002
 370
30
 100
AcDbLine
   6
CONTINUOUS
  62
7
  10
 816.25668439940
  20
 2194.3793104080
  30
0.0
  11
 816.25668439940
  21
 2204.3793104080
  31
0.0
   0
LINE
   5
362
 100
AcDbEntity
   8
LEVEL002
 370
30
 100
AcDbLine
   6
CONTINUOUS
  62
7
  10
 816.25668439940
  20
 2204.3793104080
  30
0.0
  11
 731.25668439940
  21
 2204.3793104080
  31
0.0
   0
LINE
   5
363
 100
AcDbEntity
   8
LEVEL002
 370
30
 100
AcDbLine
   6
CONTINUOUS
  62
7
  10
 731.25668439940
  20
 2204.3793104080
  30
0.0
  11
 731.25668439940
  21
 1884.3793104269
  31
0.0
   0
LINE
   5
364
 100
AcDbEntity
   8
LEVEL002
 370
30
 100
AcDbLine
   6
CONTINUOUS
  62
7
  10
 731.25668439940
  20
 1884.3793104269
  30
0.0
  11
 866.25668439940
  21
 1884.3793104269
  31
0.0
   0
LINE
   5
365
 100
AcDbEntity
   8
LEVEL002
 370
30
 100
AcDbLine
   6
CONTINUOUS
  62
7
  10
 1436.2566844450
  20
 2194.3793103448
  30
0.0
  11
 1561.2566844450
  21
 2194.3793103448
  31
0.0
   0
LINE
   5
366
 100
AcDbEntity
   8
LEVEL002
 370
30
 100
AcDbLine
   6
CONTINUOUS
  62
7
  10
 1561.2566844450
  20
 2194.3793103448
  30
0.0
  11
 1561.2566844450
  21
 2061.0106036075
  31
0.0
   0
LINE
   5
367
 100
AcDbEntity
   8
LEVEL002
 370
30
 100
AcDbLine
   6
CONTINUOUS
  62
7
  10
 1537.2566843374
  20
 1962.3793103448
  30
0.0
  11
 1521.2566844450
  21
 1962.3793103448
  31
0.0
   0
LINE
   5
368
 100
AcDbEntity
   8
LEVEL002
 370
30
 100
AcDbLine
   6
CONTINUOUS
  62
7
  10
 1521.2566844450
  20
 1962.3793103448
  30
0.0
  11
 1521.2566844450
  21
 1902.3793103448
  31
0.0
   0
LINE
   5
369
 100
AcDbEntity
   8
LEVEL002
 370
30
 100
AcDbLine
   6
CONTINUOUS
  62
7
  10
 1521.2566844450
  20
 1902.3793103448
  30
0.0
  11
 1436.2566844450
  21
 1902.3793103448
  31
0.0
   0
LINE
   5
36A
 100
AcDbEntity
   8
LEVEL002
 370
30
 100
AcDbLine
   6
CONTINUOUS
  62
7
  10
 868.25668444495
  20
 1631.9380007621
  30
0.0
  11
 1434.2566844450
  21
 1631.9380007621
  31
0.0
   0
LINE
   5
36B
 100
AcDbEntity
   8
LEVEL002
 370
30
 100
AcDbLine
   6
CONTINUOUS
  62
7
  10
 1434.2566844450
  20
 1631.9380007621
  30
0.0
  11
 1434.2566844450
  21
 1784.9396569814
  31
0.0
   0
LINE
   5
36C
 100
AcDbEntity
   8
LEVEL002
 370
30
 100
AcDbLine
   6
CONTINUOUS
  62
7
  10
 1434.2566844450
  20
 1784.9396569814
  30
0.0
  11
 1415.2566844450
  21
 1784.9396569814
  31
0.0
   0
LINE
   5
36D
 100
AcDbEntity
   8
LEVEL002
 370
30
 100
AcDbLine
   6
CONTINUOUS
  62
7
  10
 1415.2566844450
  20
 1784.9396569814
  30
0.0
  11
 1415.2566844450
  21
 1825.0415777267
  31
0.0
   0
LINE
   5
36E
 100
AcDbEntity
   8
LEVEL002
 370
30
 100
AcDbLine
   6
CONTINUOUS
  62
7
  10
 1415.2566844450
  20
 1825.0415777267
  30
0.0
  11
 887.25668444495
  21
 1825.0415777267
  31
0.0
   0
LINE
   5
36F
 100
AcDbEntity
   8
LEVEL002
 370
30
 100
AcDbLine
   6
CONTINUOUS
  62
7
  10
 887.25668444495
  20
 1825.0415777267
  30
0.0
  11
 887.25668444495
  21
 1784.9396569814
  31
0.0
   0
LINE
   5
370
 100
AcDbEntity
   8
LEVEL002
 370
30
 100
AcDbLine
   6
CONTINUOUS
  62
7
  10
 887.25668444495
  20
 1784.9396569814
  30
0.0
  11
 868.25668444495
  21
 1784.9396569814
  31
0.0
   0
LINE
   5
371
 100
AcDbEntity
   8
LEVEL002
 370
30
 100
AcDbLine
   6
CONTINUOUS
  62
7
  10
 868.25668444495
  20
 1784.9396569814
  30
0.0
  11
 868.25668444495
  21
 1631.9380007621
  31
0.0
   0
ARC
   5
372
 100
AcDbEntity
   8
LEVEL002
 370
30
   6
CONTINUOUS
  62
7
 100
AcDbCircle
  10
 881.25668444496
  20
 1806.8600724584
  30
0.0
  40
 15.000000000000
 100
AcDbArc
  50
 277.66225566074
  51
 293.57817847817
   0
ARC
   5
373
 100
AcDbEntity
   8
LEVEL002
 370
30
   6
CONTINUOUS
  62
7
 100
AcDbCircle
  10
 1421.2566844450
  20
 1806.8600724584
  30
0.0
  40
 15.000000000000
 100
AcDbArc
  50
 246.42182152174
  51
 262.33774433918
   0
LINE
   5
374
 100
AcDbEntity
   8
LEVEL002
 370
30
 100
AcDbLine
   6
CONTINUOUS
  62
7
  10
 868.25668444495
  20
 1143.8508735785
  30
0.0
  11
 706.25668444495
  21
 1143.8508735785
  31
0.0
   0
LINE
   5
375
 100
AcDbEntity
   8
LEVEL002
 370
30
 100
AcDbLine
   6
CONTINUOUS
  62
7
  10
 706.25668444495
  20
 1143.8508735785
  30
0.0
  11
 706.25668444495
  21
 462.85087357857
  31
0.0
   0
LINE
   5
376
 100
AcDbEntity
   8
LEVEL002
 370
30
 100
AcDbLine
   6
CONTINUOUS
  62
7
  10
 706.25668444495
  20
 462.85087357857
  30
0.0
  11
 1596.2566844450
  21
 462.85087357857
  31
0.0
   0
LINE
   5
377
 100
AcDbEntity
   8
LEVEL002
 370
30
 100
AcDbLine
   6
CONTINUOUS
  62
7
  10
 1596.2566844450
  20
 462.85087357857
  30
0.0
  11
 1596.2566844450
  21
 1143.8508735785
  31
0.0
   0
LINE
   5
378
 100
AcDbEntity
   8
LEVEL002
 370
30
 100
AcDbLine
   6
CONTINUOUS
  62
7
  10
 1596.2566844450
  20
 1143.8508735785
  30
0.0
  11
 1576.5566843374
  21
 1143.8508735785
  31
0.0
   0
LINE
   5
379
 100
AcDbEntity
   8
LEVEL002
 370
30
 100
AcDbLine
   6
CONTINUOUS
  62
7
  10
 866.25668444495
  20
 808.85087357856
  30
0.0
  11
 1436.2566844450
  21
 808.85087357856
  31
0.0
   0
LINE
   5
37A
 100
AcDbEntity
   8
LEVEL002
 370
30
 100
AcDbLine
   6
CONTINUOUS
  62
7
  10
 868.75668444495
  20
 808.85087357856
  30
0.0
  11
 868.75668444495
  21
 833.85087357856
  31
0.0
   0
LINE
   5
37B
 100
AcDbEntity
   8
LEVEL002
 370
30
 100
AcDbLine
   6
CONTINUOUS
  62
7
  10
 868.75668444495
  20
 833.85087357856
  30
0.0
  11
 1434.2566844450
  21
 833.85087357856
  31
0.0
   0
LINE
   5
37C
 100
AcDbEntity
   8
LEVEL002
 370
30
 100
AcDbLine
   6
CONTINUOUS
  62
7
  10
 1434.2566844450
  20
 833.85087357856
  30
0.0
  11
 1434.2566844450
  21
 808.85087357856
  31
0.0
   0
LINE
   5
37D
 100
AcDbEntity
   8
LEVEL002
 370
30
 100
AcDbLine
   6
CONTINUOUS
  62
7
  10
 1435.2566844450
  20
 808.85087357856
  30
0.0
  11
 1435.2566844450
  21
 792.85087357856
  31
0.0
   0
LINE
   5
37E
 100
AcDbEntity
   8
LEVEL002
 370
30
 100
AcDbLine
   6
CONTINUOUS
  62
7
  10
 1435.2566844450
  20
 792.85087357856
  30
0.0
  11
 867.25668444495
  21
 792.85087357856
  31
0.0
   0
LINE
   5
37F
 100
AcDbEntity
   8
LEVEL002
 370
30
 100
AcDbLine
   6
CONTINUOUS
  62
7
  10
 867.25668444495
  20
 792.85087357856
  30
0.0
  11
 867.25668444495
  21
 808.85087357856
  31
0.0
   0
LINE
   5
380
 100
AcDbEntity
   8
LEVEL002
 370
30
 100
AcDbLine
   6
CONTINUOUS
  62
7
  10
 866.25668444495
  20
 807.85087357856
  30
0.0
  11
 867.25668444495
  21
 807.85087357856
  31
0.0
   0
LINE
   5
381
 100
AcDbEntity
   8
LEVEL002
 370
30
 100
AcDbLine
   6
CONTINUOUS
  62
7
  10
 1435.2566844450
  20
 807.85087357856
  30
0.0
  11
 1436.2566844450
  21
 807.85087357856
  31
0.0
   0
LINE
   5
382
 100
AcDbEntity
   8
LEVEL002
 370
30
 100
AcDbLine
   6
CONTINUOUS
  62
7
  10
 1436.2566844450
  20
 1143.8508735785
  30
0.0
  11
 1436.2566844450
  21
 462.85087357857
  31
0.0
   0
LINE
   5
383
 100
AcDbEntity
   8
LEVEL002
 370
30
 100
AcDbLine
   6
CONTINUOUS
  62
7
  10
 866.25668444495
  20
 462.85087357856
  30
0.0
  11
 866.25668444495
  21
 1143.8508735785
  31
0.0
   0
LINE
   5
384
 100
AcDbEntity
   8
LEVEL002
 370
30
 100
AcDbLine
   6
CONTINUOUS
  62
7
  10
 829.25668444495
  20
 462.85087357856
  30
0.0
  11
 829.25668444495
  21
 453.85087357856
  31
0.0
   0
LINE
   5
385
 100
AcDbEntity
   8
LEVEL002
 370
30
 100
AcDbLine
   6
CONTINUOUS
  62
7
  10
 829.25668444495
  20
 453.85087357856
  30
0.0
  11
 919.25668444495
  21
 453.85087357856
  31
0.0
   0
LINE
   5
386
 100
AcDbEntity
   8
LEVEL002
 370
30
 100
AcDbLine
   6
CONTINUOUS
  62
7
  10
 919.25668444495
  20
 453.85087357856
  30
0.0
  11
 919.25668444495
  21
 462.85087357856
  31
0.0
   0
LINE
   5
387
 100
AcDbEntity
   8
LEVEL002
 370
30
 100
AcDbLine
   6
CONTINUOUS
  62
7
  10
 833.25668444495
  20
 453.85087357856
  30
0.0
  11
 833.25668444495
  21
 451.85087357856
  31
0.0
   0
LINE
   5
388
 100
AcDbEntity
   8
LEVEL002
 370
30
 100
AcDbLine
   6
CONTINUOUS
  62
7
  10
 833.25668444495
  20
 451.85087357856
  30
0.0
  11
 915.25668444495
  21
 451.85087357856
  31
0.0
   0
LINE
   5
389
 100
AcDbEntity
   8
LEVEL002
 370
30
 100
AcDbLine
   6
CONTINUOUS
  62
7
  10
 915.25668444495
  20
 451.85087357856
  30
0.0
  11
 915.25668444495
  21
 453.85087357856
  31
0.0
   0
LINE
   5
38A
 100
AcDbEntity
   8
LEVEL002
 370
30
 100
AcDbLine
   6
CONTINUOUS
  62
7
  10
 846.25668462741
  20
 451.85087357856
  30
0.0
  11
 846.25668462741
  21
 430.37931040323
  31
0.0
   0
LINE
   5
38B
 100
AcDbEntity
   8
LEVEL002
 370
30
 100
AcDbLine
   6
CONTINUOUS
  62
7
  10
 846.25668462741
  20
 430.37931040323
  30
0.0
  11
 888.90098560024
  21
 384.07638507346
  31
0.0
   0
LINE
   5
38C
 100
AcDbEntity
   8
LEVEL002
 370
30
 100
AcDbLine
   6
CONTINUOUS
  62
7
  10
 902.25668426245
  20
 451.85087357856
  30
0.0
  11
 902.25668424693
  21
 438.37931040192
  31
0.0
   0
LINE
   5
38D
 100
AcDbEntity
   8
LEVEL002
 370
30
 100
AcDbLine
   6
CONTINUOUS
  62
7
  10
 902.25668424693
  20
 438.37931040192
  30
0.0
  11
 906.22082346741
  21
 391.69700213920
  31
0.0
   0
LINE
   5
38E
 100
AcDbEntity
   8
LEVEL002
 370
30
 100
AcDbLine
   6
CONTINUOUS
  62
7
  10
 846.25668462742
  20
 438.37931040325
  30
0.0
  11
 902.25668424693
  21
 438.37931040192
  31
0.0
   0
LINE
   5
38F
 100
AcDbEntity
   8
LEVEL002
 370
30
 100
AcDbLine
   6
CONTINUOUS
  62
7
  10
 1383.2566844450
  20
 462.85087357856
  30
0.0
  11
 1383.2566844450
  21
 453.85087357856
  31
0.0
   0
LINE
   5
390
 100
AcDbEntity
   8
LEVEL002
 370
30
 100
AcDbLine
   6
CONTINUOUS
  62
7
  10
 1383.2566844450
  20
 453.85087357856
  30
0.0
  11
 1473.2566844450
  21
 453.85087357856
  31
0.0
   0
LINE
   5
391
 100
AcDbEntity
   8
LEVEL002
 370
30
 100
AcDbLine
   6
CONTINUOUS
  62
7
  10
 1473.2566844450
  20
 453.85087357856
  30
0.0
  11
 1473.2566844450
  21
 462.85087357856
  31
0.0
   0
LINE
   5
392
 100
AcDbEntity
   8
LEVEL002
 370
30
 100
AcDbLine
   6
CONTINUOUS
  62
7
  10
 1387.2566844450
  20
 453.85087357856
  30
0.0
  11
 1387.2566844450
  21
 451.85087357856
  31
0.0
   0
LINE
   5
393
 100
AcDbEntity
   8
LEVEL002
 370
30
 100
AcDbLine
   6
CONTINUOUS
  62
7
  10
 1387.2566844450
  20
 451.85087357856
  30
0.0
  11
 1469.2566844450
  21
 451.85087357856
  31
0.0
   0
LINE
   5
394
 100
AcDbEntity
   8
LEVEL002
 370
30
 100
AcDbLine
   6
CONTINUOUS
  62
7
  10
 1469.2566844450
  20
 451.85087357856
  30
0.0
  11
 1469.2566844450
  21
 453.85087357856
  31
0.0
   0
LINE
   5
395
 100
AcDbEntity
   8
LEVEL002
 370
30
 100
AcDbLine
   6
CONTINUOUS
  62
7
  10
 1400.2566846431
  20
 451.85087357856
  30
0.0
  11
 1400.2566846431
  21
 438.37931040325
  31
0.0
   0
LINE
   5
396
 100
AcDbEntity
   8
LEVEL002
 370
30
 100
AcDbLine
   6
CONTINUOUS
  62
7
  10
 1400.2566846431
  20
 438.37931040325
  30
0.0
  11
 1396.2925454225
  21
 391.69700213920
  31
0.0
   0
LINE
   5
397
 100
AcDbEntity
   8
LEVEL002
 370
30
 100
AcDbLine
   6
CONTINUOUS
  62
7
  10
 1456.2566842625
  20
 451.85087357856
  30
0.0
  11
 1456.2566842625
  21
 430.37931040323
  31
0.0
   0
LINE
   5
398
 100
AcDbEntity
   8
LEVEL002
 370
30
 100
AcDbLine
   6
CONTINUOUS
  62
7
  10
 1456.2566842625
  20
 430.37931040323
  30
0.0
  11
 1413.6123832897
  21
 384.07638507346
  31
0.0
   0
LINE
   5
399
 100
AcDbEntity
   8
LEVEL002
 370
30
 100
AcDbLine
   6
CONTINUOUS
  62
7
  10
 1400.2566846431
  20
 438.37931040325
  30
0.0
  11
 1456.2566842625
  21
 438.37931040325
  31
0.0
   0
LINE
   5
39A
 100
AcDbEntity
   8
LEVEL002
 370
30
 100
AcDbLine
   6
CONTINUOUS
  62
7
  10
 803.25668439940
  20
 2087.3126434507
  30
0.0
  11
 816.25668439938
  21
 2087.3126434507
  31
0.0
   0
LINE
   5
39B
 100
AcDbEntity
   8
LEVEL002
 370
30
 100
AcDbLine
   6
CONTINUOUS
  62
7
  10
 816.25668439938
  20
 2087.3126434507
  30
0.0
  11
 816.25668439938
  21
 1951.9793099682
  31
0.0
   0
LINE
   5
39C
 100
AcDbEntity
   8
LEVEL002
 370
30
 100
AcDbLine
   6
CONTINUOUS
  62
7
  10
 816.25668439940
  20
 2058.8126434507
  30
0.0
  11
 834.25668439943
  21
 2058.8126434507
  31
0.0
   0
LINE
   5
39D
 100
AcDbEntity
   8
LEVEL002
 370
30
 100
AcDbLine
   6
CONTINUOUS
  62
7
  10
 834.25668439943
  20
 2058.8126434507
  30
0.0
  11
 834.25668439943
  21
 1975.8126434507
  31
0.0
   0
LINE
   5
39E
 100
AcDbEntity
   8
LEVEL002
 370
30
 100
AcDbLine
   6
CONTINUOUS
  62
7
  10
 834.25668439943
  20
 1975.8126434507
  30
0.0
  11
 816.25668439940
  21
 1975.8126434507
  31
0.0
   0
LINE
   5
39F
 100
AcDbEntity
   8
LEVEL002
 370
30
 100
AcDbLine
   6
CONTINUOUS
  62
7
  10
 1499.2566843249
  20
 2087.3126434507
  30
0.0
  11
 1486.2566843249
  21
 2087.3126434507
  31
0.0
   0
LINE
   5
3A0
 100
AcDbEntity
   8
LEVEL002
 370
30
 100
AcDbLine
   6
CONTINUOUS
  62
7
  10
 1486.2566843249
  20
 2087.3126434507
  30
0.0
  11
 1486.2566843249
  21
 1951.9793099682
  31
0.0
   0
LINE
   5
3A1
 100
AcDbEntity
   8
LEVEL002
 370
30
 100
AcDbLine
   6
CONTINUOUS
  62
7
  10
 1486.2566843249
  20
 2058.8126434507
  30
0.0
  11
 1468.2566843249
  21
 2058.8126434507
  31
0.0
   0
LINE
   5
3A2
 100
AcDbEntity
   8
LEVEL002
 370
30
 100
AcDbLine
   6
CONTINUOUS
  62
7
  10
 1468.2566843249
  20
 2058.8126434507
  30
0.0
  11
 1468.2566843249
  21
 1975.8126434507
  31
0.0
   0
LINE
   5
3A3
 100
AcDbEntity
   8
LEVEL002
 370
30
 100
AcDbLine
   6
CONTINUOUS
  62
7
  10
 1468.2566843249
  20
 1975.8126434507
  30
0.0
  11
 1486.2566843249
  21
 1975.8126434507
  31
0.0
   0
LINE
   5
3A4
 100
AcDbEntity
   8
LEVEL002
 370
30
 100
AcDbLine
   6
CONTINUOUS
  62
7
  10
 1419.2566844450
  20
 1114.3275591383
  30
0.0
  11
 1419.2566844450
  21
 956.46556694478
  31
0.0
   0
LINE
   5
3A5
 100
AcDbEntity
   8
LEVEL002
 370
30
 100
AcDbLine
   6
CONTINUOUS
  62
7
  10
 1419.2566844450
  20
 956.46556694478
  30
0.0
  11
 1420.2566844450
  21
 956.46556694478
  31
0.0
   0
LINE
   5
3A6
 100
AcDbEntity
   8
LEVEL002
 370
30
 100
AcDbLine
   6
CONTINUOUS
  62
7
  10
 1420.2566844450
  20
 956.46556694478
  30
0.0
  11
 1420.2566844450
  21
 921.35087357856
  31
0.0
   0
LINE
   5
3A7
 100
AcDbEntity
   8
LEVEL002
 370
30
 100
AcDbLine
   6
CONTINUOUS
  62
7
  10
 1420.2566844450
  20
 921.35087357856
  30
0.0
  11
 1426.7566844450
  21
 921.35087357856
  31
0.0
   0
LINE
   5
3A8
 100
AcDbEntity
   8
LEVEL002
 370
30
 100
AcDbLine
   6
CONTINUOUS
  62
7
  10
 1426.7566844450
  20
 921.35087357856
  30
0.0
  11
 1426.7566844450
  21
 1114.3275591383
  31
0.0
   0
LINE
   5
3A9
 100
AcDbEntity
   8
LEVEL002
 370
30
 100
AcDbLine
   6
CONTINUOUS
  62
7
  10
 883.25668444495
  20
 1114.3275591383
  30
0.0
  11
 883.25668444495
  21
 956.46556694478
  31
0.0
   0
LINE
   5
3AA
 100
AcDbEntity
   8
LEVEL002
 370
30
 100
AcDbLine
   6
CONTINUOUS
  62
7
  10
 883.25668444495
  20
 956.46556694478
  30
0.0
  11
 882.25668444495
  21
 956.46556694478
  31
0.0
   0
LINE
   5
3AB
 100
AcDbEntity
   8
LEVEL002
 370
30
 100
AcDbLine
   6
CONTINUOUS
  62
7
  10
 882.25668444495
  20
 956.46556694478
  30
0.0
  11
 882.25668444495
  21
 921.35087357856
  31
0.0
   0
LINE
   5
3AC
 100
AcDbEntity
   8
LEVEL002
 370
30
 100
AcDbLine
   6
CONTINUOUS
  62
7
  10
 882.25668444495
  20
 921.35087357856
  30
0.0
  11
 875.75668444495
  21
 921.35087357856
  31
0.0
   0
LINE
   5
3AD
 100
AcDbEntity
   8
LEVEL002
 370
30
 100
AcDbLine
   6
CONTINUOUS
  62
7
  10
 875.75668444495
  20
 921.35087357856
  30
0.0
  11
 875.75668444495
  21
 1114.3275591383
  31
0.0
   0
LINE
   5
3AE
 100
AcDbEntity
   8
LEVEL002
 370
30
 100
AcDbLine
   6
CONTINUOUS
  62
7
  10
 1486.2566843249
  20
 1143.8508735785
  30
0.0
  11
 1486.2566843249
  21
 1233.9216089166
  31
0.0
   0
LINE
   5
3AF
 100
AcDbEntity
   8
LEVEL002
 370
30
 100
AcDbLine
   6
CONTINUOUS
  62
7
  10
 1486.2566843249
  20
 1233.9216089166
  30
0.0
  11
 1499.2566843249
  21
 1233.9216089166
  31
0.0
   0
LINE
   5
3B0
 100
AcDbEntity
   8
LEVEL002
 370
30
 100
AcDbLine
   6
CONTINUOUS
  62
7
  10
 1468.2566843249
  20
 1143.8508735785
  30
0.0
  11
 1468.2566843249
  21
 1205.4216089166
  31
0.0
   0
LINE
   5
3B1
 100
AcDbEntity
   8
LEVEL002
 370
30
 100
AcDbLine
   6
CONTINUOUS
  62
7
  10
 1468.2566843249
  20
 1205.4216089166
  30
0.0
  11
 1486.2566843249
  21
 1205.4216089166
  31
0.0
   0
LINE
   5
3B2
 100
AcDbEntity
   8
LEVEL002
 370
30
 100
AcDbLine
   6
CONTINUOUS
  62
7
  10
 816.25668439939
  20
 1143.8508735785
  30
0.0
  11
 816.25668439939
  21
 1233.9216089166
  31
0.0
   0
LINE
   5
3B3
 100
AcDbEntity
   8
LEVEL002
 370
30
 100
AcDbLine
   6
CONTINUOUS
  62
7
  10
 816.25668439939
  20
 1233.9216089166
  30
0.0
  11
 803.25668439940
  21
 1233.9216089166
  31
0.0
   0
LINE
   5
3B4
 100
AcDbEntity
   8
LEVEL002
 370
30
 100
AcDbLine
   6
CONTINUOUS
  62
7
  10
 834.25668439941
  20
 1143.8508735785
  30
0.0
  11
 834.25668439941
  21
 1205.4216089166
  31
0.0
   0
LINE
   5
3B5
 100
AcDbEntity
   8
LEVEL002
 370
30
 100
AcDbLine
   6
CONTINUOUS
  62
7
  10
 834.25668439941
  20
 1205.4216089166
  30
0.0
  11
 816.25668439940
  21
 1205.4216089166
  31
0.0
   0
LINE
   5
3B6
 100
AcDbEntity
   8
LEVEL002
 370
30
 100
AcDbLine
   6
CONTINUOUS
  62
7
  10
 803.25668431706
  20
 1152.3508735785
  30
0.0
  11
 803.25668431706
  21
 1280.2136809413
  31
0.0
   0
LINE
   5
3B7
 100
AcDbEntity
   8
LEVEL002
 370
30
 100
AcDbLine
   6
CONTINUOUS
  62
7
  10
 803.25668431706
  20
 1280.2136809413
  30
0.0
  11
 791.25668431706
  21
 1280.2136809413
  31
0.0
   0
LINE
   5
3B8
 100
AcDbEntity
   8
LEVEL002
 370
30
 100
AcDbLine
   6
CONTINUOUS
  62
7
  10
 791.25668431706
  20
 1280.2136809413
  30
0.0
  11
 791.25668431706
  21
 1175.3508735785
  31
0.0
   0
LINE
   5
3B9
 100
AcDbEntity
   8
LEVEL002
 370
30
 100
AcDbLine
   6
CONTINUOUS
  62
7
  10
 791.25668431706
  20
 1278.0014556484
  30
0.0
  11
 740.25668431706
  21
 1278.0014556484
  31
0.0
   0
LINE
   5
3BA
 100
AcDbEntity
   8
LEVEL002
 370
30
 100
AcDbLine
   6
CONTINUOUS
  62
7
  10
 740.25668431706
  20
 1278.0014556484
  30
0.0
  11
 740.25668431706
  21
 1170.6080073212
  31
0.0
   0
LINE
   5
3BB
 100
AcDbEntity
   8
LEVEL002
 370
30
 100
AcDbLine
   6
CONTINUOUS
  62
7
  10
 1499.2566842425
  20
 1143.8508735785
  30
0.0
  11
 1499.2566842425
  21
 1280.2136809413
  31
0.0
   0
LINE
   5
3BC
 100
AcDbEntity
   8
LEVEL002
 370
30
 100
AcDbLine
   6
CONTINUOUS
  62
7
  10
 1499.2566842425
  20
 1280.2136809413
  30
0.0
  11
 1511.2566842425
  21
 1280.2136809413
  31
0.0
   0
LINE
   5
3BD
 100
AcDbEntity
   8
LEVEL002
 370
30
 100
AcDbLine
   6
CONTINUOUS
  62
7
  10
 1511.2566842425
  20
 1280.2136809413
  30
0.0
  11
 1511.2566842425
  21
 1143.8508735785
  31
0.0
   0
LINE
   5
3BE
 100
AcDbEntity
   8
LEVEL002
 370
30
 100
AcDbLine
   6
CONTINUOUS
  62
7
  10
 868.25668444495
  20
 1156.8964986202
  30
0.0
  11
 868.25668444495
  21
 1114.3275591383
  31
0.0
   0
LINE
   5
3BF
 100
AcDbEntity
   8
LEVEL002
 370
30
 100
AcDbLine
   6
CONTINUOUS
  62
7
  10
 868.25668444495
  20
 1114.3275591383
  30
0.0
  11
 887.25668444495
  21
 1114.3275591383
  31
0.0
   0
LINE
   5
3C0
 100
AcDbEntity
   8
LEVEL002
 370
30
 100
AcDbLine
   6
CONTINUOUS
  62
7
  10
 887.25668444495
  20
 1114.3275591383
  30
0.0
  11
 887.25668444495
  21
 1101.4095419568
  31
0.0
   0
LINE
   5
3C1
 100
AcDbEntity
   8
LEVEL002
 370
30
 100
AcDbLine
   6
CONTINUOUS
  62
7
  10
 887.25668444495
  20
 1101.4095419568
  30
0.0
  11
 1415.2566844450
  21
 1101.4095419568
  31
0.0
   0
LINE
   5
3C2
 100
AcDbEntity
   8
LEVEL002
 370
30
 100
AcDbLine
   6
CONTINUOUS
  62
7
  10
 1415.2566844450
  20
 1101.4095419568
  30
0.0
  11
 1415.2566844450
  21
 1114.3275591383
  31
0.0
   0
LINE
   5
3C3
 100
AcDbEntity
   8
LEVEL002
 370
30
 100
AcDbLine
   6
CONTINUOUS
  62
7
  10
 1415.2566844450
  20
 1114.3275591383
  30
0.0
  11
 1434.2566844450
  21
 1114.3275591383
  31
0.0
   0
LINE
   5
3C4
 100
AcDbEntity
   8
LEVEL002
 370
30
 100
AcDbLine
   6
CONTINUOUS
  62
7
  10
 1434.2566844450
  20
 1114.3275591383
  30
0.0
  11
 1434.2566844450
  21
 1156.8964986202
  31
0.0
   0
LINE
   5
3C5
 100
AcDbEntity
   8
LEVEL002
 370
30
 100
AcDbLine
   6
CONTINUOUS
  62
7
  10
 1434.2566844450
  20
 1156.8964986202
  30
0.0
  11
 868.25668444495
  21
 1156.8964986202
  31
0.0
   0
LINE
   5
3C6
 100
AcDbEntity
   8
LEVEL002
 370
30
 100
AcDbLine
   6
CONTINUOUS
  62
7
  10
 2247.9770924272
  20
 1152.0515303252
  30
0.0
  11
 2227.9635729366
  21
 1157.4141367104
  31
0.0
   0
LINE
   5
3C7
 100
AcDbEntity
   8
LEVEL002
 370
30
 100
AcDbLine
   6
CONTINUOUS
  62
7
  10
 2227.9635729366
  20
 1157.4141367104
  30
0.0
  11
 2225.2977367721
  21
 1147.4651006997
  31
0.0
   0
LINE
   5
3C8
 100
AcDbEntity
   8
LEVEL002
 370
30
 100
AcDbLine
   6
CONTINUOUS
  62
7
  10
 2225.2977367721
  20
 1147.4651006997
  30
0.0
  11
 2234.9569950349
  21
 1144.8769102486
  31
0.0
   0
LINE
   5
3C9
 100
AcDbEntity
   8
LEVEL002
 370
30
 100
AcDbLine
   6
CONTINUOUS
  62
7
  10
 2234.9569950349
  20
 1144.8769102486
  30
0.0
  11
 2235.2158140800
  21
 1145.8428360749
  31
0.0
   0
LINE
   5
3CA
 100
AcDbEntity
   8
LEVEL002
 370
30
 100
AcDbLine
   6
CONTINUOUS
  62
7
  10
 2240.5580900137
  20
 1144.4113775528
  30
0.0
  11
 2226.5224816436
  21
 1148.1722074809
  31
0.0
   0
LINE
   5
3CB
 100
AcDbEntity
   8
LEVEL002
 370
30
 100
AcDbLine
   6
CONTINUOUS
  62
7
  10
 2226.5224816436
  20
 1148.1722074809
  30
0.0
  11
 2228.6706797177
  21
 1156.1893918391
  31
0.0
   0
LINE
   5
3CC
 100
AcDbEntity
   8
LEVEL002
 370
30
 100
AcDbLine
   6
CONTINUOUS
  62
7
  10
 2228.6706797177
  20
 1156.1893918391
  30
0.0
  11
 2247.1793502322
  21
 1151.2300085217
  31
0.0
   0
LINE
   5
3CD
 100
AcDbEntity
   8
LEVEL002
 370
9
 100
AcDbLine
   6
DIVIDE
  62
1
  10
 2746.7940054326
  20
 1288.5511254280
  30
0.0
  11
 2719.4440082174
  21
 1288.5387832815
  31
0.0
   0
LINE
   5
3CE
 100
AcDbEntity
   8
LEVEL002
 370
9
 100
AcDbLine
   6
DIVIDE
  62
1
  10
 2719.3537113209
  20
 1272.3059760016
  30
0.0
  11
 2710.3390334141
  21
 1143.5574370187
  31
0.0
   0
LINE
   5
3CF
 100
AcDbEntity
   8
LEVEL002
 370
9
 100
AcDbLine
   6
DIVIDE
  62
1
  10
 2720.4903283789
  20
 1288.5392554511
  30
0.0
  11
 2720.5672068713
  21
 1289.6372418315
  31
0.0
   0
LINE
   5
3D0
 100
AcDbEntity
   8
LEVEL002
 370
9
 100
AcDbLine
   6
DIVIDE
  62
1
  10
 2720.5672068713
  20
 1289.6372418315
  30
0.0
  11
 2736.1478457863
  21
 1288.5463211693
  31
0.0
   0
LINE
   5
3D1
 100
AcDbEntity
   8
LEVEL002
 370
30
 100
AcDbLine
   6
CONTINUOUS
  62
7
  10
 2560.5410730618
  20
 1229.9067613131
  30
0.0
  11
 2541.4877642397
  21
 1210.2854993015
  31
0.0
   0
LINE
   5
3D2
 100
AcDbEntity
   8
LEVEL002
 370
30
 100
AcDbLine
   6
CONTINUOUS
  62
7
  10
 2552.1395532213
  20
 1199.9420349079
  30
0.0
  11
 2602.3090132727
  21
 1143.8508735785
  31
0.0
   0
LINE
   5
3D3
 100
AcDbEntity
   8
LEVEL002
 370
30
 100
AcDbLine
   6
CONTINUOUS
  62
7
  10
 2542.2166806270
  20
 1211.0361436937
  30
0.0
  11
 2541.4828976136
  21
 1211.8565380400
  31
0.0
   0
LINE
   5
3D4
 100
AcDbEntity
   8
LEVEL002
 370
30
 100
AcDbLine
   6
CONTINUOUS
  62
7
  10
 2541.4828976136
  20
 1211.8565380400
  30
0.0
  11
 2553.1244519223
  21
 1222.2690607973
  31
0.0
   0
LINE
   5
3D5
 100
AcDbEntity
   8
LEVEL002
 370
30
 100
AcDbLine
   6
CONTINUOUS
  62
7
  10
 791.25668439940
  20
 2022.6077893099
  30
0.0
  11
 740.25668431706
  21
 2022.6077893099
  31
0.0
   0
LINE
   5
3D6
 100
AcDbEntity
   8
LEVEL002
 370
30
 100
AcDbLine
   6
CONTINUOUS
  62
7
  10
 791.25668439940
  20
 2142.5957180409
  30
0.0
  11
 740.25668431706
  21
 2142.5957180409
  31
0.0
   0
LINE
   5
3D7
 100
AcDbEntity
   8
LEVEL002
 370
30
 100
AcDbLine
   6
CONTINUOUS
  62
7
  10
 740.25668431706
  20
 2142.5957180409
  30
0.0
  11
 740.25668431706
  21
 1895.8972707909
  31
0.0
   0
LINE
   5
3D8
 100
AcDbEntity
   8
LEVEL002
 370
30
 100
AcDbLine
   6
CONTINUOUS
  62
7
  10
 740.25668431706
  20
 1895.8972707909
  30
0.0
  11
 791.25668439940
  21
 1895.8972707909
  31
0.0
   0
LINE
   5
3D9
 100
AcDbEntity
   8
LEVEL002
 370
30
 100
AcDbLine
   6
CONTINUOUS
  62
7
  10
 791.25668439940
  20
 1895.8972707909
  30
0.0
  11
 791.25668439940
  21
 1903.7468871107
  31
0.0
   0
LINE
   5
3DA
 100
AcDbEntity
   8
LEVEL002
 370
30
 100
AcDbLine
   6
CONTINUOUS
  62
7
  10
 791.25668439940
  20
 2204.3793104080
  30
0.0
  11
 791.25668439940
  21
 1903.7468871107
  31
0.0
   0
LINE
   5
3DB
 100
AcDbEntity
   8
LEVEL002
 370
30
 100
AcDbLine
   6
CONTINUOUS
  62
7
  10
 791.25668439940
  20
 1903.7468871107
  30
0.0
  11
 803.25668439940
  21
 1903.7468871107
  31
0.0
   0
LINE
   5
3DC
 100
AcDbEntity
   8
LEVEL002
 370
30
 100
AcDbLine
   6
CONTINUOUS
  62
7
  10
 803.25668439940
  20
 1903.7468871107
  30
0.0
  11
 803.25668439940
  21
 2204.3793104080
  31
0.0
   0
CIRCLE
   5
3DD
 100
AcDbEntity
   8
LEVEL002
 370
9
 100
AcDbCircle
   6
HIDDEN
  62
1
  10
 2611.1900175509
  20
 1163.9216089166
  30
0.0
  40
 82.500000000000
   0
LINE
   5
3DE
 100
AcDbEntity
   8
LEVEL002
 370
30
 100
AcDbLine
   6
CONTINUOUS
  62
7
  10
 883.25668439940
  20
 2211.6985482313
  30
0.0
  11
 883.25668439940
  21
 1951.9793099682
  31
0.0
   0
LINE
   5
3DF
 100
AcDbEntity
   8
LEVEL002
 370
30
 100
AcDbLine
   6
CONTINUOUS
  62
7
  10
 1419.2566844450
  20
 2211.6985482313
  30
0.0
  11
 1419.2566844450
  21
 1951.9793099682
  31
0.0
   0
LINE
   5
3E0
 100
AcDbEntity
   8
LEVEL002
 370
30
 100
AcDbLine
   6
CONTINUOUS
  62
7
  10
 883.25668439940
  20
 2211.6985482313
  30
0.0
  11
 896.25668444495
  21
 2207.6793103448
  31
0.0
   0
LINE
   5
3E1
 100
AcDbEntity
   8
LEVEL002
 370
30
 100
AcDbLine
   6
CONTINUOUS
  62
7
  10
 896.25668444495
  20
 2207.6793103448
  30
0.0
  11
 911.25668444495
  21
 2211.6985482313
  31
0.0
   0
LINE
   5
3E2
 100
AcDbEntity
   8
LEVEL002
 370
30
 100
AcDbLine
   6
CONTINUOUS
  62
7
  10
 911.25668444495
  20
 2211.6985482313
  30
0.0
  11
 926.25668444495
  21
 2207.6793103448
  31
0.0
   0
LINE
   5
3E3
 100
AcDbEntity
   8
LEVEL002
 370
30
 100
AcDbLine
   6
CONTINUOUS
  62
7
  10
 926.25668444495
  20
 2207.6793103448
  30
0.0
  11
 941.25668444495
  21
 2211.6985482313
  31
0.0
   0
LINE
   5
3E4
 100
AcDbEntity
   8
LEVEL002
 370
30
 100
AcDbLine
   6
CONTINUOUS
  62
7
  10
 941.25668444495
  20
 2211.6985482313
  30
0.0
  11
 956.25668444495
  21
 2207.6793103448
  31
0.0
   0
LINE
   5
3E5
 100
AcDbEntity
   8
LEVEL002
 370
30
 100
AcDbLine
   6
CONTINUOUS
  62
7
  10
 956.25668444495
  20
 2207.6793103448
  30
0.0
  11
 971.25668444495
  21
 2211.6985482313
  31
0.0
   0
LINE
   5
3E6
 100
AcDbEntity
   8
LEVEL002
 370
30
 100
AcDbLine
   6
CONTINUOUS
  62
7
  10
 971.25668444495
  20
 2211.6985482313
  30
0.0
  11
 986.25668444495
  21
 2207.6793103448
  31
0.0
   0
LINE
   5
3E7
 100
AcDbEntity
   8
LEVEL002
 370
30
 100
AcDbLine
   6
CONTINUOUS
  62
7
  10
 986.25668444495
  20
 2207.6793103448
  30
0.0
  11
 1001.2566844450
  21
 2211.6985482313
  31
0.0
   0
LINE
   5
3E8
 100
AcDbEntity
   8
LEVEL002
 370
30
 100
AcDbLine
   6
CONTINUOUS
  62
7
  10
 1001.2566844450
  20
 2211.6985482313
  30
0.0
  11
 1016.2566844450
  21
 2207.6793103448
  31
0.0
   0
LINE
   5
3E9
 100
AcDbEntity
   8
LEVEL002
 370
30
 100
AcDbLine
   6
CONTINUOUS
  62
7
  10
 1016.2566844450
  20
 2207.6793103448
  30
0.0
  11
 1031.2566844450
  21
 2211.6985482313
  31
0.0
   0
LINE
   5
3EA
 100
AcDbEntity
   8
LEVEL002
 370
30
 100
AcDbLine
   6
CONTINUOUS
  62
7
  10
 1031.2566844450
  20
 2211.6985482313
  30
0.0
  11
 1046.2566844450
  21
 2207.6793103448
  31
0.0
   0
LINE
   5
3EB
 100
AcDbEntity
   8
LEVEL002
 370
30
 100
AcDbLine
   6
CONTINUOUS
  62
7
  10
 1046.2566844450
  20
 2207.6793103448
  30
0.0
  11
 1061.2566844450
  21
 2211.6985482313
  31
0.0
   0
LINE
   5
3EC
 100
AcDbEntity
   8
LEVEL002
 370
30
 100
AcDbLine
   6
CONTINUOUS
  62
7
  10
 1061.2566844450
  20
 2211.6985482313
  30
0.0
  11
 1076.2566844450
  21
 2207.6793103448
  31
0.0
   0
LINE
   5
3ED
 100
AcDbEntity
   8
LEVEL002
 370
30
 100
AcDbLine
   6
CONTINUOUS
  62
7
  10
 1076.2566844450
  20
 2207.6793103448
  30
0.0
  11
 1091.2566844450
  21
 2211.6985482313
  31
0.0
   0
LINE
   5
3EE
 100
AcDbEntity
   8
LEVEL002
 370
30
 100
AcDbLine
   6
CONTINUOUS
  62
7
  10
 1091.2566844450
  20
 2211.6985482313
  30
0.0
  11
 1106.2566844450
  21
 2207.6793103448
  31
0.0
   0
LINE
   5
3EF
 100
AcDbEntity
   8
LEVEL002
 370
30
 100
AcDbLine
   6
CONTINUOUS
  62
7
  10
 1106.2566844450
  20
 2207.6793103448
  30
0.0
  11
 1121.2566844450
  21
 2211.6985482313
  31
0.0
   0
LINE
   5
3F0
 100
AcDbEntity
   8
LEVEL002
 370
30
 100
AcDbLine
   6
CONTINUOUS
  62
7
  10
 1121.2566844450
  20
 2211.6985482313
  30
0.0
  11
 1136.2566844450
  21
 2207.6793103448
  31
0.0
   0
LINE
   5
3F1
 100
AcDbEntity
   8
LEVEL002
 370
30
 100
AcDbLine
   6
CONTINUOUS
  62
7
  10
 1136.2566844450
  20
 2207.6793103448
  30
0.0
  11
 1151.2566844450
  21
 2211.6985482313
  31
0.0
   0
LINE
   5
3F2
 100
AcDbEntity
   8
LEVEL002
 370
30
 100
AcDbLine
   6
CONTINUOUS
  62
7
  10
 1151.2566844450
  20
 2211.6985482313
  30
0.0
  11
 1166.2566844450
  21
 2207.6793103448
  31
0.0
   0
LINE
   5
3F3
 100
AcDbEntity
   8
LEVEL002
 370
30
 100
AcDbLine
   6
CONTINUOUS
  62
7
  10
 1166.2566844450
  20
 2207.6793103448
  30
0.0
  11
 1181.2566844450
  21
 2211.6985482313
  31
0.0
   0
LINE
   5
3F4
 100
AcDbEntity
   8
LEVEL002
 370
30
 100
AcDbLine
   6
CONTINUOUS
  62
7
  10
 1181.2566844450
  20
 2211.6985482313
  30
0.0
  11
 1196.2566844450
  21
 2207.6793103448
  31
0.0
   0
LINE
   5
3F5
 100
AcDbEntity
   8
LEVEL002
 370
30
 100
AcDbLine
   6
CONTINUOUS
  62
7
  10
 1196.2566844450
  20
 2207.6793103448
  30
0.0
  11
 1211.2566844450
  21
 2211.6985482313
  31
0.0
   0
LINE
   5
3F6
 100
AcDbEntity
   8
LEVEL002
 370
30
 100
AcDbLine
   6
CONTINUOUS
  62
7
  10
 1211.2566844450
  20
 2211.6985482313
  30
0.0
  11
 1226.2566844450
  21
 2207.6793103448
  31
0.0
   0
LINE
   5
3F7
 100
AcDbEntity
   8
LEVEL002
 370
30
 100
AcDbLine
   6
CONTINUOUS
  62
7
  10
 1226.2566844450
  20
 2207.6793103448
  30
0.0
  11
 1241.2566844450
  21
 2211.6985482313
  31
0.0
   0
LINE
   5
3F8
 100
AcDbEntity
   8
LEVEL002
 370
30
 100
AcDbLine
   6
CONTINUOUS
  62
7
  10
 1241.2566844450
  20
 2211.6985482313
  30
0.0
  11
 1256.2566844450
  21
 2207.6793103448
  31
0.0
   0
LINE
   5
3F9
 100
AcDbEntity
   8
LEVEL002
 370
30
 100
AcDbLine
   6
CONTINUOUS
  62
7
  10
 1256.2566844450
  20
 2207.6793103448
  30
0.0
  11
 1271.2566844450
  21
 2211.6985482313
  31
0.0
   0
LINE
   5
3FA
 100
AcDbEntity
   8
LEVEL002
 370
30
 100
AcDbLine
   6
CONTINUOUS
  62
7
  10
 1271.2566844450
  20
 2211.6985482313
  30
0.0
  11
 1286.2566844450
  21
 2207.6793103448
  31
0.0
   0
LINE
   5
3FB
 100
AcDbEntity
   8
LEVEL002
 370
30
 100
AcDbLine
   6
CONTINUOUS
  62
7
  10
 1286.2566844450
  20
 2207.6793103448
  30
0.0
  11
 1301.2566844450
  21
 2211.6985482313
  31
0.0
   0
LINE
   5
3FC
 100
AcDbEntity
   8
LEVEL002
 370
30
 100
AcDbLine
   6
CONTINUOUS
  62
7
  10
 1301.2566844450
  20
 2211.6985482313
  30
0.0
  11
 1316.2566844450
  21
 2207.6793103448
  31
0.0
   0
LINE
   5
3FD
 100
AcDbEntity
   8
LEVEL002
 370
30
 100
AcDbLine
   6
CONTINUOUS
  62
7
  10
 1316.2566844450
  20
 2207.6793103448
  30
0.0
  11
 1331.2566844450
  21
 2211.6985482313
  31
0.0
   0
LINE
   5
3FE
 100
AcDbEntity
   8
LEVEL002
 370
30
 100
AcDbLine
   6
CONTINUOUS
  62
7
  10
 1331.2566844450
  20
 2211.6985482313
  30
0.0
  11
 1346.2566844450
  21
 2207.6793103448
  31
0.0
   0
LINE
   5
3FF
 100
AcDbEntity
   8
LEVEL002
 370
30
 100
AcDbLine
   6
CONTINUOUS
  62
7
  10
 1346.2566844450
  20
 2207.6793103448
  30
0.0
  11
 1361.2566844450
  21
 2211.6985482313
  31
0.0
   0
LINE
   5
400
 100
AcDbEntity
   8
LEVEL002
 370
30
 100
AcDbLine
   6
CONTINUOUS
  62
7
  10
 1361.2566844450
  20
 2211.6985482313
  30
0.0
  11
 1376.2566844450
  21
 2207.6793103448
  31
0.0
   0
LINE
   5
401
 100
AcDbEntity
   8
LEVEL002
 370
30
 100
AcDbLine
   6
CONTINUOUS
  62
7
  10
 1376.2566844450
  20
 2207.6793103448
  30
0.0
  11
 1391.2400485650
  21
 2211.6985482313
  31
0.0
   0
LINE
   5
402
 100
AcDbEntity
   8
LEVEL002
 370
30
 100
AcDbLine
   6
CONTINUOUS
  62
7
  10
 1391.2400485650
  20
 2211.6985482313
  30
0.0
  11
 1406.2566844450
  21
 2207.6793103448
  31
0.0
   0
LINE
   5
403
 100
AcDbEntity
   8
LEVEL002
 370
30
 100
AcDbLine
   6
CONTINUOUS
  62
7
  10
 1406.2566844450
  20
 2207.6793103448
  30
0.0
  11
 1419.2566844450
  21
 2211.6985482313
  31
0.0
   0
LINE
   5
404
 100
AcDbEntity
   8
LEVEL002
 370
30
 100
AcDbLine
   6
CONTINUOUS
  62
7
  10
 883.25668439940
  20
 2095.8126434507
  30
0.0
  11
 896.25668444495
  21
 2099.8318813372
  31
0.0
   0
LINE
   5
405
 100
AcDbEntity
   8
LEVEL002
 370
30
 100
AcDbLine
   6
CONTINUOUS
  62
7
  10
 896.25668444495
  20
 2099.8318813372
  30
0.0
  11
 911.25668444495
  21
 2095.8126434507
  31
0.0
   0
LINE
   5
406
 100
AcDbEntity
   8
LEVEL002
 370
30
 100
AcDbLine
   6
CONTINUOUS
  62
7
  10
 911.25668444495
  20
 2095.8126434507
  30
0.0
  11
 926.25668444495
  21
 2099.8318813372
  31
0.0
   0
LINE
   5
407
 100
AcDbEntity
   8
LEVEL002
 370
30
 100
AcDbLine
   6
CONTINUOUS
  62
7
  10
 926.25668444495
  20
 2099.8318813372
  30
0.0
  11
 941.25668444495
  21
 2095.8126434507
  31
0.0
   0
LINE
   5
408
 100
AcDbEntity
   8
LEVEL002
 370
30
 100
AcDbLine
   6
CONTINUOUS
  62
7
  10
 941.25668444495
  20
 2095.8126434507
  30
0.0
  11
 956.25668444495
  21
 2099.8318813372
  31
0.0
   0
LINE
   5
409
 100
AcDbEntity
   8
LEVEL002
 370
30
 100
AcDbLine
   6
CONTINUOUS
  62
7
  10
 956.25668444495
  20
 2099.8318813372
  30
0.0
  11
 971.25668444495
  21
 2095.8126434507
  31
0.0
   0
LINE
   5
40A
 100
AcDbEntity
   8
LEVEL002
 370
30
 100
AcDbLine
   6
CONTINUOUS
  62
7
  10
 971.25668444495
  20
 2095.8126434507
  30
0.0
  11
 986.25668444495
  21
 2099.8318813372
  31
0.0
   0
LINE
   5
40B
 100
AcDbEntity
   8
LEVEL002
 370
30
 100
AcDbLine
   6
CONTINUOUS
  62
7
  10
 986.25668444495
  20
 2099.8318813372
  30
0.0
  11
 1001.2566844450
  21
 2095.8126434507
  31
0.0
   0
LINE
   5
40C
 100
AcDbEntity
   8
LEVEL002
 370
30
 100
AcDbLine
   6
CONTINUOUS
  62
7
  10
 1001.2566844450
  20
 2095.8126434507
  30
0.0
  11
 1016.2566844450
  21
 2099.8318813372
  31
0.0
   0
LINE
   5
40D
 100
AcDbEntity
   8
LEVEL002
 370
30
 100
AcDbLine
   6
CONTINUOUS
  62
7
  10
 1016.2566844450
  20
 2099.8318813372
  30
0.0
  11
 1031.2566844450
  21
 2095.8126434507
  31
0.0
   0
LINE
   5
40E
 100
AcDbEntity
   8
LEVEL002
 370
30
 100
AcDbLine
   6
CONTINUOUS
  62
7
  10
 1031.2566844450
  20
 2095.8126434507
  30
0.0
  11
 1046.2566844450
  21
 2099.8318813372
  31
0.0
   0
LINE
   5
40F
 100
AcDbEntity
   8
LEVEL002
 370
30
 100
AcDbLine
   6
CONTINUOUS
  62
7
  10
 1046.2566844450
  20
 2099.8318813372
  30
0.0
  11
 1061.2566844450
  21
 2095.8126434507
  31
0.0
   0
LINE
   5
410
 100
AcDbEntity
   8
LEVEL002
 370
30
 100
AcDbLine
   6
CONTINUOUS
  62
7
  10
 1061.2566844450
  20
 2095.8126434507
  30
0.0
  11
 1076.2566844450
  21
 2099.8318813372
  31
0.0
   0
LINE
   5
411
 100
AcDbEntity
   8
LEVEL002
 370
30
 100
AcDbLine
   6
CONTINUOUS
  62
7
  10
 1076.2566844450
  20
 2099.8318813372
  30
0.0
  11
 1091.2566844450
  21
 2095.8126434507
  31
0.0
   0
LINE
   5
412
 100
AcDbEntity
   8
LEVEL002
 370
30
 100
AcDbLine
   6
CONTINUOUS
  62
7
  10
 1091.2566844450
  20
 2095.8126434507
  30
0.0
  11
 1106.2566844450
  21
 2099.8318813372
  31
0.0
   0
LINE
   5
413
 100
AcDbEntity
   8
LEVEL002
 370
30
 100
AcDbLine
   6
CONTINUOUS
  62
7
  10
 1106.2566844450
  20
 2099.8318813372
  30
0.0
  11
 1121.2566844450
  21
 2095.8126434507
  31
0.0
   0
LINE
   5
414
 100
AcDbEntity
   8
LEVEL002
 370
30
 100
AcDbLine
   6
CONTINUOUS
  62
7
  10
 1121.2566844450
  20
 2095.8126434507
  30
0.0
  11
 1136.2566844450
  21
 2099.8318813372
  31
0.0
   0
LINE
   5
415
 100
AcDbEntity
   8
LEVEL002
 370
30
 100
AcDbLine
   6
CONTINUOUS
  62
7
  10
 1136.2566844450
  20
 2099.8318813372
  30
0.0
  11
 1151.2566844450
  21
 2095.8126434507
  31
0.0
   0
LINE
   5
416
 100
AcDbEntity
   8
LEVEL002
 370
30
 100
AcDbLine
   6
CONTINUOUS
  62
7
  10
 1151.2566844450
  20
 2095.8126434507
  30
0.0
  11
 1166.2566844450
  21
 2099.8318813372
  31
0.0
   0
LINE
   5
417
 100
AcDbEntity
   8
LEVEL002
 370
30
 100
AcDbLine
   6
CONTINUOUS
  62
7
  10
 1166.2566844450
  20
 2099.8318813372
  30
0.0
  11
 1181.2566844450
  21
 2095.8126434507
  31
0.0
   0
LINE
   5
418
 100
AcDbEntity
   8
LEVEL002
 370
30
 100
AcDbLine
   6
CONTINUOUS
  62
7
  10
 1181.2566844450
  20
 2095.8126434507
  30
0.0
  11
 1196.2566844450
  21
 2099.8318813372
  31
0.0
   0
LINE
   5
419
 100
AcDbEntity
   8
LEVEL002
 370
30
 100
AcDbLine
   6
CONTINUOUS
  62
7
  10
 1196.2566844450
  20
 2099.8318813372
  30
0.0
  11
 1211.2566844450
  21
 2095.8126434507
  31
0.0
   0
LINE
   5
41A
 100
AcDbEntity
   8
LEVEL002
 370
30
 100
AcDbLine
   6
CONTINUOUS
  62
7
  10
 1211.2566844450
  20
 2095.8126434507
  30
0.0
  11
 1226.2566844450
  21
 2099.8318813372
  31
0.0
   0
LINE
   5
41B
 100
AcDbEntity
   8
LEVEL002
 370
30
 100
AcDbLine
   6
CONTINUOUS
  62
7
  10
 1226.2566844450
  20
 2099.8318813372
  30
0.0
  11
 1241.2566844450
  21
 2095.8126434507
  31
0.0
   0
LINE
   5
41C
 100
AcDbEntity
   8
LEVEL002
 370
30
 100
AcDbLine
   6
CONTINUOUS
  62
7
  10
 1241.2566844450
  20
 2095.8126434507
  30
0.0
  11
 1256.2566844450
  21
 2099.8318813372
  31
0.0
   0
LINE
   5
41D
 100
AcDbEntity
   8
LEVEL002
 370
30
 100
AcDbLine
   6
CONTINUOUS
  62
7
  10
 1256.2566844450
  20
 2099.8318813372
  30
0.0
  11
 1271.2566844450
  21
 2095.8126434507
  31
0.0
   0
LINE
   5
41E
 100
AcDbEntity
   8
LEVEL002
 370
30
 100
AcDbLine
   6
CONTINUOUS
  62
7
  10
 1271.2566844450
  20
 2095.8126434507
  30
0.0
  11
 1286.2566844450
  21
 2099.8318813372
  31
0.0
   0
LINE
   5
41F
 100
AcDbEntity
   8
LEVEL002
 370
30
 100
AcDbLine
   6
CONTINUOUS
  62
7
  10
 1286.2566844450
  20
 2099.8318813372
  30
0.0
  11
 1301.2566844450
  21
 2095.8126434507
  31
0.0
   0
LINE
   5
420
 100
AcDbEntity
   8
LEVEL002
 370
30
 100
AcDbLine
   6
CONTINUOUS
  62
7
  10
 1301.2566844450
  20
 2095.8126434507
  30
0.0
  11
 1316.2566844450
  21
 2099.8318813372
  31
0.0
   0
LINE
   5
421
 100
AcDbEntity
   8
LEVEL002
 370
30
 100
AcDbLine
   6
CONTINUOUS
  62
7
  10
 1316.2566844450
  20
 2099.8318813372
  30
0.0
  11
 1331.2566844450
  21
 2095.8126434507
  31
0.0
   0
LINE
   5
422
 100
AcDbEntity
   8
LEVEL002
 370
30
 100
AcDbLine
   6
CONTINUOUS
  62
7
  10
 1331.2566844450
  20
 2095.8126434507
  30
0.0
  11
 1346.2566844450
  21
 2099.8318813372
  31
0.0
   0
LINE
   5
423
 100
AcDbEntity
   8
LEVEL002
 370
30
 100
AcDbLine
   6
CONTINUOUS
  62
7
  10
 1346.2566844450
  20
 2099.8318813372
  30
0.0
  11
 1361.2566844450
  21
 2095.8126434507
  31
0.0
   0
LINE
   5
424
 100
AcDbEntity
   8
LEVEL002
 370
30
 100
AcDbLine
   6
CONTINUOUS
  62
7
  10
 1361.2566844450
  20
 2095.8126434507
  30
0.0
  11
 1376.2566844450
  21
 2099.8318813372
  31
0.0
   0
LINE
   5
425
 100
AcDbEntity
   8
LEVEL002
 370
30
 100
AcDbLine
   6
CONTINUOUS
  62
7
  10
 1376.2566844450
  20
 2099.8318813372
  30
0.0
  11
 1391.2400485650
  21
 2095.8126434507
  31
0.0
   0
LINE
   5
426
 100
AcDbEntity
   8
LEVEL002
 370
30
 100
AcDbLine
   6
CONTINUOUS
  62
7
  10
 1391.2400485650
  20
 2095.8126434507
  30
0.0
  11
 1406.2566844450
  21
 2099.8318813372
  31
0.0
   0
LINE
   5
427
 100
AcDbEntity
   8
LEVEL002
 370
30
 100
AcDbLine
   6
CONTINUOUS
  62
7
  10
 1406.2566844450
  20
 2099.8318813372
  30
0.0
  11
 1419.2566844450
  21
 2095.8126434507
  31
0.0
   0
LINE
   5
428
 100
AcDbEntity
   8
LEVEL002
 370
30
 100
AcDbLine
   6
CONTINUOUS
  62
7
  10
 883.25668439940
  20
 956.33163569210
  30
0.0
  11
 896.25668444495
  21
 960.35087357856
  31
0.0
   0
LINE
   5
429
 100
AcDbEntity
   8
LEVEL002
 370
30
 100
AcDbLine
   6
CONTINUOUS
  62
7
  10
 896.25668444495
  20
 960.35087357856
  30
0.0
  11
 911.25668444495
  21
 956.33163569210
  31
0.0
   0
LINE
   5
42A
 100
AcDbEntity
   8
LEVEL002
 370
30
 100
AcDbLine
   6
CONTINUOUS
  62
7
  10
 911.25668444495
  20
 956.33163569210
  30
0.0
  11
 926.25668444495
  21
 960.35087357856
  31
0.0
   0
LINE
   5
42B
 100
AcDbEntity
   8
LEVEL002
 370
30
 100
AcDbLine
   6
CONTINUOUS
  62
7
  10
 926.25668444495
  20
 960.35087357856
  30
0.0
  11
 941.25668444495
  21
 956.33163569210
  31
0.0
   0
LINE
   5
42C
 100
AcDbEntity
   8
LEVEL002
 370
30
 100
AcDbLine
   6
CONTINUOUS
  62
7
  10
 941.25668444495
  20
 956.33163569210
  30
0.0
  11
 956.25668444495
  21
 960.35087357856
  31
0.0
   0
LINE
   5
42D
 100
AcDbEntity
   8
LEVEL002
 370
30
 100
AcDbLine
   6
CONTINUOUS
  62
7
  10
 956.25668444495
  20
 960.35087357856
  30
0.0
  11
 971.25668444495
  21
 956.33163569210
  31
0.0
   0
LINE
   5
42E
 100
AcDbEntity
   8
LEVEL002
 370
30
 100
AcDbLine
   6
CONTINUOUS
  62
7
  10
 971.25668444495
  20
 956.33163569210
  30
0.0
  11
 986.25668444495
  21
 960.35087357856
  31
0.0
   0
LINE
   5
42F
 100
AcDbEntity
   8
LEVEL002
 370
30
 100
AcDbLine
   6
CONTINUOUS
  62
7
  10
 986.25668444495
  20
 960.35087357856
  30
0.0
  11
 1001.2566844450
  21
 956.33163569210
  31
0.0
   0
LINE
   5
430
 100
AcDbEntity
   8
LEVEL002
 370
30
 100
AcDbLine
   6
CONTINUOUS
  62
7
  10
 1001.2566844450
  20
 956.33163569210
  30
0.0
  11
 1016.2566844450
  21
 960.35087357856
  31
0.0
   0
LINE
   5
431
 100
AcDbEntity
   8
LEVEL002
 370
30
 100
AcDbLine
   6
CONTINUOUS
  62
7
  10
 1016.2566844450
  20
 960.35087357856
  30
0.0
  11
 1031.2566844450
  21
 956.33163569210
  31
0.0
   0
LINE
   5
432
 100
AcDbEntity
   8
LEVEL002
 370
30
 100
AcDbLine
   6
CONTINUOUS
  62
7
  10
 1031.2566844450
  20
 956.33163569210
  30
0.0
  11
 1046.2566844450
  21
 960.35087357856
  31
0.0
   0
LINE
   5
433
 100
AcDbEntity
   8
LEVEL002
 370
30
 100
AcDbLine
   6
CONTINUOUS
  62
7
  10
 1046.2566844450
  20
 960.35087357856
  30
0.0
  11
 1061.2566844450
  21
 956.33163569210
  31
0.0
   0
LINE
   5
434
 100
AcDbEntity
   8
LEVEL002
 370
30
 100
AcDbLine
   6
CONTINUOUS
  62
7
  10
 1061.2566844450
  20
 956.33163569210
  30
0.0
  11
 1076.2566844450
  21
 960.35087357856
  31
0.0
   0
LINE
   5
435
 100
AcDbEntity
   8
LEVEL002
 370
30
 100
AcDbLine
   6
CONTINUOUS
  62
7
  10
 1076.2566844450
  20
 960.35087357856
  30
0.0
  11
 1091.2566844450
  21
 956.33163569210
  31
0.0
   0
LINE
   5
436
 100
AcDbEntity
   8
LEVEL002
 370
30
 100
AcDbLine
   6
CONTINUOUS
  62
7
  10
 1091.2566844450
  20
 956.33163569210
  30
0.0
  11
 1106.2566844450
  21
 960.35087357856
  31
0.0
   0
LINE
   5
437
 100
AcDbEntity
   8
LEVEL002
 370
30
 100
AcDbLine
   6
CONTINUOUS
  62
7
  10
 1106.2566844450
  20
 960.35087357856
  30
0.0
  11
 1121.2566844450
  21
 956.33163569210
  31
0.0
   0
LINE
   5
438
 100
AcDbEntity
   8
LEVEL002
 370
30
 100
AcDbLine
   6
CONTINUOUS
  62
7
  10
 1121.2566844450
  20
 956.33163569210
  30
0.0
  11
 1136.2566844450
  21
 960.35087357856
  31
0.0
   0
LINE
   5
439
 100
AcDbEntity
   8
LEVEL002
 370
30
 100
AcDbLine
   6
CONTINUOUS
  62
7
  10
 1136.2566844450
  20
 960.35087357856
  30
0.0
  11
 1151.2566844450
  21
 956.33163569210
  31
0.0
   0
LINE
   5
43A
 100
AcDbEntity
   8
LEVEL002
 370
30
 100
AcDbLine
   6
CONTINUOUS
  62
7
  10
 1151.2566844450
  20
 956.33163569210
  30
0.0
  11
 1166.2566844450
  21
 960.35087357856
  31
0.0
   0
LINE
   5
43B
 100
AcDbEntity
   8
LEVEL002
 370
30
 100
AcDbLine
   6
CONTINUOUS
  62
7
  10
 1166.2566844450
  20
 960.35087357856
  30
0.0
  11
 1181.2566844450
  21
 956.33163569210
  31
0.0
   0
LINE
   5
43C
 100
AcDbEntity
   8
LEVEL002
 370
30
 100
AcDbLine
   6
CONTINUOUS
  62
7
  10
 1181.2566844450
  20
 956.33163569210
  30
0.0
  11
 1196.2566844450
  21
 960.35087357856
  31
0.0
   0
LINE
   5
43D
 100
AcDbEntity
   8
LEVEL002
 370
30
 100
AcDbLine
   6
CONTINUOUS
  62
7
  10
 1196.2566844450
  20
 960.35087357856
  30
0.0
  11
 1211.2566844450
  21
 956.33163569210
  31
0.0
   0
LINE
   5
43E
 100
AcDbEntity
   8
LEVEL002
 370
30
 100
AcDbLine
   6
CONTINUOUS
  62
7
  10
 1211.2566844450
  20
 956.33163569210
  30
0.0
  11
 1226.2566844450
  21
 960.35087357856
  31
0.0
   0
LINE
   5
43F
 100
AcDbEntity
   8
LEVEL002
 370
30
 100
AcDbLine
   6
CONTINUOUS
  62
7
  10
 1226.2566844450
  20
 960.35087357856
  30
0.0
  11
 1241.2566844450
  21
 956.33163569210
  31
0.0
   0
LINE
   5
440
 100
AcDbEntity
   8
LEVEL002
 370
30
 100
AcDbLine
   6
CONTINUOUS
  62
7
  10
 1241.2566844450
  20
 956.33163569210
  30
0.0
  11
 1256.2566844450
  21
 960.35087357856
  31
0.0
   0
LINE
   5
441
 100
AcDbEntity
   8
LEVEL002
 370
30
 100
AcDbLine
   6
CONTINUOUS
  62
7
  10
 1256.2566844450
  20
 960.35087357856
  30
0.0
  11
 1271.2566844450
  21
 956.33163569210
  31
0.0
   0
LINE
   5
442
 100
AcDbEntity
   8
LEVEL002
 370
30
 100
AcDbLine
   6
CONTINUOUS
  62
7
  10
 1271.2566844450
  20
 956.33163569210
  30
0.0
  11
 1286.2566844450
  21
 960.35087357856
  31
0.0
   0
LINE
   5
443
 100
AcDbEntity
   8
LEVEL002
 370
30
 100
AcDbLine
   6
CONTINUOUS
  62
7
  10
 1286.2566844450
  20
 960.35087357856
  30
0.0
  11
 1301.2566844450
  21
 956.33163569210
  31
0.0
   0
LINE
   5
444
 100
AcDbEntity
   8
LEVEL002
 370
30
 100
AcDbLine
   6
CONTINUOUS
  62
7
  10
 1301.2566844450
  20
 956.33163569210
  30
0.0
  11
 1316.2566844450
  21
 960.35087357856
  31
0.0
   0
LINE
   5
445
 100
AcDbEntity
   8
LEVEL002
 370
30
 100
AcDbLine
   6
CONTINUOUS
  62
7
  10
 1316.2566844450
  20
 960.35087357856
  30
0.0
  11
 1331.2566844450
  21
 956.33163569210
  31
0.0
   0
LINE
   5
446
 100
AcDbEntity
   8
LEVEL002
 370
30
 100
AcDbLine
   6
CONTINUOUS
  62
7
  10
 1331.2566844450
  20
 956.33163569210
  30
0.0
  11
 1346.2566844450
  21
 960.35087357856
  31
0.0
   0
LINE
   5
447
 100
AcDbEntity
   8
LEVEL002
 370
30
 100
AcDbLine
   6
CONTINUOUS
  62
7
  10
 1346.2566844450
  20
 960.35087357856
  30
0.0
  11
 1361.2566844450
  21
 956.33163569210
  31
0.0
   0
LINE
   5
448
 100
AcDbEntity
   8
LEVEL002
 370
30
 100
AcDbLine
   6
CONTINUOUS
  62
7
  10
 1361.2566844450
  20
 956.33163569210
  30
0.0
  11
 1376.2566844450
  21
 960.35087357856
  31
0.0
   0
LINE
   5
449
 100
AcDbEntity
   8
LEVEL002
 370
30
 100
AcDbLine
   6
CONTINUOUS
  62
7
  10
 1376.2566844450
  20
 960.35087357856
  30
0.0
  11
 1391.2400485650
  21
 956.33163569210
  31
0.0
   0
LINE
   5
44A
 100
AcDbEntity
   8
LEVEL002
 370
30
 100
AcDbLine
   6
CONTINUOUS
  62
7
  10
 1391.2400485650
  20
 956.33163569210
  30
0.0
  11
 1406.2566844450
  21
 960.35087357856
  31
0.0
   0
LINE
   5
44B
 100
AcDbEntity
   8
LEVEL002
 370
30
 100
AcDbLine
   6
CONTINUOUS
  62
7
  10
 1406.2566844450
  20
 960.35087357856
  30
0.0
  11
 1419.2566844450
  21
 956.33163569210
  31
0.0
   0
ARC
   5
44C
 100
AcDbEntity
   8
LEVEL002
 370
30
   6
CONTINUOUS
  62
7
 100
AcDbCircle
  10
 1505.7562760636
  20
 1943.9793099682
  30
0.0
  40
 16.500408261289
 100
AcDbArc
  50
 337.36304777339
  51
 22.636952226610
   0
ARC
   5
44D
 100
AcDbEntity
   8
LEVEL002
 370
30
   6
CONTINUOUS
  62
7
 100
AcDbCircle
  10
 1517.6548989443
  20
 1953.5055894098
  30
0.0
  40
 4.6017853805129
 100
AcDbArc
  50
 316.36654413311
  51
0.0
   0
LINE
   5
44E
 100
AcDbEntity
   8
LEVEL002
 370
30
 100
AcDbLine
   6
CONTINUOUS
  62
7
  10
 1511.2566843249
  20
 1931.2776040461
  30
0.0
  11
 1511.2566843249
  21
 1956.6810158904
  31
0.0
   0
LINE
   5
44F
 100
AcDbEntity
   8
LEVEL002
 370
30
 100
AcDbLine
   6
CONTINUOUS
  62
7
  10
 1511.2566843249
  20
 1956.6810158904
  30
0.0
  11
 1520.9855288179
  21
 1956.6810158904
  31
0.0
   0
LINE
   5
450
 100
AcDbEntity
   8
LEVEL002
 370
30
 100
AcDbLine
   6
CONTINUOUS
  62
7
  10
 1520.9855288179
  20
 1956.6810158904
  30
0.0
  11
 1522.2566843249
  21
 1954.4793099682
  31
0.0
   0
LINE
   5
451
 100
AcDbEntity
   8
LEVEL002
 370
30
 100
AcDbLine
   6
CONTINUOUS
  62
7
  10
 1522.2566843249
  20
 1954.4793099682
  30
0.0
  11
 1522.2566843249
  21
 1933.4793099682
  31
0.0
   0
LINE
   5
452
 100
AcDbEntity
   8
LEVEL002
 370
30
 100
AcDbLine
   6
CONTINUOUS
  62
7
  10
 1522.2566843249
  20
 1933.4793099682
  30
0.0
  11
 1520.9855288179
  21
 1931.2776040461
  31
0.0
   0
LINE
   5
453
 100
AcDbEntity
   8
LEVEL002
 370
30
 100
AcDbLine
   6
CONTINUOUS
  62
7
  10
 1520.9855288179
  20
 1931.2776040461
  30
0.0
  11
 1511.2566843249
  21
 1931.2776040461
  31
0.0
   0
LINE
   5
454
 100
AcDbEntity
   8
LEVEL002
 370
30
 100
AcDbLine
   6
CONTINUOUS
  62
7
  10
 1511.2566843249
  20
 1950.3301629293
  30
0.0
  11
 1520.9855288179
  21
 1950.3301629293
  31
0.0
   0
ARC
   5
455
 100
AcDbEntity
   8
LEVEL002
 370
30
   6
CONTINUOUS
  62
7
 100
AcDbCircle
  10
 1517.6548989443
  20
 1934.4530305266
  30
0.0
  40
 4.6017853805129
 100
AcDbArc
  50
 0.84929332192081E-11
  51
 43.633455866886
   0
LINE
   5
456
 100
AcDbEntity
   8
LEVEL002
 370
30
 100
AcDbLine
   6
CONTINUOUS
  62
7
  10
 1511.2566843249
  20
 1937.6284570072
  30
0.0
  11
 1520.9855288179
  21
 1937.6284570072
  31
0.0
   0
LINE
   5
457
 100
AcDbEntity
   8
LEVEL002
 370
9
 100
AcDbLine
   6
DASHDOT
  62
1
  10
 769.92950738505
  20
 1245.9107679582
  30
0.0
  11
 1531.2566844450
  21
 1245.9107679582
  31
0.0
   0
ARC
   5
458
 100
AcDbEntity
   8
LEVEL002
 370
30
   6
CONTINUOUS
  62
7
 100
AcDbCircle
  10
 1505.7562759812
  20
 1245.9107679582
  30
0.0
  40
 16.500408261289
 100
AcDbArc
  50
 337.36304777339
  51
 22.636952226606
   0
ARC
   5
459
 100
AcDbEntity
   8
LEVEL002
 370
30
   6
CONTINUOUS
  62
7
 100
AcDbCircle
  10
 1517.6548988619
  20
 1255.4370473998
  30
0.0
  40
 4.6017853805129
 100
AcDbArc
  50
 316.36654413313
  51
0.0
   0
LINE
   5
45A
 100
AcDbEntity
   8
LEVEL002
 370
30
 100
AcDbLine
   6
CONTINUOUS
  62
7
  10
 1511.2566842425
  20
 1233.2090620361
  30
0.0
  11
 1511.2566842425
  21
 1258.6124738804
  31
0.0
   0
LINE
   5
45B
 100
AcDbEntity
   8
LEVEL002
 370
30
 100
AcDbLine
   6
CONTINUOUS
  62
7
  10
 1511.2566842425
  20
 1258.6124738804
  30
0.0
  11
 1520.9855287355
  21
 1258.6124738804
  31
0.0
   0
LINE
   5
45C
 100
AcDbEntity
   8
LEVEL002
 370
30
 100
AcDbLine
   6
CONTINUOUS
  62
7
  10
 1520.9855287355
  20
 1258.6124738804
  30
0.0
  11
 1522.2566842425
  21
 1256.4107679582
  31
0.0
   0
LINE
   5
45D
 100
AcDbEntity
   8
LEVEL002
 370
30
 100
AcDbLine
   6
CONTINUOUS
  62
7
  10
 1522.2566842425
  20
 1256.4107679582
  30
0.0
  11
 1522.2566842425
  21
 1235.4107679582
  31
0.0
   0
LINE
   5
45E
 100
AcDbEntity
   8
LEVEL002
 370
30
 100
AcDbLine
   6
CONTINUOUS
  62
7
  10
 1522.2566842425
  20
 1235.4107679582
  30
0.0
  11
 1520.9855287355
  21
 1233.2090620361
  31
0.0
   0
LINE
   5
45F
 100
AcDbEntity
   8
LEVEL002
 370
30
 100
AcDbLine
   6
CONTINUOUS
  62
7
  10
 1520.9855287355
  20
 1233.2090620361
  30
0.0
  11
 1511.2566842425
  21
 1233.2090620361
  31
0.0
   0
LINE
   5
460
 100
AcDbEntity
   8
LEVEL002
 370
30
 100
AcDbLine
   6
CONTINUOUS
  62
7
  10
 1511.2566842425
  20
 1252.2616209193
  30
0.0
  11
 1520.9855287355
  21
 1252.2616209193
  31
0.0
   0
ARC
   5
461
 100
AcDbEntity
   8
LEVEL002
 370
30
   6
CONTINUOUS
  62
7
 100
AcDbCircle
  10
 1517.6548988619
  20
 1236.3844885166
  30
0.0
  40
 4.6017853805129
 100
AcDbArc
  50
0.0
  51
 43.633455866870
   0
LINE
   5
462
 100
AcDbEntity
   8
LEVEL002
 370
30
 100
AcDbLine
   6
CONTINUOUS
  62
7
  10
 1511.2566842425
  20
 1239.5599149972
  30
0.0
  11
 1520.9855287355
  21
 1239.5599149972
  31
0.0
   0
ARC
   5
463
 100
AcDbEntity
   8
LEVEL002
 370
30
   6
CONTINUOUS
  62
7
 100
AcDbCircle
  10
 2537.8566840684
  20
 1245.9107679582
  30
0.0
  40
 7.0000000000000
 100
AcDbArc
  50
 102.42065043560
  51
 353.96506641072
   0
ARC
   5
464
 100
AcDbEntity
   8
LEVEL002
 370
30
   6
CONTINUOUS
  62
7
 100
AcDbCircle
  10
 2537.8566840684
  20
 1245.9107679582
  30
0.0
  40
 10.500000000000
 100
AcDbArc
  50
 116.80939956803
  51
 340.14512426322
   0
LINE
   5
465
 100
AcDbEntity
   8
LEVEL002
 370
30
 100
AcDbLine
   6
CONTINUOUS
  62
7
  10
 2532.6731257971
  20
 1255.6197451171
  30
0.0
  11
 2526.8566840684
  21
 1252.2616209193
  31
0.0
   0
LINE
   5
466
 100
AcDbEntity
   8
LEVEL002
 370
30
 100
AcDbLine
   6
CONTINUOUS
  62
7
  10
 2526.8566840684
  20
 1252.2616209193
  30
0.0
  11
 2526.8566840684
  21
 1239.5599149972
  31
0.0
   0
LINE
   5
467
 100
AcDbEntity
   8
LEVEL002
 370
30
 100
AcDbLine
   6
CONTINUOUS
  62
7
  10
 2526.8566840684
  20
 1239.5599149972
  30
0.0
  11
 2537.8566840684
  21
 1233.2090620361
  31
0.0
   0
LINE
   5
468
 100
AcDbEntity
   8
LEVEL002
 370
30
 100
AcDbLine
   6
CONTINUOUS
  62
7
  10
 2537.8566840684
  20
 1233.2090620361
  30
0.0
  11
 2548.8566840684
  21
 1239.5599149972
  31
0.0
   0
LINE
   5
469
 100
AcDbEntity
   8
LEVEL002
 370
30
 100
AcDbLine
   6
CONTINUOUS
  62
7
  10
 2548.8566840684
  20
 1239.5599149972
  30
0.0
  11
 2548.8566840684
  21
 1241.2529362817
  31
0.0
   0
LINE
   5
46A
 100
AcDbEntity
   8
LEVEL002
 370
30
 100
AcDbLine
   6
CONTINUOUS
  62
7
  10
 3013.7566844450
  20
 1736.3793103448
  30
0.0
  11
 2043.2566844450
  21
 1736.3793103448
  31
0.0
   0
LINE
   5
46B
 100
AcDbEntity
   8
LEVEL002
 370
30
 100
AcDbLine
   6
CONTINUOUS
  62
7
  10
 3013.7566844450
  20
 2264.3793103448
  30
0.0
  11
 2043.2566844450
  21
 2264.3793103448
  31
0.0
   0
LINE
   5
46C
 100
AcDbEntity
   8
LEVEL002
 370
30
 100
AcDbLine
   6
CONTINUOUS
  62
7
  10
 2043.2566844450
  20
 2216.3793103448
  30
0.0
  11
 3013.7566844450
  21
 2216.3793103448
  31
0.0
   0
LINE
   5
46D
 100
AcDbEntity
   8
LEVEL002
 370
30
 100
AcDbLine
   6
CONTINUOUS
  62
7
  10
 2043.2566844450
  20
 2168.3793103448
  30
0.0
  11
 3013.7566844450
  21
 2168.3793103448
  31
0.0
   0
LINE
   5
46E
 100
AcDbEntity
   8
LEVEL002
 370
30
 100
AcDbLine
   6
CONTINUOUS
  62
7
  10
 2043.2566844450
  20
 2120.3793103448
  30
0.0
  11
 3013.7566844450
  21
 2120.3793103448
  31
0.0
   0
LINE
   5
46F
 100
AcDbEntity
   8
LEVEL002
 370
30
 100
AcDbLine
   6
CONTINUOUS
  62
7
  10
 2043.2566844450
  20
 2072.3793103448
  30
0.0
  11
 3013.7566844450
  21
 2072.3793103448
  31
0.0
   0
LINE
   5
470
 100
AcDbEntity
   8
LEVEL002
 370
30
 100
AcDbLine
   6
CONTINUOUS
  62
7
  10
 2043.2566844450
  20
 2024.3793103448
  30
0.0
  11
 3013.7566844450
  21
 2024.3793103448
  31
0.0
   0
LINE
   5
471
 100
AcDbEntity
   8
LEVEL002
 370
30
 100
AcDbLine
   6
CONTINUOUS
  62
7
  10
 2043.2566844450
  20
 1976.3793103448
  30
0.0
  11
 3013.7566844450
  21
 1976.3793103448
  31
0.0
   0
LINE
   5
472
 100
AcDbEntity
   8
LEVEL002
 370
30
 100
AcDbLine
   6
CONTINUOUS
  62
7
  10
 2091.2566844450
  20
 1928.3793103448
  30
0.0
  11
 3013.7566844450
  21
 1928.3793103448
  31
0.0
   0
LINE
   5
473
 100
AcDbEntity
   8
LEVEL002
 370
30
 100
AcDbLine
   6
CONTINUOUS
  62
7
  10
 2043.2566844450
  20
 1832.3793103448
  30
0.0
  11
 3013.7566844450
  21
 1832.3793103448
  31
0.0
   0
LINE
   5
474
 100
AcDbEntity
   8
LEVEL002
 370
30
 100
AcDbLine
   6
CONTINUOUS
  62
7
  10
 2043.2566844450
  20
 1784.3793103448
  30
0.0
  11
 3013.7566844450
  21
 1784.3793103448
  31
0.0
   0
LINE
   5
475
 100
AcDbEntity
   8
LEVEL002
 370
30
 100
AcDbLine
   6
CONTINUOUS
  62
7
  10
 2043.2566844450
  20
 1880.3793103448
  30
0.0
  11
 3013.7566844450
  21
 1880.3793103448
  31
0.0
   0
LINE
   5
476
 100
AcDbEntity
   8
LEVEL002
 370
30
 100
AcDbLine
   6
CONTINUOUS
  62
7
  10
 2091.2566844450
  20
 1880.3793103448
  30
0.0
  11
 2091.2566844450
  21
 1976.3793103448
  31
0.0
   0
LINE
   5
477
 100
AcDbEntity
   8
LEVEL002
 370
30
 100
AcDbLine
   6
CONTINUOUS
  62
7
  10
 2043.2566844450
  20
 1736.3793103448
  30
0.0
  11
 2043.2566844450
  21
 2264.3793103448
  31
0.0
   0
LINE
   5
478
 100
AcDbEntity
   8
LEVEL002
 370
30
 100
AcDbLine
   6
CONTINUOUS
  62
7
  10
 2353.7566844450
  20
 2264.3793103448
  30
0.0
  11
 2353.7566844450
  21
 1736.3793103448
  31
0.0
   0
LINE
   5
479
 100
AcDbEntity
   8
LEVEL002
 370
30
 100
AcDbLine
   6
CONTINUOUS
  62
7
  10
 3013.7566844450
  20
 2264.3793103448
  30
0.0
  11
 3013.7566844450
  21
 1736.3793103448
  31
0.0
   0
MTEXT
   5
47B
 100
AcDbEntity
   8
LEVEL002
 370
9
  62
1
 100
AcDbMText
  10
 2097.2566844450
  20
 2126.3793103448
  30
0.0
  40
 24.000000000000
  41
0.0
  71
7
  72
1
   1
\T1.000000;寸法（Ｗ×Ｄ×Ｈ）
   7
GMM001
  44
 0.79999984000003
   0
MTEXT
   5
47D
 100
AcDbEntity
   8
LEVEL002
 370
9
  62
1
 100
AcDbMText
  10
 2097.2566844450
  20
 1982.3793103448
  30
0.0
  40
 24.000000000000
  41
0.0
  71
7
  72
1
   1
\W1.000000;\T1.000000;消\W0.500000;\T1.000000;  \W1.000000;\T1.000000;費\W0.500000;\T1.000000;  \W1.000000;\T1.000000;電\W0.500000;\T1.000000;  \W1.000000;\T1.000000;力
   7
GMM001
  44
 0.79999984000003
   0
MTEXT
   5
47F
 100
AcDbEntity
   8
LEVEL002
 370
9
  62
1
 100
AcDbMText
  10
 2097.2566844450
  20
 2030.3793103448
  30
0.0
  40
 24.000000000000
  41
0.0
  71
7
  72
1
   1
\W1.000000;\T1.000000;電\W0.500000;\T1.000000;          \W1.000000;\T1.000000;源
   7
GMM001
  44
 0.79999984000003
   0
MTEXT
   5
481
 100
AcDbEntity
   8
LEVEL002
 370
9
  62
1
 100
AcDbMText
  10
 2097.2566844450
  20
 2078.3793103448
  30
0.0
  40
 24.000000000000
  41
0.0
  71
7
  72
1
   1
\W1.000000;\T1.000000;能\W0.500000;\T1.000000;          \W1.000000;\T1.000000;力
   7
GMM001
  44
 0.79999984000003
   0
MTEXT
   5
483
 100
AcDbEntity
   8
LEVEL002
 370
9
  62
1
 100
AcDbMText
  10
 2097.2566844450
  20
 2174.3793103448
  30
0.0
  40
 24.000000000000
  41
0.0
  71
7
  72
1
   1
\W1.000000;\T1.000000;型\W0.500000;\T1.000000;          \W1.000000;\T1.000000;式
   7
GMM001
  44
 0.79999984000003
   0
MTEXT
   5
485
 100
AcDbEntity
   8
LEVEL002
 370
9
  62
1
 100
AcDbMText
  10
 2097.2566844450
  20
 2222.3793103448
  30
0.0
  40
 24.000000000000
  41
0.0
  71
7
  72
1
   1
\W1.000000;\T1.000000;製　\W0.500000;\T1.000000;  \W1.000000;\T1.000000;品\W0.500000;\T1.000000;  \W1.000000;\T1.000000;　名
   7
GMM001
  44
 0.79999984000003
   0
MTEXT
   5
487
 100
AcDbEntity
   8
LEVEL002
 370
9
  62
1
 100
AcDbMText
  10
 2361.2566844450
  20
 2222.3793103448
  30
0.0
  40
 24.000000000000
  41
0.0
  71
7
  72
1
   1
\T1.000000;手打麺生地プレス成形機
   7
GMM001
  44
 0.79999984000003
   0
MTEXT
   5
489
 100
AcDbEntity
   8
LEVEL002
 370
9
  62
1
 100
AcDbMText
  10
 2053.7566844450
  20
 1932.8793103448
  30
0.0
  40
 24.000000000000
  41
0.0
  71
7
  72
1
   1
\T1.000000;材
   7
GMM001
  44
 0.79999984000003
   0
MTEXT
   5
48B
 100
AcDbEntity
   8
LEVEL002
 370
9
  62
1
 100
AcDbMText
  10
 2053.7566844450
  20
 1900.8793103448
  30
0.0
  40
 24.000000000000
  41
0.0
  71
7
  72
1
   1
\T1.000000;質
   7
GMM001
  44
 0.79999984000003
   0
MTEXT
   5
48D
 100
AcDbEntity
   8
LEVEL002
 370
9
  62
1
 100
AcDbMText
  10
 2097.2566844450
  20
 1838.3793103448
  30
0.0
  40
 24.000000000000
  41
0.0
  71
7
  72
1
   1
\T1.000000;コ－ド長さ
   7
GMM001
  44
 0.79999984000003
   0
MTEXT
   5
48F
 100
AcDbEntity
   8
LEVEL002
 370
9
  62
1
 100
AcDbMText
  10
 2097.2566844450
  20
 1790.3793103448
  30
0.0
  40
 24.000000000000
  41
0.0
  71
7
  72
1
   1
\T1.000000;電源プラグ
   7
GMM001
  44
 0.79999984000003
   0
MTEXT
   5
491
 100
AcDbEntity
   8
LEVEL002
 370
9
  62
1
 100
AcDbMText
  10
 2097.2566844450
  20
 1742.3793103448
  30
0.0
  40
 24.000000000000
  41
0.0
  71
7
  72
1
   1
\T1.000000;製品重量
   7
GMM001
  44
 0.79999984000003
   0
MTEXT
   5
493
 100
AcDbEntity
   8
LEVEL002
 370
9
  62
1
 100
AcDbMText
  10
 2361.2566844450
  20
 1838.3793103448
  30
0.0
  40
 24.000000000000
  41
0.0
  71
7
  72
1
   1
\T1.000000;３．０ｍ
   7
GMM001
  44
 0.79999984000003
   0
MTEXT
   5
495
 100
AcDbEntity
   8
LEVEL002
 370
9
  62
1
 100
AcDbMText
  10
 2097.2566844450
  20
 1934.3793103448
  30
0.0
  40
 24.000000000000
  41
0.0
  71
7
  72
1
   1
\T1.000000;凹凸ロ－ル
   7
GMM001
  44
 0.79999984000003
   0
MTEXT
   5
497
 100
AcDbEntity
   8
LEVEL002
 370
9
  62
1
 100
AcDbMText
  10
 2097.2566844450
  20
 1886.3793103448
  30
0.0
  40
 24.000000000000
  41
0.0
  71
7
  72
1
   1
\T1.000000;安全カバ－類
   7
GMM001
  44
 0.79999984000003
   0
MTEXT
   5
499
 100
AcDbEntity
   8
LEVEL002
 370
9
  62
1
 100
AcDbMText
  10
 2361.2566844450
  20
 1934.3793103448
  30
0.0
  40
 24.000000000000
  41
0.0
  71
7
  72
1
   1
\T1.000000;ポリプロピレン
   7
GMM001
  44
 0.79999984000003
   0
MTEXT
   5
49B
 100
AcDbEntity
   8
LEVEL002
 370
9
  62
1
 100
AcDbMText
  10
 2361.2566844450
  20
 2174.3793103448
  30
0.0
  40
 24.000000000000
  41
0.0
  71
7
  72
1
   1
\T1.000000;ロ－リングプレス　ＲＰ－３００Ｐ型
   7
GMM001
  44
 0.79999984000003
   0
MTEXT
   5
49D
 100
AcDbEntity
   8
LEVEL002
 370
9
  62
1
 100
AcDbMText
  10
 2361.2566844450
  20
 2078.3793103448
  30
0.0
  40
 24.000000000000
  41
0.0
  71
7
  72
1
   1
\T1.000000;６ｋｇ／回
   7
GMM001
  44
 0.79999984000003
   0
MTEXT
   5
49F
 100
AcDbEntity
   8
LEVEL002
 370
9
  62
1
 100
AcDbMText
  10
 2361.2566844450
  20
 1982.3793103448
  30
0.0
  40
 24.000000000000
  41
0.0
  71
7
  72
1
   1
\T1.000000;６００Ｗ　（コンプレッサ－仕様タイプは８００Ｗ）
   7
GMM001
  44
 0.79999984000003
   0
MTEXT
   5
4A1
 100
AcDbEntity
   8
LEVEL002
 370
9
  62
1
 100
AcDbMText
  10
 2361.2566844450
  20
 1742.3793103448
  30
0.0
  40
 24.000000000000
  41
0.0
  71
7
  72
1
   1
\T1.000000;２８０ｋｇ
   7
GMM001
  44
 0.79999984000003
   0
MTEXT
   5
4A3
 100
AcDbEntity
   8
LEVEL002
 370
9
  62
1
 100
AcDbMText
  10
 2361.2566844450
  20
 1886.3793103448
  30
0.0
  40
 24.000000000000
  41
0.0
  71
7
  72
1
   1
\T1.000000;ＳＵＳ４３０，ＳＰＣＣ
   7
GMM001
  44
 0.79999984000003
   0
MTEXT
   5
4A5
 100
AcDbEntity
   8
LEVEL002
 370
9
  62
1
 100
AcDbMText
  10
 2361.2566844450
  20
 2126.3793103448
  30
0.0
  40
 24.000000000000
  41
0.0
  71
7
  72
1
   1
\T1.000000;８９２×８５０×９７０
   7
GMM001
  44
 0.79999984000003
   0
MTEXT
   5
4A7
 100
AcDbEntity
   8
LEVEL002
 370
9
  62
1
 100
AcDbMText
  10
 2361.2566844450
  20
 2030.3793103448
  30
0.0
  40
 24.000000000000
  41
0.0
  71
7
  72
1
   1
\T1.000000;３相２００Ｖ　５０／６０Ｈｚ
   7
GMM001
  44
 0.79999984000003
   0
MTEXT
   5
4A9
 100
AcDbEntity
   8
LEVEL002
 370
9
  62
1
 100
AcDbMText
  10
 2361.2566844450
  20
 1790.3793103448
  30
0.0
  40
 24.000000000000
  41
0.0
  71
7
  72
1
   1
\T1.000000;４Ｐ２０Ａ
   7
GMM001
  44
 0.79999984000003
   0
DIMENSION
   5
4AA
 100
AcDbEntity
   8
LEVEL001
 370
30
   6
CONTINUOUS
  62
7
 100
AcDbDimension
   2
*D1
  10
 1924.7132893093
  20
 353.37931034483
  30
0.0
  11
 1924.7132893093
  21
 838.37931034483
  31
0.0
  70
0
   3
GMM001
 100
AcDbAlignedDimension
  13
 2393.9546686196
  23
 1323.3793103448
  33
0.0
  14
 2078.2305306886
  24
 353.37931034483
  34
0.0
  50
 270.00000000000
 100
AcDbRotatedDimension
   0
DIMENSION
   5
4AB
 100
AcDbEntity
   8
LEVEL001
 370
30
   6
CONTINUOUS
  62
7
 100
AcDbDimension
   2
*D2
  10
 1851.8584574659
  20
 1463.3793103448
  30
0.0
  11
 1851.8584574659
  21
 908.37931034483
  31
0.0
  70
0
   3
GMM001
 100
AcDbAlignedDimension
  13
 2078.2305306886
  23
 353.37931034483
  33
0.0
  14
 2219.6490066358
  24
 1463.3793103448
  34
0.0
  50
 90.000000000000
 100
AcDbRotatedDimension
   0
DIMENSION
   5
4AC
 100
AcDbEntity
   8
LEVEL001
 370
30
   6
CONTINUOUS
  62
7
 100
AcDbDimension
   2
*D3
  10
 2828.2566844450
  20
 1555.2961081223
  30
0.0
  11
 2578.2566844450
  21
 1555.2961081223
  31
0.0
  70
0
   3
GMM001
 100
AcDbAlignedDimension
  13
 2328.2566844450
  23
 1274.9990258942
  33
0.0
  14
 2828.2566844450
  24
 1163.9645431356
  34
0.0
 100
AcDbRotatedDimension
   0
DIMENSION
   5
4AD
 100
AcDbEntity
   8
LEVEL001
 370
30
   6
CONTINUOUS
  62
7
 100
AcDbDimension
   2
*D4
  10
 2068.2566844450
  20
 1555.2961081223
  30
0.0
  11
 2198.2566844450
  21
 1555.2961081223
  31
0.0
  70
0
   3
GMM001
 100
AcDbAlignedDimension
  13
 2328.2566844450
  23
 1485.8870086155
  33
0.0
  14
 2068.2566844450
  24
 1230.0249396499
  34
0.0
  50
 180.00000000000
 100
AcDbRotatedDimension
   0
DIMENSION
   5
4AE
 100
AcDbEntity
   8
LEVEL001
 370
30
   6
CONTINUOUS
  62
7
 100
AcDbDimension
   2
*D5
  10
 2903.2566844450
  20
 1555.2961081223
  30
0.0
  11
 2865.7566844450
  21
 1555.2961081223
  31
0.0
  70
0
   3
GMM001
 100
AcDbAlignedDimension
  13
 2828.2566844450
  23
 1173.0716160821
  33
0.0
  14
 2903.2566844450
  24
 1128.6578229786
  34
0.0
 100
AcDbRotatedDimension
   0
DIMENSION
   5
4AF
 100
AcDbEntity
   8
LEVEL001
 370
30
   6
CONTINUOUS
  62
7
 100
AcDbDimension
   2
*D6
  10
 2910.7566844450
  20
 1620.1060988407
  30
0.0
  11
 2485.7566844450
  21
 1620.1060988407
  31
0.0
  70
0
   3
GMM001
 100
AcDbAlignedDimension
  13
 2060.7566844450
  23
 1560.4585892622
  33
0.0
  14
 2910.7566844450
  24
 1560.9949877296
  34
0.0
 100
AcDbRotatedDimension
   0
DIMENSION
   5
4B0
 100
AcDbEntity
   8
LEVEL001
 370
30
   6
CONTINUOUS
  62
7
 100
AcDbDimension
   2
*D7
  10
 1419.2566844450
  20
 1322.7467417799
  30
0.0
  11
 1151.2566844222
  21
 1322.7467417799
  31
0.0
  70
0
   3
GMM001
 100
AcDbAlignedDimension
  13
 883.25668439940
  23
 1209.7612712545
  33
0.0
  14
 1419.2566844450
  24
 1212.6578229786
  34
0.0
 100
AcDbRotatedDimension
   0
DIMENSION
   5
4B1
 100
AcDbEntity
   8
LEVEL001
 370
30
   6
CONTINUOUS
  62
7
 100
AcDbDimension
   2
*D8
  10
 1597.2566844450
  20
 1388.2946345002
  30
0.0
  11
 1151.2566844222
  21
 1388.2946345002
  31
0.0
  70
0
   3
GMM001
 100
AcDbAlignedDimension
  13
 705.25668439940
  23
 1151.6356306687
  33
0.0
  14
 1597.2566844450
  24
 1153.6739448450
  34
0.0
 100
AcDbRotatedDimension
   0
MTEXT
   5
4B3
 100
AcDbEntity
   8
LEVEL001
 370
30
  62
7
 100
AcDbMText
  10
 2807.5862068966
  20
 275.58620689655
  30
0.0
  40
 24.000000000000
  41
0.0
  71
7
  72
1
   1
\W0.500000;\T1.000000;RP-300P \W1.000000;\T1.000000;承認図
   7
GMM001
  44
 0.79999984000003
   0
MTEXT
   5
4B5
 100
AcDbEntity
   8
LEVEL001
 370
30
  62
7
 100
AcDbMText
  10
 3242.5862068966
  20
 275.58620689655
  30
0.0
  40
 24.000000000000
  41
0.0
  71
7
  72
1
   1
\T1.000000;RP-300P-A
   7
GMM002
  44
 0.79999984000003
   0
MTEXT
   5
4B7
 100
AcDbEntity
   8
LEVEL001
 370
30
  62
7
 100
AcDbMText
  10
 3245.5862068966
  20
 170.09195402299
  30
0.0
  40
 24.000000000000
  41
0.0
  71
7
  72
1
   1
\T1.000000;'22
   7
GMM002
  44
 0.79999984000003
   0
MTEXT
   5
4B9
 100
AcDbEntity
   8
LEVEL001
 370
30
  62
7
 100
AcDbMText
  10
 3305.5862068966
  20
 167.58620689655
  30
0.0
  40
 24.000000000000
  41
0.0
  71
7
  72
1
   1
\T1.000000;3
   7
GMM002
  44
 0.79999984000003
   0
MTEXT
   5
4BB
 100
AcDbEntity
   8
LEVEL001
 370
30
  62
7
 100
AcDbMText
  10
 3347.5862068966
  20
 167.58620689655
  30
0.0
  40
 24.000000000000
  41
0.0
  71
7
  72
1
   1
\T1.000000;17
   7
GMM002
  44
 0.79999984000003
   0
MTEXT
   5
4BD
 100
AcDbEntity
   8
LEVEL001
 370
30
  62
7
 100
AcDbMText
  10
 3404.5862068966
  20
 167.58620689655
  30
0.0
  40
 24.000000000000
  41
0.0
  71
7
  72
1
   1
\T1.000000;宮崎
   7
GMM001
  44
 0.79999984000003
   0
ENDSEC
  0
SECTION
  2
OBJECTS
  0
DICTIONARY
  5
C
100
AcDbDictionary
  3
ACAD_GROUP
350
D
  3
ACAD_MLINESTYLE
350
1B
  3
DWGPROPS
350
1C
  0
DICTIONARY
  5
D
102
{ACAD_REACTORS
330
C
102
}
100
AcDbDictionary
  0
DICTIONARY
  5
1B
102
{ACAD_REACTORS
330
C
102
}
100
AcDbDictionary
  3
STANDARD
350
1D
  0
MLINESTYLE
  5
1D
102
{ACAD_REACTORS
330
1B
102
}
100
AcDbMlineStyle
  2
STANDARD
 70
     0
  3

 62
   256
 51
90.0
 52
90.0
 71
     2
 49
0.5
 62
   256
  6
BYLAYER
 49
-0.5
 62
   256
  6
BYLAYER
   0
XRECORD
   5
1C
 102
{ACAD_REACTORS
 330
C
 102
}
 330
C
 100
AcDbXrecord
 280
1
   1
DWGPROPS COOKIE
   2
 
   3
 
   4
 
   6
 
   7
RP-300P-A
   8
 
   9

 300
 = 
 301
 = 
 302
 = 
 303
 = 
 304
 = 
 305
 = 
 306
 = 
 307
 = 
 308
 = 
 309
 = 
  40
0.0
  41
 2459655.5000000
  42
 2459656.5000000
   1

  90
10
   0
ENDSEC
   0
EOF
