   0
SECTION
   2
HEADER
   9
$ACADVER
   1
AC1015
   9
$DWGCODEPAGE
   3
ANSI_932
   9
$LIMMIN
  10
0.0
  20
0.0
   9
$LIMMAX
  10
 2376.0000000000
  20
 1680.0000000000
   9
$EXTMIN
  10
0.0
  20
0.0
  30
0.0
   9
$EXTMAX
  10
 2376.0000000000
  20
 1680.0000000000
  30
0.0
   9
$LTSCALE
  40
 47.520000000000
   9
$HANDSEED
   5
56B
   0
ENDSEC
   0
SECTION
   2
TABLES
  0
TABLE
  2
VPORT
  5
8
100
AcDbSymbolTable
 70
     1
  0
VPORT
  5
56A
100
AcDbSymbolTableRecord
100
AcDbViewportTableRecord
  2
*ACTIVE
 70
     0
 10
0.0
 20
0.0
 11
1.0
 21
1.0
  12
 1188.0000000000
  22
 840.00000000000
 13
0.0
 23
0.0
 14
1.0
 24
1.0
 15
0.0
 25
0.0
 16
0.0
 26
0.0
 36
1.0
 17
0.0
 27
0.0
 37
0.0
  40
 2376.0000000000
  41
 1.4787878787879
 42
50.0
 43
0.0
 44
0.0
 50
0.0
 51
0.0
 71
     0
 72
   100
 73
     1
 74
     1
 75
     0
 76
     0
 77
     0
 78
     0
  0
ENDTAB
  0
TABLE
  2
LTYPE
  5
5
100
AcDbSymbolTable
 70
    25
  0
LTYPE
  5
12
100
AcDbSymbolTableRecord
100
AcDbLinetypeTableRecord
  2
BYBLOCK
 70
     0
  3

 72
    65
 73
     0
 40
0.0
  0
LTYPE
  5
13
100
AcDbSymbolTableRecord
100
AcDbLinetypeTableRecord
  2
BYLAYER
 70
     0
  3

 72
    65
 73
     0
 40
0.0
  0
LTYPE
  5
14
100
AcDbSymbolTableRecord
100
AcDbLinetypeTableRecord
  2
CONTINUOUS
 70
     0
  3
Solid line
 72
    65
 73
     0
 40
0.0
  0
LTYPE
  5
20
100
AcDbSymbolTableRecord
100
AcDbLinetypeTableRecord
  2
BORDER
 70
     0
  3
__ __ . __ __ . __ __ . __ __ . __ __ . __ __ .
 72
    65
 73
     6
 40
1.75
 49
0.5
 74
     0
 49
-0.25
 74
     0
 49
0.5
 74
     0
 49
-0.25
 74
     0
 49
0.0
 74
     0
 49
-0.25
 74
     0
  0
LTYPE
  5
21
100
AcDbSymbolTableRecord
100
AcDbLinetypeTableRecord
  2
BORDER2
 70
     0
  3
__.__.__.__.__.__.__.__.__.__.__.__.__.__.__.__
 72
    65
 73
     6
 40
0.875
 49
0.25
 74
     0
 49
-0.125
 74
     0
 49
0.25
 74
     0
 49
-0.125
 74
     0
 49
0.0
 74
     0
 49
-0.125
 74
     0
  0
LTYPE
  5
22
100
AcDbSymbolTableRecord
100
AcDbLinetypeTableRecord
  2
BORDERX2
 70
     0
  3
____  ____  .  ____  ____  .  ____  ____  .  __
 72
    65
 73
     6
 40
3.5
 49
1.0
 74
     0
 49
-0.5
 74
     0
 49
1.0
 74
     0
 49
-0.5
 74
     0
 49
0.0
 74
     0
 49
-0.5
 74
     0
  0
LTYPE
  5
23
100
AcDbSymbolTableRecord
100
AcDbLinetypeTableRecord
  2
CENTER
 70
     0
  3
____ _ ____ _ ____ _ ____ _ ____ _ ____ _ ____ 
 72
    65
 73
     4
 40
2.0
 49
1.25
 74
     0
 49
-0.25
 74
     0
 49
0.25
 74
     0
 49
-0.25
 74
     0
  0
LTYPE
  5
24
100
AcDbSymbolTableRecord
100
AcDbLinetypeTableRecord
  2
CENTER2
 70
     0
  3
___ _ ___ _ ___ _ ___ _ ___ _ ___ _ ___ _ ___ _
 72
    65
 73
     4
 40
1.125
 49
0.75
 74
     0
 49
-0.125
 74
     0
 49
0.125
 74
     0
 49
-0.125
 74
     0
  0
LTYPE
  5
25
100
AcDbSymbolTableRecord
100
AcDbLinetypeTableRecord
  2
CENTERX2
 70
     0
  3
________  __  ________  __  ________  __  _____
 72
    65
 73
     4
 40
4.0
 49
2.5
 74
     0
 49
-0.5
 74
     0
 49
0.5
 74
     0
 49
-0.5
 74
     0
  0
LTYPE
  5
26
100
AcDbSymbolTableRecord
100
AcDbLinetypeTableRecord
  2
DASHDOT
 70
     0
  3
__ . __ . __ . __ . __ . __ . __ . __ . __ . __
 72
    65
 73
     4
 40
1.0
 49
0.5
 74
     0
 49
-0.25
 74
     0
 49
0.0
 74
     0
 49
-0.25
 74
     0
  0
LTYPE
  5
27
100
AcDbSymbolTableRecord
100
AcDbLinetypeTableRecord
  2
DASHDOT2
 70
     0
  3
_._._._._._._._._._._._._._._._._._._._._._._._
 72
    65
 73
     4
 40
0.5
 49
0.25
 74
     0
 49
-0.125
 74
     0
 49
0.0
 74
     0
 49
-0.125
 74
     0
  0
LTYPE
  5
28
100
AcDbSymbolTableRecord
100
AcDbLinetypeTableRecord
  2
DASHDOTX2
 70
     0
  3
____  .  ____  .  ____  .  ____  .  ____  .  __
 72
    65
 73
     4
 40
2.0
 49
1.0
 74
     0
 49
-0.5
 74
     0
 49
0.0
 74
     0
 49
-0.5
 74
     0
  0
LTYPE
  5
29
100
AcDbSymbolTableRecord
100
AcDbLinetypeTableRecord
  2
DASHED
 70
     0
  3
__ __ __ __ __ __ __ __ __ __ __ __ __ __ __ __
 72
    65
 73
     2
 40
0.75
 49
0.5
 74
     0
 49
-0.25
 74
     0
  0
LTYPE
  5
2A
100
AcDbSymbolTableRecord
100
AcDbLinetypeTableRecord
  2
DASHED2
 70
     0
  3
_ _ _ _ _ _ _ _ _ _ _ _ _ _ _ _ _ _ _ _ _ _ _ _
 72
    65
 73
     2
 40
0.375
 49
0.25
 74
     0
 49
-0.125
 74
     0
  0
LTYPE
  5
2B
100
AcDbSymbolTableRecord
100
AcDbLinetypeTableRecord
  2
DASHEDX2
 70
     0
  3
____  ____  ____  ____  ____  ____  ____  ____ 
 72
    65
 73
     2
 40
1.5
 49
1.0
 74
     0
 49
-0.5
 74
     0
  0
LTYPE
  5
2C
100
AcDbSymbolTableRecord
100
AcDbLinetypeTableRecord
  2
DIVIDE
 70
     0
  3
____ . . ____ . . ____ . . ____ . . ____ . . __
 72
    65
 73
     6
 40
1.25
 49
0.5
 74
     0
 49
-0.25
 74
     0
 49
0.0
 74
     0
 49
-0.25
 74
     0
 49
0.0
 74
     0
 49
-0.25
 74
     0
  0
LTYPE
  5
2D
100
AcDbSymbolTableRecord
100
AcDbLinetypeTableRecord
  2
DIVIDE2
 70
     0
  3
__..__..__..__..__..__..__..__..__..__..__..__.
 72
    65
 73
     6
 40
0.625
 49
0.25
 74
     0
 49
-0.125
 74
     0
 49
0.0
 74
     0
 49
-0.125
 74
     0
 49
0.0
 74
     0
 49
-0.125
 74
     0
  0
LTYPE
  5
2E
100
AcDbSymbolTableRecord
100
AcDbLinetypeTableRecord
  2
DIVIDEX2
 70
     0
  3
________  .  .  ________  .  .  ________  .  . 
 72
    65
 73
     6
 40
2.5
 49
1.0
 74
     0
 49
-0.5
 74
     0
 49
0.0
 74
     0
 49
-0.5
 74
     0
 49
0.0
 74
     0
 49
-0.5
 74
     0
  0
LTYPE
  5
2F
100
AcDbSymbolTableRecord
100
AcDbLinetypeTableRecord
  2
DOT
 70
     0
  3
. . . . . . . . . . . . . . . . . . . . . . . .
 72
    65
 73
     2
 40
0.25
 49
0.0
 74
     0
 49
-0.25
 74
     0
  0
LTYPE
  5
30
100
AcDbSymbolTableRecord
100
AcDbLinetypeTableRecord
  2
DOT2
 70
     0
  3
...............................................
 72
    65
 73
     2
 40
0.125
 49
0.0
 74
     0
 49
-0.125
 74
     0
  0
LTYPE
  5
31
100
AcDbSymbolTableRecord
100
AcDbLinetypeTableRecord
  2
DOTX2
 70
     0
  3
.  .  .  .  .  .  .  .  .  .  .  .  .  .  .  . 
 72
    65
 73
     2
 40
0.5
 49
0.0
 74
     0
 49
-0.5
 74
     0
  0
LTYPE
  5
32
100
AcDbSymbolTableRecord
100
AcDbLinetypeTableRecord
  2
HIDDEN
 70
     0
  3
__ __ __ __ __ __ __ __ __ __ __ __ __ __ __ __
 72
    65
 73
     2
 40
0.375
 49
0.25
 74
     0
 49
-0.125
 74
     0
  0
LTYPE
  5
33
100
AcDbSymbolTableRecord
100
AcDbLinetypeTableRecord
  2
HIDDEN2
 70
     0
  3
_ _ _ _ _ _ _ _ _ _ _ _ _ _ _ _ _ _ _ _ _ _ _ _
 72
    65
 73
     2
 40
0.1875
 49
0.125
 74
     0
 49
-0.0625
 74
     0
  0
LTYPE
  5
34
100
AcDbSymbolTableRecord
100
AcDbLinetypeTableRecord
  2
HIDDENX2
 70
     0
  3
____ ____ ____ ____ ____ ____ ____ ____ ____ __
 72
    65
 73
     2
 40
0.75
 49
0.5
 74
     0
 49
-0.25
 74
     0
  0
LTYPE
  5
35
100
AcDbSymbolTableRecord
100
AcDbLinetypeTableRecord
  2
PHANTOM
 70
     0
  3
______  __  __  ______  __  __  ______  __  __ 
 72
    65
 73
     6
 40
2.5
 49
1.25
 74
     0
 49
-0.25
 74
     0
 49
0.25
 74
     0
 49
-0.25
 74
     0
 49
0.25
 74
     0
 49
-0.25
 74
     0
  0
LTYPE
  5
36
100
AcDbSymbolTableRecord
100
AcDbLinetypeTableRecord
  2
PHANTOM2
 70
     0
  3
___ _ _ ___ _ _ ___ _ _ ___ _ _ ___ _ _ ___ _ _
 72
    65
 73
     6
 40
1.25
 49
0.625
 74
     0
 49
-0.125
 74
     0
 49
0.125
 74
     0
 49
-0.125
 74
     0
 49
0.125
 74
     0
 49
-0.125
 74
     0
  0
LTYPE
  5
37
100
AcDbSymbolTableRecord
100
AcDbLinetypeTableRecord
  2
PHANTOMX2
 70
     0
  3
____________    ____    ____    ____________   
 72
    65
 73
     6
 40
5.0
 49
2.5
 74
     0
 49
-0.5
 74
     0
 49
0.5
 74
     0
 49
-0.5
 74
     0
 49
0.5
 74
     0
 49
-0.5
 74
     0
  0
ENDTAB
   0
TABLE
   2
LAYER
   5
2
 100
AcDbSymbolTable
  70
7
   0
LAYER
   5
E
 100
AcDbSymbolTableRecord
 100
AcDbLayerTableRecord
   2
0
  70
0
  62
7
   6
CONTINUOUS
 390
30
   0
LAYER
   5
39
 100
AcDbSymbolTableRecord
 100
AcDbLayerTableRecord
   2
LEVEL001
  70
0
  62
7
   6
CONTINUOUS
 390
30
   0
LAYER
   5
3A
 100
AcDbSymbolTableRecord
 100
AcDbLayerTableRecord
   2
LEVEL002
  70
0
  62
7
   6
CONTINUOUS
 390
30
   0
LAYER
   5
3B
 100
AcDbSymbolTableRecord
 100
AcDbLayerTableRecord
   2
LEVEL003
  70
0
  62
7
   6
CONTINUOUS
 390
30
   0
LAYER
   5
3C
 100
AcDbSymbolTableRecord
 100
AcDbLayerTableRecord
   2
内図枠(作図領域)
  70
0
  62
7
   6
CONTINUOUS
 390
30
   0
LAYER
   5
3D
 100
AcDbSymbolTableRecord
 100
AcDbLayerTableRecord
   2
外図枠(出力紙領域)
  70
0
  62
7
   6
CONTINUOUS
 390
30
   0
LAYER
   5
3E
 100
AcDbSymbolTableRecord
 100
AcDbLayerTableRecord
   2
部品表金額表示用
  70
0
  62
7
   6
CONTINUOUS
 390
30
   0
ENDTAB
  0
TABLE
  2
STYLE
  5
3
100
AcDbSymbolTable
  70
4
  0
STYLE
  5
F
100
AcDbSymbolTableRecord
100
AcDbTextStyleTableRecord
  2
STANDARD
 70
     0
 40
0.0
 41
1.0
 50
0.0
 71
     0
 42
0.2
  3
TXT
  4
BIGFONT
  0
STYLE
  5
38
100
AcDbSymbolTableRecord
100
AcDbTextStyleTableRecord
  2
STANDARD1
 70
     4
 40
0.0
 41
1.0
 50
0.0
 71
     0
 42
0.2
  3
TXT
  4
BIGFONT
   0
STYLE
   5
3F
 100
AcDbSymbolTableRecord
 100
AcDbTextStyleTableRecord
   2
GMM001
  70
0
  40
0.0
  41
 1.0000000000000
  50
0.0
  71
     0
  42
1.0
   3
txt.shx
   4
bigfont.shx
   0
STYLE
   5
40
 100
AcDbSymbolTableRecord
 100
AcDbTextStyleTableRecord
   2
GMM002
  70
0
  40
0.0
  41
 0.50000000000000
  50
0.0
  71
     0
  42
1.0
   3
txt.shx
   4
bigfont.shx
   0
ENDTAB
  0
TABLE
  2
VIEW
  5
6
100
AcDbSymbolTable
 70
     0
  0
ENDTAB
  0
TABLE
  2
UCS
  5
7
100
AcDbSymbolTable
 70
     0
  0
ENDTAB
  0
TABLE
  2
APPID
  5
9
100
AcDbSymbolTable
 70
     1
  0
APPID
  5
10
100
AcDbSymbolTableRecord
100
AcDbRegAppTableRecord
  2
ACAD
 70
     0
  0
ENDTAB
   0
TABLE
   2
DIMSTYLE
   5
A
 100
AcDbSymbolTable
  70
4
 100
AcDbDimStyleTable
  0
DIMSTYLE
105
1D
100
AcDbSymbolTableRecord
100
AcDbDimStyleTableRecord
  2
STANDARD
 70
     0
  3

  4

  5

  6

  7

 40
1.0
 41
0.18
 42
0.0625
 43
0.38
 44
0.18
 45
0.0
 46
0.0
 47
0.0
 48
0.0
140
0.18
141
0.09
142
0.0
143
25.4
144
1.0
145
0.0
146
1.0
147
0.09
 71
     0
 72
     0
 73
     1
 74
     1
 75
     0
 76
     0
 77
     0
 78
     0
170
     0
171
     2
172
     0
173
     0
174
     0
175
     0
176
     0
177
     0
178
     0
270
     2
271
     4
272
     4
273
     2
274
     2
340
F
275
     0
280
     0
281
     0
282
     0
283
     1
284
     0
285
     0
286
     0
287
     3
288
     0
   0
DIMSTYLE
 105
41
 100
AcDbSymbolTableRecord
 100
AcDbDimStyleTableRecord
   2
GMM001
  70
0
   3

   4

   5

   6
_OPEN30
   7
_OPEN30
  40
 1.0000000000000
  41
 12.000000000000
  42
0.0
  43
 32.000000000000
  44
 8.0000000000000
  45
0.0
  46
0.0
  47
0.0
  48
0.0
 140
 16.000000000000
 141
 4.0000000000000
 142
0.0
 143
 0.39400000000000E-1
 144
 1.0000000000000
 145
0.0
 146
 0.62500000000000
 147
 6.8571428571429
  71
0
  72
0
  73
0
  74
0
  75
0
  76
0
  77
3
  78
8
 170
0
 171
2
 172
1
 173
1
 174
0
 175
0
 176
1
 177
1
 178
7
 270
2
 271
6
 272
0
 273
2
 274
2
 340
3F
 275
0
 280
0
 281
0
 282
0
 283
1
 284
0
 285
0
 286
0
 287
3
 288
0
   0
DIMSTYLE
 105
42
 100
AcDbSymbolTableRecord
 100
AcDbDimStyleTableRecord
   2
GMM002
  70
0
   3

   4

   5

   6
_OPEN30
   7
_OPEN30
  40
 1.0000000000000
  41
 12.000000000000
  42
0.0
  43
 32.000000000000
  44
 8.0000000000000
  45
0.0
  46
0.0
  47
0.0
  48
0.0
 140
 16.000000000000
 141
 4.0000000000000
 142
0.0
 143
 0.39400000000000E-1
 144
 1.0000000000000
 145
0.0
 146
 0.62500000000000
 147
 6.8571428571429
  71
0
  72
0
  73
0
  74
0
  75
0
  76
0
  77
3
  78
8
 170
0
 171
2
 172
1
 173
1
 174
0
 175
0
 176
1
 177
1
 178
7
 270
2
 271
6
 272
0
 273
2
 274
2
 340
3F
 275
0
 280
0
 281
0
 282
0
 283
1
 284
0
 285
0
 286
0
 287
3
 288
0
   0
ENDTAB
  0
TABLE
  2
BLOCK_RECORD
  5
1
100
AcDbSymbolTable
 70
     0
  0
BLOCK_RECORD
  5
18
100
AcDbSymbolTableRecord
100
AcDbBlockTableRecord
  2
*MODEL_SPACE
  0
BLOCK_RECORD
  5
15
100
AcDbSymbolTableRecord
100
AcDbBlockTableRecord
  2
*PAPER_SPACE
   0
BLOCK_RECORD
   5
43
 100
AcDbSymbolTableRecord
 100
AcDbBlockTableRecord
   2
*D1
   0
BLOCK_RECORD
   5
44
 100
AcDbSymbolTableRecord
 100
AcDbBlockTableRecord
   2
*D2
   0
BLOCK_RECORD
   5
45
 100
AcDbSymbolTableRecord
 100
AcDbBlockTableRecord
   2
*D3
   0
BLOCK_RECORD
   5
46
 100
AcDbSymbolTableRecord
 100
AcDbBlockTableRecord
   2
*D4
   0
BLOCK_RECORD
   5
47
 100
AcDbSymbolTableRecord
 100
AcDbBlockTableRecord
   2
*D5
   0
BLOCK_RECORD
   5
48
 100
AcDbSymbolTableRecord
 100
AcDbBlockTableRecord
   2
*D6
   0
BLOCK_RECORD
   5
49
 100
AcDbSymbolTableRecord
 100
AcDbBlockTableRecord
   2
_ARCHTICK
   0
BLOCK_RECORD
   5
4A
 100
AcDbSymbolTableRecord
 100
AcDbBlockTableRecord
   2
_BOXBLANK
   0
BLOCK_RECORD
   5
4B
 100
AcDbSymbolTableRecord
 100
AcDbBlockTableRecord
   2
_BOXFILLED
   0
BLOCK_RECORD
   5
4C
 100
AcDbSymbolTableRecord
 100
AcDbBlockTableRecord
   2
_CLOSED
   0
BLOCK_RECORD
   5
4D
 100
AcDbSymbolTableRecord
 100
AcDbBlockTableRecord
   2
_CLOSEDBLANK
   0
BLOCK_RECORD
   5
4E
 100
AcDbSymbolTableRecord
 100
AcDbBlockTableRecord
   2
_DATUMBLANK
   0
BLOCK_RECORD
   5
4F
 100
AcDbSymbolTableRecord
 100
AcDbBlockTableRecord
   2
_DATUMFILLED
   0
BLOCK_RECORD
   5
50
 100
AcDbSymbolTableRecord
 100
AcDbBlockTableRecord
   2
_DOT
   0
BLOCK_RECORD
   5
51
 100
AcDbSymbolTableRecord
 100
AcDbBlockTableRecord
   2
_DOTBLANK
   0
BLOCK_RECORD
   5
52
 100
AcDbSymbolTableRecord
 100
AcDbBlockTableRecord
   2
_DOTSMALL
   0
BLOCK_RECORD
   5
53
 100
AcDbSymbolTableRecord
 100
AcDbBlockTableRecord
   2
_INTEGRAL
   0
BLOCK_RECORD
   5
54
 100
AcDbSymbolTableRecord
 100
AcDbBlockTableRecord
   2
_NONE
   0
BLOCK_RECORD
   5
55
 100
AcDbSymbolTableRecord
 100
AcDbBlockTableRecord
   2
_OBLIQUE
   0
BLOCK_RECORD
   5
56
 100
AcDbSymbolTableRecord
 100
AcDbBlockTableRecord
   2
_OPEN
   0
BLOCK_RECORD
   5
57
 100
AcDbSymbolTableRecord
 100
AcDbBlockTableRecord
   2
_OPEN30
   0
BLOCK_RECORD
   5
58
 100
AcDbSymbolTableRecord
 100
AcDbBlockTableRecord
   2
_OPEN90
   0
BLOCK_RECORD
   5
59
 100
AcDbSymbolTableRecord
 100
AcDbBlockTableRecord
   2
_ORIGIN
   0
ENDTAB
   0
ENDSEC
  0
SECTION
  2
BLOCKS
  0
BLOCK
  5
19
100
AcDbEntity
  8
0
100
AcDbBlockBegin
  2
*MODEL_SPACE
 70
     0
 10
0.0
 20
0.0
 30
0.0
  3
*MODEL_SPACE
  1

  0
ENDBLK
  5
1A
100
AcDbEntity
  8
0
100
AcDbBlockEnd
  0
BLOCK
  5
16
100
AcDbEntity
 67
     1
  8
0
100
AcDbBlockBegin
  2
*PAPER_SPACE
 70
     0
 10
0.0
 20
0.0
 30
0.0
  3
*PAPER_SPACE
  1

  0
ENDBLK
  5
17
100
AcDbEntity
 67
     1
  8
0
100
AcDbBlockEnd
   0
BLOCK
   5
5A
 100
AcDbEntity
   8
0
 100
AcDbBlockBegin
   2
_ARCHTICK
  70
0
  10
0.0
  20
0.0
  30
0.0
   3
_ARCHTICK
   0
POLYLINE
   5
5B
 100
AcDbEntity
   8
0
 370
-2
   6
BYBLOCK
  62
0
 100
AcDb2dPolyline
  66
1
  10
0.0
  20
0.0
  30
0.0
  70
1
  40
 0.15000000000000
  41
 0.15000000000000
   0
VERTEX
   5
5C
 100
AcDbEntity
   8
0
   6
BYBLOCK
  62
0
 100
AcDbVertex
 100
AcDb2dVertex
  10
-0.50000000000000
  20
-0.50000000000000
  30
0.0
  40
 0.15000000000000
  41
 0.15000000000000
   0
VERTEX
   5
5D
 100
AcDbEntity
   8
0
   6
BYBLOCK
  62
0
 100
AcDbVertex
 100
AcDb2dVertex
  10
 0.50000000000000
  20
 0.50000000000000
  30
0.0
  40
 0.15000000000000
  41
 0.15000000000000
   0
SEQEND
   5
5E
 100
AcDbEntity
   8
0
   6
BYBLOCK
  62
0
   0
ENDBLK
   5
5F
 100
AcDbEntity
   8
0
 100
AcDbBlockEnd
   0
BLOCK
   5
60
 100
AcDbEntity
   8
0
 100
AcDbBlockBegin
   2
_OBLIQUE
  70
0
  10
0.0
  20
0.0
  30
0.0
   3
_OBLIQUE
   0
LINE
   5
61
 100
AcDbEntity
   8
0
 370
-2
 100
AcDbLine
   6
BYBLOCK
  62
0
  10
-0.50000000000000
  20
-0.50000000000000
  30
0.0
  11
 0.50000000000000
  21
 0.50000000000000
  31
0.0
   0
ENDBLK
   5
62
 100
AcDbEntity
   8
0
 100
AcDbBlockEnd
   0
BLOCK
   5
63
 100
AcDbEntity
   8
0
 100
AcDbBlockBegin
   2
_BOXBLANK
  70
0
  10
0.0
  20
0.0
  30
0.0
   3
_BOXBLANK
   0
LINE
   5
64
 100
AcDbEntity
   8
0
 370
-2
 100
AcDbLine
   6
BYBLOCK
  62
0
  10
-0.50000000000000
  20
-0.50000000000000
  30
0.0
  11
 0.50000000000000
  21
-0.50000000000000
  31
0.0
   0
LINE
   5
65
 100
AcDbEntity
   8
0
 370
-2
 100
AcDbLine
   6
BYBLOCK
  62
0
  10
 0.50000000000000
  20
-0.50000000000000
  30
0.0
  11
 0.50000000000000
  21
 0.50000000000000
  31
0.0
   0
LINE
   5
66
 100
AcDbEntity
   8
0
 370
-2
 100
AcDbLine
   6
BYBLOCK
  62
0
  10
 0.50000000000000
  20
 0.50000000000000
  30
0.0
  11
-0.50000000000000
  21
 0.50000000000000
  31
0.0
   0
LINE
   5
67
 100
AcDbEntity
   8
0
 370
-2
 100
AcDbLine
   6
BYBLOCK
  62
0
  10
-0.50000000000000
  20
 0.50000000000000
  30
0.0
  11
-0.50000000000000
  21
-0.50000000000000
  31
0.0
   0
LINE
   5
68
 100
AcDbEntity
   8
0
 370
-2
 100
AcDbLine
   6
BYBLOCK
  62
0
  10
-0.50000000000000
  20
0.0
  30
0.0
  11
-1.0000000000000
  21
0.0
  31
0.0
   0
ENDBLK
   5
69
 100
AcDbEntity
   8
0
 100
AcDbBlockEnd
   0
BLOCK
   5
6A
 100
AcDbEntity
   8
0
 100
AcDbBlockBegin
   2
_BOXFILLED
  70
0
  10
0.0
  20
0.0
  30
0.0
   3
_BOXFILLED
   0
SOLID
   5
6B
 100
AcDbEntity
   8
0
 100
AcDbTrace
   6
BYBLOCK
  62
0
  10
-0.50000000000000
  20
 0.50000000000000
  30
0.0
  11
 0.50000000000000
  21
 0.50000000000000
  31
0.0
  12
-0.50000000000000
  22
-0.50000000000000
  32
0.0
  13
 0.50000000000000
  23
-0.50000000000000
  33
0.0
   0
LINE
   5
6C
 100
AcDbEntity
   8
0
 370
-2
 100
AcDbLine
   6
BYBLOCK
  62
0
  10
-0.50000000000000
  20
0.0
  30
0.0
  11
-1.0000000000000
  21
0.0
  31
0.0
   0
ENDBLK
   5
6D
 100
AcDbEntity
   8
0
 100
AcDbBlockEnd
   0
BLOCK
   5
6E
 100
AcDbEntity
   8
0
 100
AcDbBlockBegin
   2
_CLOSED
  70
0
  10
0.0
  20
0.0
  30
0.0
   3
_CLOSED
   0
LINE
   5
6F
 100
AcDbEntity
   8
0
 370
-2
 100
AcDbLine
   6
BYBLOCK
  62
0
  10
-1.0000000000000
  20
 0.16666666666667
  30
0.0
  11
0.0
  21
0.0
  31
0.0
   0
LINE
   5
70
 100
AcDbEntity
   8
0
 370
-2
 100
AcDbLine
   6
BYBLOCK
  62
0
  10
0.0
  20
0.0
  30
0.0
  11
-1.0000000000000
  21
-0.16666666666667
  31
0.0
   0
LINE
   5
71
 100
AcDbEntity
   8
0
 370
-2
 100
AcDbLine
   6
BYBLOCK
  62
0
  10
-1.0000000000000
  20
 0.16666666666667
  30
0.0
  11
-1.0000000000000
  21
-0.16666666666667
  31
0.0
   0
LINE
   5
72
 100
AcDbEntity
   8
0
 370
-2
 100
AcDbLine
   6
BYBLOCK
  62
0
  10
0.0
  20
0.0
  30
0.0
  11
-1.0000000000000
  21
0.0
  31
0.0
   0
ENDBLK
   5
73
 100
AcDbEntity
   8
0
 100
AcDbBlockEnd
   0
BLOCK
   5
74
 100
AcDbEntity
   8
0
 100
AcDbBlockBegin
   2
_OPEN
  70
0
  10
0.0
  20
0.0
  30
0.0
   3
_OPEN
   0
LINE
   5
75
 100
AcDbEntity
   8
0
 370
-2
 100
AcDbLine
   6
BYBLOCK
  62
0
  10
-1.0000000000000
  20
 0.16666666666667
  30
0.0
  11
0.0
  21
0.0
  31
0.0
   0
LINE
   5
76
 100
AcDbEntity
   8
0
 370
-2
 100
AcDbLine
   6
BYBLOCK
  62
0
  10
0.0
  20
0.0
  30
0.0
  11
-1.0000000000000
  21
-0.16666666666667
  31
0.0
   0
LINE
   5
77
 100
AcDbEntity
   8
0
 370
-2
 100
AcDbLine
   6
BYBLOCK
  62
0
  10
0.0
  20
0.0
  30
0.0
  11
-1.0000000000000
  21
0.0
  31
0.0
   0
ENDBLK
   5
78
 100
AcDbEntity
   8
0
 100
AcDbBlockEnd
   0
BLOCK
   5
79
 100
AcDbEntity
   8
0
 100
AcDbBlockBegin
   2
_OPEN30
  70
0
  10
0.0
  20
0.0
  30
0.0
   3
_OPEN30
   0
LINE
   5
7A
 100
AcDbEntity
   8
0
 370
-2
 100
AcDbLine
   6
BYBLOCK
  62
0
  10
-1.0000000000000
  20
 0.26794919243110
  30
0.0
  11
0.0
  21
0.0
  31
0.0
   0
LINE
   5
7B
 100
AcDbEntity
   8
0
 370
-2
 100
AcDbLine
   6
BYBLOCK
  62
0
  10
0.0
  20
0.0
  30
0.0
  11
-1.0000000000000
  21
-0.26794919243110
  31
0.0
   0
LINE
   5
7C
 100
AcDbEntity
   8
0
 370
-2
 100
AcDbLine
   6
BYBLOCK
  62
0
  10
0.0
  20
0.0
  30
0.0
  11
-1.0000000000000
  21
0.0
  31
0.0
   0
ENDBLK
   5
7D
 100
AcDbEntity
   8
0
 100
AcDbBlockEnd
   0
BLOCK
   5
7E
 100
AcDbEntity
   8
0
 100
AcDbBlockBegin
   2
_OPEN90
  70
0
  10
0.0
  20
0.0
  30
0.0
   3
_OPEN90
   0
LINE
   5
7F
 100
AcDbEntity
   8
0
 370
-2
 100
AcDbLine
   6
BYBLOCK
  62
0
  10
-0.50000000000000
  20
 0.50000000000000
  30
0.0
  11
0.0
  21
0.0
  31
0.0
   0
LINE
   5
80
 100
AcDbEntity
   8
0
 370
-2
 100
AcDbLine
   6
BYBLOCK
  62
0
  10
0.0
  20
0.0
  30
0.0
  11
-0.50000000000000
  21
-0.50000000000000
  31
0.0
   0
LINE
   5
81
 100
AcDbEntity
   8
0
 370
-2
 100
AcDbLine
   6
BYBLOCK
  62
0
  10
0.0
  20
0.0
  30
0.0
  11
-1.0000000000000
  21
0.0
  31
0.0
   0
ENDBLK
   5
82
 100
AcDbEntity
   8
0
 100
AcDbBlockEnd
   0
BLOCK
   5
83
 100
AcDbEntity
   8
0
 100
AcDbBlockBegin
   2
_CLOSEDBLANK
  70
0
  10
0.0
  20
0.0
  30
0.0
   3
_CLOSEDBLANK
   0
LINE
   5
84
 100
AcDbEntity
   8
0
 370
-2
 100
AcDbLine
   6
BYBLOCK
  62
0
  10
-1.0000000000000
  20
 0.16666666666667
  30
0.0
  11
0.0
  21
0.0
  31
0.0
   0
LINE
   5
85
 100
AcDbEntity
   8
0
 370
-2
 100
AcDbLine
   6
BYBLOCK
  62
0
  10
0.0
  20
0.0
  30
0.0
  11
-1.0000000000000
  21
-0.16666666666667
  31
0.0
   0
LINE
   5
86
 100
AcDbEntity
   8
0
 370
-2
 100
AcDbLine
   6
BYBLOCK
  62
0
  10
-1.0000000000000
  20
 0.16666666666667
  30
0.0
  11
-1.0000000000000
  21
-0.16666666666667
  31
0.0
   0
ENDBLK
   5
87
 100
AcDbEntity
   8
0
 100
AcDbBlockEnd
   0
BLOCK
   5
88
 100
AcDbEntity
   8
0
 100
AcDbBlockBegin
   2
_DOT
  70
0
  10
0.0
  20
0.0
  30
0.0
   3
_DOT
   0
POLYLINE
   5
89
 100
AcDbEntity
   8
0
 370
-2
   6
BYBLOCK
  62
0
 100
AcDb2dPolyline
  66
1
  10
0.0
  20
0.0
  30
0.0
  70
1
  40
 0.50000000000000
  41
 0.50000000000000
   0
VERTEX
   5
8A
 100
AcDbEntity
   8
0
   6
BYBLOCK
  62
0
 100
AcDbVertex
 100
AcDb2dVertex
  10
-0.25000000000000
  20
0.0
  30
0.0
  42
 1.0000000000000
  40
 0.50000000000000
  41
 0.50000000000000
   0
VERTEX
   5
8B
 100
AcDbEntity
   8
0
   6
BYBLOCK
  62
0
 100
AcDbVertex
 100
AcDb2dVertex
  10
 0.25000000000000
  20
0.0
  30
0.0
  42
 1.0000000000000
  40
 0.50000000000000
  41
 0.50000000000000
   0
SEQEND
   5
8C
 100
AcDbEntity
   8
0
   6
BYBLOCK
  62
0
   0
LINE
   5
8D
 100
AcDbEntity
   8
0
 370
-2
 100
AcDbLine
   6
BYBLOCK
  62
0
  10
-0.50000000000000
  20
0.0
  30
0.0
  11
-1.0000000000000
  21
0.0
  31
0.0
   0
ENDBLK
   5
8E
 100
AcDbEntity
   8
0
 100
AcDbBlockEnd
   0
BLOCK
   5
8F
 100
AcDbEntity
   8
0
 100
AcDbBlockBegin
   2
_DOTSMALL
  70
0
  10
0.0
  20
0.0
  30
0.0
   3
_DOTSMALL
   0
POLYLINE
   5
90
 100
AcDbEntity
   8
0
 370
-2
   6
BYBLOCK
  62
0
 100
AcDb2dPolyline
  66
1
  10
0.0
  20
0.0
  30
0.0
  70
1
  40
 0.50000000000000
  41
 0.50000000000000
   0
VERTEX
   5
91
 100
AcDbEntity
   8
0
   6
BYBLOCK
  62
0
 100
AcDbVertex
 100
AcDb2dVertex
  10
-0.62500000000000E-1
  20
0.0
  30
0.0
  42
 1.0000000000000
  40
 0.50000000000000
  41
 0.50000000000000
   0
VERTEX
   5
92
 100
AcDbEntity
   8
0
   6
BYBLOCK
  62
0
 100
AcDbVertex
 100
AcDb2dVertex
  10
 0.62500000000000E-1
  20
0.0
  30
0.0
  42
 1.0000000000000
  40
 0.50000000000000
  41
 0.50000000000000
   0
SEQEND
   5
93
 100
AcDbEntity
   8
0
   6
BYBLOCK
  62
0
   0
ENDBLK
   5
94
 100
AcDbEntity
   8
0
 100
AcDbBlockEnd
   0
BLOCK
   5
95
 100
AcDbEntity
   8
0
 100
AcDbBlockBegin
   2
_DATUMBLANK
  70
0
  10
0.0
  20
0.0
  30
0.0
   3
_DATUMBLANK
   0
LINE
   5
96
 100
AcDbEntity
   8
0
 370
-2
 100
AcDbLine
   6
BYBLOCK
  62
0
  10
0.0
  20
 0.57735027000000
  30
0.0
  11
-1.0000000000000
  21
0.0
  31
0.0
   0
LINE
   5
97
 100
AcDbEntity
   8
0
 370
-2
 100
AcDbLine
   6
BYBLOCK
  62
0
  10
-1.0000000000000
  20
0.0
  30
0.0
  11
0.0
  21
-0.57735027000000
  31
0.0
   0
LINE
   5
98
 100
AcDbEntity
   8
0
 370
-2
 100
AcDbLine
   6
BYBLOCK
  62
0
  10
0.0
  20
-0.57735027000000
  30
0.0
  11
0.0
  21
 0.57735027000000
  31
0.0
   0
ENDBLK
   5
99
 100
AcDbEntity
   8
0
 100
AcDbBlockEnd
   0
BLOCK
   5
9A
 100
AcDbEntity
   8
0
 100
AcDbBlockBegin
   2
_DATUMFILLED
  70
0
  10
0.0
  20
0.0
  30
0.0
   3
_DATUMFILLED
   0
SOLID
   5
9B
 100
AcDbEntity
   8
0
 100
AcDbTrace
   6
BYBLOCK
  62
0
  10
0.0
  20
 0.57735027000000
  30
0.0
  11
-1.0000000000000
  21
0.0
  31
0.0
  12
0.0
  22
-0.57735027000000
  32
0.0
  13
0.0
  23
-0.57735027000000
  33
0.0
   0
ENDBLK
   5
9C
 100
AcDbEntity
   8
0
 100
AcDbBlockEnd
   0
BLOCK
   5
9D
 100
AcDbEntity
   8
0
 100
AcDbBlockBegin
   2
_ORIGIN
  70
0
  10
0.0
  20
0.0
  30
0.0
   3
_ORIGIN
   0
CIRCLE
   5
9E
 100
AcDbEntity
   8
0
 370
-2
 100
AcDbCircle
   6
BYBLOCK
  62
0
  10
0.0
  20
0.0
  30
0.0
  40
 0.50000000000000
   0
LINE
   5
9F
 100
AcDbEntity
   8
0
 370
-2
 100
AcDbLine
   6
BYBLOCK
  62
0
  10
0.0
  20
0.0
  30
0.0
  11
-1.0000000000000
  21
0.0
  31
0.0
   0
ENDBLK
   5
A0
 100
AcDbEntity
   8
0
 100
AcDbBlockEnd
   0
BLOCK
   5
A1
 100
AcDbEntity
   8
0
 100
AcDbBlockBegin
   2
_NONE
  70
0
  10
0.0
  20
0.0
  30
0.0
   3
_NONE
   0
CIRCLE
   5
A2
 100
AcDbEntity
   8
0
 370
-2
 100
AcDbCircle
   6
BYBLOCK
  62
0
  10
0.0
  20
0.0
  30
0.0
  40
 0.25000000000000
   0
ENDBLK
   5
A3
 100
AcDbEntity
   8
0
 100
AcDbBlockEnd
   0
BLOCK
   5
A4
 100
AcDbEntity
   8
0
 100
AcDbBlockBegin
   2
_DOTBLANK
  70
0
  10
0.0
  20
0.0
  30
0.0
   3
_DOTBLANK
   0
CIRCLE
   5
A5
 100
AcDbEntity
   8
0
 370
-2
 100
AcDbCircle
   6
BYBLOCK
  62
0
  10
0.0
  20
0.0
  30
0.0
  40
 0.50000000000000
   0
LINE
   5
A6
 100
AcDbEntity
   8
0
 370
-2
 100
AcDbLine
   6
BYBLOCK
  62
0
  10
-0.50000000000000
  20
0.0
  30
0.0
  11
-1.0000000000000
  21
0.0
  31
0.0
   0
ENDBLK
   5
A7
 100
AcDbEntity
   8
0
 100
AcDbBlockEnd
   0
BLOCK
   5
A8
 100
AcDbEntity
   8
0
 100
AcDbBlockBegin
   2
_INTEGRAL
  70
0
  10
0.0
  20
0.0
  30
0.0
   3
_INTEGRAL
   0
ARC
   5
A9
 100
AcDbEntity
   8
0
 370
-2
   6
BYBLOCK
  62
0
 100
AcDbCircle
  10
 0.44488800000000
  20
-0.91335000000000E-1
  30
0.0
  40
 0.45416700000000
 100
AcDbArc
  50
 102.00000000000
  51
 168.00000000000
   0
ARC
   5
AA
 100
AcDbEntity
   8
0
 370
-2
   6
BYBLOCK
  62
0
 100
AcDbCircle
  10
-0.44488800000000
  20
 0.91335000000000E-1
  30
0.0
  40
 0.45416700000000
 100
AcDbArc
  50
 282.00000000000
  51
 348.00000000000
   0
ENDBLK
   5
AB
 100
AcDbEntity
   8
0
 100
AcDbBlockEnd
   0
BLOCK
   5
AC
 100
AcDbEntity
   8
0
 100
AcDbBlockBegin
   2
*D1
  70
65
  10
0.0
  20
0.0
  30
0.0
   3
*D1
   0
LINE
   5
AD
 100
AcDbEntity
   8
LEVEL001
 370
9
 100
AcDbLine
   6
CONTINUOUS
  62
1
  10
 1331.8485632184
  20
 667.82991242474
  30
0.0
  11
 1331.8485632184
  21
 933.21184495703
  31
0.0
   0
LINE
   5
AE
 100
AcDbEntity
   8
LEVEL001
 370
9
 100
AcDbLine
   6
CONTINUOUS
  62
1
  10
 1742.8485632184
  20
 667.82991242474
  30
0.0
  11
 1742.8485632184
  21
 933.21184495703
  31
0.0
   0
LINE
   5
AF
 100
AcDbEntity
   8
LEVEL001
 370
9
 100
AcDbLine
   6
CONTINUOUS
  62
1
  10
 1331.8485632184
  20
 925.21184495703
  30
0.0
  11
 1537.3485632184
  21
 925.21184495703
  31
0.0
   0
LINE
   5
B0
 100
AcDbEntity
   8
LEVEL001
 370
9
 100
AcDbLine
   6
CONTINUOUS
  62
1
  10
 1742.8485632184
  20
 925.21184495703
  30
0.0
  11
 1537.3485632184
  21
 925.21184495703
  31
0.0
   0
INSERT
   5
B1
 100
AcDbEntity
   8
LEVEL001
   6
CONTINUOUS
  62
1
 100
AcDbBlockReference
   2
_OPEN30
  10
 1331.8485632184
  20
 925.21184495703
  30
0.0
  41
 12.000000000000
  42
 12.000000000000
  43
 12.000000000000
  50
 180.00000000000
   0
INSERT
   5
B2
 100
AcDbEntity
   8
LEVEL001
   6
CONTINUOUS
  62
1
 100
AcDbBlockReference
   2
_OPEN30
  10
 1742.8485632184
  20
 925.21184495703
  30
0.0
  41
 12.000000000000
  42
 12.000000000000
  43
 12.000000000000
  50
0.0
   0
MTEXT
   5
B3
 100
AcDbEntity
   8
LEVEL001
 370
20
  62
7
 100
AcDbMText
  10
 1537.3485632184
  20
 932.06898781417
  30
0.0
  40
 16.000000000000
  41
0.0
  71
8
  72
1
   1
\A1;{4}{11}
   7
GMM001
   0
ENDBLK
   5
B4
 100
AcDbEntity
   8
0
 100
AcDbBlockEnd
   0
BLOCK
   5
B5
 100
AcDbEntity
   8
0
 100
AcDbBlockBegin
   2
*D2
  70
65
  10
0.0
  20
0.0
  30
0.0
   3
*D2
   0
LINE
   5
B6
 100
AcDbEntity
   8
LEVEL001
 370
9
 100
AcDbLine
   6
CONTINUOUS
  62
1
  10
 1742.8485632184
  20
 667.82991242474
  30
0.0
  11
 1742.8485632184
  21
 933.21184495703
  31
0.0
   0
LINE
   5
B7
 100
AcDbEntity
   8
LEVEL001
 370
9
 100
AcDbLine
   6
CONTINUOUS
  62
1
  10
 1947.8485632184
  20
 664.32991242474
  30
0.0
  11
 1947.8485632184
  21
 933.21184495703
  31
0.0
   0
LINE
   5
B8
 100
AcDbEntity
   8
LEVEL001
 370
9
 100
AcDbLine
   6
CONTINUOUS
  62
1
  10
 1742.8485632184
  20
 925.21184495703
  30
0.0
  11
 1845.3485632184
  21
 925.21184495703
  31
0.0
   0
LINE
   5
B9
 100
AcDbEntity
   8
LEVEL001
 370
9
 100
AcDbLine
   6
CONTINUOUS
  62
1
  10
 1947.8485632184
  20
 925.21184495703
  30
0.0
  11
 1845.3485632184
  21
 925.21184495703
  31
0.0
   0
INSERT
   5
BA
 100
AcDbEntity
   8
LEVEL001
   6
CONTINUOUS
  62
1
 100
AcDbBlockReference
   2
_OPEN30
  10
 1742.8485632184
  20
 925.21184495703
  30
0.0
  41
 12.000000000000
  42
 12.000000000000
  43
 12.000000000000
  50
 180.00000000000
   0
INSERT
   5
BB
 100
AcDbEntity
   8
LEVEL001
   6
CONTINUOUS
  62
1
 100
AcDbBlockReference
   2
_OPEN30
  10
 1947.8485632184
  20
 925.21184495703
  30
0.0
  41
 12.000000000000
  42
 12.000000000000
  43
 12.000000000000
  50
0.0
   0
MTEXT
   5
BC
 100
AcDbEntity
   8
LEVEL001
 370
20
  62
7
 100
AcDbMText
  10
 1845.3485632184
  20
 932.06898781417
  30
0.0
  40
 16.000000000000
  41
0.0
  71
8
  72
1
   1
\A1;{2}{0}{5}
   7
GMM001
   0
ENDBLK
   5
BD
 100
AcDbEntity
   8
0
 100
AcDbBlockEnd
   0
BLOCK
   5
BE
 100
AcDbEntity
   8
0
 100
AcDbBlockBegin
   2
*D3
  70
65
  10
0.0
  20
0.0
  30
0.0
   3
*D3
   0
LINE
   5
BF
 100
AcDbEntity
   8
LEVEL001
 370
9
 100
AcDbLine
   6
CONTINUOUS
  62
1
  10
 1329.8485632184
  20
 671.11613429724
  30
0.0
  11
 1329.8485632184
  21
 974.63592995497
  31
0.0
   0
LINE
   5
C0
 100
AcDbEntity
   8
LEVEL001
 370
9
 100
AcDbLine
   6
CONTINUOUS
  62
1
  10
 1949.8485632184
  20
 667.82622369698
  30
0.0
  11
 1949.8485632184
  21
 974.63592995497
  31
0.0
   0
LINE
   5
C1
 100
AcDbEntity
   8
LEVEL001
 370
9
 100
AcDbLine
   6
CONTINUOUS
  62
1
  10
 1329.8485632184
  20
 966.63592995497
  30
0.0
  11
 1639.8485632184
  21
 966.63592995497
  31
0.0
   0
LINE
   5
C2
 100
AcDbEntity
   8
LEVEL001
 370
9
 100
AcDbLine
   6
CONTINUOUS
  62
1
  10
 1949.8485632184
  20
 966.63592995497
  30
0.0
  11
 1639.8485632184
  21
 966.63592995497
  31
0.0
   0
INSERT
   5
C3
 100
AcDbEntity
   8
LEVEL001
   6
CONTINUOUS
  62
1
 100
AcDbBlockReference
   2
_OPEN30
  10
 1329.8485632184
  20
 966.63592995497
  30
0.0
  41
 12.000000000000
  42
 12.000000000000
  43
 12.000000000000
  50
 180.00000000000
   0
INSERT
   5
C4
 100
AcDbEntity
   8
LEVEL001
   6
CONTINUOUS
  62
1
 100
AcDbBlockReference
   2
_OPEN30
  10
 1949.8485632184
  20
 966.63592995497
  30
0.0
  41
 12.000000000000
  42
 12.000000000000
  43
 12.000000000000
  50
0.0
   0
MTEXT
   5
C5
 100
AcDbEntity
   8
LEVEL001
 370
20
  62
7
 100
AcDbMText
  10
 1639.8485632184
  20
 973.49307281211
  30
0.0
  40
 16.000000000000
  41
0.0
  71
8
  72
1
   1
\A1;620
   7
GMM001
   0
ENDBLK
   5
C6
 100
AcDbEntity
   8
0
 100
AcDbBlockEnd
   0
BLOCK
   5
C7
 100
AcDbEntity
   8
0
 100
AcDbBlockBegin
   2
*D4
  70
65
  10
0.0
  20
0.0
  30
0.0
   3
*D4
   0
LINE
   5
C8
 100
AcDbEntity
   8
LEVEL001
 370
9
 100
AcDbLine
   6
CONTINUOUS
  62
1
  10
 1451.2396114466
  20
 893.82991242474
  30
0.0
  11
 1145.8623348400
  21
 893.82991242474
  31
0.0
   0
LINE
   5
C9
 100
AcDbEntity
   8
LEVEL001
 370
9
 100
AcDbLine
   6
CONTINUOUS
  62
1
  10
 1313.8485632184
  20
 128.82991242474
  30
0.0
  11
 1145.8623348400
  21
 128.82991242474
  31
0.0
   0
LINE
   5
CA
 100
AcDbEntity
   8
LEVEL001
 370
9
 100
AcDbLine
   6
CONTINUOUS
  62
1
  10
 1153.8623348400
  20
 893.82991242474
  30
0.0
  11
 1153.8623348400
  21
 511.32991242474
  31
0.0
   0
LINE
   5
CB
 100
AcDbEntity
   8
LEVEL001
 370
9
 100
AcDbLine
   6
CONTINUOUS
  62
1
  10
 1153.8623348400
  20
 128.82991242474
  30
0.0
  11
 1153.8623348400
  21
 511.32991242474
  31
0.0
   0
INSERT
   5
CC
 100
AcDbEntity
   8
LEVEL001
   6
CONTINUOUS
  62
1
 100
AcDbBlockReference
   2
_OPEN30
  10
 1153.8623348400
  20
 893.82991242474
  30
0.0
  41
 12.000000000000
  42
 12.000000000000
  43
 12.000000000000
  50
 90.000000000000
   0
INSERT
   5
CD
 100
AcDbEntity
   8
LEVEL001
   6
CONTINUOUS
  62
1
 100
AcDbBlockReference
   2
_OPEN30
  10
 1153.8623348400
  20
 128.82991242474
  30
0.0
  41
 12.000000000000
  42
 12.000000000000
  43
 12.000000000000
  50
 270.00000000000
   0
MTEXT
   5
CE
 100
AcDbEntity
   8
LEVEL001
 370
20
  62
7
 100
AcDbMText
  10
 1147.0051919829
  20
 511.32991242474
  30
0.0
  40
 16.000000000000
  41
0.0
  71
8
  72
1
   1
\A1;{765}
   7
GMM001
  11
0.0
  21
 1.0000000000000
  31
0.0
   0
ENDBLK
   5
CF
 100
AcDbEntity
   8
0
 100
AcDbBlockEnd
   0
BLOCK
   5
D0
 100
AcDbEntity
   8
0
 100
AcDbBlockBegin
   2
*D5
  70
65
  10
0.0
  20
0.0
  30
0.0
   3
*D5
   0
LINE
   5
D1
 100
AcDbEntity
   8
LEVEL001
 370
9
 100
AcDbLine
   6
CONTINUOUS
  62
1
  10
 1516.8307211050
  20
 788.82991242474
  30
0.0
  11
 1192.1410659326
  21
 788.82991242474
  31
0.0
   0
LINE
   5
D2
 100
AcDbEntity
   8
LEVEL001
 370
9
 100
AcDbLine
   6
CONTINUOUS
  62
1
  10
 1313.8485632184
  20
 128.82991242474
  30
0.0
  11
 1192.1410659326
  21
 128.82991242474
  31
0.0
   0
LINE
   5
D3
 100
AcDbEntity
   8
LEVEL001
 370
9
 100
AcDbLine
   6
CONTINUOUS
  62
1
  10
 1200.1410659326
  20
 788.82991242474
  30
0.0
  11
 1200.1410659326
  21
 458.82991242474
  31
0.0
   0
LINE
   5
D4
 100
AcDbEntity
   8
LEVEL001
 370
9
 100
AcDbLine
   6
CONTINUOUS
  62
1
  10
 1200.1410659326
  20
 128.82991242474
  30
0.0
  11
 1200.1410659326
  21
 458.82991242474
  31
0.0
   0
INSERT
   5
D5
 100
AcDbEntity
   8
LEVEL001
   6
CONTINUOUS
  62
1
 100
AcDbBlockReference
   2
_OPEN30
  10
 1200.1410659326
  20
 788.82991242474
  30
0.0
  41
 12.000000000000
  42
 12.000000000000
  43
 12.000000000000
  50
 90.000000000000
   0
INSERT
   5
D6
 100
AcDbEntity
   8
LEVEL001
   6
CONTINUOUS
  62
1
 100
AcDbBlockReference
   2
_OPEN30
  10
 1200.1410659326
  20
 128.82991242474
  30
0.0
  41
 12.000000000000
  42
 12.000000000000
  43
 12.000000000000
  50
 270.00000000000
   0
MTEXT
   5
D7
 100
AcDbEntity
   8
LEVEL001
 370
20
  62
7
 100
AcDbMText
  10
 1193.2839230755
  20
 458.82991242474
  30
0.0
  40
 16.000000000000
  41
0.0
  71
8
  72
1
   1
\A1;{66}{0}
   7
GMM001
  11
0.0
  21
 1.0000000000000
  31
0.0
   0
ENDBLK
   5
D8
 100
AcDbEntity
   8
0
 100
AcDbBlockEnd
   0
BLOCK
   5
D9
 100
AcDbEntity
   8
0
 100
AcDbBlockBegin
   2
*D6
  70
65
  10
0.0
  20
0.0
  30
0.0
   3
*D6
   0
LINE
   5
DA
 100
AcDbEntity
   8
LEVEL001
 370
9
 100
AcDbLine
   6
CONTINUOUS
  62
1
  10
 428.84856321839
  20
 691.93073655420
  30
0.0
  11
 428.84856321839
  21
 856.98820781857
  31
0.0
   0
LINE
   5
DB
 100
AcDbEntity
   8
LEVEL001
 370
9
 100
AcDbLine
   6
CONTINUOUS
  62
1
  10
 988.84856321839
  20
 689.99970207144
  30
0.0
  11
 988.84856321839
  21
 856.98820781857
  31
0.0
   0
LINE
   5
DC
 100
AcDbEntity
   8
LEVEL001
 370
9
 100
AcDbLine
   6
CONTINUOUS
  62
1
  10
 428.84856321839
  20
 848.98820781857
  30
0.0
  11
 708.84856321839
  21
 848.98820781857
  31
0.0
   0
LINE
   5
DD
 100
AcDbEntity
   8
LEVEL001
 370
9
 100
AcDbLine
   6
CONTINUOUS
  62
1
  10
 988.84856321839
  20
 848.98820781857
  30
0.0
  11
 708.84856321839
  21
 848.98820781857
  31
0.0
   0
INSERT
   5
DE
 100
AcDbEntity
   8
LEVEL001
   6
CONTINUOUS
  62
1
 100
AcDbBlockReference
   2
_OPEN30
  10
 428.84856321839
  20
 848.98820781857
  30
0.0
  41
 12.000000000000
  42
 12.000000000000
  43
 12.000000000000
  50
 180.00000000000
   0
INSERT
   5
DF
 100
AcDbEntity
   8
LEVEL001
   6
CONTINUOUS
  62
1
 100
AcDbBlockReference
   2
_OPEN30
  10
 988.84856321839
  20
 848.98820781857
  30
0.0
  41
 12.000000000000
  42
 12.000000000000
  43
 12.000000000000
  50
0.0
   0
MTEXT
   5
E0
 100
AcDbEntity
   8
LEVEL001
 370
20
  62
7
 100
AcDbMText
  10
 708.84856321839
  20
 855.84535067571
  30
0.0
  40
 16.000000000000
  41
0.0
  71
8
  72
1
   1
\A1;{56}{0}
   7
GMM001
   0
ENDBLK
   5
E1
 100
AcDbEntity
   8
0
 100
AcDbBlockEnd
   0
ENDSEC
   0
SECTION
   2
ENTITIES
   0
LINE
   5
E2
 100
AcDbEntity
   8
LEVEL001
 370
20
 100
AcDbLine
   6
CONTINUOUS
  62
7
  10
 49.517241379300
  20
 1622.3448275862
  30
0.0
  11
 49.517241379300
  21
 46.344827586207
  31
0.0
   0
LINE
   5
E3
 100
AcDbEntity
   8
LEVEL001
 370
20
 100
AcDbLine
   6
CONTINUOUS
  62
7
  10
 49.517241379300
  20
 46.344827586207
  30
0.0
  11
 2321.5172413793
  21
 46.344827586207
  31
0.0
   0
LINE
   5
E4
 100
AcDbEntity
   8
LEVEL001
 370
20
 100
AcDbLine
   6
CONTINUOUS
  62
7
  10
 2321.5172413793
  20
 46.344827586207
  30
0.0
  11
 2321.5172413793
  21
 1622.3448275862
  31
0.0
   0
LINE
   5
E5
 100
AcDbEntity
   8
LEVEL001
 370
20
 100
AcDbLine
   6
CONTINUOUS
  62
7
  10
 2321.5172413793
  20
 1622.3448275862
  30
0.0
  11
 49.517241379300
  21
 1622.3448275862
  31
0.0
   0
LINE
   5
E6
 100
AcDbEntity
   8
LEVEL001
 370
20
 100
AcDbLine
   6
CONTINUOUS
  62
7
  10
 1781.5172413793
  20
 86.344827586207
  30
0.0
  11
 2321.5172413793
  21
 86.344827586207
  31
0.0
   0
LINE
   5
E7
 100
AcDbEntity
   8
LEVEL001
 370
20
 100
AcDbLine
   6
CONTINUOUS
  62
7
  10
 2321.5172413793
  20
 118.34482758621
  30
0.0
  11
 1933.5172413793
  21
 118.34482758621
  31
0.0
   0
LINE
   5
E8
 100
AcDbEntity
   8
LEVEL001
 370
20
 100
AcDbLine
   6
CONTINUOUS
  62
7
  10
 1781.5172413793
  20
 150.34482758621
  30
0.0
  11
 2321.5172413793
  21
 150.34482758621
  31
0.0
   0
LINE
   5
E9
 100
AcDbEntity
   8
LEVEL001
 370
20
 100
AcDbLine
   6
CONTINUOUS
  62
7
  10
 1933.5172413793
  20
 150.34482758621
  30
0.0
  11
 1933.5172413793
  21
 86.344827586207
  31
0.0
   0
LINE
   5
EA
 100
AcDbEntity
   8
LEVEL001
 370
20
 100
AcDbLine
   6
CONTINUOUS
  62
7
  10
 2165.5172413793
  20
 150.34482758621
  30
0.0
  11
 2165.5172413793
  21
 86.344827586207
  31
0.0
   0
LINE
   5
EB
 100
AcDbEntity
   8
LEVEL001
 370
20
 100
AcDbLine
   6
CONTINUOUS
  62
7
  10
 2197.5172413793
  20
 150.34482758621
  30
0.0
  11
 2197.5172413793
  21
 86.344827586207
  31
0.0
   0
LINE
   5
EC
 100
AcDbEntity
   8
LEVEL001
 370
20
 100
AcDbLine
   6
CONTINUOUS
  62
7
  10
 2229.5172413793
  20
 150.34482758621
  30
0.0
  11
 2229.5172413793
  21
 86.344827586207
  31
0.0
   0
LINE
   5
ED
 100
AcDbEntity
   8
LEVEL001
 370
20
 100
AcDbLine
   6
CONTINUOUS
  62
7
  10
 2261.5172413793
  20
 150.34482758621
  30
0.0
  11
 2261.5172413793
  21
 86.344827586207
  31
0.0
   0
MTEXT
   5
EF
 100
AcDbEntity
   8
LEVEL001
 370
20
  62
7
 100
AcDbMText
  10
 2054.4428733175
  20
 125.90812029067
  30
0.0
  40
 14.400000000000
  41
0.0
  71
7
  72
1
   1
\T1.000000;個
   7
GMM001
  44
 0.79999984000003
   0
MTEXT
   5
F1
 100
AcDbEntity
   8
LEVEL001
 370
20
  62
7
 100
AcDbMText
  10
 2068.8428733175
  20
 125.90812029067
  30
0.0
  40
 14.400000000000
  41
0.0
  71
7
  72
1
   1
\T1.000000;数
   7
GMM001
  44
 0.79999984000003
   0
MTEXT
   5
F3
 100
AcDbEntity
   8
LEVEL001
 370
20
  62
7
 100
AcDbMText
  10
 2102.3183922741
  20
 126.49031023543
  30
0.0
  40
 14.400000000000
  41
0.0
  71
7
  72
1
   1
\T1.000000;尺
   7
GMM001
  44
 0.79999984000003
   0
MTEXT
   5
F5
 100
AcDbEntity
   8
LEVEL001
 370
20
  62
7
 100
AcDbMText
  10
 2173.8939959647
  20
 127.10975205846
  30
0.0
  40
 14.400000000000
  41
0.0
  71
7
  72
1
   1
\T1.000000;年
   7
GMM001
  44
 0.79999984000003
   0
MTEXT
   5
F7
 100
AcDbEntity
   8
LEVEL001
 370
20
  62
7
 100
AcDbMText
  10
 2205.4895386899
  20
 126.65018287967
  30
0.0
  40
 14.400000000000
  41
0.0
  71
7
  72
1
   1
\T1.000000;月
   7
GMM001
  44
 0.79999984000003
   0
MTEXT
   5
F9
 100
AcDbEntity
   8
LEVEL001
 370
20
  62
7
 100
AcDbMText
  10
 1789.3142913705
  20
 100.24106500009
  30
0.0
  40
 14.400000000000
  41
0.0
  71
7
  72
1
   1
\T1.000000;法
   7
GMM001
  44
 0.79999984000003
   0
MTEXT
   5
FB
 100
AcDbEntity
   8
LEVEL001
 370
20
  62
7
 100
AcDbMText
  10
 1789.3142913705
  20
 124.32845238748
  30
0.0
  40
 14.400000000000
  41
0.0
  71
7
  72
1
   1
\T1.000000;画
   7
GMM001
  44
 0.79999984000003
   0
MTEXT
   5
FD
 100
AcDbEntity
   8
LEVEL001
 370
20
  62
7
 100
AcDbMText
  10
 1829.1324330415
  20
 110.01437360281
  30
0.0
  40
 14.400000000000
  41
0.0
  71
7
  72
1
   1
\T1.000000;第
   7
GMM001
  44
 0.79999984000003
   0
MTEXT
   5
FF
 100
AcDbEntity
   8
LEVEL001
 370
20
  62
7
 100
AcDbMText
  10
 1898.8536969525
  20
 110.01437360281
  30
0.0
  40
 14.400000000000
  41
0.0
  71
7
  72
1
   1
\T1.000000;法
   7
GMM001
  44
 0.79999984000003
   0
MTEXT
   5
101
 100
AcDbEntity
   8
LEVEL001
 370
20
  62
7
 100
AcDbMText
  10
 1874.1039354263
  20
 110.01437360281
  30
0.0
  40
 14.400000000000
  41
0.0
  71
7
  72
1
   1
\T1.000000;画
   7
GMM001
  44
 0.79999984000003
   0
MTEXT
   5
103
 100
AcDbEntity
   8
LEVEL001
 370
20
  62
7
 100
AcDbMText
  10
 1851.7259942498
  20
 110.01437360281
  30
0.0
  40
 14.400000000000
  41
0.0
  71
7
  72
1
   1
\T1.000000;三
   7
GMM001
  44
 0.79999984000003
   0
MTEXT
   5
105
 100
AcDbEntity
   8
LEVEL001
 370
20
  62
7
 100
AcDbMText
  10
 1948.0529859474
  20
 125.64968538518
  30
0.0
  40
 14.400000000000
  41
0.0
  71
7
  72
1
   1
\T1.000000;共
   7
GMM001
  44
 0.79999984000003
   0
MTEXT
   5
107
 100
AcDbEntity
   8
LEVEL001
 370
20
  62
7
 100
AcDbMText
  10
 2020.5773102717
  20
 125.64968538518
  30
0.0
  40
 14.400000000000
  41
0.0
  71
7
  72
1
   1
\T1.000000;種
   7
GMM001
  44
 0.79999984000003
   0
MTEXT
   5
109
 100
AcDbEntity
   8
LEVEL001
 370
20
  62
7
 100
AcDbMText
  10
 1995.8275487455
  20
 125.64968538518
  30
0.0
  40
 14.400000000000
  41
0.0
  71
7
  72
1
   1
\T1.000000;機
   7
GMM001
  44
 0.79999984000003
   0
MTEXT
   5
10B
 100
AcDbEntity
   8
LEVEL001
 370
20
  62
7
 100
AcDbMText
  10
 1971.5090272829
  20
 125.64968538518
  30
0.0
  40
 14.400000000000
  41
0.0
  71
7
  72
1
   1
\T1.000000;通
   7
GMM001
  44
 0.79999984000003
   0
MTEXT
   5
10D
 100
AcDbEntity
   8
LEVEL001
 370
20
  62
7
 100
AcDbMText
  10
 2126.8525337685
  20
 126.49031023543
  30
0.0
  40
 14.400000000000
  41
0.0
  71
7
  72
1
   1
\T1.000000;度
   7
GMM001
  44
 0.79999984000003
   0
MTEXT
   5
10F
 100
AcDbEntity
   8
LEVEL001
 370
20
  62
7
 100
AcDbMText
  10
 2237.3887877004
  20
 125.84436098288
  30
0.0
  40
 14.400000000000
  41
0.0
  71
7
  72
1
   1
\T1.000000;日
   7
GMM001
  44
 0.79999984000003
   0
MTEXT
   5
111
 100
AcDbEntity
   8
LEVEL001
 370
20
  62
7
 100
AcDbMText
  10
 1891.3772413793
  20
 55.304384583586
  30
0.0
  40
 20.280000000000
  41
0.0
  71
7
  72
1
   1
\T1.000000;さ
   7
GMM001
  44
 0.79999984000003
   0
MTEXT
   5
113
 100
AcDbEntity
   8
LEVEL001
 370
20
  62
7
 100
AcDbMText
  10
 1931.3772413793
  20
 55.304384583586
  30
0.0
  40
 20.280000000000
  41
0.0
  71
7
  72
1
   1
\T1.000000;ぬ
   7
GMM001
  44
 0.79999984000003
   0
MTEXT
   5
115
 100
AcDbEntity
   8
LEVEL001
 370
20
  62
7
 100
AcDbMText
  10
 1971.3772413793
  20
 55.304384583586
  30
0.0
  40
 20.280000000000
  41
0.0
  71
7
  72
1
   1
\T1.000000;き
   7
GMM001
  44
 0.79999984000003
   0
MTEXT
   5
117
 100
AcDbEntity
   8
LEVEL001
 370
20
  62
7
 100
AcDbMText
  10
 2211.9810108881
  20
 55.304384583586
  30
0.0
  40
 20.280000000000
  41
0.0
  71
7
  72
1
   1
\T1.000000;社
   7
GMM001
  44
 0.79999984000003
   0
MTEXT
   5
119
 100
AcDbEntity
   8
LEVEL001
 370
20
  62
7
 100
AcDbMText
  10
 2171.9810108881
  20
 55.304384583586
  30
0.0
  40
 20.280000000000
  41
0.0
  71
7
  72
1
   1
\T1.000000;会
   7
GMM001
  44
 0.79999984000003
   0
MTEXT
   5
11B
 100
AcDbEntity
   8
LEVEL001
 370
20
  62
7
 100
AcDbMText
  10
 2131.9810108881
  20
 55.304384583586
  30
0.0
  40
 20.280000000000
  41
0.0
  71
7
  72
1
   1
\T1.000000;式
   7
GMM001
  44
 0.79999984000003
   0
MTEXT
   5
11D
 100
AcDbEntity
   8
LEVEL001
 370
20
  62
7
 100
AcDbMText
  10
 2091.9810108881
  20
 55.304384583586
  30
0.0
  40
 20.280000000000
  41
0.0
  71
7
  72
1
   1
\T1.000000;株
   7
GMM001
  44
 0.79999984000003
   0
MTEXT
   5
11F
 100
AcDbEntity
   8
LEVEL001
 370
20
  62
7
 100
AcDbMText
  10
 2051.3772413793
  20
 55.304384583586
  30
0.0
  40
 20.280000000000
  41
0.0
  71
7
  72
1
   1
\T1.000000;機
   7
GMM001
  44
 0.79999984000003
   0
MTEXT
   5
121
 100
AcDbEntity
   8
LEVEL001
 370
20
  62
7
 100
AcDbMText
  10
 2011.3772413793
  20
 55.304384583586
  30
0.0
  40
 20.280000000000
  41
0.0
  71
7
  72
1
   1
\T1.000000;麺
   7
GMM001
  44
 0.79999984000003
   0
MTEXT
   5
123
 100
AcDbEntity
   8
LEVEL001
 370
20
  62
7
 100
AcDbMText
  10
 2293.3591641624
  20
 125.81603186768
  30
0.0
  40
 14.400000000000
  41
0.0
  71
7
  72
1
   1
\T1.000000;図
   7
GMM001
  44
 0.79999984000003
   0
MTEXT
   5
125
 100
AcDbEntity
   8
LEVEL001
 370
20
  62
7
 100
AcDbMText
  10
 2272.4905632085
  20
 125.81603186768
  30
0.0
  40
 14.400000000000
  41
0.0
  71
7
  72
1
   1
\T1.000000;製
   7
GMM001
  44
 0.79999984000003
   0
LINE
   5
126
 100
AcDbEntity
   8
LEVEL001
 370
20
 100
AcDbLine
   6
CONTINUOUS
  62
7
  10
 2321.5172413793
  20
 46.344827586207
  30
0.0
  11
 2321.5172413793
  21
 198.34482758621
  31
0.0
   0
LINE
   5
127
 100
AcDbEntity
   8
LEVEL001
 370
20
 100
AcDbLine
   6
CONTINUOUS
  62
7
  10
 2085.5172413793
  20
 198.34482758621
  30
0.0
  11
 2085.5172413793
  21
 86.344827586207
  31
0.0
   0
LINE
   5
128
 100
AcDbEntity
   8
LEVEL001
 370
20
 100
AcDbLine
   6
CONTINUOUS
  62
7
  10
 2053.5172413793
  20
 198.34482758621
  30
0.0
  11
 2053.5172413793
  21
 86.344827586207
  31
0.0
   0
LINE
   5
129
 100
AcDbEntity
   8
LEVEL001
 370
20
 100
AcDbLine
   6
CONTINUOUS
  62
7
  10
 1813.5172413793
  20
 198.34482758621
  30
0.0
  11
 1813.5172413793
  21
 86.344827586207
  31
0.0
   0
MTEXT
   5
12B
 100
AcDbEntity
   8
LEVEL001
 370
20
  62
7
 100
AcDbMText
  10
 2061.5618624710
  20
 178.50822472037
  30
0.0
  40
 14.400000000000
  41
0.0
  71
7
  72
1
   1
\T1.000000;図
   7
GMM001
  44
 0.79999984000003
   0
MTEXT
   5
12D
 100
AcDbEntity
   8
LEVEL001
 370
20
  62
7
 100
AcDbMText
  10
 2061.6573396523
  20
 154.34341129102
  30
0.0
  40
 14.400000000000
  41
0.0
  71
7
  72
1
   1
\T1.000000;番
   7
GMM001
  44
 0.79999984000003
   0
MTEXT
   5
12F
 100
AcDbEntity
   8
LEVEL001
 370
20
  62
7
 100
AcDbMText
  10
 1789.8290466101
  20
 178.34526699621
  30
0.0
  40
 14.400000000000
  41
0.0
  71
7
  72
1
   1
\T1.000000;名
   7
GMM001
  44
 0.79999984000003
   0
MTEXT
   5
131
 100
AcDbEntity
   8
LEVEL001
 370
20
  62
7
 100
AcDbMText
  10
 1790.4973868795
  20
 155.70808846820
  30
0.0
  40
 14.400000000000
  41
0.0
  71
7
  72
1
   1
\T1.000000;称
   7
GMM001
  44
 0.79999984000003
   0
LINE
   5
132
 100
AcDbEntity
   8
LEVEL001
 370
20
 100
AcDbLine
   6
CONTINUOUS
  62
7
  10
 2321.5172413793
  20
 198.34482758621
  30
0.0
  11
 1781.5172413793
  21
 198.34482758621
  31
0.0
   0
LINE
   5
133
 100
AcDbEntity
   8
LEVEL001
 370
20
 100
AcDbLine
   6
CONTINUOUS
  62
7
  10
 1781.5172413793
  20
 46.344827586207
  30
0.0
  11
 1781.5172413793
  21
 198.34482758621
  31
0.0
   0
ARC
   5
134
 100
AcDbEntity
   8
LEVEL002
 370
20
   6
CONTINUOUS
  62
7
 100
AcDbCircle
  10
 518.32738964490
  20
 761.45942094334
  30
0.0
  40
 18.321173573495
 100
AcDbArc
  50
 337.78068982934
  51
 22.219310170660
   0
ARC
   5
135
 100
AcDbEntity
   8
LEVEL002
 370
20
   6
CONTINUOUS
  62
7
 100
AcDbCircle
  10
 531.55809286080
  20
 771.85172578872
  30
0.0
  40
 5.0904703575911
 100
AcDbArc
  50
 317.11671159511
  51
0.0
   0
LINE
   5
136
 100
AcDbEntity
   8
LEVEL002
 370
20
 100
AcDbLine
   6
CONTINUOUS
  62
7
  10
 523.64856321839
  20
 747.60301448282
  30
0.0
  11
 523.64856321839
  21
 775.31582740387
  31
0.0
   0
LINE
   5
137
 100
AcDbEntity
   8
LEVEL002
 370
20
 100
AcDbLine
   6
CONTINUOUS
  62
7
  10
 523.64856321839
  20
 775.31582740387
  30
0.0
  11
 535.28809131407
  21
 775.31582740387
  31
0.0
   0
LINE
   5
138
 100
AcDbEntity
   8
LEVEL002
 370
20
 100
AcDbLine
   6
CONTINUOUS
  62
7
  10
 535.28809131407
  20
 775.31582740387
  30
0.0
  11
 536.64856321839
  21
 772.95942094334
  31
0.0
   0
LINE
   5
139
 100
AcDbEntity
   8
LEVEL002
 370
20
 100
AcDbLine
   6
CONTINUOUS
  62
7
  10
 536.64856321839
  20
 772.95942094334
  30
0.0
  11
 536.64856321839
  21
 749.95942094334
  31
0.0
   0
LINE
   5
13A
 100
AcDbEntity
   8
LEVEL002
 370
20
 100
AcDbLine
   6
CONTINUOUS
  62
7
  10
 536.64856321839
  20
 749.95942094334
  30
0.0
  11
 535.28809131407
  21
 747.60301448282
  31
0.0
   0
LINE
   5
13B
 100
AcDbEntity
   8
LEVEL002
 370
20
 100
AcDbLine
   6
CONTINUOUS
  62
7
  10
 535.28809131407
  20
 747.60301448282
  30
0.0
  11
 523.64856321839
  21
 747.60301448282
  31
0.0
   0
LINE
   5
13C
 100
AcDbEntity
   8
LEVEL002
 370
20
 100
AcDbLine
   6
CONTINUOUS
  62
7
  10
 523.64856321839
  20
 768.38762417357
  30
0.0
  11
 535.28809131407
  21
 768.38762417357
  31
0.0
   0
ARC
   5
13D
 100
AcDbEntity
   8
LEVEL002
 370
20
   6
CONTINUOUS
  62
7
 100
AcDbCircle
  10
 531.55809286080
  20
 751.06711609797
  30
0.0
  40
 5.0904703575912
 100
AcDbArc
  50
0.0
  51
 42.883288404885
   0
LINE
   5
13E
 100
AcDbEntity
   8
LEVEL002
 370
20
 100
AcDbLine
   6
CONTINUOUS
  62
7
  10
 523.64856321839
  20
 754.53121771312
  30
0.0
  11
 535.28809131407
  21
 754.53121771312
  31
0.0
   0
ARC
   5
13F
 100
AcDbEntity
   8
LEVEL002
 370
20
   6
CONTINUOUS
  62
7
 100
AcDbCircle
  10
 899.36973679189
  20
 761.45942094334
  30
0.0
  40
 18.321173573495
 100
AcDbArc
  50
 157.78068982934
  51
 202.21931017066
   0
ARC
   5
140
 100
AcDbEntity
   8
LEVEL002
 370
20
   6
CONTINUOUS
  62
7
 100
AcDbCircle
  10
 886.13903357598
  20
 751.06711609797
  30
0.0
  40
 5.0904703575911
 100
AcDbArc
  50
 137.11671159511
  51
 180.00000000000
   0
LINE
   5
141
 100
AcDbEntity
   8
LEVEL002
 370
20
 100
AcDbLine
   6
CONTINUOUS
  62
7
  10
 894.04856321839
  20
 775.31582740387
  30
0.0
  11
 894.04856321839
  21
 747.60301448282
  31
0.0
   0
LINE
   5
142
 100
AcDbEntity
   8
LEVEL002
 370
20
 100
AcDbLine
   6
CONTINUOUS
  62
7
  10
 894.04856321839
  20
 747.60301448282
  30
0.0
  11
 882.40903512271
  21
 747.60301448282
  31
0.0
   0
LINE
   5
143
 100
AcDbEntity
   8
LEVEL002
 370
20
 100
AcDbLine
   6
CONTINUOUS
  62
7
  10
 882.40903512271
  20
 747.60301448282
  30
0.0
  11
 881.04856321839
  21
 749.95942094334
  31
0.0
   0
LINE
   5
144
 100
AcDbEntity
   8
LEVEL002
 370
20
 100
AcDbLine
   6
CONTINUOUS
  62
7
  10
 881.04856321839
  20
 749.95942094334
  30
0.0
  11
 881.04856321839
  21
 772.95942094334
  31
0.0
   0
LINE
   5
145
 100
AcDbEntity
   8
LEVEL002
 370
20
 100
AcDbLine
   6
CONTINUOUS
  62
7
  10
 881.04856321839
  20
 772.95942094334
  30
0.0
  11
 882.40903512271
  21
 775.31582740387
  31
0.0
   0
LINE
   5
146
 100
AcDbEntity
   8
LEVEL002
 370
20
 100
AcDbLine
   6
CONTINUOUS
  62
7
  10
 882.40903512271
  20
 775.31582740387
  30
0.0
  11
 894.04856321839
  21
 775.31582740387
  31
0.0
   0
LINE
   5
147
 100
AcDbEntity
   8
LEVEL002
 370
20
 100
AcDbLine
   6
CONTINUOUS
  62
7
  10
 894.04856321839
  20
 754.53121771312
  30
0.0
  11
 882.40903512271
  21
 754.53121771312
  31
0.0
   0
ARC
   5
148
 100
AcDbEntity
   8
LEVEL002
 370
20
   6
CONTINUOUS
  62
7
 100
AcDbCircle
  10
 886.13903357598
  20
 771.85172578872
  30
0.0
  40
 5.0904703575912
 100
AcDbArc
  50
 180.00000000001
  51
 222.88328840489
   0
LINE
   5
149
 100
AcDbEntity
   8
LEVEL002
 370
20
 100
AcDbLine
   6
CONTINUOUS
  62
7
  10
 894.04856321839
  20
 768.38762417357
  30
0.0
  11
 882.40903512271
  21
 768.38762417357
  31
0.0
   0
LINE
   5
14A
 100
AcDbEntity
   8
LEVEL002
 370
20
 100
AcDbLine
   6
CONTINUOUS
  62
7
  10
 511.64856321839
  20
 776.45942094334
  30
0.0
  11
 508.64856321839
  21
 776.45942094334
  31
0.0
   0
LINE
   5
14B
 100
AcDbEntity
   8
LEVEL002
 370
20
 100
AcDbLine
   6
CONTINUOUS
  62
7
  10
 508.64856321839
  20
 776.45942094334
  30
0.0
  11
 508.64856321839
  21
 746.45942094334
  31
0.0
   0
LINE
   5
14C
 100
AcDbEntity
   8
LEVEL002
 370
20
 100
AcDbLine
   6
CONTINUOUS
  62
7
  10
 508.64856321839
  20
 746.45942094334
  30
0.0
  11
 511.64856321839
  21
 746.45942094334
  31
0.0
   0
LINE
   5
14D
 100
AcDbEntity
   8
LEVEL002
 370
20
 100
AcDbLine
   6
CONTINUOUS
  62
7
  10
 511.64856321839
  20
 746.45942094334
  30
0.0
  11
 511.64856321839
  21
 776.45942094334
  31
0.0
   0
ARC
   5
14E
 100
AcDbEntity
   8
LEVEL002
 370
20
   6
CONTINUOUS
  62
7
 100
AcDbCircle
  10
 513.96973679189
  20
 761.45942094334
  30
0.0
  40
 18.321173573495
 100
AcDbArc
  50
 157.78068982934
  51
 202.21931017066
   0
ARC
   5
14F
 100
AcDbEntity
   8
LEVEL002
 370
20
   6
CONTINUOUS
  62
7
 100
AcDbCircle
  10
 500.73903357598
  20
 751.06711609797
  30
0.0
  40
 5.0904703575911
 100
AcDbArc
  50
 137.11671159511
  51
 180.00000000000
   0
LINE
   5
150
 100
AcDbEntity
   8
LEVEL002
 370
20
 100
AcDbLine
   6
CONTINUOUS
  62
7
  10
 508.64856321839
  20
 775.31582740387
  30
0.0
  11
 508.64856321839
  21
 747.60301448282
  31
0.0
   0
LINE
   5
151
 100
AcDbEntity
   8
LEVEL002
 370
20
 100
AcDbLine
   6
CONTINUOUS
  62
7
  10
 508.64856321839
  20
 747.60301448282
  30
0.0
  11
 497.00903512271
  21
 747.60301448282
  31
0.0
   0
LINE
   5
152
 100
AcDbEntity
   8
LEVEL002
 370
20
 100
AcDbLine
   6
CONTINUOUS
  62
7
  10
 497.00903512271
  20
 747.60301448282
  30
0.0
  11
 495.64856321839
  21
 749.95942094334
  31
0.0
   0
LINE
   5
153
 100
AcDbEntity
   8
LEVEL002
 370
20
 100
AcDbLine
   6
CONTINUOUS
  62
7
  10
 495.64856321839
  20
 749.95942094334
  30
0.0
  11
 495.64856321839
  21
 772.95942094334
  31
0.0
   0
LINE
   5
154
 100
AcDbEntity
   8
LEVEL002
 370
20
 100
AcDbLine
   6
CONTINUOUS
  62
7
  10
 495.64856321839
  20
 772.95942094334
  30
0.0
  11
 497.00903512271
  21
 775.31582740387
  31
0.0
   0
LINE
   5
155
 100
AcDbEntity
   8
LEVEL002
 370
20
 100
AcDbLine
   6
CONTINUOUS
  62
7
  10
 497.00903512271
  20
 775.31582740387
  30
0.0
  11
 508.64856321839
  21
 775.31582740387
  31
0.0
   0
LINE
   5
156
 100
AcDbEntity
   8
LEVEL002
 370
20
 100
AcDbLine
   6
CONTINUOUS
  62
7
  10
 508.64856321839
  20
 754.53121771312
  30
0.0
  11
 497.00903512271
  21
 754.53121771312
  31
0.0
   0
ARC
   5
157
 100
AcDbEntity
   8
LEVEL002
 370
20
   6
CONTINUOUS
  62
7
 100
AcDbCircle
  10
 500.73903357598
  20
 771.85172578872
  30
0.0
  40
 5.0904703575912
 100
AcDbArc
  50
 180.00000000000
  51
 222.88328840489
   0
LINE
   5
158
 100
AcDbEntity
   8
LEVEL002
 370
20
 100
AcDbLine
   6
CONTINUOUS
  62
7
  10
 508.64856321839
  20
 768.38762417357
  30
0.0
  11
 497.00903512271
  21
 768.38762417357
  31
0.0
   0
LINE
   5
159
 100
AcDbEntity
   8
LEVEL002
 370
20
 100
AcDbLine
   6
CONTINUOUS
  62
7
  10
 906.04856321839
  20
 746.45942094334
  30
0.0
  11
 909.04856321839
  21
 746.45942094334
  31
0.0
   0
LINE
   5
15A
 100
AcDbEntity
   8
LEVEL002
 370
20
 100
AcDbLine
   6
CONTINUOUS
  62
7
  10
 909.04856321839
  20
 746.45942094334
  30
0.0
  11
 909.04856321839
  21
 776.45942094334
  31
0.0
   0
LINE
   5
15B
 100
AcDbEntity
   8
LEVEL002
 370
20
 100
AcDbLine
   6
CONTINUOUS
  62
7
  10
 909.04856321839
  20
 776.45942094334
  30
0.0
  11
 906.04856321839
  21
 776.45942094334
  31
0.0
   0
LINE
   5
15C
 100
AcDbEntity
   8
LEVEL002
 370
20
 100
AcDbLine
   6
CONTINUOUS
  62
7
  10
 906.04856321839
  20
 776.45942094334
  30
0.0
  11
 906.04856321839
  21
 746.45942094334
  31
0.0
   0
ARC
   5
15D
 100
AcDbEntity
   8
LEVEL002
 370
20
   6
CONTINUOUS
  62
7
 100
AcDbCircle
  10
 903.72738964490
  20
 761.45942094334
  30
0.0
  40
 18.321173573495
 100
AcDbArc
  50
 337.78068982934
  51
 22.219310170660
   0
ARC
   5
15E
 100
AcDbEntity
   8
LEVEL002
 370
20
   6
CONTINUOUS
  62
7
 100
AcDbCircle
  10
 916.95809286080
  20
 771.85172578872
  30
0.0
  40
 5.0904703575911
 100
AcDbArc
  50
 317.11671159511
  51
 0.25592039752962E-11
   0
LINE
   5
15F
 100
AcDbEntity
   8
LEVEL002
 370
20
 100
AcDbLine
   6
CONTINUOUS
  62
7
  10
 909.04856321839
  20
 747.60301448282
  30
0.0
  11
 909.04856321839
  21
 775.31582740387
  31
0.0
   0
LINE
   5
160
 100
AcDbEntity
   8
LEVEL002
 370
20
 100
AcDbLine
   6
CONTINUOUS
  62
7
  10
 909.04856321839
  20
 775.31582740387
  30
0.0
  11
 920.68809131407
  21
 775.31582740387
  31
0.0
   0
LINE
   5
161
 100
AcDbEntity
   8
LEVEL002
 370
20
 100
AcDbLine
   6
CONTINUOUS
  62
7
  10
 920.68809131407
  20
 775.31582740387
  30
0.0
  11
 922.04856321839
  21
 772.95942094334
  31
0.0
   0
LINE
   5
162
 100
AcDbEntity
   8
LEVEL002
 370
20
 100
AcDbLine
   6
CONTINUOUS
  62
7
  10
 922.04856321839
  20
 772.95942094334
  30
0.0
  11
 922.04856321839
  21
 749.95942094334
  31
0.0
   0
LINE
   5
163
 100
AcDbEntity
   8
LEVEL002
 370
20
 100
AcDbLine
   6
CONTINUOUS
  62
7
  10
 922.04856321839
  20
 749.95942094334
  30
0.0
  11
 920.68809131407
  21
 747.60301448282
  31
0.0
   0
LINE
   5
164
 100
AcDbEntity
   8
LEVEL002
 370
20
 100
AcDbLine
   6
CONTINUOUS
  62
7
  10
 920.68809131407
  20
 747.60301448282
  30
0.0
  11
 909.04856321839
  21
 747.60301448282
  31
0.0
   0
LINE
   5
165
 100
AcDbEntity
   8
LEVEL002
 370
20
 100
AcDbLine
   6
CONTINUOUS
  62
7
  10
 909.04856321839
  20
 768.38762417357
  30
0.0
  11
 920.68809131407
  21
 768.38762417357
  31
0.0
   0
ARC
   5
166
 100
AcDbEntity
   8
LEVEL002
 370
20
   6
CONTINUOUS
  62
7
 100
AcDbCircle
  10
 916.95809286080
  20
 751.06711609797
  30
0.0
  40
 5.0904703575912
 100
AcDbArc
  50
0.0
  51
 42.883288404885
   0
LINE
   5
167
 100
AcDbEntity
   8
LEVEL002
 370
20
 100
AcDbLine
   6
CONTINUOUS
  62
7
  10
 909.04856321839
  20
 754.53121771312
  30
0.0
  11
 920.68809131407
  21
 754.53121771312
  31
0.0
   0
POINT
   5
168
 100
AcDbEntity
   8
LEVEL002
 100
AcDbPoint
  62
3
  10
 525.14856321839
  20
 667.82991242474
  30
0.0
   0
POINT
   5
169
 100
AcDbEntity
   8
LEVEL002
 100
AcDbPoint
  62
3
  10
 472.14856321839
  20
 667.82991242474
  30
0.0
   0
LINE
   5
16A
 100
AcDbEntity
   8
LEVEL002
 370
20
 100
AcDbLine
   6
CONTINUOUS
  62
7
  10
 567.84856321839
  20
 637.94583128119
  30
0.0
  11
 849.84856321839
  21
 637.94583128119
  31
0.0
   0
LINE
   5
16B
 100
AcDbEntity
   8
LEVEL002
 370
20
 100
AcDbLine
   6
CONTINUOUS
  62
7
  10
 849.84856321839
  20
 635.82659009760
  30
0.0
  11
 567.84856321839
  21
 635.82659009760
  31
0.0
   0
LINE
   5
16C
 100
AcDbEntity
   8
LEVEL002
 370
20
 100
AcDbLine
   6
CONTINUOUS
  62
7
  10
 588.84856321839
  20
 657.83323475188
  30
0.0
  11
 588.84856321839
  21
 660.81634527248
  31
0.0
   0
LINE
   5
16D
 100
AcDbEntity
   8
LEVEL002
 370
20
 100
AcDbLine
   6
CONTINUOUS
  62
7
  10
 588.84856321839
  20
 660.81634527248
  30
0.0
  11
 828.84856321839
  21
 660.81634527248
  31
0.0
   0
LINE
   5
16E
 100
AcDbEntity
   8
LEVEL002
 370
20
 100
AcDbLine
   6
CONTINUOUS
  62
7
  10
 828.84856321839
  20
 660.81634527248
  30
0.0
  11
 828.84856321839
  21
 657.83323475188
  31
0.0
   0
LINE
   5
16F
 100
AcDbEntity
   8
LEVEL002
 370
20
 100
AcDbLine
   6
CONTINUOUS
  62
7
  10
 931.04856321839
  20
 716.97482443089
  30
0.0
  11
 940.04856321839
  21
 716.97482443089
  31
0.0
   0
LINE
   5
170
 100
AcDbEntity
   8
LEVEL002
 370
20
 100
AcDbLine
   6
CONTINUOUS
  62
7
  10
 566.17869023743
  20
 726.27627659231
  30
0.0
  11
 566.17869023743
  21
 696.27627659231
  31
0.0
   0
LINE
   5
171
 100
AcDbEntity
   8
LEVEL002
 370
20
 100
AcDbLine
   6
CONTINUOUS
  62
7
  10
 561.84856321839
  20
 723.77627659231
  30
0.0
  11
 561.84856321839
  21
 698.77627659231
  31
0.0
   0
LINE
   5
172
 100
AcDbEntity
   8
LEVEL002
 370
20
 100
AcDbLine
   6
CONTINUOUS
  62
7
  10
 851.51843619935
  20
 726.27627659231
  30
0.0
  11
 851.51843619935
  21
 696.27627659231
  31
0.0
   0
LINE
   5
173
 100
AcDbEntity
   8
LEVEL002
 370
20
 100
AcDbLine
   6
CONTINUOUS
  62
7
  10
 855.84856321839
  20
 723.77627659231
  30
0.0
  11
 855.84856321839
  21
 698.77627659231
  31
0.0
   0
LINE
   5
174
 100
AcDbEntity
   8
LEVEL002
 370
20
 100
AcDbLine
   6
CONTINUOUS
  62
7
  10
 806.04856321839
  20
 742.27627659231
  30
0.0
  11
 806.04856321839
  21
 680.27627659231
  31
0.0
   0
LINE
   5
175
 100
AcDbEntity
   8
LEVEL002
 370
20
 100
AcDbLine
   6
CONTINUOUS
  62
7
  10
 784.44856321839
  20
 742.27627659231
  30
0.0
  11
 784.44856321839
  21
 680.27627659231
  31
0.0
   0
LINE
   5
176
 100
AcDbEntity
   8
LEVEL002
 370
20
 100
AcDbLine
   6
CONTINUOUS
  62
7
  10
 762.84856321839
  20
 742.27627659231
  30
0.0
  11
 762.84856321839
  21
 680.27627659231
  31
0.0
   0
LINE
   5
177
 100
AcDbEntity
   8
LEVEL002
 370
20
 100
AcDbLine
   6
CONTINUOUS
  62
7
  10
 741.24856321839
  20
 742.27627659231
  30
0.0
  11
 741.24856321839
  21
 680.27627659231
  31
0.0
   0
LINE
   5
178
 100
AcDbEntity
   8
LEVEL002
 370
20
 100
AcDbLine
   6
CONTINUOUS
  62
7
  10
 719.64856321839
  20
 742.27627659231
  30
0.0
  11
 719.64856321839
  21
 680.27627659231
  31
0.0
   0
LINE
   5
179
 100
AcDbEntity
   8
LEVEL002
 370
20
 100
AcDbLine
   6
CONTINUOUS
  62
7
  10
 698.04856321839
  20
 742.27627659231
  30
0.0
  11
 698.04856321839
  21
 680.27627659231
  31
0.0
   0
LINE
   5
17A
 100
AcDbEntity
   8
LEVEL002
 370
20
 100
AcDbLine
   6
CONTINUOUS
  62
7
  10
 676.44856321839
  20
 742.27627659231
  30
0.0
  11
 676.44856321839
  21
 680.27627659231
  31
0.0
   0
LINE
   5
17B
 100
AcDbEntity
   8
LEVEL002
 370
20
 100
AcDbLine
   6
CONTINUOUS
  62
7
  10
 654.84856321839
  20
 742.27627659231
  30
0.0
  11
 654.84856321839
  21
 680.27627659231
  31
0.0
   0
LINE
   5
17C
 100
AcDbEntity
   8
LEVEL002
 370
20
 100
AcDbLine
   6
CONTINUOUS
  62
7
  10
 633.24856321839
  20
 742.27627659231
  30
0.0
  11
 633.24856321839
  21
 680.27627659231
  31
0.0
   0
LINE
   5
17D
 100
AcDbEntity
   8
LEVEL002
 370
20
 100
AcDbLine
   6
CONTINUOUS
  62
7
  10
 611.64856321839
  20
 742.27627659231
  30
0.0
  11
 611.64856321839
  21
 680.27627659231
  31
0.0
   0
LINE
   5
17E
 100
AcDbEntity
   8
LEVEL002
 370
20
 100
AcDbLine
   6
CONTINUOUS
  62
7
  10
 849.34856321839
  20
 196.82991242474
  30
0.0
  11
 849.34856321839
  21
 373.82991242474
  31
0.0
   0
LINE
   5
17F
 100
AcDbEntity
   8
LEVEL002
 370
20
 100
AcDbLine
   6
CONTINUOUS
  62
7
  10
 849.34856321839
  20
 373.82991242474
  30
0.0
  11
 568.34856321839
  21
 373.82991242474
  31
0.0
   0
LINE
   5
180
 100
AcDbEntity
   8
LEVEL002
 370
20
 100
AcDbLine
   6
CONTINUOUS
  62
7
  10
 568.34856321839
  20
 373.82991242474
  30
0.0
  11
 568.34856321839
  21
 196.82991242474
  31
0.0
   0
LINE
   5
181
 100
AcDbEntity
   8
LEVEL002
 370
20
 100
AcDbLine
   6
CONTINUOUS
  62
7
  10
 839.59856321839
  20
 388.82991242474
  30
0.0
  11
 839.59856321839
  21
 403.82991242474
  31
0.0
   0
LINE
   5
182
 100
AcDbEntity
   8
LEVEL002
 370
20
 100
AcDbLine
   6
CONTINUOUS
  62
7
  10
 839.59856321839
  20
 403.82991242474
  30
0.0
  11
 578.09856321839
  21
 403.82991242474
  31
0.0
   0
LINE
   5
183
 100
AcDbEntity
   8
LEVEL002
 370
20
 100
AcDbLine
   6
CONTINUOUS
  62
7
  10
 578.09856321839
  20
 403.82991242474
  30
0.0
  11
 578.09856321839
  21
 388.82991242474
  31
0.0
   0
LINE
   5
184
 100
AcDbEntity
   8
LEVEL002
 370
20
 100
AcDbLine
   6
CONTINUOUS
  62
7
  10
 985.54856321839
  20
 191.82991242474
  30
0.0
  11
 985.54856321839
  21
 667.82991242474
  31
0.0
   0
LINE
   5
185
 100
AcDbEntity
   8
LEVEL002
 370
20
 100
AcDbLine
   6
CONTINUOUS
  62
7
  10
 985.54856321839
  20
 667.82991242474
  30
0.0
  11
 850.54856321839
  21
 667.82991242474
  31
0.0
   0
LINE
   5
186
 100
AcDbEntity
   8
LEVEL002
 370
20
 100
AcDbLine
   6
CONTINUOUS
  62
7
  10
 850.54856321839
  20
 667.82991242474
  30
0.0
  11
 850.54856321839
  21
 191.82991242474
  31
0.0
   0
LINE
   5
187
 100
AcDbEntity
   8
LEVEL002
 370
20
 100
AcDbLine
   6
CONTINUOUS
  62
7
  10
 432.14856321839
  20
 191.82991242474
  30
0.0
  11
 432.14856321839
  21
 667.82991242474
  31
0.0
   0
LINE
   5
188
 100
AcDbEntity
   8
LEVEL002
 370
20
 100
AcDbLine
   6
CONTINUOUS
  62
7
  10
 432.14856321839
  20
 667.82991242474
  30
0.0
  11
 567.14856321839
  21
 667.82991242474
  31
0.0
   0
LINE
   5
189
 100
AcDbEntity
   8
LEVEL002
 370
20
 100
AcDbLine
   6
CONTINUOUS
  62
7
  10
 567.14856321839
  20
 667.82991242474
  30
0.0
  11
 567.14856321839
  21
 191.82991242474
  31
0.0
   0
LINE
   5
18A
 100
AcDbEntity
   8
LEVEL002
 370
20
 100
AcDbLine
   6
CONTINUOUS
  62
7
  10
 881.04856321839
  20
 746.27627659231
  30
0.0
  11
 867.04856321839
  21
 746.27627659231
  31
0.0
   0
LINE
   5
18B
 100
AcDbEntity
   8
LEVEL002
 370
20
 100
AcDbLine
   6
CONTINUOUS
  62
7
  10
 867.04856321839
  20
 746.27627659231
  30
0.0
  11
 867.04856321839
  21
 676.27627659231
  31
0.0
   0
LINE
   5
18C
 100
AcDbEntity
   8
LEVEL002
 370
20
 100
AcDbLine
   6
CONTINUOUS
  62
7
  10
 867.04856321839
  20
 676.27627659231
  30
0.0
  11
 881.04856321839
  21
 676.27627659231
  31
0.0
   0
LINE
   5
18D
 100
AcDbEntity
   8
LEVEL002
 370
20
 100
AcDbLine
   6
CONTINUOUS
  62
7
  10
 567.84856321839
  20
 490.82991242474
  30
0.0
  11
 849.84856321839
  21
 490.82991242474
  31
0.0
   0
LINE
   5
18E
 100
AcDbEntity
   8
LEVEL002
 370
20
 100
AcDbLine
   6
CONTINUOUS
  62
7
  10
 849.84856321839
  20
 480.82991242474
  30
0.0
  11
 567.84856321839
  21
 480.82991242474
  31
0.0
   0
LINE
   5
18F
 100
AcDbEntity
   8
LEVEL002
 370
20
 100
AcDbLine
   6
CONTINUOUS
  62
7
  10
 567.84856321839
  20
 196.82991242474
  30
0.0
  11
 567.84856321839
  21
 666.82991242474
  31
0.0
   0
LINE
   5
190
 100
AcDbEntity
   8
LEVEL002
 370
20
 100
AcDbLine
   6
CONTINUOUS
  62
7
  10
 567.84856321839
  20
 666.82991242474
  30
0.0
  11
 567.14856321839
  21
 666.82991242474
  31
0.0
   0
LINE
   5
191
 100
AcDbEntity
   8
LEVEL002
 370
20
 100
AcDbLine
   6
CONTINUOUS
  62
7
  10
 567.14856321839
  20
 657.83323475188
  30
0.0
  11
 849.84856321839
  21
 657.83323475188
  31
0.0
   0
LINE
   5
192
 100
AcDbEntity
   8
LEVEL002
 370
20
 100
AcDbLine
   6
CONTINUOUS
  62
7
  10
 588.84856321839
  20
 506.82991242474
  30
0.0
  11
 600.84856321839
  21
 510.82991242474
  31
0.0
   0
LINE
   5
193
 100
AcDbEntity
   8
LEVEL002
 370
20
 100
AcDbLine
   6
CONTINUOUS
  62
7
  10
 600.84856321839
  20
 510.82991242474
  30
0.0
  11
 611.64856321839
  21
 506.82991242474
  31
0.0
   0
LINE
   5
194
 100
AcDbEntity
   8
LEVEL002
 370
20
 100
AcDbLine
   6
CONTINUOUS
  62
7
  10
 611.64856321839
  20
 506.82991242474
  30
0.0
  11
 622.44856321839
  21
 510.82991242474
  31
0.0
   0
LINE
   5
195
 100
AcDbEntity
   8
LEVEL002
 370
20
 100
AcDbLine
   6
CONTINUOUS
  62
7
  10
 622.44856321839
  20
 510.82991242474
  30
0.0
  11
 633.24856321839
  21
 506.82991242474
  31
0.0
   0
LINE
   5
196
 100
AcDbEntity
   8
LEVEL002
 370
20
 100
AcDbLine
   6
CONTINUOUS
  62
7
  10
 633.24856321839
  20
 506.82991242474
  30
0.0
  11
 644.04856321839
  21
 510.82991242474
  31
0.0
   0
LINE
   5
197
 100
AcDbEntity
   8
LEVEL002
 370
20
 100
AcDbLine
   6
CONTINUOUS
  62
7
  10
 644.04856321839
  20
 510.82991242474
  30
0.0
  11
 654.84856321839
  21
 506.82991242474
  31
0.0
   0
LINE
   5
198
 100
AcDbEntity
   8
LEVEL002
 370
20
 100
AcDbLine
   6
CONTINUOUS
  62
7
  10
 654.84856321839
  20
 506.82991242474
  30
0.0
  11
 665.64856321839
  21
 510.82991242474
  31
0.0
   0
LINE
   5
199
 100
AcDbEntity
   8
LEVEL002
 370
20
 100
AcDbLine
   6
CONTINUOUS
  62
7
  10
 665.64856321839
  20
 510.82991242474
  30
0.0
  11
 676.44856321839
  21
 506.82991242474
  31
0.0
   0
LINE
   5
19A
 100
AcDbEntity
   8
LEVEL002
 370
20
 100
AcDbLine
   6
CONTINUOUS
  62
7
  10
 676.44856321839
  20
 506.82991242474
  30
0.0
  11
 687.24856321839
  21
 510.82991242474
  31
0.0
   0
LINE
   5
19B
 100
AcDbEntity
   8
LEVEL002
 370
20
 100
AcDbLine
   6
CONTINUOUS
  62
7
  10
 687.24856321839
  20
 510.82991242474
  30
0.0
  11
 698.04856321839
  21
 506.82991242474
  31
0.0
   0
LINE
   5
19C
 100
AcDbEntity
   8
LEVEL002
 370
20
 100
AcDbLine
   6
CONTINUOUS
  62
7
  10
 698.04856321839
  20
 506.82991242474
  30
0.0
  11
 708.84856321839
  21
 510.82991242474
  31
0.0
   0
LINE
   5
19D
 100
AcDbEntity
   8
LEVEL002
 370
20
 100
AcDbLine
   6
CONTINUOUS
  62
7
  10
 708.84856321839
  20
 510.82991242474
  30
0.0
  11
 719.64856321839
  21
 506.82991242474
  31
0.0
   0
LINE
   5
19E
 100
AcDbEntity
   8
LEVEL002
 370
20
 100
AcDbLine
   6
CONTINUOUS
  62
7
  10
 719.64856321839
  20
 506.82991242474
  30
0.0
  11
 730.44856321839
  21
 510.82991242474
  31
0.0
   0
LINE
   5
19F
 100
AcDbEntity
   8
LEVEL002
 370
20
 100
AcDbLine
   6
CONTINUOUS
  62
7
  10
 730.44856321839
  20
 510.82991242474
  30
0.0
  11
 741.24856321839
  21
 506.82991242474
  31
0.0
   0
LINE
   5
1A0
 100
AcDbEntity
   8
LEVEL002
 370
20
 100
AcDbLine
   6
CONTINUOUS
  62
7
  10
 741.24856321839
  20
 506.82991242474
  30
0.0
  11
 752.04856321839
  21
 510.82991242474
  31
0.0
   0
LINE
   5
1A1
 100
AcDbEntity
   8
LEVEL002
 370
20
 100
AcDbLine
   6
CONTINUOUS
  62
7
  10
 752.04856321839
  20
 510.82991242474
  30
0.0
  11
 762.84856321839
  21
 506.82991242474
  31
0.0
   0
LINE
   5
1A2
 100
AcDbEntity
   8
LEVEL002
 370
20
 100
AcDbLine
   6
CONTINUOUS
  62
7
  10
 762.84856321839
  20
 506.82991242474
  30
0.0
  11
 773.64856321839
  21
 510.82991242474
  31
0.0
   0
LINE
   5
1A3
 100
AcDbEntity
   8
LEVEL002
 370
20
 100
AcDbLine
   6
CONTINUOUS
  62
7
  10
 773.64856321839
  20
 510.82991242474
  30
0.0
  11
 784.44856321839
  21
 506.82991242474
  31
0.0
   0
LINE
   5
1A4
 100
AcDbEntity
   8
LEVEL002
 370
20
 100
AcDbLine
   6
CONTINUOUS
  62
7
  10
 784.44856321839
  20
 506.82991242474
  30
0.0
  11
 795.24856321839
  21
 510.82991242474
  31
0.0
   0
LINE
   5
1A5
 100
AcDbEntity
   8
LEVEL002
 370
20
 100
AcDbLine
   6
CONTINUOUS
  62
7
  10
 795.24856321839
  20
 510.82991242474
  30
0.0
  11
 806.04856321839
  21
 506.82991242474
  31
0.0
   0
LINE
   5
1A6
 100
AcDbEntity
   8
LEVEL002
 370
20
 100
AcDbLine
   6
CONTINUOUS
  62
7
  10
 806.04856321839
  20
 506.82991242474
  30
0.0
  11
 816.84856321839
  21
 510.82991242474
  31
0.0
   0
LINE
   5
1A7
 100
AcDbEntity
   8
LEVEL002
 370
20
 100
AcDbLine
   6
CONTINUOUS
  62
7
  10
 816.84856321839
  20
 510.82991242474
  30
0.0
  11
 828.84856321839
  21
 506.82991242474
  31
0.0
   0
LINE
   5
1A8
 100
AcDbEntity
   8
LEVEL002
 370
20
 100
AcDbLine
   6
CONTINUOUS
  62
7
  10
 600.84856321839
  20
 607.82991242474
  30
0.0
  11
 600.84856321839
  21
 545.82991242474
  31
0.0
   0
LINE
   5
1A9
 100
AcDbEntity
   8
LEVEL002
 370
20
 100
AcDbLine
   6
CONTINUOUS
  62
7
  10
 622.44856321839
  20
 607.82991242474
  30
0.0
  11
 622.44856321839
  21
 545.82991242474
  31
0.0
   0
LINE
   5
1AA
 100
AcDbEntity
   8
LEVEL002
 370
20
 100
AcDbLine
   6
CONTINUOUS
  62
7
  10
 644.04856321839
  20
 607.82991242474
  30
0.0
  11
 644.04856321839
  21
 545.82991242474
  31
0.0
   0
LINE
   5
1AB
 100
AcDbEntity
   8
LEVEL002
 370
20
 100
AcDbLine
   6
CONTINUOUS
  62
7
  10
 665.64856321839
  20
 607.82991242474
  30
0.0
  11
 665.64856321839
  21
 545.82991242474
  31
0.0
   0
LINE
   5
1AC
 100
AcDbEntity
   8
LEVEL002
 370
20
 100
AcDbLine
   6
CONTINUOUS
  62
7
  10
 687.24856321839
  20
 607.82991242474
  30
0.0
  11
 687.24856321839
  21
 545.82991242474
  31
0.0
   0
LINE
   5
1AD
 100
AcDbEntity
   8
LEVEL002
 370
20
 100
AcDbLine
   6
CONTINUOUS
  62
7
  10
 708.84856321839
  20
 607.82991242474
  30
0.0
  11
 708.84856321839
  21
 545.82991242474
  31
0.0
   0
LINE
   5
1AE
 100
AcDbEntity
   8
LEVEL002
 370
20
 100
AcDbLine
   6
CONTINUOUS
  62
7
  10
 730.44856321839
  20
 607.82991242474
  30
0.0
  11
 730.44856321839
  21
 545.82991242474
  31
0.0
   0
LINE
   5
1AF
 100
AcDbEntity
   8
LEVEL002
 370
20
 100
AcDbLine
   6
CONTINUOUS
  62
7
  10
 752.04856321839
  20
 607.82991242474
  30
0.0
  11
 752.04856321839
  21
 545.82991242474
  31
0.0
   0
LINE
   5
1B0
 100
AcDbEntity
   8
LEVEL002
 370
20
 100
AcDbLine
   6
CONTINUOUS
  62
7
  10
 773.64856321839
  20
 607.82991242474
  30
0.0
  11
 773.64856321839
  21
 545.82991242474
  31
0.0
   0
LINE
   5
1B1
 100
AcDbEntity
   8
LEVEL002
 370
20
 100
AcDbLine
   6
CONTINUOUS
  62
7
  10
 795.24856321839
  20
 607.82991242474
  30
0.0
  11
 795.24856321839
  21
 545.82991242474
  31
0.0
   0
LINE
   5
1B2
 100
AcDbEntity
   8
LEVEL002
 370
20
 100
AcDbLine
   6
CONTINUOUS
  62
7
  10
 816.84856321839
  20
 607.82991242474
  30
0.0
  11
 816.84856321839
  21
 545.82991242474
  31
0.0
   0
LINE
   5
1B3
 100
AcDbEntity
   8
LEVEL002
 370
20
 100
AcDbLine
   6
CONTINUOUS
  62
7
  10
 849.84856321839
  20
 196.82991242474
  30
0.0
  11
 849.84856321839
  21
 666.82991242474
  31
0.0
   0
LINE
   5
1B4
 100
AcDbEntity
   8
LEVEL002
 370
20
 100
AcDbLine
   6
CONTINUOUS
  62
7
  10
 849.84856321839
  20
 666.82991242474
  30
0.0
  11
 850.54856321839
  21
 666.82991242474
  31
0.0
   0
LINE
   5
1B5
 100
AcDbEntity
   8
LEVEL002
 370
20
 100
AcDbLine
   6
CONTINUOUS
  62
7
  10
 906.04856321839
  20
 667.82991242474
  30
0.0
  11
 906.04856321839
  21
 781.45942094334
  31
0.0
   0
LINE
   5
1B6
 100
AcDbEntity
   8
LEVEL002
 370
20
 100
AcDbLine
   6
CONTINUOUS
  62
7
  10
 906.04856321839
  20
 781.45942094334
  30
0.0
  11
 894.04856321839
  21
 781.45942094334
  31
0.0
   0
LINE
   5
1B7
 100
AcDbEntity
   8
LEVEL002
 370
20
 100
AcDbLine
   6
CONTINUOUS
  62
7
  10
 894.04856321839
  20
 781.45942094334
  30
0.0
  11
 894.04856321839
  21
 667.82991242474
  31
0.0
   0
LINE
   5
1B8
 100
AcDbEntity
   8
LEVEL002
 370
20
 100
AcDbLine
   6
CONTINUOUS
  62
7
  10
 588.84856321839
  20
 726.27627659231
  30
0.0
  11
 566.17869023743
  21
 726.27627659231
  31
0.0
   0
LINE
   5
1B9
 100
AcDbEntity
   8
LEVEL002
 370
20
 100
AcDbLine
   6
CONTINUOUS
  62
7
  10
 566.17869023743
  20
 726.27627659231
  30
0.0
  11
 561.84856321839
  21
 723.77627659231
  31
0.0
   0
LINE
   5
1BA
 100
AcDbEntity
   8
LEVEL002
 370
20
 100
AcDbLine
   6
CONTINUOUS
  62
7
  10
 561.84856321839
  20
 723.77627659231
  30
0.0
  11
 550.64856321839
  21
 723.77627659231
  31
0.0
   0
LINE
   5
1BB
 100
AcDbEntity
   8
LEVEL002
 370
20
 100
AcDbLine
   6
CONTINUOUS
  62
7
  10
 550.64856321839
  20
 698.77627659231
  30
0.0
  11
 561.84856321839
  21
 698.77627659231
  31
0.0
   0
LINE
   5
1BC
 100
AcDbEntity
   8
LEVEL002
 370
20
 100
AcDbLine
   6
CONTINUOUS
  62
7
  10
 561.84856321839
  20
 698.77627659231
  30
0.0
  11
 566.17869023743
  21
 696.27627659231
  31
0.0
   0
LINE
   5
1BD
 100
AcDbEntity
   8
LEVEL002
 370
20
 100
AcDbLine
   6
CONTINUOUS
  62
7
  10
 566.17869023743
  20
 696.27627659231
  30
0.0
  11
 588.84856321839
  21
 696.27627659231
  31
0.0
   0
LINE
   5
1BE
 100
AcDbEntity
   8
LEVEL002
 370
20
 100
AcDbLine
   6
CONTINUOUS
  62
7
  10
 828.84856321839
  20
 726.27627659231
  30
0.0
  11
 851.51843619935
  21
 726.27627659231
  31
0.0
   0
LINE
   5
1BF
 100
AcDbEntity
   8
LEVEL002
 370
20
 100
AcDbLine
   6
CONTINUOUS
  62
7
  10
 851.51843619935
  20
 726.27627659231
  30
0.0
  11
 855.84856321839
  21
 723.77627659231
  31
0.0
   0
LINE
   5
1C0
 100
AcDbEntity
   8
LEVEL002
 370
20
 100
AcDbLine
   6
CONTINUOUS
  62
7
  10
 855.84856321839
  20
 723.77627659231
  30
0.0
  11
 867.04856321839
  21
 723.77627659231
  31
0.0
   0
LINE
   5
1C1
 100
AcDbEntity
   8
LEVEL002
 370
20
 100
AcDbLine
   6
CONTINUOUS
  62
7
  10
 867.04856321839
  20
 698.77627659231
  30
0.0
  11
 855.84856321839
  21
 698.77627659231
  31
0.0
   0
LINE
   5
1C2
 100
AcDbEntity
   8
LEVEL002
 370
20
 100
AcDbLine
   6
CONTINUOUS
  62
7
  10
 855.84856321839
  20
 698.77627659231
  30
0.0
  11
 851.51843619935
  21
 696.27627659231
  31
0.0
   0
LINE
   5
1C3
 100
AcDbEntity
   8
LEVEL002
 370
20
 100
AcDbLine
   6
CONTINUOUS
  62
7
  10
 851.51843619935
  20
 696.27627659231
  30
0.0
  11
 828.84856321839
  21
 696.27627659231
  31
0.0
   0
LINE
   5
1C4
 100
AcDbEntity
   8
LEVEL002
 370
20
 100
AcDbLine
   6
CONTINUOUS
  62
7
  10
 536.64856321839
  20
 769.45942094334
  30
0.0
  11
 881.04856321839
  21
 769.45942094334
  31
0.0
   0
LINE
   5
1C5
 100
AcDbEntity
   8
LEVEL002
 370
20
 100
AcDbLine
   6
CONTINUOUS
  62
7
  10
 881.04856321839
  20
 753.45942094334
  30
0.0
  11
 536.64856321839
  21
 753.45942094334
  31
0.0
   0
LINE
   5
1C6
 100
AcDbEntity
   8
LEVEL002
 370
20
 100
AcDbLine
   6
CONTINUOUS
  62
7
  10
 849.34856321839
  20
 368.82991242474
  30
0.0
  11
 849.59856321839
  21
 368.82991242474
  31
0.0
   0
LINE
   5
1C7
 100
AcDbEntity
   8
LEVEL002
 370
20
 100
AcDbLine
   6
CONTINUOUS
  62
7
  10
 849.59856321839
  20
 368.82991242474
  30
0.0
  11
 849.59856321839
  21
 388.82991242474
  31
0.0
   0
LINE
   5
1C8
 100
AcDbEntity
   8
LEVEL002
 370
20
 100
AcDbLine
   6
CONTINUOUS
  62
7
  10
 849.59856321839
  20
 388.82991242474
  30
0.0
  11
 568.09856321839
  21
 388.82991242474
  31
0.0
   0
LINE
   5
1C9
 100
AcDbEntity
   8
LEVEL002
 370
20
 100
AcDbLine
   6
CONTINUOUS
  62
7
  10
 568.09856321839
  20
 388.82991242474
  30
0.0
  11
 568.09856321839
  21
 368.82991242474
  31
0.0
   0
LINE
   5
1CA
 100
AcDbEntity
   8
LEVEL002
 370
20
 100
AcDbLine
   6
CONTINUOUS
  62
7
  10
 568.09856321839
  20
 368.82991242474
  30
0.0
  11
 568.34856321839
  21
 368.82991242474
  31
0.0
   0
LINE
   5
1CB
 100
AcDbEntity
   8
LEVEL002
 370
20
 100
AcDbLine
   6
CONTINUOUS
  62
7
  10
 588.84856321839
  20
 753.45942094334
  30
0.0
  11
 588.84856321839
  21
 711.27627659231
  31
0.0
   0
LINE
   5
1CC
 100
AcDbEntity
   8
LEVEL002
 370
20
 100
AcDbLine
   6
CONTINUOUS
  62
7
  10
 828.84856321839
  20
 711.27627659231
  30
0.0
  11
 828.84856321839
  21
 753.45942094334
  31
0.0
   0
LINE
   5
1CD
 100
AcDbEntity
   8
LEVEL002
 370
20
 100
AcDbLine
   6
CONTINUOUS
  62
7
  10
 828.84856321839
  20
 769.45942094334
  30
0.0
  11
 828.84856321839
  21
 777.27627659231
  31
0.0
   0
LINE
   5
1CE
 100
AcDbEntity
   8
LEVEL002
 370
20
 100
AcDbLine
   6
CONTINUOUS
  62
7
  10
 828.84856321839
  20
 777.27627659231
  30
0.0
  11
 816.84856321839
  21
 781.27627659231
  31
0.0
   0
LINE
   5
1CF
 100
AcDbEntity
   8
LEVEL002
 370
20
 100
AcDbLine
   6
CONTINUOUS
  62
7
  10
 816.84856321839
  20
 781.27627659231
  30
0.0
  11
 806.04856321839
  21
 777.27627659231
  31
0.0
   0
LINE
   5
1D0
 100
AcDbEntity
   8
LEVEL002
 370
20
 100
AcDbLine
   6
CONTINUOUS
  62
7
  10
 806.04856321839
  20
 777.27627659231
  30
0.0
  11
 795.24856321839
  21
 781.27627659231
  31
0.0
   0
LINE
   5
1D1
 100
AcDbEntity
   8
LEVEL002
 370
20
 100
AcDbLine
   6
CONTINUOUS
  62
7
  10
 795.24856321839
  20
 781.27627659231
  30
0.0
  11
 784.44856321839
  21
 777.27627659231
  31
0.0
   0
LINE
   5
1D2
 100
AcDbEntity
   8
LEVEL002
 370
20
 100
AcDbLine
   6
CONTINUOUS
  62
7
  10
 784.44856321839
  20
 777.27627659231
  30
0.0
  11
 773.64856321839
  21
 781.27627659231
  31
0.0
   0
LINE
   5
1D3
 100
AcDbEntity
   8
LEVEL002
 370
20
 100
AcDbLine
   6
CONTINUOUS
  62
7
  10
 773.64856321839
  20
 781.27627659231
  30
0.0
  11
 762.84856321839
  21
 777.27627659231
  31
0.0
   0
LINE
   5
1D4
 100
AcDbEntity
   8
LEVEL002
 370
20
 100
AcDbLine
   6
CONTINUOUS
  62
7
  10
 762.84856321839
  20
 777.27627659231
  30
0.0
  11
 752.04856321839
  21
 781.27627659231
  31
0.0
   0
LINE
   5
1D5
 100
AcDbEntity
   8
LEVEL002
 370
20
 100
AcDbLine
   6
CONTINUOUS
  62
7
  10
 752.04856321839
  20
 781.27627659231
  30
0.0
  11
 741.24856321839
  21
 777.27627659231
  31
0.0
   0
LINE
   5
1D6
 100
AcDbEntity
   8
LEVEL002
 370
20
 100
AcDbLine
   6
CONTINUOUS
  62
7
  10
 741.24856321839
  20
 777.27627659231
  30
0.0
  11
 730.44856321839
  21
 781.27627659231
  31
0.0
   0
LINE
   5
1D7
 100
AcDbEntity
   8
LEVEL002
 370
20
 100
AcDbLine
   6
CONTINUOUS
  62
7
  10
 730.44856321839
  20
 781.27627659231
  30
0.0
  11
 719.64856321839
  21
 777.27627659231
  31
0.0
   0
LINE
   5
1D8
 100
AcDbEntity
   8
LEVEL002
 370
20
 100
AcDbLine
   6
CONTINUOUS
  62
7
  10
 719.64856321839
  20
 777.27627659231
  30
0.0
  11
 708.84856321839
  21
 781.27627659231
  31
0.0
   0
LINE
   5
1D9
 100
AcDbEntity
   8
LEVEL002
 370
20
 100
AcDbLine
   6
CONTINUOUS
  62
7
  10
 708.84856321839
  20
 781.27627659231
  30
0.0
  11
 698.04856321839
  21
 777.27627659231
  31
0.0
   0
LINE
   5
1DA
 100
AcDbEntity
   8
LEVEL002
 370
20
 100
AcDbLine
   6
CONTINUOUS
  62
7
  10
 698.04856321839
  20
 777.27627659231
  30
0.0
  11
 687.24856321839
  21
 781.27627659231
  31
0.0
   0
LINE
   5
1DB
 100
AcDbEntity
   8
LEVEL002
 370
20
 100
AcDbLine
   6
CONTINUOUS
  62
7
  10
 687.24856321839
  20
 781.27627659231
  30
0.0
  11
 676.44856321839
  21
 777.27627659231
  31
0.0
   0
LINE
   5
1DC
 100
AcDbEntity
   8
LEVEL002
 370
20
 100
AcDbLine
   6
CONTINUOUS
  62
7
  10
 676.44856321839
  20
 777.27627659231
  30
0.0
  11
 665.64856321839
  21
 781.27627659231
  31
0.0
   0
LINE
   5
1DD
 100
AcDbEntity
   8
LEVEL002
 370
20
 100
AcDbLine
   6
CONTINUOUS
  62
7
  10
 665.64856321839
  20
 781.27627659231
  30
0.0
  11
 654.84856321839
  21
 777.27627659231
  31
0.0
   0
LINE
   5
1DE
 100
AcDbEntity
   8
LEVEL002
 370
20
 100
AcDbLine
   6
CONTINUOUS
  62
7
  10
 654.84856321839
  20
 777.27627659231
  30
0.0
  11
 644.04856321839
  21
 781.27627659231
  31
0.0
   0
LINE
   5
1DF
 100
AcDbEntity
   8
LEVEL002
 370
20
 100
AcDbLine
   6
CONTINUOUS
  62
7
  10
 644.04856321839
  20
 781.27627659231
  30
0.0
  11
 633.24856321839
  21
 777.27627659231
  31
0.0
   0
LINE
   5
1E0
 100
AcDbEntity
   8
LEVEL002
 370
20
 100
AcDbLine
   6
CONTINUOUS
  62
7
  10
 633.24856321839
  20
 777.27627659231
  30
0.0
  11
 622.44856321839
  21
 781.27627659231
  31
0.0
   0
LINE
   5
1E1
 100
AcDbEntity
   8
LEVEL002
 370
20
 100
AcDbLine
   6
CONTINUOUS
  62
7
  10
 622.44856321839
  20
 781.27627659231
  30
0.0
  11
 611.64856321839
  21
 777.27627659231
  31
0.0
   0
LINE
   5
1E2
 100
AcDbEntity
   8
LEVEL002
 370
20
 100
AcDbLine
   6
CONTINUOUS
  62
7
  10
 611.64856321839
  20
 777.27627659231
  30
0.0
  11
 600.84856321839
  21
 781.27627659231
  31
0.0
   0
LINE
   5
1E3
 100
AcDbEntity
   8
LEVEL002
 370
20
 100
AcDbLine
   6
CONTINUOUS
  62
7
  10
 600.84856321839
  20
 781.27627659231
  30
0.0
  11
 588.84856321839
  21
 777.27627659231
  31
0.0
   0
LINE
   5
1E4
 100
AcDbEntity
   8
LEVEL002
 370
20
 100
AcDbLine
   6
CONTINUOUS
  62
7
  10
 588.84856321839
  20
 777.27627659231
  30
0.0
  11
 588.84856321839
  21
 769.45942094334
  31
0.0
   0
LINE
   5
1E5
 100
AcDbEntity
   8
LEVEL002
 370
20
 100
AcDbLine
   6
CONTINUOUS
  62
7
  10
 587.84856321839
  20
 657.83323475188
  30
0.0
  11
 587.84856321839
  21
 676.82991242474
  31
0.0
   0
LINE
   5
1E6
 100
AcDbEntity
   8
LEVEL002
 370
20
 100
AcDbLine
   6
CONTINUOUS
  62
7
  10
 587.84856321839
  20
 676.82991242474
  30
0.0
  11
 581.34856321839
  21
 676.82991242474
  31
0.0
   0
LINE
   5
1E7
 100
AcDbEntity
   8
LEVEL002
 370
20
 100
AcDbLine
   6
CONTINUOUS
  62
7
  10
 581.34856321839
  20
 676.82991242474
  30
0.0
  11
 581.34856321839
  21
 657.83323475188
  31
0.0
   0
LINE
   5
1E8
 100
AcDbEntity
   8
LEVEL002
 370
20
 100
AcDbLine
   6
CONTINUOUS
  62
7
  10
 829.84856321839
  20
 657.83323475188
  30
0.0
  11
 829.84856321839
  21
 676.82991242474
  31
0.0
   0
LINE
   5
1E9
 100
AcDbEntity
   8
LEVEL002
 370
20
 100
AcDbLine
   6
CONTINUOUS
  62
7
  10
 829.84856321839
  20
 676.82991242474
  30
0.0
  11
 836.34856321839
  21
 676.82991242474
  31
0.0
   0
LINE
   5
1EA
 100
AcDbEntity
   8
LEVEL002
 370
20
 100
AcDbLine
   6
CONTINUOUS
  62
7
  10
 836.34856321839
  20
 676.82991242474
  30
0.0
  11
 836.34856321839
  21
 657.83323475188
  31
0.0
   0
LINE
   5
1EB
 100
AcDbEntity
   8
LEVEL002
 370
20
 100
AcDbLine
   6
CONTINUOUS
  62
7
  10
 828.84856321839
  20
 711.27627659231
  30
0.0
  11
 828.84856321839
  21
 657.83323475188
  31
0.0
   0
LINE
   5
1EC
 100
AcDbEntity
   8
LEVEL002
 370
20
 100
AcDbLine
   6
CONTINUOUS
  62
7
  10
 588.84856321839
  20
 657.83323475188
  30
0.0
  11
 588.84856321839
  21
 711.27627659231
  31
0.0
   0
LINE
   5
1ED
 100
AcDbEntity
   8
LEVEL002
 370
20
 100
AcDbLine
   6
CONTINUOUS
  62
7
  10
 581.34856321839
  20
 635.82659009760
  30
0.0
  11
 581.34856321839
  21
 490.82991242474
  31
0.0
   0
LINE
   5
1EE
 100
AcDbEntity
   8
LEVEL002
 370
20
 100
AcDbLine
   6
CONTINUOUS
  62
7
  10
 581.34856321839
  20
 480.82991242474
  30
0.0
  11
 581.34856321839
  21
 476.82991242474
  31
0.0
   0
LINE
   5
1EF
 100
AcDbEntity
   8
LEVEL002
 370
20
 100
AcDbLine
   6
CONTINUOUS
  62
7
  10
 581.34856321839
  20
 476.82991242474
  30
0.0
  11
 587.84856321839
  21
 476.82991242474
  31
0.0
   0
LINE
   5
1F0
 100
AcDbEntity
   8
LEVEL002
 370
20
 100
AcDbLine
   6
CONTINUOUS
  62
7
  10
 587.84856321839
  20
 476.82991242474
  30
0.0
  11
 587.84856321839
  21
 480.82991242474
  31
0.0
   0
LINE
   5
1F1
 100
AcDbEntity
   8
LEVEL002
 370
20
 100
AcDbLine
   6
CONTINUOUS
  62
7
  10
 587.84856321839
  20
 490.82991242474
  30
0.0
  11
 587.84856321839
  21
 506.82991242474
  31
0.0
   0
LINE
   5
1F2
 100
AcDbEntity
   8
LEVEL002
 370
20
 100
AcDbLine
   6
CONTINUOUS
  62
7
  10
 587.84856321839
  20
 506.82991242474
  30
0.0
  11
 588.84856321839
  21
 506.82991242474
  31
0.0
   0
LINE
   5
1F3
 100
AcDbEntity
   8
LEVEL002
 370
20
 100
AcDbLine
   6
CONTINUOUS
  62
7
  10
 588.84856321839
  20
 506.82991242474
  30
0.0
  11
 588.84856321839
  21
 635.82659009760
  31
0.0
   0
LINE
   5
1F4
 100
AcDbEntity
   8
LEVEL002
 370
20
 100
AcDbLine
   6
CONTINUOUS
  62
7
  10
 588.84856321839
  20
 506.82991242474
  30
0.0
  11
 588.84856321839
  21
 490.82991242474
  31
0.0
   0
LINE
   5
1F5
 100
AcDbEntity
   8
LEVEL002
 370
20
 100
AcDbLine
   6
CONTINUOUS
  62
7
  10
 588.84856321839
  20
 480.82991242474
  30
0.0
  11
 588.84856321839
  21
 419.82991242474
  31
0.0
   0
LINE
   5
1F6
 100
AcDbEntity
   8
LEVEL002
 370
20
 100
AcDbLine
   6
CONTINUOUS
  62
7
  10
 588.84856321839
  20
 419.82991242474
  30
0.0
  11
 600.84856321839
  21
 415.82991242474
  31
0.0
   0
LINE
   5
1F7
 100
AcDbEntity
   8
LEVEL002
 370
20
 100
AcDbLine
   6
CONTINUOUS
  62
7
  10
 600.84856321839
  20
 415.82991242474
  30
0.0
  11
 611.64856321839
  21
 419.82991242474
  31
0.0
   0
LINE
   5
1F8
 100
AcDbEntity
   8
LEVEL002
 370
20
 100
AcDbLine
   6
CONTINUOUS
  62
7
  10
 611.64856321839
  20
 419.82991242474
  30
0.0
  11
 622.44856321839
  21
 415.82991242474
  31
0.0
   0
LINE
   5
1F9
 100
AcDbEntity
   8
LEVEL002
 370
20
 100
AcDbLine
   6
CONTINUOUS
  62
7
  10
 622.44856321839
  20
 415.82991242474
  30
0.0
  11
 633.24856321839
  21
 419.82991242474
  31
0.0
   0
LINE
   5
1FA
 100
AcDbEntity
   8
LEVEL002
 370
20
 100
AcDbLine
   6
CONTINUOUS
  62
7
  10
 633.24856321839
  20
 419.82991242474
  30
0.0
  11
 644.04856321839
  21
 415.82991242474
  31
0.0
   0
LINE
   5
1FB
 100
AcDbEntity
   8
LEVEL002
 370
20
 100
AcDbLine
   6
CONTINUOUS
  62
7
  10
 644.04856321839
  20
 415.82991242474
  30
0.0
  11
 654.84856321839
  21
 419.82991242474
  31
0.0
   0
LINE
   5
1FC
 100
AcDbEntity
   8
LEVEL002
 370
20
 100
AcDbLine
   6
CONTINUOUS
  62
7
  10
 654.84856321839
  20
 419.82991242474
  30
0.0
  11
 665.64856321839
  21
 415.82991242474
  31
0.0
   0
LINE
   5
1FD
 100
AcDbEntity
   8
LEVEL002
 370
20
 100
AcDbLine
   6
CONTINUOUS
  62
7
  10
 665.64856321839
  20
 415.82991242474
  30
0.0
  11
 676.44856321839
  21
 419.82991242474
  31
0.0
   0
LINE
   5
1FE
 100
AcDbEntity
   8
LEVEL002
 370
20
 100
AcDbLine
   6
CONTINUOUS
  62
7
  10
 676.44856321839
  20
 419.82991242474
  30
0.0
  11
 687.24856321839
  21
 415.82991242474
  31
0.0
   0
LINE
   5
1FF
 100
AcDbEntity
   8
LEVEL002
 370
20
 100
AcDbLine
   6
CONTINUOUS
  62
7
  10
 687.24856321839
  20
 415.82991242474
  30
0.0
  11
 698.04856321839
  21
 419.82991242474
  31
0.0
   0
LINE
   5
200
 100
AcDbEntity
   8
LEVEL002
 370
20
 100
AcDbLine
   6
CONTINUOUS
  62
7
  10
 698.04856321839
  20
 419.82991242474
  30
0.0
  11
 708.84856321839
  21
 415.82991242474
  31
0.0
   0
LINE
   5
201
 100
AcDbEntity
   8
LEVEL002
 370
20
 100
AcDbLine
   6
CONTINUOUS
  62
7
  10
 708.84856321839
  20
 415.82991242474
  30
0.0
  11
 719.64856321839
  21
 419.82991242474
  31
0.0
   0
LINE
   5
202
 100
AcDbEntity
   8
LEVEL002
 370
20
 100
AcDbLine
   6
CONTINUOUS
  62
7
  10
 719.64856321839
  20
 419.82991242474
  30
0.0
  11
 730.44856321839
  21
 415.82991242474
  31
0.0
   0
LINE
   5
203
 100
AcDbEntity
   8
LEVEL002
 370
20
 100
AcDbLine
   6
CONTINUOUS
  62
7
  10
 730.44856321839
  20
 415.82991242474
  30
0.0
  11
 741.24856321839
  21
 419.82991242474
  31
0.0
   0
LINE
   5
204
 100
AcDbEntity
   8
LEVEL002
 370
20
 100
AcDbLine
   6
CONTINUOUS
  62
7
  10
 741.24856321839
  20
 419.82991242474
  30
0.0
  11
 752.04856321839
  21
 415.82991242474
  31
0.0
   0
LINE
   5
205
 100
AcDbEntity
   8
LEVEL002
 370
20
 100
AcDbLine
   6
CONTINUOUS
  62
7
  10
 752.04856321839
  20
 415.82991242474
  30
0.0
  11
 762.84856321839
  21
 419.82991242474
  31
0.0
   0
LINE
   5
206
 100
AcDbEntity
   8
LEVEL002
 370
20
 100
AcDbLine
   6
CONTINUOUS
  62
7
  10
 762.84856321839
  20
 419.82991242474
  30
0.0
  11
 773.64856321839
  21
 415.82991242474
  31
0.0
   0
LINE
   5
207
 100
AcDbEntity
   8
LEVEL002
 370
20
 100
AcDbLine
   6
CONTINUOUS
  62
7
  10
 773.64856321839
  20
 415.82991242474
  30
0.0
  11
 784.44856321839
  21
 419.82991242474
  31
0.0
   0
LINE
   5
208
 100
AcDbEntity
   8
LEVEL002
 370
20
 100
AcDbLine
   6
CONTINUOUS
  62
7
  10
 784.44856321839
  20
 419.82991242474
  30
0.0
  11
 795.24856321839
  21
 415.82991242474
  31
0.0
   0
LINE
   5
209
 100
AcDbEntity
   8
LEVEL002
 370
20
 100
AcDbLine
   6
CONTINUOUS
  62
7
  10
 795.24856321839
  20
 415.82991242474
  30
0.0
  11
 806.04856321839
  21
 419.82991242474
  31
0.0
   0
LINE
   5
20A
 100
AcDbEntity
   8
LEVEL002
 370
20
 100
AcDbLine
   6
CONTINUOUS
  62
7
  10
 806.04856321839
  20
 419.82991242474
  30
0.0
  11
 816.84856321839
  21
 415.82991242474
  31
0.0
   0
LINE
   5
20B
 100
AcDbEntity
   8
LEVEL002
 370
20
 100
AcDbLine
   6
CONTINUOUS
  62
7
  10
 816.84856321839
  20
 415.82991242474
  30
0.0
  11
 828.84856321839
  21
 419.82991242474
  31
0.0
   0
LINE
   5
20C
 100
AcDbEntity
   8
LEVEL002
 370
20
 100
AcDbLine
   6
CONTINUOUS
  62
7
  10
 828.84856321839
  20
 419.82991242474
  30
0.0
  11
 828.84856321839
  21
 480.82991242474
  31
0.0
   0
LINE
   5
20D
 100
AcDbEntity
   8
LEVEL002
 370
20
 100
AcDbLine
   6
CONTINUOUS
  62
7
  10
 828.84856321839
  20
 490.82991242474
  30
0.0
  11
 828.84856321839
  21
 506.82991242474
  31
0.0
   0
LINE
   5
20E
 100
AcDbEntity
   8
LEVEL002
 370
20
 100
AcDbLine
   6
CONTINUOUS
  62
7
  10
 611.64856321839
  20
 506.82991242474
  30
0.0
  11
 611.64856321839
  21
 490.82991242474
  31
0.0
   0
LINE
   5
20F
 100
AcDbEntity
   8
LEVEL002
 370
20
 100
AcDbLine
   6
CONTINUOUS
  62
7
  10
 611.64856321839
  20
 480.82991242474
  30
0.0
  11
 611.64856321839
  21
 454.82991242474
  31
0.0
   0
LINE
   5
210
 100
AcDbEntity
   8
LEVEL002
 370
20
 100
AcDbLine
   6
CONTINUOUS
  62
7
  10
 633.24856321839
  20
 506.82991242474
  30
0.0
  11
 633.24856321839
  21
 490.82991242474
  31
0.0
   0
LINE
   5
211
 100
AcDbEntity
   8
LEVEL002
 370
20
 100
AcDbLine
   6
CONTINUOUS
  62
7
  10
 633.24856321839
  20
 480.82991242474
  30
0.0
  11
 633.24856321839
  21
 454.82991242474
  31
0.0
   0
LINE
   5
212
 100
AcDbEntity
   8
LEVEL002
 370
20
 100
AcDbLine
   6
CONTINUOUS
  62
7
  10
 654.84856321839
  20
 506.82991242474
  30
0.0
  11
 654.84856321839
  21
 490.82991242474
  31
0.0
   0
LINE
   5
213
 100
AcDbEntity
   8
LEVEL002
 370
20
 100
AcDbLine
   6
CONTINUOUS
  62
7
  10
 654.84856321839
  20
 480.82991242474
  30
0.0
  11
 654.84856321839
  21
 454.82991242474
  31
0.0
   0
LINE
   5
214
 100
AcDbEntity
   8
LEVEL002
 370
20
 100
AcDbLine
   6
CONTINUOUS
  62
7
  10
 676.44856321839
  20
 506.82991242474
  30
0.0
  11
 676.44856321839
  21
 490.82991242474
  31
0.0
   0
LINE
   5
215
 100
AcDbEntity
   8
LEVEL002
 370
20
 100
AcDbLine
   6
CONTINUOUS
  62
7
  10
 676.44856321839
  20
 480.82991242474
  30
0.0
  11
 676.44856321839
  21
 454.82991242474
  31
0.0
   0
LINE
   5
216
 100
AcDbEntity
   8
LEVEL002
 370
20
 100
AcDbLine
   6
CONTINUOUS
  62
7
  10
 698.04856321839
  20
 506.82991242474
  30
0.0
  11
 698.04856321839
  21
 490.82991242474
  31
0.0
   0
LINE
   5
217
 100
AcDbEntity
   8
LEVEL002
 370
20
 100
AcDbLine
   6
CONTINUOUS
  62
7
  10
 698.04856321839
  20
 480.82991242474
  30
0.0
  11
 698.04856321839
  21
 454.82991242474
  31
0.0
   0
LINE
   5
218
 100
AcDbEntity
   8
LEVEL002
 370
20
 100
AcDbLine
   6
CONTINUOUS
  62
7
  10
 719.64856321839
  20
 506.82991242474
  30
0.0
  11
 719.64856321839
  21
 490.82991242474
  31
0.0
   0
LINE
   5
219
 100
AcDbEntity
   8
LEVEL002
 370
20
 100
AcDbLine
   6
CONTINUOUS
  62
7
  10
 719.64856321839
  20
 480.82991242474
  30
0.0
  11
 719.64856321839
  21
 454.82991242474
  31
0.0
   0
LINE
   5
21A
 100
AcDbEntity
   8
LEVEL002
 370
20
 100
AcDbLine
   6
CONTINUOUS
  62
7
  10
 741.24856321839
  20
 506.82991242474
  30
0.0
  11
 741.24856321839
  21
 490.82991242474
  31
0.0
   0
LINE
   5
21B
 100
AcDbEntity
   8
LEVEL002
 370
20
 100
AcDbLine
   6
CONTINUOUS
  62
7
  10
 741.24856321839
  20
 480.82991242474
  30
0.0
  11
 741.24856321839
  21
 454.82991242474
  31
0.0
   0
LINE
   5
21C
 100
AcDbEntity
   8
LEVEL002
 370
20
 100
AcDbLine
   6
CONTINUOUS
  62
7
  10
 762.84856321839
  20
 506.82991242474
  30
0.0
  11
 762.84856321839
  21
 490.82991242474
  31
0.0
   0
LINE
   5
21D
 100
AcDbEntity
   8
LEVEL002
 370
20
 100
AcDbLine
   6
CONTINUOUS
  62
7
  10
 762.84856321839
  20
 480.82991242474
  30
0.0
  11
 762.84856321839
  21
 454.82991242474
  31
0.0
   0
LINE
   5
21E
 100
AcDbEntity
   8
LEVEL002
 370
20
 100
AcDbLine
   6
CONTINUOUS
  62
7
  10
 784.44856321839
  20
 506.82991242474
  30
0.0
  11
 784.44856321839
  21
 490.82991242474
  31
0.0
   0
LINE
   5
21F
 100
AcDbEntity
   8
LEVEL002
 370
20
 100
AcDbLine
   6
CONTINUOUS
  62
7
  10
 784.44856321839
  20
 480.82991242474
  30
0.0
  11
 784.44856321839
  21
 454.82991242474
  31
0.0
   0
LINE
   5
220
 100
AcDbEntity
   8
LEVEL002
 370
20
 100
AcDbLine
   6
CONTINUOUS
  62
7
  10
 806.04856321839
  20
 506.82991242474
  30
0.0
  11
 806.04856321839
  21
 490.82991242474
  31
0.0
   0
LINE
   5
221
 100
AcDbEntity
   8
LEVEL002
 370
20
 100
AcDbLine
   6
CONTINUOUS
  62
7
  10
 806.04856321839
  20
 480.82991242474
  30
0.0
  11
 806.04856321839
  21
 454.82991242474
  31
0.0
   0
LINE
   5
222
 100
AcDbEntity
   8
LEVEL002
 370
20
 100
AcDbLine
   6
CONTINUOUS
  62
7
  10
 836.34856321839
  20
 635.82659009760
  30
0.0
  11
 836.34856321839
  21
 490.82991242474
  31
0.0
   0
LINE
   5
223
 100
AcDbEntity
   8
LEVEL002
 370
20
 100
AcDbLine
   6
CONTINUOUS
  62
7
  10
 836.34856321839
  20
 480.82991242474
  30
0.0
  11
 836.34856321839
  21
 476.82991242474
  31
0.0
   0
LINE
   5
224
 100
AcDbEntity
   8
LEVEL002
 370
20
 100
AcDbLine
   6
CONTINUOUS
  62
7
  10
 836.34856321839
  20
 476.82991242474
  30
0.0
  11
 829.84856321839
  21
 476.82991242474
  31
0.0
   0
LINE
   5
225
 100
AcDbEntity
   8
LEVEL002
 370
20
 100
AcDbLine
   6
CONTINUOUS
  62
7
  10
 829.84856321839
  20
 476.82991242474
  30
0.0
  11
 829.84856321839
  21
 480.82991242474
  31
0.0
   0
LINE
   5
226
 100
AcDbEntity
   8
LEVEL002
 370
20
 100
AcDbLine
   6
CONTINUOUS
  62
7
  10
 829.84856321839
  20
 490.82991242474
  30
0.0
  11
 829.84856321839
  21
 506.82991242474
  31
0.0
   0
LINE
   5
227
 100
AcDbEntity
   8
LEVEL002
 370
20
 100
AcDbLine
   6
CONTINUOUS
  62
7
  10
 829.84856321839
  20
 506.82991242474
  30
0.0
  11
 828.84856321839
  21
 506.82991242474
  31
0.0
   0
LINE
   5
228
 100
AcDbEntity
   8
LEVEL002
 370
20
 100
AcDbLine
   6
CONTINUOUS
  62
7
  10
 828.84856321839
  20
 506.82991242474
  30
0.0
  11
 828.84856321839
  21
 635.82659009760
  31
0.0
   0
LINE
   5
229
 100
AcDbEntity
   8
LEVEL002
 370
20
 100
AcDbLine
   6
CONTINUOUS
  62
7
  10
 881.04856321839
  20
 667.82991242474
  30
0.0
  11
 881.04856321839
  21
 749.95942094334
  31
0.0
   0
LINE
   5
22A
 100
AcDbEntity
   8
LEVEL002
 370
20
 100
AcDbLine
   6
CONTINUOUS
  62
7
  10
 511.64856321839
  20
 715.68795841164
  30
0.0
  11
 465.64856321839
  21
 715.68795841164
  31
0.0
   0
ARC
   5
22B
 100
AcDbEntity
   8
LEVEL002
 370
20
   6
CONTINUOUS
  62
7
 100
AcDbCircle
  10
 472.14856321839
  20
 593.82991242474
  30
0.0
  40
 101.00000000000
 100
AcDbArc
  50
 78.578813725001
  51
 101.42118627500
   0
LINE
   5
22C
 100
AcDbEntity
   8
LEVEL002
 370
20
 100
AcDbLine
   6
CONTINUOUS
  62
7
  10
 452.14856321839
  20
 692.82991242474
  30
0.0
  11
 452.14856321839
  21
 688.82991242474
  31
0.0
   0
LINE
   5
22D
 100
AcDbEntity
   8
LEVEL002
 370
20
 100
AcDbLine
   6
CONTINUOUS
  62
7
  10
 452.14856321839
  20
 688.82991242474
  30
0.0
  11
 492.14856321839
  21
 688.82991242474
  31
0.0
   0
LINE
   5
22E
 100
AcDbEntity
   8
LEVEL002
 370
20
 100
AcDbLine
   6
CONTINUOUS
  62
7
  10
 492.14856321839
  20
 688.82991242474
  30
0.0
  11
 492.14856321839
  21
 692.82991242474
  31
0.0
   0
LINE
   5
22F
 100
AcDbEntity
   8
LEVEL002
 370
20
 100
AcDbLine
   6
CONTINUOUS
  62
7
  10
 489.14856321839
  20
 670.32991242474
  30
0.0
  11
 489.14856321839
  21
 676.32991242474
  31
0.0
   0
LINE
   5
230
 100
AcDbEntity
   8
LEVEL002
 370
20
 100
AcDbLine
   6
CONTINUOUS
  62
7
  10
 489.14856321839
  20
 676.32991242474
  30
0.0
  11
 487.14856321839
  21
 682.32991242474
  31
0.0
   0
LINE
   5
231
 100
AcDbEntity
   8
LEVEL002
 370
20
 100
AcDbLine
   6
CONTINUOUS
  62
7
  10
 487.14856321839
  20
 682.32991242474
  30
0.0
  11
 457.14856321839
  21
 682.32991242474
  31
0.0
   0
LINE
   5
232
 100
AcDbEntity
   8
LEVEL002
 370
20
 100
AcDbLine
   6
CONTINUOUS
  62
7
  10
 457.14856321839
  20
 682.32991242474
  30
0.0
  11
 455.14856321839
  21
 676.32991242474
  31
0.0
   0
LINE
   5
233
 100
AcDbEntity
   8
LEVEL002
 370
20
 100
AcDbLine
   6
CONTINUOUS
  62
7
  10
 455.14856321839
  20
 676.32991242474
  30
0.0
  11
 455.14856321839
  21
 670.32991242474
  31
0.0
   0
LINE
   5
234
 100
AcDbEntity
   8
LEVEL002
 370
20
 100
AcDbLine
   6
CONTINUOUS
  62
7
  10
 455.14856321839
  20
 670.32991242474
  30
0.0
  11
 489.14856321839
  21
 670.32991242474
  31
0.0
   0
LINE
   5
235
 100
AcDbEntity
   8
LEVEL002
 370
20
 100
AcDbLine
   6
CONTINUOUS
  62
7
  10
 489.14856321839
  20
 676.32991242474
  30
0.0
  11
 455.14856321839
  21
 676.32991242474
  31
0.0
   0
LINE
   5
236
 100
AcDbEntity
   8
LEVEL002
 370
20
 100
AcDbLine
   6
CONTINUOUS
  62
7
  10
 484.64856321839
  20
 682.32991242474
  30
0.0
  11
 484.64856321839
  21
 688.82991242474
  31
0.0
   0
LINE
   5
237
 100
AcDbEntity
   8
LEVEL002
 370
20
 100
AcDbLine
   6
CONTINUOUS
  62
7
  10
 459.64856321839
  20
 682.32991242474
  30
0.0
  11
 459.64856321839
  21
 688.82991242474
  31
0.0
   0
LINE
   5
238
 100
AcDbEntity
   8
LEVEL002
 370
20
 100
AcDbLine
   6
CONTINUOUS
  62
7
  10
 452.14856321839
  20
 667.82991242474
  30
0.0
  11
 492.14856321839
  21
 667.82991242474
  31
0.0
   0
LINE
   5
239
 100
AcDbEntity
   8
LEVEL002
 370
20
 100
AcDbLine
   6
CONTINUOUS
  62
7
  10
 492.14856321839
  20
 667.82991242474
  30
0.0
  11
 492.14856321839
  21
 670.32991242474
  31
0.0
   0
LINE
   5
23A
 100
AcDbEntity
   8
LEVEL002
 370
20
 100
AcDbLine
   6
CONTINUOUS
  62
7
  10
 492.14856321839
  20
 670.32991242474
  30
0.0
  11
 452.14856321839
  21
 670.32991242474
  31
0.0
   0
LINE
   5
23B
 100
AcDbEntity
   8
LEVEL002
 370
20
 100
AcDbLine
   6
CONTINUOUS
  62
7
  10
 452.14856321839
  20
 670.32991242474
  30
0.0
  11
 452.14856321839
  21
 667.82991242474
  31
0.0
   0
LINE
   5
23C
 100
AcDbEntity
   8
LEVEL002
 370
20
 100
AcDbLine
   6
CONTINUOUS
  62
7
  10
 542.14856321839
  20
 670.32991242474
  30
0.0
  11
 542.14856321839
  21
 676.32991242474
  31
0.0
   0
LINE
   5
23D
 100
AcDbEntity
   8
LEVEL002
 370
20
 100
AcDbLine
   6
CONTINUOUS
  62
7
  10
 542.14856321839
  20
 676.32991242474
  30
0.0
  11
 540.14856321839
  21
 682.32991242474
  31
0.0
   0
LINE
   5
23E
 100
AcDbEntity
   8
LEVEL002
 370
20
 100
AcDbLine
   6
CONTINUOUS
  62
7
  10
 540.14856321839
  20
 682.32991242474
  30
0.0
  11
 510.14856321839
  21
 682.32991242474
  31
0.0
   0
LINE
   5
23F
 100
AcDbEntity
   8
LEVEL002
 370
20
 100
AcDbLine
   6
CONTINUOUS
  62
7
  10
 510.14856321839
  20
 682.32991242474
  30
0.0
  11
 508.14856321839
  21
 676.32991242474
  31
0.0
   0
LINE
   5
240
 100
AcDbEntity
   8
LEVEL002
 370
20
 100
AcDbLine
   6
CONTINUOUS
  62
7
  10
 508.14856321839
  20
 676.32991242474
  30
0.0
  11
 508.14856321839
  21
 670.32991242474
  31
0.0
   0
LINE
   5
241
 100
AcDbEntity
   8
LEVEL002
 370
20
 100
AcDbLine
   6
CONTINUOUS
  62
7
  10
 508.14856321839
  20
 670.32991242474
  30
0.0
  11
 542.14856321839
  21
 670.32991242474
  31
0.0
   0
LINE
   5
242
 100
AcDbEntity
   8
LEVEL002
 370
20
 100
AcDbLine
   6
CONTINUOUS
  62
7
  10
 542.14856321839
  20
 676.32991242474
  30
0.0
  11
 508.14856321839
  21
 676.32991242474
  31
0.0
   0
LINE
   5
243
 100
AcDbEntity
   8
LEVEL002
 370
20
 100
AcDbLine
   6
CONTINUOUS
  62
7
  10
 530.14856321839
  20
 689.32991242474
  30
0.0
  11
 511.64856321839
  21
 689.32991242474
  31
0.0
   0
LINE
   5
244
 100
AcDbEntity
   8
LEVEL002
 370
20
 100
AcDbLine
   6
CONTINUOUS
  62
7
  10
 511.64856321839
  20
 689.32991242474
  30
0.0
  11
 511.64856321839
  21
 682.32991242474
  31
0.0
   0
LINE
   5
245
 100
AcDbEntity
   8
LEVEL002
 370
20
 100
AcDbLine
   6
CONTINUOUS
  62
7
  10
 511.64856321839
  20
 682.32991242474
  30
0.0
  11
 538.64856321839
  21
 682.32991242474
  31
0.0
   0
LINE
   5
246
 100
AcDbEntity
   8
LEVEL002
 370
20
 100
AcDbLine
   6
CONTINUOUS
  62
7
  10
 538.64856321839
  20
 682.32991242474
  30
0.0
  11
 538.64856321839
  21
 689.32991242474
  31
0.0
   0
LINE
   5
247
 100
AcDbEntity
   8
LEVEL002
 370
20
 100
AcDbLine
   6
CONTINUOUS
  62
7
  10
 538.64856321839
  20
 689.32991242474
  30
0.0
  11
 530.14856321839
  21
 689.32991242474
  31
0.0
   0
LINE
   5
248
 100
AcDbEntity
   8
LEVEL002
 370
20
 100
AcDbLine
   6
CONTINUOUS
  62
7
  10
 530.14856321839
  20
 689.32991242474
  30
0.0
  11
 530.14856321839
  21
 699.32991242474
  31
0.0
   0
LINE
   5
249
 100
AcDbEntity
   8
LEVEL002
 370
20
 100
AcDbLine
   6
CONTINUOUS
  62
7
  10
 530.14856321839
  20
 699.32991242474
  30
0.0
  11
 520.14856321839
  21
 699.32991242474
  31
0.0
   0
LINE
   5
24A
 100
AcDbEntity
   8
LEVEL002
 370
20
 100
AcDbLine
   6
CONTINUOUS
  62
7
  10
 520.14856321839
  20
 699.32991242474
  30
0.0
  11
 520.14856321839
  21
 689.32991242474
  31
0.0
   0
LINE
   5
24B
 100
AcDbEntity
   8
LEVEL002
 370
20
 100
AcDbLine
   6
CONTINUOUS
  62
7
  10
 505.14856321839
  20
 667.82991242474
  30
0.0
  11
 545.14856321839
  21
 667.82991242474
  31
0.0
   0
LINE
   5
24C
 100
AcDbEntity
   8
LEVEL002
 370
20
 100
AcDbLine
   6
CONTINUOUS
  62
7
  10
 545.14856321839
  20
 667.82991242474
  30
0.0
  11
 545.14856321839
  21
 670.32991242474
  31
0.0
   0
LINE
   5
24D
 100
AcDbEntity
   8
LEVEL002
 370
20
 100
AcDbLine
   6
CONTINUOUS
  62
7
  10
 545.14856321839
  20
 670.32991242474
  30
0.0
  11
 505.14856321839
  21
 670.32991242474
  31
0.0
   0
LINE
   5
24E
 100
AcDbEntity
   8
LEVEL002
 370
20
 100
AcDbLine
   6
CONTINUOUS
  62
7
  10
 505.14856321839
  20
 670.32991242474
  30
0.0
  11
 505.14856321839
  21
 667.82991242474
  31
0.0
   0
LINE
   5
24F
 100
AcDbEntity
   8
LEVEL002
 370
20
 100
AcDbLine
   6
CONTINUOUS
  62
7
  10
 511.64856321839
  20
 689.32991242474
  30
0.0
  11
 511.64856321839
  21
 787.66970597622
  31
0.0
   0
LINE
   5
250
 100
AcDbEntity
   8
LEVEL002
 370
20
 100
AcDbLine
   6
CONTINUOUS
  62
7
  10
 511.64856321839
  20
 787.66970597622
  30
0.0
  11
 465.64856321839
  21
 787.66970597622
  31
0.0
   0
LINE
   5
251
 100
AcDbEntity
   8
LEVEL002
 370
20
 100
AcDbLine
   6
CONTINUOUS
  62
7
  10
 465.64856321839
  20
 787.66970597622
  30
0.0
  11
 465.64856321839
  21
 694.32991242474
  31
0.0
   0
LINE
   5
252
 100
AcDbEntity
   8
LEVEL002
 370
20
 100
AcDbLine
   6
CONTINUOUS
  62
7
  10
 523.64856321839
  20
 699.32991242474
  30
0.0
  11
 523.64856321839
  21
 781.45942094334
  31
0.0
   0
LINE
   5
253
 100
AcDbEntity
   8
LEVEL002
 370
20
 100
AcDbLine
   6
CONTINUOUS
  62
7
  10
 523.64856321839
  20
 781.45942094334
  30
0.0
  11
 511.64856321839
  21
 781.45942094334
  31
0.0
   0
LINE
   5
254
 100
AcDbEntity
   8
LEVEL002
 370
20
 100
AcDbLine
   6
CONTINUOUS
  62
7
  10
 536.64856321839
  20
 689.32991242474
  30
0.0
  11
 536.64856321839
  21
 749.95942094334
  31
0.0
   0
LINE
   5
255
 100
AcDbEntity
   8
LEVEL002
 370
20
 100
AcDbLine
   6
CONTINUOUS
  62
7
  10
 536.64856321839
  20
 746.27627659231
  30
0.0
  11
 550.64856321839
  21
 746.27627659231
  31
0.0
   0
LINE
   5
256
 100
AcDbEntity
   8
LEVEL002
 370
20
 100
AcDbLine
   6
CONTINUOUS
  62
7
  10
 550.64856321839
  20
 746.27627659231
  30
0.0
  11
 550.64856321839
  21
 676.27627659231
  31
0.0
   0
LINE
   5
257
 100
AcDbEntity
   8
LEVEL002
 370
20
 100
AcDbLine
   6
CONTINUOUS
  62
7
  10
 550.64856321839
  20
 676.27627659231
  30
0.0
  11
 542.14856321839
  21
 676.27627659231
  31
0.0
   0
LINE
   5
258
 100
AcDbEntity
   8
LEVEL002
 370
20
 100
AcDbLine
   6
CONTINUOUS
  62
7
  10
 849.84856321839
  20
 667.82991242474
  30
0.0
  11
 836.34856321839
  21
 667.82991242474
  31
0.0
   0
LINE
   5
259
 100
AcDbEntity
   8
LEVEL002
 370
20
 100
AcDbLine
   6
CONTINUOUS
  62
7
  10
 567.84856321839
  20
 667.82991242474
  30
0.0
  11
 581.34856321839
  21
 667.82991242474
  31
0.0
   0
LINE
   5
25A
 100
AcDbEntity
   8
LEVEL002
 370
20
 100
AcDbLine
   6
CONTINUOUS
  62
7
  10
 567.84856321839
  20
 561.82991242474
  30
0.0
  11
 581.34856321839
  21
 561.82991242474
  31
0.0
   0
LINE
   5
25B
 100
AcDbEntity
   8
LEVEL002
 370
20
 100
AcDbLine
   6
CONTINUOUS
  62
7
  10
 581.34856321839
  20
 591.82991242474
  30
0.0
  11
 567.84856321839
  21
 591.82991242474
  31
0.0
   0
LINE
   5
25C
 100
AcDbEntity
   8
LEVEL002
 370
20
 100
AcDbLine
   6
CONTINUOUS
  62
7
  10
 836.34856321839
  20
 591.82991242474
  30
0.0
  11
 849.84856321839
  21
 591.82991242474
  31
0.0
   0
LINE
   5
25D
 100
AcDbEntity
   8
LEVEL002
 370
20
 100
AcDbLine
   6
CONTINUOUS
  62
7
  10
 849.84856321839
  20
 561.82991242474
  30
0.0
  11
 836.34856321839
  21
 561.82991242474
  31
0.0
   0
LINE
   5
25E
 100
AcDbEntity
   8
LEVEL002
 370
9
 100
AcDbLine
   6
DASHDOT
  62
1
  10
 919.84856321839
  20
 711.27627659231
  30
0.0
  11
 497.84856321839
  21
 711.27627659231
  31
0.0
   0
LINE
   5
25F
 100
AcDbEntity
   8
LEVEL002
 370
9
 100
AcDbLine
   6
DASHDOT
  62
1
  10
 919.84856321839
  20
 576.82991242474
  30
0.0
  11
 497.84856321839
  21
 576.82991242474
  31
0.0
   0
LINE
   5
260
 100
AcDbEntity
   8
LEVEL002
 370
9
 100
AcDbLine
   6
DASHDOT
  62
1
  10
 919.84856321839
  20
 485.82991242474
  30
0.0
  11
 497.84856321839
  21
 485.82991242474
  31
0.0
   0
CIRCLE
   5
261
 100
AcDbEntity
   8
LEVEL002
 370
20
 100
AcDbCircle
   6
CONTINUOUS
  62
7
  10
 953.64856321839
  20
 747.41807316807
  30
0.0
  40
 17.500000000000
   0
LINE
   5
262
 100
AcDbEntity
   8
LEVEL002
 370
20
 100
AcDbLine
   6
CONTINUOUS
  62
7
  10
 940.04856321839
  20
 667.82991242474
  30
0.0
  11
 940.04856321839
  21
 736.40489923864
  31
0.0
   0
LINE
   5
263
 100
AcDbEntity
   8
LEVEL002
 370
20
 100
AcDbLine
   6
CONTINUOUS
  62
7
  10
 940.04856321839
  20
 758.43124709751
  30
0.0
  11
 940.04856321839
  21
 771.41807316804
  31
0.0
   0
LINE
   5
264
 100
AcDbEntity
   8
LEVEL002
 370
20
 100
AcDbLine
   6
CONTINUOUS
  62
7
  10
 940.04856321839
  20
 771.41807316804
  30
0.0
  11
 931.04856321839
  21
 771.41807316804
  31
0.0
   0
LINE
   5
265
 100
AcDbEntity
   8
LEVEL002
 370
20
 100
AcDbLine
   6
CONTINUOUS
  62
7
  10
 931.04856321839
  20
 771.41807316804
  30
0.0
  11
 931.04856321839
  21
 667.82991242474
  31
0.0
   0
LINE
   5
266
 100
AcDbEntity
   8
LEVEL002
 370
9
 100
AcDbLine
   6
DASHDOT
  62
1
  10
 708.84856321839
  20
 831.32991242474
  30
0.0
  11
 708.84856321839
  21
 158.32991242474
  31
0.0
   0
POINT
   5
267
 100
AcDbEntity
   8
LEVEL002
 100
AcDbPoint
  62
1
  10
 1657.8485632184
  20
 294.82991242474
  30
0.0
   0
POINT
   5
268
 100
AcDbEntity
   8
LEVEL002
 100
AcDbPoint
  62
2
  10
 1802.4902278571
  20
 591.21522753592
  30
0.0
   0
CIRCLE
   5
269
 100
AcDbEntity
   8
LEVEL002
 370
20
 100
AcDbCircle
   6
CONTINUOUS
  62
7
  10
 1762.5487815132
  20
 593.37875797419
  30
0.0
  40
 8.0000000000000
   0
CIRCLE
   5
26A
 100
AcDbEntity
   8
LEVEL002
 370
20
 100
AcDbCircle
   6
CONTINUOUS
  62
7
  10
 1762.5487815132
  20
 593.37875797419
  30
0.0
  40
 11.500000000000
   0
LINE
   5
26B
 100
AcDbEntity
   8
LEVEL002
 370
20
 100
AcDbLine
   6
CONTINUOUS
  62
7
  10
 1762.5487815132
  20
 607.23516443472
  30
0.0
  11
 1750.5487815132
  21
 600.30696120442
  31
0.0
   0
LINE
   5
26C
 100
AcDbEntity
   8
LEVEL002
 370
20
 100
AcDbLine
   6
CONTINUOUS
  62
7
  10
 1750.5487815132
  20
 600.30696120442
  30
0.0
  11
 1750.5487815132
  21
 586.45055474397
  31
0.0
   0
LINE
   5
26D
 100
AcDbEntity
   8
LEVEL002
 370
20
 100
AcDbLine
   6
CONTINUOUS
  62
7
  10
 1750.5487815132
  20
 586.45055474397
  30
0.0
  11
 1762.5487815132
  21
 579.52235151367
  31
0.0
   0
LINE
   5
26E
 100
AcDbEntity
   8
LEVEL002
 370
20
 100
AcDbLine
   6
CONTINUOUS
  62
7
  10
 1762.5487815132
  20
 579.52235151367
  30
0.0
  11
 1774.5487815132
  21
 586.45055474397
  31
0.0
   0
LINE
   5
26F
 100
AcDbEntity
   8
LEVEL002
 370
20
 100
AcDbLine
   6
CONTINUOUS
  62
7
  10
 1774.5487815132
  20
 586.45055474397
  30
0.0
  11
 1774.5487815132
  21
 600.30696120442
  31
0.0
   0
LINE
   5
270
 100
AcDbEntity
   8
LEVEL002
 370
20
 100
AcDbLine
   6
CONTINUOUS
  62
7
  10
 1774.5487815132
  20
 600.30696120442
  30
0.0
  11
 1762.5487815132
  21
 607.23516443472
  31
0.0
   0
ARC
   5
271
 100
AcDbEntity
   8
LEVEL002
 370
20
   6
CONTINUOUS
  62
7
 100
AcDbCircle
  10
 1784.0693979221
  20
 359.82991242474
  30
0.0
  40
 13.779165296305
 100
AcDbArc
  50
 339.13593563448
  51
 20.864064365522
   0
ARC
   5
272
 100
AcDbEntity
   8
LEVEL002
 370
20
   6
CONTINUOUS
  62
7
 100
AcDbCircle
  10
 1794.0649492895
  20
 367.19112835687
  30
0.0
  40
 3.7836139288987
 100
AcDbArc
  50
 319.57010315284
  51
 0.17215752214797E-11
   0
LINE
   5
273
 100
AcDbEntity
   8
LEVEL002
 370
20
 100
AcDbLine
   6
CONTINUOUS
  62
7
  10
 1789.8485632184
  20
 350.01495784854
  30
0.0
  11
 1789.8485632184
  21
 369.64486700094
  31
0.0
   0
LINE
   5
274
 100
AcDbEntity
   8
LEVEL002
 370
20
 100
AcDbLine
   6
CONTINUOUS
  62
7
  10
 1789.8485632184
  20
 369.64486700094
  30
0.0
  11
 1796.9450362725
  21
 369.64486700094
  31
0.0
   0
LINE
   5
275
 100
AcDbEntity
   8
LEVEL002
 370
20
 100
AcDbLine
   6
CONTINUOUS
  62
7
  10
 1796.9450362725
  20
 369.64486700094
  30
0.0
  11
 1797.8485632184
  21
 368.07991242474
  31
0.0
   0
LINE
   5
276
 100
AcDbEntity
   8
LEVEL002
 370
20
 100
AcDbLine
   6
CONTINUOUS
  62
7
  10
 1797.8485632184
  20
 368.07991242474
  30
0.0
  11
 1797.8485632184
  21
 351.57991242474
  31
0.0
   0
LINE
   5
277
 100
AcDbEntity
   8
LEVEL002
 370
20
 100
AcDbLine
   6
CONTINUOUS
  62
7
  10
 1797.8485632184
  20
 351.57991242474
  30
0.0
  11
 1796.9450362725
  21
 350.01495784854
  31
0.0
   0
LINE
   5
278
 100
AcDbEntity
   8
LEVEL002
 370
20
 100
AcDbLine
   6
CONTINUOUS
  62
7
  10
 1796.9450362725
  20
 350.01495784854
  30
0.0
  11
 1789.8485632184
  21
 350.01495784854
  31
0.0
   0
LINE
   5
279
 100
AcDbEntity
   8
LEVEL002
 370
20
 100
AcDbLine
   6
CONTINUOUS
  62
7
  10
 1789.8485632184
  20
 364.73738971280
  30
0.0
  11
 1796.9450362725
  21
 364.73738971280
  31
0.0
   0
ARC
   5
27A
 100
AcDbEntity
   8
LEVEL002
 370
20
   6
CONTINUOUS
  62
7
 100
AcDbCircle
  10
 1794.0649492895
  20
 352.46869649261
  30
0.0
  40
 3.7836139288987
 100
AcDbArc
  50
 0.86078761073985E-12
  51
 40.429896847159
   0
LINE
   5
27B
 100
AcDbEntity
   8
LEVEL002
 370
20
 100
AcDbLine
   6
CONTINUOUS
  62
7
  10
 1789.8485632184
  20
 354.92243513668
  30
0.0
  11
 1796.9450362725
  21
 354.92243513668
  31
0.0
   0
LINE
   5
27C
 100
AcDbEntity
   8
LEVEL002
 370
20
 100
AcDbLine
   6
CONTINUOUS
  62
7
  10
 1789.8485632184
  20
 369.02991242474
  30
0.0
  11
 1787.3485632184
  21
 369.02991242474
  31
0.0
   0
LINE
   5
27D
 100
AcDbEntity
   8
LEVEL002
 370
20
 100
AcDbLine
   6
CONTINUOUS
  62
7
  10
 1787.3485632184
  20
 369.02991242474
  30
0.0
  11
 1787.3485632184
  21
 350.62991242474
  31
0.0
   0
LINE
   5
27E
 100
AcDbEntity
   8
LEVEL002
 370
20
 100
AcDbLine
   6
CONTINUOUS
  62
7
  10
 1787.3485632184
  20
 350.62991242474
  30
0.0
  11
 1789.8485632184
  21
 350.62991242474
  31
0.0
   0
LINE
   5
27F
 100
AcDbEntity
   8
LEVEL002
 370
20
 100
AcDbLine
   6
CONTINUOUS
  62
7
  10
 1789.8485632184
  20
 350.62991242474
  30
0.0
  11
 1789.8485632184
  21
 369.02991242474
  31
0.0
   0
LINE
   5
280
 100
AcDbEntity
   8
LEVEL002
 370
20
 100
AcDbLine
   6
CONTINUOUS
  62
7
  10
 1789.8485632184
  20
 359.82991242474
  30
0.0
  11
 1787.3485632184
  21
 357.32991242474
  31
0.0
   0
LINE
   5
281
 100
AcDbEntity
   8
LEVEL002
 370
20
 100
AcDbLine
   6
CONTINUOUS
  62
7
  10
 1789.8485632184
  20
 362.32991242474
  30
0.0
  11
 1787.3485632184
  21
 359.82991242474
  31
0.0
   0
POINT
   5
282
 100
AcDbEntity
   8
LEVEL002
 100
AcDbPoint
  62
3
  10
 1638.4567965684
  20
 686.34342476997
  30
0.0
   0
POINT
   5
283
 100
AcDbEntity
   8
LEVEL002
 100
AcDbPoint
  62
6
  10
 1748.6471497299
  20
 528.44999213221
  30
0.0
   0
ARC
   5
284
 100
AcDbEntity
   8
LEVEL002
 370
20
   6
CONTINUOUS
  62
7
 100
AcDbCircle
  10
 1778.6277285147
  20
 359.82991242474
  30
0.0
  40
 13.779165296305
 100
AcDbArc
  50
 159.13593563448
  51
 200.86406436552
   0
ARC
   5
285
 100
AcDbEntity
   8
LEVEL002
 370
20
   6
CONTINUOUS
  62
7
 100
AcDbCircle
  10
 1768.6321771473
  20
 352.46869649261
  30
0.0
  40
 3.7836139288987
 100
AcDbArc
  50
 139.57010315284
  51
 180.00000000000
   0
LINE
   5
286
 100
AcDbEntity
   8
LEVEL002
 370
20
 100
AcDbLine
   6
CONTINUOUS
  62
7
  10
 1772.8485632184
  20
 369.64486700094
  30
0.0
  11
 1772.8485632184
  21
 350.01495784854
  31
0.0
   0
LINE
   5
287
 100
AcDbEntity
   8
LEVEL002
 370
20
 100
AcDbLine
   6
CONTINUOUS
  62
7
  10
 1772.8485632184
  20
 350.01495784854
  30
0.0
  11
 1765.7520901643
  21
 350.01495784854
  31
0.0
   0
LINE
   5
288
 100
AcDbEntity
   8
LEVEL002
 370
20
 100
AcDbLine
   6
CONTINUOUS
  62
7
  10
 1765.7520901643
  20
 350.01495784854
  30
0.0
  11
 1764.8485632184
  21
 351.57991242474
  31
0.0
   0
LINE
   5
289
 100
AcDbEntity
   8
LEVEL002
 370
20
 100
AcDbLine
   6
CONTINUOUS
  62
7
  10
 1764.8485632184
  20
 351.57991242474
  30
0.0
  11
 1764.8485632184
  21
 368.07991242474
  31
0.0
   0
LINE
   5
28A
 100
AcDbEntity
   8
LEVEL002
 370
20
 100
AcDbLine
   6
CONTINUOUS
  62
7
  10
 1764.8485632184
  20
 368.07991242474
  30
0.0
  11
 1765.7520901643
  21
 369.64486700094
  31
0.0
   0
LINE
   5
28B
 100
AcDbEntity
   8
LEVEL002
 370
20
 100
AcDbLine
   6
CONTINUOUS
  62
7
  10
 1765.7520901643
  20
 369.64486700094
  30
0.0
  11
 1772.8485632184
  21
 369.64486700094
  31
0.0
   0
LINE
   5
28C
 100
AcDbEntity
   8
LEVEL002
 370
20
 100
AcDbLine
   6
CONTINUOUS
  62
7
  10
 1772.8485632184
  20
 354.92243513668
  30
0.0
  11
 1765.7520901643
  21
 354.92243513668
  31
0.0
   0
ARC
   5
28D
 100
AcDbEntity
   8
LEVEL002
 370
20
   6
CONTINUOUS
  62
7
 100
AcDbCircle
  10
 1768.6321771473
  20
 367.19112835687
  30
0.0
  40
 3.7836139288987
 100
AcDbArc
  50
 180.00000000000
  51
 220.42989684716
   0
LINE
   5
28E
 100
AcDbEntity
   8
LEVEL002
 370
20
 100
AcDbLine
   6
CONTINUOUS
  62
7
  10
 1772.8485632184
  20
 364.73738971280
  30
0.0
  11
 1765.7520901643
  21
 364.73738971280
  31
0.0
   0
LINE
   5
28F
 100
AcDbEntity
   8
LEVEL002
 370
20
 100
AcDbLine
   6
CONTINUOUS
  62
7
  10
 1772.8485632184
  20
 350.62991242474
  30
0.0
  11
 1775.3485632184
  21
 350.62991242474
  31
0.0
   0
LINE
   5
290
 100
AcDbEntity
   8
LEVEL002
 370
20
 100
AcDbLine
   6
CONTINUOUS
  62
7
  10
 1775.3485632184
  20
 350.62991242474
  30
0.0
  11
 1775.3485632184
  21
 369.02991242474
  31
0.0
   0
LINE
   5
291
 100
AcDbEntity
   8
LEVEL002
 370
20
 100
AcDbLine
   6
CONTINUOUS
  62
7
  10
 1775.3485632184
  20
 369.02991242474
  30
0.0
  11
 1772.8485632184
  21
 369.02991242474
  31
0.0
   0
LINE
   5
292
 100
AcDbEntity
   8
LEVEL002
 370
20
 100
AcDbLine
   6
CONTINUOUS
  62
7
  10
 1772.8485632184
  20
 369.02991242474
  30
0.0
  11
 1772.8485632184
  21
 350.62991242474
  31
0.0
   0
LINE
   5
293
 100
AcDbEntity
   8
LEVEL002
 370
20
 100
AcDbLine
   6
CONTINUOUS
  62
7
  10
 1772.8485632184
  20
 359.82991242474
  30
0.0
  11
 1775.3485632184
  21
 362.32991242474
  31
0.0
   0
LINE
   5
294
 100
AcDbEntity
   8
LEVEL002
 370
20
 100
AcDbLine
   6
CONTINUOUS
  62
7
  10
 1772.8485632184
  20
 357.32991242474
  30
0.0
  11
 1775.3485632184
  21
 359.82991242474
  31
0.0
   0
POINT
   5
295
 100
AcDbEntity
   8
LEVEL002
 100
AcDbPoint
  62
3
  10
 1371.8485632184
  20
 667.82991242474
  30
0.0
   0
LINE
   5
296
 100
AcDbEntity
   8
LEVEL002
 370
20
 100
AcDbLine
   6
CONTINUOUS
  62
7
  10
 1785.8485632184
  20
 531.82991242474
  30
0.0
  11
 1785.8485632184
  21
 507.82991242474
  31
0.0
   0
LINE
   5
297
 100
AcDbEntity
   8
LEVEL002
 370
20
 100
AcDbLine
   6
CONTINUOUS
  62
7
  10
 1785.8485632184
  20
 507.82991242474
  30
0.0
  11
 1742.8485632184
  21
 507.82991242474
  31
0.0
   0
LINE
   5
298
 100
AcDbEntity
   8
LEVEL002
 370
20
 100
AcDbLine
   6
CONTINUOUS
  62
7
  10
 1742.8485632184
  20
 507.82991242474
  30
0.0
  11
 1742.8485632184
  21
 481.82991242474
  31
0.0
   0
LINE
   5
299
 100
AcDbEntity
   8
LEVEL002
 370
20
 100
AcDbLine
   6
CONTINUOUS
  62
7
  10
 1742.8485632184
  20
 481.82991242474
  30
0.0
  11
 1744.8485632184
  21
 481.82991242474
  31
0.0
   0
LINE
   5
29A
 100
AcDbEntity
   8
LEVEL002
 370
20
 100
AcDbLine
   6
CONTINUOUS
  62
7
  10
 1744.8485632184
  20
 481.82991242474
  30
0.0
  11
 1744.8485632184
  21
 505.82991242474
  31
0.0
   0
LINE
   5
29B
 100
AcDbEntity
   8
LEVEL002
 370
20
 100
AcDbLine
   6
CONTINUOUS
  62
7
  10
 1744.8485632184
  20
 505.82991242474
  30
0.0
  11
 1787.8485632184
  21
 505.82991242474
  31
0.0
   0
LINE
   5
29C
 100
AcDbEntity
   8
LEVEL002
 370
20
 100
AcDbLine
   6
CONTINUOUS
  62
7
  10
 1787.8485632184
  20
 505.82991242474
  30
0.0
  11
 1787.8485632184
  21
 531.82991242474
  31
0.0
   0
LINE
   5
29D
 100
AcDbEntity
   8
LEVEL002
 370
20
 100
AcDbLine
   6
CONTINUOUS
  62
7
  10
 1787.8485632184
  20
 531.82991242474
  30
0.0
  11
 1785.8485632184
  21
 531.82991242474
  31
0.0
   0
LINE
   5
29E
 100
AcDbEntity
   8
LEVEL002
 370
20
 100
AcDbLine
   6
CONTINUOUS
  62
7
  10
 1931.8485632184
  20
 664.32991242474
  30
0.0
  11
 1931.8485632184
  21
 464.32991242474
  31
0.0
   0
LINE
   5
29F
 100
AcDbEntity
   8
LEVEL002
 370
20
 100
AcDbLine
   6
CONTINUOUS
  62
7
  10
 1741.8485632184
  20
 191.82991242474
  30
0.0
  11
 1741.8485632184
  21
 667.82991242474
  31
0.0
   0
LINE
   5
2A0
 100
AcDbEntity
   8
LEVEL002
 370
20
 100
AcDbLine
   6
CONTINUOUS
  62
7
  10
 1741.8485632184
  20
 667.82991242474
  30
0.0
  11
 1331.8485632184
  21
 667.82991242474
  31
0.0
   0
LINE
   5
2A1
 100
AcDbEntity
   8
LEVEL002
 370
20
 100
AcDbLine
   6
CONTINUOUS
  62
7
  10
 1331.8485632184
  20
 667.82991242474
  30
0.0
  11
 1331.8485632184
  21
 191.82991242474
  31
0.0
   0
LINE
   5
2A2
 100
AcDbEntity
   8
LEVEL002
 370
20
 100
AcDbLine
   6
CONTINUOUS
  62
7
  10
 1787.3485632184
  20
 371.82991242474
  30
0.0
  11
 1775.3485632184
  21
 371.82991242474
  31
0.0
   0
LINE
   5
2A3
 100
AcDbEntity
   8
LEVEL002
 370
20
 100
AcDbLine
   6
CONTINUOUS
  62
7
  10
 1867.3485632184
  20
 352.82991242474
  30
0.0
  11
 1867.3485632184
  21
 352.32991242474
  31
0.0
   0
LINE
   5
2A4
 100
AcDbEntity
   8
LEVEL002
 370
20
 100
AcDbLine
   6
CONTINUOUS
  62
7
  10
 1827.3485632184
  20
 352.82991242474
  30
0.0
  11
 1827.3485632184
  21
 352.32991242474
  31
0.0
   0
LINE
   5
2A5
 100
AcDbEntity
   8
LEVEL002
 370
20
 100
AcDbLine
   6
CONTINUOUS
  62
7
  10
 1867.3485632184
  20
 352.82991242474
  30
0.0
  11
 1827.3485632184
  21
 352.82991242474
  31
0.0
   0
LINE
   5
2A6
 100
AcDbEntity
   8
LEVEL002
 370
20
 100
AcDbLine
   6
CONTINUOUS
  62
7
  10
 1827.3485632184
  20
 352.32991242474
  30
0.0
  11
 1822.8485632184
  21
 352.32991242474
  31
0.0
   0
LINE
   5
2A7
 100
AcDbEntity
   8
LEVEL002
 370
20
 100
AcDbLine
   6
CONTINUOUS
  62
7
  10
 1871.8285632184
  20
 352.32991242474
  30
0.0
  11
 1867.3485632184
  21
 352.32991242474
  31
0.0
   0
LINE
   5
2A8
 100
AcDbEntity
   8
LEVEL002
 370
20
 100
AcDbLine
   6
CONTINUOUS
  62
7
  10
 1787.3485632184
  20
 358.26991242474
  30
0.0
  11
 1787.3485632184
  21
 371.82991242474
  31
0.0
   0
LINE
   5
2A9
 100
AcDbEntity
   8
LEVEL002
 370
20
 100
AcDbLine
   6
CONTINUOUS
  62
7
  10
 1911.8485632184
  20
 239.82991242474
  30
0.0
  11
 1911.8485632184
  21
 349.82991242474
  31
0.0
   0
LINE
   5
2AA
 100
AcDbEntity
   8
LEVEL002
 370
20
 100
AcDbLine
   6
CONTINUOUS
  62
7
  10
 1911.8485632184
  20
 349.82991242474
  30
0.0
  11
 1751.8485632184
  21
 349.82991242474
  31
0.0
   0
LINE
   5
2AB
 100
AcDbEntity
   8
LEVEL002
 370
20
 100
AcDbLine
   6
CONTINUOUS
  62
7
  10
 1751.8485632184
  20
 349.82991242474
  30
0.0
  11
 1751.8485632184
  21
 239.82991242474
  31
0.0
   0
LINE
   5
2AC
 100
AcDbEntity
   8
LEVEL002
 370
20
 100
AcDbLine
   6
CONTINUOUS
  62
7
  10
 1773.0188538862
  20
 581.28009753166
  30
0.0
  11
 1757.4398672917
  21
 567.79818208171
  31
0.0
   0
LINE
   5
2AD
 100
AcDbEntity
   8
LEVEL002
 370
20
 100
AcDbLine
   6
CONTINUOUS
  62
7
  10
 1757.4398672917
  20
 567.79818208171
  30
0.0
  11
 1753.4166051763
  21
 547.38930515636
  31
0.0
   0
LINE
   5
2AE
 100
AcDbEntity
   8
LEVEL002
 370
20
 100
AcDbLine
   6
CONTINUOUS
  62
7
  10
 1753.4166051763
  20
 547.38930515636
  30
0.0
  11
 1760.7458101724
  21
 538.92006450524
  31
0.0
   0
ARC
   5
2AF
 100
AcDbEntity
   8
LEVEL002
 370
20
   6
CONTINUOUS
  62
7
 100
AcDbCircle
  10
 1748.6471497299
  20
 528.44999213223
  30
0.0
  40
 16.000000000000
 100
AcDbArc
  50
 246.09608782539
  51
 40.872618856383
   0
ARC
   5
2B0
 100
AcDbEntity
   8
LEVEL002
 370
20
   6
CONTINUOUS
  62
7
 100
AcDbCircle
  10
 1762.5487815132
  20
 593.37875797419
  30
0.0
  40
 16.000000000000
 100
AcDbArc
  50
 310.87261885645
  51
 86.899457877618
   0
LINE
   5
2B1
 100
AcDbEntity
   8
LEVEL002
 370
20
 100
AcDbLine
   6
CONTINUOUS
  62
7
  10
 1751.8485632184
  20
 216.82991242474
  30
0.0
  11
 1751.8485632184
  21
 372.82991242474
  31
0.0
   0
LINE
   5
2B2
 100
AcDbEntity
   8
LEVEL002
 370
20
 100
AcDbLine
   6
CONTINUOUS
  62
7
  10
 1751.8485632184
  20
 372.82991242474
  30
0.0
  11
 1742.8485632184
  21
 372.82991242474
  31
0.0
   0
LINE
   5
2B3
 100
AcDbEntity
   8
LEVEL002
 370
20
 100
AcDbLine
   6
CONTINUOUS
  62
7
  10
 1742.8485632184
  20
 372.82991242474
  30
0.0
  11
 1742.8485632184
  21
 216.82991242474
  31
0.0
   0
LINE
   5
2B4
 100
AcDbEntity
   8
LEVEL002
 370
20
 100
AcDbLine
   6
CONTINUOUS
  62
7
  10
 1806.3485632184
  20
 364.82991242474
  30
0.0
  11
 1806.3485632184
  21
 354.82991242474
  31
0.0
   0
LINE
   5
2B5
 100
AcDbEntity
   8
LEVEL002
 370
20
 100
AcDbLine
   6
CONTINUOUS
  62
7
  10
 1787.3485632184
  20
 349.82991242474
  30
0.0
  11
 1787.3485632184
  21
 358.26991242474
  31
0.0
   0
ARC
   5
2B6
 100
AcDbEntity
   8
LEVEL002
 370
20
   6
CONTINUOUS
  62
7
 100
AcDbCircle
  10
 1847.3485632184
  20
 294.82991242474
  30
0.0
  40
 62.500000000000
 100
AcDbArc
  50
 113.06999999936
  51
 118.35763657632
   0
ARC
   5
2B7
 100
AcDbEntity
   8
LEVEL002
 370
20
   6
CONTINUOUS
  62
7
 100
AcDbCircle
  10
 1847.3485632184
  20
 294.82991242474
  30
0.0
  40
 62.500000000000
 100
AcDbArc
  50
 61.642363423673
  51
 66.919999999512
   0
ARC
   5
2B8
 100
AcDbEntity
   8
LEVEL002
 370
20
   6
CONTINUOUS
  62
7
 100
AcDbCircle
  10
 1812.8285632184
  20
 350.50991242476
  30
0.0
  40
 3.0000000000000
 100
AcDbArc
  50
 346.89909646553
  51
 64.009999998634
   0
ARC
   5
2B9
 100
AcDbEntity
   8
LEVEL002
 370
20
   6
CONTINUOUS
  62
7
 100
AcDbCircle
  10
 1847.3485632184
  20
 294.82991242474
  30
0.0
  40
 67.500000000000
 100
AcDbArc
  50
 342.85379000111
  51
 17.146209998892
   0
ARC
   5
2BA
 100
AcDbEntity
   8
LEVEL002
 370
20
   6
CONTINUOUS
  62
7
 100
AcDbCircle
  10
 1847.3485632184
  20
 294.82991242474
  30
0.0
  40
 67.500000000000
 100
AcDbArc
  50
 54.569055312664
  51
 114.51999999936
   0
LINE
   5
2BB
 100
AcDbEntity
   8
LEVEL002
 370
20
 100
AcDbLine
   6
CONTINUOUS
  62
7
  10
 1797.8485632184
  20
 364.82991242474
  30
0.0
  11
 1806.3485632184
  21
 364.82991242474
  31
0.0
   0
LINE
   5
2BC
 100
AcDbEntity
   8
LEVEL002
 370
20
 100
AcDbLine
   6
CONTINUOUS
  62
7
  10
 1806.3485632184
  20
 364.82991242474
  30
0.0
  11
 1807.8485632184
  21
 363.32991242474
  31
0.0
   0
LINE
   5
2BD
 100
AcDbEntity
   8
LEVEL002
 370
20
 100
AcDbLine
   6
CONTINUOUS
  62
7
  10
 1807.8485632184
  20
 363.32991242474
  30
0.0
  11
 1807.8485632184
  21
 356.32991242474
  31
0.0
   0
LINE
   5
2BE
 100
AcDbEntity
   8
LEVEL002
 370
20
 100
AcDbLine
   6
CONTINUOUS
  62
7
  10
 1807.8485632184
  20
 356.32991242474
  30
0.0
  11
 1806.3485632184
  21
 354.82991242474
  31
0.0
   0
LINE
   5
2BF
 100
AcDbEntity
   8
LEVEL002
 370
20
 100
AcDbLine
   6
CONTINUOUS
  62
7
  10
 1806.3485632184
  20
 354.82991242474
  30
0.0
  11
 1797.8485632184
  21
 354.82991242474
  31
0.0
   0
LINE
   5
2C0
 100
AcDbEntity
   8
LEVEL002
 370
20
 100
AcDbLine
   6
CONTINUOUS
  62
7
  10
 1791.8307076775
  20
 369.64486700094
  30
0.0
  11
 1787.3485632184
  21
 371.82991242474
  31
0.0
   0
LINE
   5
2C1
 100
AcDbEntity
   8
LEVEL002
 370
20
 100
AcDbLine
   6
CONTINUOUS
  62
7
  10
 1827.3485632184
  20
 352.32991242474
  30
0.0
  11
 1807.8485632184
  21
 361.83616242474
  31
0.0
   0
LINE
   5
2C2
 100
AcDbEntity
   8
LEVEL002
 370
20
 100
AcDbLine
   6
CONTINUOUS
  62
7
  10
 1801.7075375774
  20
 364.82991242474
  30
0.0
  11
 1797.8485632184
  21
 366.71116242474
  31
0.0
   0
LINE
   5
2C3
 100
AcDbEntity
   8
LEVEL002
 370
20
 100
AcDbLine
   6
CONTINUOUS
  62
7
  10
 1807.8287663851
  20
 356.28928335882
  30
0.0
  11
 1814.1485632184
  21
 353.20991242474
  31
0.0
   0
LINE
   5
2C4
 100
AcDbEntity
   8
LEVEL002
 370
20
 100
AcDbLine
   6
CONTINUOUS
  62
7
  10
 1775.3485632184
  20
 371.82991242474
  30
0.0
  11
 1775.3485632184
  21
 349.82991242474
  31
0.0
   0
LINE
   5
2C5
 100
AcDbEntity
   8
LEVEL002
 370
20
 100
AcDbLine
   6
CONTINUOUS
  62
7
  10
 1751.8485632184
  20
 364.82991242474
  30
0.0
  11
 1764.8485632184
  21
 364.82991242474
  31
0.0
   0
LINE
   5
2C6
 100
AcDbEntity
   8
LEVEL002
 370
20
 100
AcDbLine
   6
CONTINUOUS
  62
7
  10
 1764.8485632184
  20
 354.82991242474
  30
0.0
  11
 1751.8485632184
  21
 354.82991242474
  31
0.0
   0
LINE
   5
2C7
 100
AcDbEntity
   8
LEVEL002
 370
20
 100
AcDbLine
   6
CONTINUOUS
  62
7
  10
 1465.2136963668
  20
 781.45838695926
  30
0.0
  11
 1545.2657877619
  21
 780.64434564226
  31
0.0
   0
ARC
   5
2C8
 100
AcDbEntity
   8
LEVEL002
 370
20
   6
CONTINUOUS
  62
7
 100
AcDbCircle
  10
 1545.0624203751
  20
 760.64537962633
  30
0.0
  40
 20.000000000000
 100
AcDbArc
  50
 40.872618856441
  51
 89.417385312040
   0
ARC
   5
2C9
 100
AcDbEntity
   8
LEVEL002
 370
20
   6
CONTINUOUS
  62
7
 100
AcDbCircle
  10
 1541.4998839731
  20
 711.27627659231
  30
0.0
  40
 70.000000000000
 100
AcDbArc
  50
 180.61719612815
  51
 217.86416745729
   0
ARC
   5
2CA
 100
AcDbEntity
   8
LEVEL002
 370
20
   6
CONTINUOUS
  62
7
 100
AcDbCircle
  10
 1541.4998839731
  20
 711.27627659231
  30
0.0
  40
 70.000000000000
 100
AcDbArc
  50
 2.6594081546993
  51
 96.907121837764
   0
LINE
   5
2CB
 100
AcDbEntity
   8
LEVEL002
 370
20
 100
AcDbLine
   6
CONTINUOUS
  62
7
  10
 1560.1857459283
  20
 773.73297009262
  30
0.0
  11
 1624.1840633084
  21
 699.77990813768
  31
0.0
   0
LINE
   5
2CC
 100
AcDbEntity
   8
LEVEL002
 370
20
 100
AcDbLine
   6
CONTINUOUS
  62
7
  10
 1624.1840633084
  20
 699.77990813768
  30
0.0
  11
 1625.6963958638
  21
 701.08866718431
  31
0.0
   0
LINE
   5
2CD
 100
AcDbEntity
   8
LEVEL002
 370
20
 100
AcDbLine
   6
CONTINUOUS
  62
7
  10
 1625.6963958638
  20
 701.08866718431
  30
0.0
  11
 1651.8715767963
  21
 670.84201607799
  31
0.0
   0
LINE
   5
2CE
 100
AcDbEntity
   8
LEVEL002
 370
20
 100
AcDbLine
   6
CONTINUOUS
  62
7
  10
 1651.8715767963
  20
 670.84201607799
  30
0.0
  11
 1650.3592442410
  21
 669.53325703137
  31
0.0
   0
LINE
   5
2CF
 100
AcDbEntity
   8
LEVEL002
 370
20
 100
AcDbLine
   6
CONTINUOUS
  62
7
  10
 1650.3592442410
  20
 669.53325703137
  30
0.0
  11
 1651.8333034058
  21
 667.82991242474
  31
0.0
   0
LINE
   5
2D0
 100
AcDbEntity
   8
LEVEL002
 370
20
 100
AcDbLine
   6
CONTINUOUS
  62
7
  10
 1477.0074553859
  20
 701.75122252805
  30
0.0
  11
 1506.3626532987
  21
 667.82991242474
  31
0.0
   0
LINE
   5
2D1
 100
AcDbEntity
   8
LEVEL002
 370
20
 100
AcDbLine
   6
CONTINUOUS
  62
7
  10
 1473.7751600465
  20
 733.81807316811
  30
0.0
  11
 1473.7751600465
  21
 716.97482443089
  31
0.0
   0
LINE
   5
2D2
 100
AcDbEntity
   8
LEVEL002
 370
20
 100
AcDbLine
   6
CONTINUOUS
  62
7
  10
 1473.7751600465
  20
 716.97482443089
  30
0.0
  11
 1517.2549053227
  21
 667.82991242474
  31
0.0
   0
LINE
   5
2D3
 100
AcDbEntity
   8
LEVEL002
 370
20
 100
AcDbLine
   6
CONTINUOUS
  62
7
  10
 1637.4222229649
  20
 667.82991242474
  30
0.0
  11
 1545.7751600464
  21
 771.41807316803
  31
0.0
   0
LINE
   5
2D4
 100
AcDbEntity
   8
LEVEL002
 370
20
 100
AcDbLine
   6
CONTINUOUS
  62
7
  10
 1545.7751600464
  20
 771.41807316803
  30
0.0
  11
 1473.7751600465
  21
 771.41807316804
  31
0.0
   0
LINE
   5
2D5
 100
AcDbEntity
   8
LEVEL002
 370
20
 100
AcDbLine
   6
CONTINUOUS
  62
7
  10
 1473.7751600465
  20
 771.41807316804
  30
0.0
  11
 1473.7751600465
  21
 761.01807316803
  31
0.0
   0
LINE
   5
2D6
 100
AcDbEntity
   8
LEVEL002
 370
20
 100
AcDbLine
   6
CONTINUOUS
  62
7
  10
 1741.8485632184
  20
 610.52349395755
  30
0.0
  11
 1763.4141936885
  21
 609.35533651175
  31
0.0
   0
LINE
   5
2D7
 100
AcDbEntity
   8
LEVEL002
 370
20
 100
AcDbLine
   6
CONTINUOUS
  62
7
  10
 1785.8485632184
  20
 608.14012159632
  30
0.0
  11
 1785.8485632184
  21
 620.82991242474
  31
0.0
   0
LINE
   5
2D8
 100
AcDbEntity
   8
LEVEL002
 370
20
 100
AcDbLine
   6
CONTINUOUS
  62
7
  10
 1785.8485632184
  20
 620.82991242474
  30
0.0
  11
 1742.8485632184
  21
 620.82991242474
  31
0.0
   0
LINE
   5
2D9
 100
AcDbEntity
   8
LEVEL002
 370
20
 100
AcDbLine
   6
CONTINUOUS
  62
7
  10
 1742.8485632184
  20
 620.82991242474
  30
0.0
  11
 1742.8485632184
  21
 646.82991242474
  31
0.0
   0
LINE
   5
2DA
 100
AcDbEntity
   8
LEVEL002
 370
20
 100
AcDbLine
   6
CONTINUOUS
  62
7
  10
 1742.8485632184
  20
 646.82991242474
  30
0.0
  11
 1744.8485632184
  21
 646.82991242474
  31
0.0
   0
LINE
   5
2DB
 100
AcDbEntity
   8
LEVEL002
 370
20
 100
AcDbLine
   6
CONTINUOUS
  62
7
  10
 1744.8485632184
  20
 646.82991242474
  30
0.0
  11
 1744.8485632184
  21
 622.82991242474
  31
0.0
   0
LINE
   5
2DC
 100
AcDbEntity
   8
LEVEL002
 370
20
 100
AcDbLine
   6
CONTINUOUS
  62
7
  10
 1744.8485632184
  20
 622.82991242474
  30
0.0
  11
 1787.8485632184
  21
 622.82991242474
  31
0.0
   0
LINE
   5
2DD
 100
AcDbEntity
   8
LEVEL002
 370
20
 100
AcDbLine
   6
CONTINUOUS
  62
7
  10
 1787.8485632184
  20
 622.82991242474
  30
0.0
  11
 1787.8485632184
  21
 608.03178648899
  31
0.0
   0
LINE
   5
2DE
 100
AcDbEntity
   8
LEVEL002
 370
20
 100
AcDbLine
   6
CONTINUOUS
  62
7
  10
 1787.8485632184
  20
 575.98487489297
  30
0.0
  11
 1787.8485632184
  21
 464.32991242474
  31
0.0
   0
LINE
   5
2DF
 100
AcDbEntity
   8
LEVEL002
 370
20
 100
AcDbLine
   6
CONTINUOUS
  62
7
  10
 1787.8485632184
  20
 464.32991242474
  30
0.0
  11
 1947.8485632184
  21
 464.32991242474
  31
0.0
   0
LINE
   5
2E0
 100
AcDbEntity
   8
LEVEL002
 370
20
 100
AcDbLine
   6
CONTINUOUS
  62
7
  10
 1947.8485632184
  20
 664.32991242474
  30
0.0
  11
 1787.8485632184
  21
 664.32991242474
  31
0.0
   0
LINE
   5
2E1
 100
AcDbEntity
   8
LEVEL002
 370
20
 100
AcDbLine
   6
CONTINUOUS
  62
7
  10
 1787.8485632184
  20
 664.32991242474
  30
0.0
  11
 1787.8485632184
  21
 608.03178648899
  31
0.0
   0
LINE
   5
2E2
 100
AcDbEntity
   8
LEVEL002
 370
20
 100
AcDbLine
   6
CONTINUOUS
  62
7
  10
 1763.4141936885
  20
 609.35533651176
  30
0.0
  11
 1818.3336824114
  21
 606.38048215913
  31
0.0
   0
LINE
   5
2E3
 100
AcDbEntity
   8
LEVEL002
 370
20
 100
AcDbLine
   6
CONTINUOUS
  62
7
  10
 1818.3336824114
  20
 606.38048215913
  30
0.0
  11
 1816.6028580608
  21
 574.42732508401
  31
0.0
   0
LINE
   5
2E4
 100
AcDbEntity
   8
LEVEL002
 370
20
 100
AcDbLine
   6
CONTINUOUS
  62
7
  10
 1816.6028580608
  20
 574.42732508401
  30
0.0
  11
 1768.1339737041
  21
 577.05276597846
  31
0.0
   0
LINE
   5
2E5
 100
AcDbEntity
   8
LEVEL002
 370
20
 100
AcDbLine
   6
CONTINUOUS
  62
7
  10
 1388.8485632184
  20
 670.32991242474
  30
0.0
  11
 1388.8485632184
  21
 676.32991242474
  31
0.0
   0
LINE
   5
2E6
 100
AcDbEntity
   8
LEVEL002
 370
20
 100
AcDbLine
   6
CONTINUOUS
  62
7
  10
 1388.8485632184
  20
 676.32991242474
  30
0.0
  11
 1386.8485632184
  21
 682.32991242474
  31
0.0
   0
LINE
   5
2E7
 100
AcDbEntity
   8
LEVEL002
 370
20
 100
AcDbLine
   6
CONTINUOUS
  62
7
  10
 1386.8485632184
  20
 682.32991242474
  30
0.0
  11
 1356.8485632184
  21
 682.32991242474
  31
0.0
   0
LINE
   5
2E8
 100
AcDbEntity
   8
LEVEL002
 370
20
 100
AcDbLine
   6
CONTINUOUS
  62
7
  10
 1356.8485632184
  20
 682.32991242474
  30
0.0
  11
 1354.8485632184
  21
 676.32991242474
  31
0.0
   0
LINE
   5
2E9
 100
AcDbEntity
   8
LEVEL002
 370
20
 100
AcDbLine
   6
CONTINUOUS
  62
7
  10
 1354.8485632184
  20
 676.32991242474
  30
0.0
  11
 1354.8485632184
  21
 670.32991242474
  31
0.0
   0
LINE
   5
2EA
 100
AcDbEntity
   8
LEVEL002
 370
20
 100
AcDbLine
   6
CONTINUOUS
  62
7
  10
 1354.8485632184
  20
 670.32991242474
  30
0.0
  11
 1388.8485632184
  21
 670.32991242474
  31
0.0
   0
LINE
   5
2EB
 100
AcDbEntity
   8
LEVEL002
 370
20
 100
AcDbLine
   6
CONTINUOUS
  62
7
  10
 1388.8485632184
  20
 676.32991242474
  30
0.0
  11
 1354.8485632184
  21
 676.32991242474
  31
0.0
   0
LINE
   5
2EC
 100
AcDbEntity
   8
LEVEL002
 370
20
 100
AcDbLine
   6
CONTINUOUS
  62
7
  10
 1384.3485632184
  20
 689.32991242474
  30
0.0
  11
 1358.3485632184
  21
 689.32991242474
  31
0.0
   0
LINE
   5
2ED
 100
AcDbEntity
   8
LEVEL002
 370
20
 100
AcDbLine
   6
CONTINUOUS
  62
7
  10
 1358.3485632184
  20
 689.32991242474
  30
0.0
  11
 1358.3485632184
  21
 682.32991242474
  31
0.0
   0
LINE
   5
2EE
 100
AcDbEntity
   8
LEVEL002
 370
20
 100
AcDbLine
   6
CONTINUOUS
  62
7
  10
 1358.3485632184
  20
 682.32991242474
  30
0.0
  11
 1385.3485632184
  21
 682.32991242474
  31
0.0
   0
LINE
   5
2EF
 100
AcDbEntity
   8
LEVEL002
 370
20
 100
AcDbLine
   6
CONTINUOUS
  62
7
  10
 1385.3485632184
  20
 682.32991242474
  30
0.0
  11
 1385.3485632184
  21
 689.32991242474
  31
0.0
   0
LINE
   5
2F0
 100
AcDbEntity
   8
LEVEL002
 370
20
 100
AcDbLine
   6
CONTINUOUS
  62
7
  10
 1385.3485632184
  20
 689.32991242474
  30
0.0
  11
 1384.3485632184
  21
 689.32991242474
  31
0.0
   0
LINE
   5
2F1
 100
AcDbEntity
   8
LEVEL002
 370
20
 100
AcDbLine
   6
CONTINUOUS
  62
7
  10
 1384.3485632184
  20
 689.32991242474
  30
0.0
  11
 1384.3485632184
  21
 699.32991242474
  31
0.0
   0
LINE
   5
2F2
 100
AcDbEntity
   8
LEVEL002
 370
20
 100
AcDbLine
   6
CONTINUOUS
  62
7
  10
 1384.3485632184
  20
 699.32991242474
  30
0.0
  11
 1359.3485632184
  21
 699.32991242474
  31
0.0
   0
LINE
   5
2F3
 100
AcDbEntity
   8
LEVEL002
 370
20
 100
AcDbLine
   6
CONTINUOUS
  62
7
  10
 1359.3485632184
  20
 699.32991242474
  30
0.0
  11
 1359.3485632184
  21
 689.32991242474
  31
0.0
   0
LINE
   5
2F4
 100
AcDbEntity
   8
LEVEL002
 370
20
 100
AcDbLine
   6
CONTINUOUS
  62
7
  10
 1351.8485632184
  20
 667.82991242474
  30
0.0
  11
 1401.8485632184
  21
 667.82991242474
  31
0.0
   0
LINE
   5
2F5
 100
AcDbEntity
   8
LEVEL002
 370
20
 100
AcDbLine
   6
CONTINUOUS
  62
7
  10
 1401.8485632184
  20
 667.82991242474
  30
0.0
  11
 1401.8485632184
  21
 670.32991242474
  31
0.0
   0
LINE
   5
2F6
 100
AcDbEntity
   8
LEVEL002
 370
20
 100
AcDbLine
   6
CONTINUOUS
  62
7
  10
 1401.8485632184
  20
 670.32991242474
  30
0.0
  11
 1351.8485632184
  21
 670.32991242474
  31
0.0
   0
LINE
   5
2F7
 100
AcDbEntity
   8
LEVEL002
 370
20
 100
AcDbLine
   6
CONTINUOUS
  62
7
  10
 1351.8485632184
  20
 670.32991242474
  30
0.0
  11
 1351.8485632184
  21
 667.82991242474
  31
0.0
   0
ARC
   5
2F8
 100
AcDbEntity
   8
LEVEL002
 370
20
   6
CONTINUOUS
  62
7
 100
AcDbCircle
  10
 1371.8485632184
  20
 593.82991242474
  30
0.0
  40
 101.00000000000
 100
AcDbArc
  50
 97.109290193024
  51
 101.42118627500
   0
ARC
   5
2F9
 100
AcDbEntity
   8
LEVEL002
 370
20
   6
CONTINUOUS
  62
7
 100
AcDbCircle
  10
 1371.8485632184
  20
 593.82991242474
  30
0.0
  40
 101.00000000000
 100
AcDbArc
  50
 78.578813725000
  51
 82.890709806976
   0
LINE
   5
2FA
 100
AcDbEntity
   8
LEVEL002
 370
20
 100
AcDbLine
   6
CONTINUOUS
  62
7
  10
 1351.8485632184
  20
 692.82991242474
  30
0.0
  11
 1351.8485632184
  21
 688.82991242474
  31
0.0
   0
LINE
   5
2FB
 100
AcDbEntity
   8
LEVEL002
 370
20
 100
AcDbLine
   6
CONTINUOUS
  62
7
  10
 1351.8485632184
  20
 688.82991242474
  30
0.0
  11
 1358.3485632184
  21
 688.82991242474
  31
0.0
   0
LINE
   5
2FC
 100
AcDbEntity
   8
LEVEL002
 370
20
 100
AcDbLine
   6
CONTINUOUS
  62
7
  10
 1385.3485632184
  20
 688.82991242474
  30
0.0
  11
 1391.8485632184
  21
 688.82991242474
  31
0.0
   0
LINE
   5
2FD
 100
AcDbEntity
   8
LEVEL002
 370
20
 100
AcDbLine
   6
CONTINUOUS
  62
7
  10
 1391.8485632184
  20
 688.82991242474
  30
0.0
  11
 1391.8485632184
  21
 692.82991242474
  31
0.0
   0
LINE
   5
2FE
 100
AcDbEntity
   8
LEVEL002
 370
20
 100
AcDbLine
   6
CONTINUOUS
  62
7
  10
 1742.8485632184
  20
 196.82991242474
  30
0.0
  11
 1742.8485632184
  21
 667.82991242474
  31
0.0
   0
LINE
   5
2FF
 100
AcDbEntity
   8
LEVEL002
 370
20
 100
AcDbLine
   6
CONTINUOUS
  62
7
  10
 1742.8485632184
  20
 667.82991242474
  30
0.0
  11
 1741.8485632184
  21
 667.82991242474
  31
0.0
   0
ARC
   5
300
 100
AcDbEntity
   8
LEVEL002
 370
20
   6
CONTINUOUS
  62
7
 100
AcDbCircle
  10
 1445.8485632184
  20
 576.82991242474
  30
0.0
  40
 100.00000000000
 100
AcDbArc
  50
 65.505351528580
  51
 114.49464847142
   0
CIRCLE
   5
301
 100
AcDbEntity
   8
LEVEL002
 370
9
 100
AcDbCircle
   6
HIDDEN
  62
1
  10
 1445.8485632184
  20
 576.82991242474
  30
0.0
  40
 70.000000000000
   0
CIRCLE
   5
302
 100
AcDbEntity
   8
LEVEL002
 370
9
 100
AcDbCircle
   6
HIDDEN
  62
1
  10
 1551.8485632184
  20
 485.82991242474
  30
0.0
  40
 70.000000000000
   0
CIRCLE
   5
303
 100
AcDbEntity
   8
LEVEL002
 370
9
 100
AcDbCircle
   6
HIDDEN
  62
1
  10
 1657.8485632184
  20
 576.82991242474
  30
0.0
  40
 70.000000000000
   0
LINE
   5
304
 100
AcDbEntity
   8
LEVEL002
 370
9
 100
AcDbLine
   6
DASHDOT
  62
1
  10
 1445.8485632184
  20
 688.32991242474
  30
0.0
  11
 1445.8485632184
  21
 465.32991242474
  31
0.0
   0
LINE
   5
305
 100
AcDbEntity
   8
LEVEL002
 370
9
 100
AcDbLine
   6
DASHDOT
  62
1
  10
 1561.8485632184
  20
 576.82991242474
  30
0.0
  11
 1329.8485632184
  21
 576.82991242474
  31
0.0
   0
LINE
   5
306
 100
AcDbEntity
   8
LEVEL002
 370
9
 100
AcDbLine
   6
DASHDOT
  62
1
  10
 1551.8485632184
  20
 597.32991242474
  30
0.0
  11
 1551.8485632184
  21
 374.32991242474
  31
0.0
   0
LINE
   5
307
 100
AcDbEntity
   8
LEVEL002
 370
9
 100
AcDbLine
   6
DASHDOT
  62
1
  10
 1667.8485632184
  20
 485.82991242474
  30
0.0
  11
 1435.8485632184
  21
 485.82991242474
  31
0.0
   0
LINE
   5
308
 100
AcDbEntity
   8
LEVEL002
 370
9
 100
AcDbLine
   6
DASHDOT
  62
1
  10
 1657.8485632184
  20
 688.32991242474
  30
0.0
  11
 1657.8485632184
  21
 465.32991242474
  31
0.0
   0
LINE
   5
309
 100
AcDbEntity
   8
LEVEL002
 370
9
 100
AcDbLine
   6
DASHDOT
  62
1
  10
 1773.8485632184
  20
 576.82991242474
  30
0.0
  11
 1541.8485632184
  21
 576.82991242474
  31
0.0
   0
LINE
   5
30A
 100
AcDbEntity
   8
LEVEL002
 370
20
 100
AcDbLine
   6
CONTINUOUS
  62
7
  10
 1463.7751600465
  20
 733.81807316811
  30
0.0
  11
 1545.7751600465
  21
 733.81807316811
  31
0.0
   0
LINE
   5
30B
 100
AcDbEntity
   8
LEVEL002
 370
20
 100
AcDbLine
   6
CONTINUOUS
  62
7
  10
 1545.7751600465
  20
 733.81807316811
  30
0.0
  11
 1545.7751600465
  21
 761.01807316803
  31
0.0
   0
LINE
   5
30C
 100
AcDbEntity
   8
LEVEL002
 370
20
 100
AcDbLine
   6
CONTINUOUS
  62
7
  10
 1545.7751600465
  20
 761.01807316803
  30
0.0
  11
 1463.7751600465
  21
 761.01807316803
  31
0.0
   0
LINE
   5
30D
 100
AcDbEntity
   8
LEVEL002
 370
20
 100
AcDbLine
   6
CONTINUOUS
  62
7
  10
 1460.2208736818
  20
 729.91807316807
  30
0.0
  11
 1474.8431267104
  21
 704.78212311791
  31
0.0
   0
LINE
   5
30E
 100
AcDbEntity
   8
LEVEL002
 370
20
 100
AcDbLine
   6
CONTINUOUS
  62
7
  10
 1474.8431267104
  20
 704.78212311791
  30
0.0
  11
 1477.0074553859
  21
 701.75122252805
  31
0.0
   0
ARC
   5
30F
 100
AcDbEntity
   8
LEVEL002
 370
20
   6
CONTINUOUS
  62
7
 100
AcDbCircle
  10
 1465.0103289800
  20
 761.45942094334
  30
0.0
  40
 20.000000000000
 100
AcDbArc
  50
 89.417385312031
  51
 170.04162874820
   0
ARC
   5
310
 100
AcDbEntity
   8
LEVEL002
 370
20
   6
CONTINUOUS
  62
7
 100
AcDbCircle
  10
 1465.0103289800
  20
 761.45942094332
  30
0.0
  40
 8.0000000000000
 100
AcDbArc
  50
 356.83747378859
  51
 154.38438397885
   0
ARC
   5
311
 100
AcDbEntity
   8
LEVEL002
 370
20
   6
CONTINUOUS
  62
7
 100
AcDbCircle
  10
 1465.0103289800
  20
 761.45942094334
  30
0.0
  40
 11.500000000000
 100
AcDbArc
  50
 40.345078222828
  51
 162.49720235383
   0
LINE
   5
312
 100
AcDbEntity
   8
LEVEL002
 370
20
 100
AcDbLine
   6
CONTINUOUS
  62
7
  10
 1473.7751600465
  20
 770.25544982822
  30
0.0
  11
 1465.0103289800
  21
 775.31582740387
  31
0.0
   0
LINE
   5
313
 100
AcDbEntity
   8
LEVEL002
 370
20
 100
AcDbLine
   6
CONTINUOUS
  62
7
  10
 1465.0103289800
  20
 775.31582740387
  30
0.0
  11
 1453.0103289800
  21
 768.38762417357
  31
0.0
   0
LINE
   5
314
 100
AcDbEntity
   8
LEVEL002
 370
20
 100
AcDbLine
   6
CONTINUOUS
  62
7
  10
 1453.0103289800
  20
 768.38762417357
  30
0.0
  11
 1453.0103289800
  21
 764.91807316807
  31
0.0
   0
LINE
   5
315
 100
AcDbEntity
   8
LEVEL002
 370
20
 100
AcDbLine
   6
CONTINUOUS
  62
7
  10
 1463.7751600465
  20
 729.91807316807
  30
0.0
  11
 1463.7751600465
  21
 764.91807316807
  31
0.0
   0
LINE
   5
316
 100
AcDbEntity
   8
LEVEL002
 370
20
 100
AcDbLine
   6
CONTINUOUS
  62
7
  10
 1463.7751600465
  20
 764.91807316807
  30
0.0
  11
 1333.7751600465
  21
 764.91807316807
  31
0.0
   0
LINE
   5
317
 100
AcDbEntity
   8
LEVEL002
 370
20
 100
AcDbLine
   6
CONTINUOUS
  62
7
  10
 1333.7751600465
  20
 764.91807316807
  30
0.0
  11
 1333.7751600465
  21
 729.91807316807
  31
0.0
   0
LINE
   5
318
 100
AcDbEntity
   8
LEVEL002
 370
20
 100
AcDbLine
   6
CONTINUOUS
  62
7
  10
 1333.7751600465
  20
 729.91807316807
  30
0.0
  11
 1463.7751600465
  21
 729.91807316807
  31
0.0
   0
ARC
   5
319
 100
AcDbEntity
   8
LEVEL002
 370
20
   6
CONTINUOUS
  62
7
 100
AcDbCircle
  10
 513.96973679189
  20
 1062.4916781864
  30
0.0
  40
 18.321173573495
 100
AcDbArc
  50
 157.78068982934
  51
 202.21931017066
   0
ARC
   5
31A
 100
AcDbEntity
   8
LEVEL002
 370
20
   6
CONTINUOUS
  62
7
 100
AcDbCircle
  10
 500.73903357598
  20
 1052.0993733410
  30
0.0
  40
 5.0904703575911
 100
AcDbArc
  50
 137.11671159511
  51
 180.00000000000
   0
LINE
   5
31B
 100
AcDbEntity
   8
LEVEL002
 370
20
 100
AcDbLine
   6
CONTINUOUS
  62
7
  10
 508.64856321839
  20
 1076.3480846469
  30
0.0
  11
 508.64856321839
  21
 1048.6352717258
  31
0.0
   0
LINE
   5
31C
 100
AcDbEntity
   8
LEVEL002
 370
20
 100
AcDbLine
   6
CONTINUOUS
  62
7
  10
 508.64856321839
  20
 1048.6352717258
  30
0.0
  11
 497.00903512271
  21
 1048.6352717258
  31
0.0
   0
LINE
   5
31D
 100
AcDbEntity
   8
LEVEL002
 370
20
 100
AcDbLine
   6
CONTINUOUS
  62
7
  10
 497.00903512271
  20
 1048.6352717258
  30
0.0
  11
 495.64856321839
  21
 1050.9916781864
  31
0.0
   0
LINE
   5
31E
 100
AcDbEntity
   8
LEVEL002
 370
20
 100
AcDbLine
   6
CONTINUOUS
  62
7
  10
 495.64856321839
  20
 1050.9916781864
  30
0.0
  11
 495.64856321839
  21
 1073.9916781864
  31
0.0
   0
LINE
   5
31F
 100
AcDbEntity
   8
LEVEL002
 370
20
 100
AcDbLine
   6
CONTINUOUS
  62
7
  10
 495.64856321839
  20
 1073.9916781864
  30
0.0
  11
 497.00903512271
  21
 1076.3480846469
  31
0.0
   0
LINE
   5
320
 100
AcDbEntity
   8
LEVEL002
 370
20
 100
AcDbLine
   6
CONTINUOUS
  62
7
  10
 497.00903512271
  20
 1076.3480846469
  30
0.0
  11
 508.64856321839
  21
 1076.3480846469
  31
0.0
   0
LINE
   5
321
 100
AcDbEntity
   8
LEVEL002
 370
20
 100
AcDbLine
   6
CONTINUOUS
  62
7
  10
 508.64856321839
  20
 1055.5634749561
  30
0.0
  11
 497.00903512271
  21
 1055.5634749561
  31
0.0
   0
ARC
   5
322
 100
AcDbEntity
   8
LEVEL002
 370
20
   6
CONTINUOUS
  62
7
 100
AcDbCircle
  10
 500.73903357598
  20
 1072.8839830317
  30
0.0
  40
 5.0904703575912
 100
AcDbArc
  50
 180.00000000000
  51
 222.88328840489
   0
LINE
   5
323
 100
AcDbEntity
   8
LEVEL002
 370
20
 100
AcDbLine
   6
CONTINUOUS
  62
7
  10
 508.64856321839
  20
 1069.4198814166
  30
0.0
  11
 497.00903512271
  21
 1069.4198814166
  31
0.0
   0
ARC
   5
324
 100
AcDbEntity
   8
LEVEL002
 370
20
   6
CONTINUOUS
  62
7
 100
AcDbCircle
  10
 518.32738964490
  20
 1062.4916781864
  30
0.0
  40
 18.321173573495
 100
AcDbArc
  50
 337.78068982934
  51
 22.219310170660
   0
ARC
   5
325
 100
AcDbEntity
   8
LEVEL002
 370
20
   6
CONTINUOUS
  62
7
 100
AcDbCircle
  10
 531.55809286080
  20
 1072.8839830317
  30
0.0
  40
 5.0904703575911
 100
AcDbArc
  50
 317.11671159511
  51
0.0
   0
LINE
   5
326
 100
AcDbEntity
   8
LEVEL002
 370
20
 100
AcDbLine
   6
CONTINUOUS
  62
7
  10
 523.64856321839
  20
 1048.6352717258
  30
0.0
  11
 523.64856321839
  21
 1076.3480846469
  31
0.0
   0
LINE
   5
327
 100
AcDbEntity
   8
LEVEL002
 370
20
 100
AcDbLine
   6
CONTINUOUS
  62
7
  10
 523.64856321839
  20
 1076.3480846469
  30
0.0
  11
 535.28809131407
  21
 1076.3480846469
  31
0.0
   0
LINE
   5
328
 100
AcDbEntity
   8
LEVEL002
 370
20
 100
AcDbLine
   6
CONTINUOUS
  62
7
  10
 535.28809131407
  20
 1076.3480846469
  30
0.0
  11
 536.64856321839
  21
 1073.9916781864
  31
0.0
   0
LINE
   5
329
 100
AcDbEntity
   8
LEVEL002
 370
20
 100
AcDbLine
   6
CONTINUOUS
  62
7
  10
 536.64856321839
  20
 1073.9916781864
  30
0.0
  11
 536.64856321839
  21
 1050.9916781864
  31
0.0
   0
LINE
   5
32A
 100
AcDbEntity
   8
LEVEL002
 370
20
 100
AcDbLine
   6
CONTINUOUS
  62
7
  10
 536.64856321839
  20
 1050.9916781864
  30
0.0
  11
 535.28809131407
  21
 1048.6352717258
  31
0.0
   0
LINE
   5
32B
 100
AcDbEntity
   8
LEVEL002
 370
20
 100
AcDbLine
   6
CONTINUOUS
  62
7
  10
 535.28809131407
  20
 1048.6352717258
  30
0.0
  11
 523.64856321839
  21
 1048.6352717258
  31
0.0
   0
LINE
   5
32C
 100
AcDbEntity
   8
LEVEL002
 370
20
 100
AcDbLine
   6
CONTINUOUS
  62
7
  10
 523.64856321839
  20
 1069.4198814166
  30
0.0
  11
 535.28809131407
  21
 1069.4198814166
  31
0.0
   0
ARC
   5
32D
 100
AcDbEntity
   8
LEVEL002
 370
20
   6
CONTINUOUS
  62
7
 100
AcDbCircle
  10
 531.55809286080
  20
 1052.0993733410
  30
0.0
  40
 5.0904703575912
 100
AcDbArc
  50
0.0
  51
 42.883288404885
   0
LINE
   5
32E
 100
AcDbEntity
   8
LEVEL002
 370
20
 100
AcDbLine
   6
CONTINUOUS
  62
7
  10
 523.64856321839
  20
 1055.5634749561
  30
0.0
  11
 535.28809131407
  21
 1055.5634749561
  31
0.0
   0
LINE
   5
32F
 100
AcDbEntity
   8
LEVEL002
 370
20
 100
AcDbLine
   6
CONTINUOUS
  62
7
  10
 511.64856321839
  20
 1077.4916781864
  30
0.0
  11
 508.64856321839
  21
 1077.4916781864
  31
0.0
   0
LINE
   5
330
 100
AcDbEntity
   8
LEVEL002
 370
20
 100
AcDbLine
   6
CONTINUOUS
  62
7
  10
 508.64856321839
  20
 1077.4916781864
  30
0.0
  11
 508.64856321839
  21
 1047.4916781864
  31
0.0
   0
LINE
   5
331
 100
AcDbEntity
   8
LEVEL002
 370
20
 100
AcDbLine
   6
CONTINUOUS
  62
7
  10
 508.64856321839
  20
 1047.4916781864
  30
0.0
  11
 511.64856321839
  21
 1047.4916781864
  31
0.0
   0
LINE
   5
332
 100
AcDbEntity
   8
LEVEL002
 370
20
 100
AcDbLine
   6
CONTINUOUS
  62
7
  10
 511.64856321839
  20
 1047.4916781864
  30
0.0
  11
 511.64856321839
  21
 1077.4916781864
  31
0.0
   0
ARC
   5
333
 100
AcDbEntity
   8
LEVEL002
 370
20
   6
CONTINUOUS
  62
7
 100
AcDbCircle
  10
 899.36973679189
  20
 1062.4916781864
  30
0.0
  40
 18.321173573495
 100
AcDbArc
  50
 157.78068982934
  51
 202.21931017066
   0
ARC
   5
334
 100
AcDbEntity
   8
LEVEL002
 370
20
   6
CONTINUOUS
  62
7
 100
AcDbCircle
  10
 886.13903357598
  20
 1052.0993733410
  30
0.0
  40
 5.0904703575911
 100
AcDbArc
  50
 137.11671159511
  51
 180.00000000000
   0
LINE
   5
335
 100
AcDbEntity
   8
LEVEL002
 370
20
 100
AcDbLine
   6
CONTINUOUS
  62
7
  10
 894.04856321839
  20
 1076.3480846469
  30
0.0
  11
 894.04856321839
  21
 1048.6352717258
  31
0.0
   0
LINE
   5
336
 100
AcDbEntity
   8
LEVEL002
 370
20
 100
AcDbLine
   6
CONTINUOUS
  62
7
  10
 894.04856321839
  20
 1048.6352717258
  30
0.0
  11
 882.40903512271
  21
 1048.6352717258
  31
0.0
   0
LINE
   5
337
 100
AcDbEntity
   8
LEVEL002
 370
20
 100
AcDbLine
   6
CONTINUOUS
  62
7
  10
 882.40903512271
  20
 1048.6352717258
  30
0.0
  11
 881.04856321839
  21
 1050.9916781864
  31
0.0
   0
LINE
   5
338
 100
AcDbEntity
   8
LEVEL002
 370
20
 100
AcDbLine
   6
CONTINUOUS
  62
7
  10
 881.04856321839
  20
 1050.9916781864
  30
0.0
  11
 881.04856321839
  21
 1073.9916781864
  31
0.0
   0
LINE
   5
339
 100
AcDbEntity
   8
LEVEL002
 370
20
 100
AcDbLine
   6
CONTINUOUS
  62
7
  10
 881.04856321839
  20
 1073.9916781864
  30
0.0
  11
 882.40903512271
  21
 1076.3480846469
  31
0.0
   0
LINE
   5
33A
 100
AcDbEntity
   8
LEVEL002
 370
20
 100
AcDbLine
   6
CONTINUOUS
  62
7
  10
 882.40903512271
  20
 1076.3480846469
  30
0.0
  11
 894.04856321839
  21
 1076.3480846469
  31
0.0
   0
LINE
   5
33B
 100
AcDbEntity
   8
LEVEL002
 370
20
 100
AcDbLine
   6
CONTINUOUS
  62
7
  10
 894.04856321839
  20
 1055.5634749561
  30
0.0
  11
 882.40903512271
  21
 1055.5634749561
  31
0.0
   0
ARC
   5
33C
 100
AcDbEntity
   8
LEVEL002
 370
20
   6
CONTINUOUS
  62
7
 100
AcDbCircle
  10
 886.13903357598
  20
 1072.8839830317
  30
0.0
  40
 5.0904703575912
 100
AcDbArc
  50
 180.00000000000
  51
 222.88328840489
   0
LINE
   5
33D
 100
AcDbEntity
   8
LEVEL002
 370
20
 100
AcDbLine
   6
CONTINUOUS
  62
7
  10
 894.04856321839
  20
 1069.4198814166
  30
0.0
  11
 882.40903512271
  21
 1069.4198814166
  31
0.0
   0
ARC
   5
33E
 100
AcDbEntity
   8
LEVEL002
 370
20
   6
CONTINUOUS
  62
7
 100
AcDbCircle
  10
 903.72738964490
  20
 1062.4916781864
  30
0.0
  40
 18.321173573495
 100
AcDbArc
  50
 337.78068982934
  51
 22.219310170660
   0
ARC
   5
33F
 100
AcDbEntity
   8
LEVEL002
 370
20
   6
CONTINUOUS
  62
7
 100
AcDbCircle
  10
 916.95809286080
  20
 1072.8839830317
  30
0.0
  40
 5.0904703575911
 100
AcDbArc
  50
 317.11671159511
  51
 0.25592039752962E-11
   0
LINE
   5
340
 100
AcDbEntity
   8
LEVEL002
 370
20
 100
AcDbLine
   6
CONTINUOUS
  62
7
  10
 909.04856321839
  20
 1048.6352717258
  30
0.0
  11
 909.04856321839
  21
 1076.3480846469
  31
0.0
   0
LINE
   5
341
 100
AcDbEntity
   8
LEVEL002
 370
20
 100
AcDbLine
   6
CONTINUOUS
  62
7
  10
 909.04856321839
  20
 1076.3480846469
  30
0.0
  11
 920.68809131407
  21
 1076.3480846469
  31
0.0
   0
LINE
   5
342
 100
AcDbEntity
   8
LEVEL002
 370
20
 100
AcDbLine
   6
CONTINUOUS
  62
7
  10
 920.68809131407
  20
 1076.3480846469
  30
0.0
  11
 922.04856321839
  21
 1073.9916781864
  31
0.0
   0
LINE
   5
343
 100
AcDbEntity
   8
LEVEL002
 370
20
 100
AcDbLine
   6
CONTINUOUS
  62
7
  10
 922.04856321839
  20
 1073.9916781864
  30
0.0
  11
 922.04856321839
  21
 1050.9916781864
  31
0.0
   0
LINE
   5
344
 100
AcDbEntity
   8
LEVEL002
 370
20
 100
AcDbLine
   6
CONTINUOUS
  62
7
  10
 922.04856321839
  20
 1050.9916781864
  30
0.0
  11
 920.68809131407
  21
 1048.6352717258
  31
0.0
   0
LINE
   5
345
 100
AcDbEntity
   8
LEVEL002
 370
20
 100
AcDbLine
   6
CONTINUOUS
  62
7
  10
 920.68809131407
  20
 1048.6352717258
  30
0.0
  11
 909.04856321839
  21
 1048.6352717258
  31
0.0
   0
LINE
   5
346
 100
AcDbEntity
   8
LEVEL002
 370
20
 100
AcDbLine
   6
CONTINUOUS
  62
7
  10
 909.04856321839
  20
 1069.4198814166
  30
0.0
  11
 920.68809131407
  21
 1069.4198814166
  31
0.0
   0
ARC
   5
347
 100
AcDbEntity
   8
LEVEL002
 370
20
   6
CONTINUOUS
  62
7
 100
AcDbCircle
  10
 916.95809286080
  20
 1052.0993733410
  30
0.0
  40
 5.0904703575912
 100
AcDbArc
  50
0.0
  51
 42.883288404885
   0
LINE
   5
348
 100
AcDbEntity
   8
LEVEL002
 370
20
 100
AcDbLine
   6
CONTINUOUS
  62
7
  10
 909.04856321839
  20
 1055.5634749561
  30
0.0
  11
 920.68809131407
  21
 1055.5634749561
  31
0.0
   0
LINE
   5
349
 100
AcDbEntity
   8
LEVEL002
 370
20
 100
AcDbLine
   6
CONTINUOUS
  62
7
  10
 906.04856321839
  20
 1047.4916781864
  30
0.0
  11
 909.04856321839
  21
 1047.4916781864
  31
0.0
   0
LINE
   5
34A
 100
AcDbEntity
   8
LEVEL002
 370
20
 100
AcDbLine
   6
CONTINUOUS
  62
7
  10
 909.04856321839
  20
 1047.4916781864
  30
0.0
  11
 909.04856321839
  21
 1077.4916781864
  31
0.0
   0
LINE
   5
34B
 100
AcDbEntity
   8
LEVEL002
 370
20
 100
AcDbLine
   6
CONTINUOUS
  62
7
  10
 909.04856321839
  20
 1077.4916781864
  30
0.0
  11
 906.04856321839
  21
 1077.4916781864
  31
0.0
   0
LINE
   5
34C
 100
AcDbEntity
   8
LEVEL002
 370
20
 100
AcDbLine
   6
CONTINUOUS
  62
7
  10
 906.04856321839
  20
 1077.4916781864
  30
0.0
  11
 906.04856321839
  21
 1047.4916781864
  31
0.0
   0
ARC
   5
34D
 100
AcDbEntity
   8
LEVEL002
 370
20
   6
CONTINUOUS
  62
7
 100
AcDbCircle
  10
 518.32738964490
  20
 1360.0301307195
  30
0.0
  40
 18.321173573495
 100
AcDbArc
  50
 337.78068982934
  51
 22.219310170660
   0
ARC
   5
34E
 100
AcDbEntity
   8
LEVEL002
 370
20
   6
CONTINUOUS
  62
7
 100
AcDbCircle
  10
 531.55809286080
  20
 1370.4224355649
  30
0.0
  40
 5.0904703575911
 100
AcDbArc
  50
 317.11671159511
  51
0.0
   0
LINE
   5
34F
 100
AcDbEntity
   8
LEVEL002
 370
20
 100
AcDbLine
   6
CONTINUOUS
  62
7
  10
 523.64856321839
  20
 1346.1737242590
  30
0.0
  11
 523.64856321839
  21
 1373.8865371801
  31
0.0
   0
LINE
   5
350
 100
AcDbEntity
   8
LEVEL002
 370
20
 100
AcDbLine
   6
CONTINUOUS
  62
7
  10
 523.64856321839
  20
 1373.8865371801
  30
0.0
  11
 535.28809131407
  21
 1373.8865371801
  31
0.0
   0
LINE
   5
351
 100
AcDbEntity
   8
LEVEL002
 370
20
 100
AcDbLine
   6
CONTINUOUS
  62
7
  10
 535.28809131407
  20
 1373.8865371801
  30
0.0
  11
 536.64856321839
  21
 1371.5301307195
  31
0.0
   0
LINE
   5
352
 100
AcDbEntity
   8
LEVEL002
 370
20
 100
AcDbLine
   6
CONTINUOUS
  62
7
  10
 536.64856321839
  20
 1371.5301307195
  30
0.0
  11
 536.64856321839
  21
 1348.5301307195
  31
0.0
   0
LINE
   5
353
 100
AcDbEntity
   8
LEVEL002
 370
20
 100
AcDbLine
   6
CONTINUOUS
  62
7
  10
 536.64856321839
  20
 1348.5301307195
  30
0.0
  11
 535.28809131407
  21
 1346.1737242590
  31
0.0
   0
LINE
   5
354
 100
AcDbEntity
   8
LEVEL002
 370
20
 100
AcDbLine
   6
CONTINUOUS
  62
7
  10
 535.28809131407
  20
 1346.1737242590
  30
0.0
  11
 523.64856321839
  21
 1346.1737242590
  31
0.0
   0
LINE
   5
355
 100
AcDbEntity
   8
LEVEL002
 370
20
 100
AcDbLine
   6
CONTINUOUS
  62
7
  10
 523.64856321839
  20
 1366.9583339498
  30
0.0
  11
 535.28809131407
  21
 1366.9583339498
  31
0.0
   0
ARC
   5
356
 100
AcDbEntity
   8
LEVEL002
 370
20
   6
CONTINUOUS
  62
7
 100
AcDbCircle
  10
 531.55809286080
  20
 1349.6378258742
  30
0.0
  40
 5.0904703575912
 100
AcDbArc
  50
0.0
  51
 42.883288404885
   0
LINE
   5
357
 100
AcDbEntity
   8
LEVEL002
 370
20
 100
AcDbLine
   6
CONTINUOUS
  62
7
  10
 523.64856321839
  20
 1353.1019274893
  30
0.0
  11
 535.28809131407
  21
 1353.1019274893
  31
0.0
   0
LINE
   5
358
 100
AcDbEntity
   8
LEVEL002
 370
20
 100
AcDbLine
   6
CONTINUOUS
  62
7
  10
 511.64856321839
  20
 1375.0301307195
  30
0.0
  11
 508.64856321839
  21
 1375.0301307195
  31
0.0
   0
LINE
   5
359
 100
AcDbEntity
   8
LEVEL002
 370
20
 100
AcDbLine
   6
CONTINUOUS
  62
7
  10
 508.64856321839
  20
 1375.0301307195
  30
0.0
  11
 508.64856321839
  21
 1345.0301307195
  31
0.0
   0
LINE
   5
35A
 100
AcDbEntity
   8
LEVEL002
 370
20
 100
AcDbLine
   6
CONTINUOUS
  62
7
  10
 508.64856321839
  20
 1345.0301307195
  30
0.0
  11
 511.64856321839
  21
 1345.0301307195
  31
0.0
   0
LINE
   5
35B
 100
AcDbEntity
   8
LEVEL002
 370
20
 100
AcDbLine
   6
CONTINUOUS
  62
7
  10
 511.64856321839
  20
 1345.0301307195
  30
0.0
  11
 511.64856321839
  21
 1375.0301307195
  31
0.0
   0
ARC
   5
35C
 100
AcDbEntity
   8
LEVEL002
 370
20
   6
CONTINUOUS
  62
7
 100
AcDbCircle
  10
 513.96973679189
  20
 1360.0301307195
  30
0.0
  40
 18.321173573495
 100
AcDbArc
  50
 157.78068982934
  51
 202.21931017066
   0
ARC
   5
35D
 100
AcDbEntity
   8
LEVEL002
 370
20
   6
CONTINUOUS
  62
7
 100
AcDbCircle
  10
 500.73903357598
  20
 1349.6378258742
  30
0.0
  40
 5.0904703575911
 100
AcDbArc
  50
 137.11671159511
  51
 180.00000000000
   0
LINE
   5
35E
 100
AcDbEntity
   8
LEVEL002
 370
20
 100
AcDbLine
   6
CONTINUOUS
  62
7
  10
 508.64856321839
  20
 1373.8865371801
  30
0.0
  11
 508.64856321839
  21
 1346.1737242590
  31
0.0
   0
LINE
   5
35F
 100
AcDbEntity
   8
LEVEL002
 370
20
 100
AcDbLine
   6
CONTINUOUS
  62
7
  10
 508.64856321839
  20
 1346.1737242590
  30
0.0
  11
 497.00903512271
  21
 1346.1737242590
  31
0.0
   0
LINE
   5
360
 100
AcDbEntity
   8
LEVEL002
 370
20
 100
AcDbLine
   6
CONTINUOUS
  62
7
  10
 497.00903512271
  20
 1346.1737242590
  30
0.0
  11
 495.64856321839
  21
 1348.5301307195
  31
0.0
   0
LINE
   5
361
 100
AcDbEntity
   8
LEVEL002
 370
20
 100
AcDbLine
   6
CONTINUOUS
  62
7
  10
 495.64856321839
  20
 1348.5301307195
  30
0.0
  11
 495.64856321839
  21
 1371.5301307195
  31
0.0
   0
LINE
   5
362
 100
AcDbEntity
   8
LEVEL002
 370
20
 100
AcDbLine
   6
CONTINUOUS
  62
7
  10
 495.64856321839
  20
 1371.5301307195
  30
0.0
  11
 497.00903512271
  21
 1373.8865371801
  31
0.0
   0
LINE
   5
363
 100
AcDbEntity
   8
LEVEL002
 370
20
 100
AcDbLine
   6
CONTINUOUS
  62
7
  10
 497.00903512271
  20
 1373.8865371801
  30
0.0
  11
 508.64856321839
  21
 1373.8865371801
  31
0.0
   0
LINE
   5
364
 100
AcDbEntity
   8
LEVEL002
 370
20
 100
AcDbLine
   6
CONTINUOUS
  62
7
  10
 508.64856321839
  20
 1353.1019274893
  30
0.0
  11
 497.00903512271
  21
 1353.1019274893
  31
0.0
   0
ARC
   5
365
 100
AcDbEntity
   8
LEVEL002
 370
20
   6
CONTINUOUS
  62
7
 100
AcDbCircle
  10
 500.73903357598
  20
 1370.4224355649
  30
0.0
  40
 5.0904703575912
 100
AcDbArc
  50
 180.00000000000
  51
 222.88328840489
   0
LINE
   5
366
 100
AcDbEntity
   8
LEVEL002
 370
20
 100
AcDbLine
   6
CONTINUOUS
  62
7
  10
 508.64856321839
  20
 1366.9583339498
  30
0.0
  11
 497.00903512271
  21
 1366.9583339498
  31
0.0
   0
ARC
   5
367
 100
AcDbEntity
   8
LEVEL002
 370
20
   6
CONTINUOUS
  62
7
 100
AcDbCircle
  10
 903.72738964490
  20
 1360.0301307195
  30
0.0
  40
 18.321173573495
 100
AcDbArc
  50
 337.78068982934
  51
 22.219310170660
   0
ARC
   5
368
 100
AcDbEntity
   8
LEVEL002
 370
20
   6
CONTINUOUS
  62
7
 100
AcDbCircle
  10
 916.95809286080
  20
 1370.4224355649
  30
0.0
  40
 5.0904703575911
 100
AcDbArc
  50
 317.11671159511
  51
 0.25592039752962E-11
   0
LINE
   5
369
 100
AcDbEntity
   8
LEVEL002
 370
20
 100
AcDbLine
   6
CONTINUOUS
  62
7
  10
 909.04856321839
  20
 1346.1737242590
  30
0.0
  11
 909.04856321839
  21
 1373.8865371801
  31
0.0
   0
LINE
   5
36A
 100
AcDbEntity
   8
LEVEL002
 370
20
 100
AcDbLine
   6
CONTINUOUS
  62
7
  10
 909.04856321839
  20
 1373.8865371801
  30
0.0
  11
 920.68809131407
  21
 1373.8865371801
  31
0.0
   0
LINE
   5
36B
 100
AcDbEntity
   8
LEVEL002
 370
20
 100
AcDbLine
   6
CONTINUOUS
  62
7
  10
 920.68809131407
  20
 1373.8865371801
  30
0.0
  11
 922.04856321839
  21
 1371.5301307195
  31
0.0
   0
LINE
   5
36C
 100
AcDbEntity
   8
LEVEL002
 370
20
 100
AcDbLine
   6
CONTINUOUS
  62
7
  10
 922.04856321839
  20
 1371.5301307195
  30
0.0
  11
 922.04856321839
  21
 1348.5301307195
  31
0.0
   0
LINE
   5
36D
 100
AcDbEntity
   8
LEVEL002
 370
20
 100
AcDbLine
   6
CONTINUOUS
  62
7
  10
 922.04856321839
  20
 1348.5301307195
  30
0.0
  11
 920.68809131407
  21
 1346.1737242590
  31
0.0
   0
LINE
   5
36E
 100
AcDbEntity
   8
LEVEL002
 370
20
 100
AcDbLine
   6
CONTINUOUS
  62
7
  10
 920.68809131407
  20
 1346.1737242590
  30
0.0
  11
 909.04856321839
  21
 1346.1737242590
  31
0.0
   0
LINE
   5
36F
 100
AcDbEntity
   8
LEVEL002
 370
20
 100
AcDbLine
   6
CONTINUOUS
  62
7
  10
 909.04856321839
  20
 1366.9583339498
  30
0.0
  11
 920.68809131407
  21
 1366.9583339498
  31
0.0
   0
ARC
   5
370
 100
AcDbEntity
   8
LEVEL002
 370
20
   6
CONTINUOUS
  62
7
 100
AcDbCircle
  10
 916.95809286080
  20
 1349.6378258742
  30
0.0
  40
 5.0904703575912
 100
AcDbArc
  50
0.0
  51
 42.883288404885
   0
LINE
   5
371
 100
AcDbEntity
   8
LEVEL002
 370
20
 100
AcDbLine
   6
CONTINUOUS
  62
7
  10
 909.04856321839
  20
 1353.1019274893
  30
0.0
  11
 920.68809131407
  21
 1353.1019274893
  31
0.0
   0
LINE
   5
372
 100
AcDbEntity
   8
LEVEL002
 370
20
 100
AcDbLine
   6
CONTINUOUS
  62
7
  10
 906.04856321839
  20
 1345.0301307195
  30
0.0
  11
 909.04856321839
  21
 1345.0301307195
  31
0.0
   0
LINE
   5
373
 100
AcDbEntity
   8
LEVEL002
 370
20
 100
AcDbLine
   6
CONTINUOUS
  62
7
  10
 909.04856321839
  20
 1345.0301307195
  30
0.0
  11
 909.04856321839
  21
 1375.0301307195
  31
0.0
   0
LINE
   5
374
 100
AcDbEntity
   8
LEVEL002
 370
20
 100
AcDbLine
   6
CONTINUOUS
  62
7
  10
 909.04856321839
  20
 1375.0301307195
  30
0.0
  11
 906.04856321839
  21
 1375.0301307195
  31
0.0
   0
LINE
   5
375
 100
AcDbEntity
   8
LEVEL002
 370
20
 100
AcDbLine
   6
CONTINUOUS
  62
7
  10
 906.04856321839
  20
 1375.0301307195
  30
0.0
  11
 906.04856321839
  21
 1345.0301307195
  31
0.0
   0
ARC
   5
376
 100
AcDbEntity
   8
LEVEL002
 370
20
   6
CONTINUOUS
  62
7
 100
AcDbCircle
  10
 893.36973679189
  20
 1360.0301307195
  30
0.0
  40
 18.321173573495
 100
AcDbArc
  50
 157.78068982934
  51
 202.21931017066
   0
ARC
   5
377
 100
AcDbEntity
   8
LEVEL002
 370
20
   6
CONTINUOUS
  62
7
 100
AcDbCircle
  10
 880.13903357598
  20
 1349.6378258742
  30
0.0
  40
 5.0904703575911
 100
AcDbArc
  50
 137.11671159511
  51
 180.00000000000
   0
LINE
   5
378
 100
AcDbEntity
   8
LEVEL002
 370
20
 100
AcDbLine
   6
CONTINUOUS
  62
7
  10
 888.04856321839
  20
 1373.8865371801
  30
0.0
  11
 888.04856321839
  21
 1346.1737242590
  31
0.0
   0
LINE
   5
379
 100
AcDbEntity
   8
LEVEL002
 370
20
 100
AcDbLine
   6
CONTINUOUS
  62
7
  10
 888.04856321839
  20
 1346.1737242590
  30
0.0
  11
 876.40903512271
  21
 1346.1737242590
  31
0.0
   0
LINE
   5
37A
 100
AcDbEntity
   8
LEVEL002
 370
20
 100
AcDbLine
   6
CONTINUOUS
  62
7
  10
 876.40903512271
  20
 1346.1737242590
  30
0.0
  11
 875.04856321839
  21
 1348.5301307195
  31
0.0
   0
LINE
   5
37B
 100
AcDbEntity
   8
LEVEL002
 370
20
 100
AcDbLine
   6
CONTINUOUS
  62
7
  10
 875.04856321839
  20
 1348.5301307195
  30
0.0
  11
 875.04856321839
  21
 1371.5301307195
  31
0.0
   0
LINE
   5
37C
 100
AcDbEntity
   8
LEVEL002
 370
20
 100
AcDbLine
   6
CONTINUOUS
  62
7
  10
 875.04856321839
  20
 1371.5301307195
  30
0.0
  11
 876.40903512271
  21
 1373.8865371801
  31
0.0
   0
LINE
   5
37D
 100
AcDbEntity
   8
LEVEL002
 370
20
 100
AcDbLine
   6
CONTINUOUS
  62
7
  10
 876.40903512271
  20
 1373.8865371801
  30
0.0
  11
 888.04856321839
  21
 1373.8865371801
  31
0.0
   0
LINE
   5
37E
 100
AcDbEntity
   8
LEVEL002
 370
20
 100
AcDbLine
   6
CONTINUOUS
  62
7
  10
 888.04856321839
  20
 1353.1019274893
  30
0.0
  11
 876.40903512271
  21
 1353.1019274893
  31
0.0
   0
ARC
   5
37F
 100
AcDbEntity
   8
LEVEL002
 370
20
   6
CONTINUOUS
  62
7
 100
AcDbCircle
  10
 880.13903357598
  20
 1370.4224355649
  30
0.0
  40
 5.0904703575912
 100
AcDbArc
  50
 180.00000000000
  51
 222.88328840489
   0
LINE
   5
380
 100
AcDbEntity
   8
LEVEL002
 370
20
 100
AcDbLine
   6
CONTINUOUS
  62
7
  10
 888.04856321839
  20
 1366.9583339498
  30
0.0
  11
 876.40903512271
  21
 1366.9583339498
  31
0.0
   0
POINT
   5
381
 100
AcDbEntity
   8
LEVEL002
 100
AcDbPoint
  62
3
  10
 472.14856321839
  20
 969.32991242474
  30
0.0
   0
POINT
   5
382
 100
AcDbEntity
   8
LEVEL002
 100
AcDbPoint
  62
3
  10
 525.14856321839
  20
 969.32991242474
  30
0.0
   0
LINE
   5
383
 100
AcDbEntity
   8
LEVEL002
 370
20
 100
AcDbLine
   6
CONTINUOUS
  62
7
  10
 588.84856321839
  20
 1113.3299124247
  30
0.0
  11
 588.84856321839
  21
 1185.3299124247
  31
0.0
   0
LINE
   5
384
 100
AcDbEntity
   8
LEVEL002
 370
20
 100
AcDbLine
   6
CONTINUOUS
  62
7
  10
 828.84856321839
  20
 1113.3299124247
  30
0.0
  11
 828.84856321839
  21
 1185.3299124247
  31
0.0
   0
LINE
   5
385
 100
AcDbEntity
   8
LEVEL002
 370
20
 100
AcDbLine
   6
CONTINUOUS
  62
7
  10
 588.84856321839
  20
 1040.0113165200
  30
0.0
  11
 828.84856321839
  21
 1040.0113165200
  31
0.0
   0
LINE
   5
386
 100
AcDbEntity
   8
LEVEL002
 370
20
 100
AcDbLine
   6
CONTINUOUS
  62
7
  10
 849.84856321839
  20
 939.32659009760
  30
0.0
  11
 567.84856321839
  21
 939.32659009760
  31
0.0
   0
LINE
   5
387
 100
AcDbEntity
   8
LEVEL002
 370
20
 100
AcDbLine
   6
CONTINUOUS
  62
7
  10
 567.84856321839
  20
 961.33323475188
  30
0.0
  11
 588.84856321839
  21
 961.33323475188
  31
0.0
   0
LINE
   5
388
 100
AcDbEntity
   8
LEVEL002
 370
20
 100
AcDbLine
   6
CONTINUOUS
  62
7
  10
 828.84856321839
  20
 961.33323475188
  30
0.0
  11
 849.84856321839
  21
 961.33323475188
  31
0.0
   0
LINE
   5
389
 100
AcDbEntity
   8
LEVEL002
 370
20
 100
AcDbLine
   6
CONTINUOUS
  62
7
  10
 567.84856321839
  20
 941.44583128119
  30
0.0
  11
 849.84856321839
  21
 941.44583128119
  31
0.0
   0
LINE
   5
38A
 100
AcDbEntity
   8
LEVEL002
 370
20
 100
AcDbLine
   6
CONTINUOUS
  62
7
  10
 588.84856321839
  20
 941.76371745873
  30
0.0
  11
 828.84856321839
  21
 941.76371745873
  31
0.0
   0
LINE
   5
38B
 100
AcDbEntity
   8
LEVEL002
 370
20
 100
AcDbLine
   6
CONTINUOUS
  62
7
  10
 588.84856321839
  20
 941.44583128119
  30
0.0
  11
 588.84856321839
  21
 1044.8603293288
  31
0.0
   0
LINE
   5
38C
 100
AcDbEntity
   8
LEVEL002
 370
20
 100
AcDbLine
   6
CONTINUOUS
  62
7
  10
 588.84856321839
  20
 1044.8603293288
  30
0.0
  11
 828.84856321839
  21
 1044.8603293288
  31
0.0
   0
LINE
   5
38D
 100
AcDbEntity
   8
LEVEL002
 370
20
 100
AcDbLine
   6
CONTINUOUS
  62
7
  10
 828.84856321839
  20
 1044.8603293288
  30
0.0
  11
 828.84856321839
  21
 941.44583128119
  31
0.0
   0
LINE
   5
38E
 100
AcDbEntity
   8
LEVEL002
 370
20
 100
AcDbLine
   6
CONTINUOUS
  62
7
  10
 931.04856321839
  20
 1143.2565092528
  30
0.0
  11
 940.04856321839
  21
 1143.2565092528
  31
0.0
   0
LINE
   5
38F
 100
AcDbEntity
   8
LEVEL002
 370
20
 100
AcDbLine
   6
CONTINUOUS
  62
7
  10
 888.04856321839
  20
 1339.1939953722
  30
0.0
  11
 894.04856321839
  21
 1339.1939953722
  31
0.0
   0
LINE
   5
390
 100
AcDbEntity
   8
LEVEL002
 370
20
 100
AcDbLine
   6
CONTINUOUS
  62
7
  10
 894.04856321839
  20
 1339.1939953722
  30
0.0
  11
 894.04856321839
  21
 1415.8150316177
  31
0.0
   0
LINE
   5
391
 100
AcDbEntity
   8
LEVEL002
 370
20
 100
AcDbLine
   6
CONTINUOUS
  62
7
  10
 894.04856321839
  20
 1415.8150316177
  30
0.0
  11
 888.04856321839
  21
 1415.8150316177
  31
0.0
   0
LINE
   5
392
 100
AcDbEntity
   8
LEVEL002
 370
20
 100
AcDbLine
   6
CONTINUOUS
  62
7
  10
 888.04856321839
  20
 1415.8150316177
  30
0.0
  11
 888.04856321839
  21
 1339.1939953722
  31
0.0
   0
LINE
   5
393
 100
AcDbEntity
   8
LEVEL002
 370
20
 100
AcDbLine
   6
CONTINUOUS
  62
7
  10
 888.04856321839
  20
 1340.9248197229
  30
0.0
  11
 894.04856321839
  21
 1340.9248197229
  31
0.0
   0
LINE
   5
394
 100
AcDbEntity
   8
LEVEL002
 370
20
 100
AcDbLine
   6
CONTINUOUS
  62
7
  10
 542.84856321839
  20
 1340.3299124247
  30
0.0
  11
 874.84856321839
  21
 1340.3299124247
  31
0.0
   0
LINE
   5
395
 100
AcDbEntity
   8
LEVEL002
 370
20
 100
AcDbLine
   6
CONTINUOUS
  62
7
  10
 874.84856321839
  20
 1340.3299124247
  30
0.0
  11
 874.84856321839
  21
 1385.3299124247
  31
0.0
   0
LINE
   5
396
 100
AcDbEntity
   8
LEVEL002
 370
20
 100
AcDbLine
   6
CONTINUOUS
  62
7
  10
 874.84856321839
  20
 1385.3299124247
  30
0.0
  11
 542.84856321839
  21
 1385.3299124247
  31
0.0
   0
LINE
   5
397
 100
AcDbEntity
   8
LEVEL002
 370
20
 100
AcDbLine
   6
CONTINUOUS
  62
7
  10
 542.84856321839
  20
 1385.3299124247
  30
0.0
  11
 542.84856321839
  21
 1340.3299124247
  31
0.0
   0
LINE
   5
398
 100
AcDbEntity
   8
LEVEL002
 370
20
 100
AcDbLine
   6
CONTINUOUS
  62
7
  10
 542.84856321839
  20
 1342.3299124247
  30
0.0
  11
 874.84856321839
  21
 1342.3299124247
  31
0.0
   0
LINE
   5
399
 100
AcDbEntity
   8
LEVEL002
 370
20
 100
AcDbLine
   6
CONTINUOUS
  62
7
  10
 833.34856321839
  20
 1385.3299124247
  30
0.0
  11
 833.34856321839
  21
 1545.3299124247
  31
0.0
   0
LINE
   5
39A
 100
AcDbEntity
   8
LEVEL002
 370
20
 100
AcDbLine
   6
CONTINUOUS
  62
7
  10
 533.34856321839
  20
 1545.3299124247
  30
0.0
  11
 533.34856321839
  21
 1385.3299124247
  31
0.0
   0
LINE
   5
39B
 100
AcDbEntity
   8
LEVEL002
 370
20
 100
AcDbLine
   6
CONTINUOUS
  62
7
  10
 533.34856321839
  20
 1385.3299124247
  30
0.0
  11
 833.34856321839
  21
 1385.3299124247
  31
0.0
   0
LINE
   5
39C
 100
AcDbEntity
   8
LEVEL002
 370
20
 100
AcDbLine
   6
CONTINUOUS
  62
7
  10
 533.34856321839
  20
 1529.3299124247
  30
0.0
  11
 833.34856321839
  21
 1529.3299124247
  31
0.0
   0
LINE
   5
39D
 100
AcDbEntity
   8
LEVEL002
 370
20
 100
AcDbLine
   6
CONTINUOUS
  62
7
  10
 523.64856321839
  20
 1077.1121301454
  30
0.0
  11
 536.64856321839
  21
 1077.1121301454
  31
0.0
   0
LINE
   5
39E
 100
AcDbEntity
   8
LEVEL002
 370
20
 100
AcDbLine
   6
CONTINUOUS
  62
7
  10
 536.64856321839
  20
 1077.1121301454
  30
0.0
  11
 536.64856321839
  21
 1200.8503362134
  31
0.0
   0
LINE
   5
39F
 100
AcDbEntity
   8
LEVEL002
 370
20
 100
AcDbLine
   6
CONTINUOUS
  62
7
  10
 536.64856321839
  20
 1200.8503362134
  30
0.0
  11
 523.64856321839
  21
 1200.8503362134
  31
0.0
   0
LINE
   5
3A0
 100
AcDbEntity
   8
LEVEL002
 370
20
 100
AcDbLine
   6
CONTINUOUS
  62
7
  10
 536.64856321839
  20
 1173.9812331794
  30
0.0
  11
 550.64856321839
  21
 1173.9812331794
  31
0.0
   0
LINE
   5
3A1
 100
AcDbEntity
   8
LEVEL002
 370
20
 100
AcDbLine
   6
CONTINUOUS
  62
7
  10
 550.64856321839
  20
 1173.9812331794
  30
0.0
  11
 550.64856321839
  21
 1103.9812331794
  31
0.0
   0
LINE
   5
3A2
 100
AcDbEntity
   8
LEVEL002
 370
20
 100
AcDbLine
   6
CONTINUOUS
  62
7
  10
 550.64856321839
  20
 1103.9812331794
  30
0.0
  11
 536.64856321839
  21
 1103.9812331794
  31
0.0
   0
LINE
   5
3A3
 100
AcDbEntity
   8
LEVEL002
 370
20
 100
AcDbLine
   6
CONTINUOUS
  62
7
  10
 894.04856321839
  20
 1077.1121301454
  30
0.0
  11
 881.04856321839
  21
 1077.1121301454
  31
0.0
   0
LINE
   5
3A4
 100
AcDbEntity
   8
LEVEL002
 370
20
 100
AcDbLine
   6
CONTINUOUS
  62
7
  10
 881.04856321839
  20
 1077.1121301454
  30
0.0
  11
 881.04856321839
  21
 1200.8503362134
  31
0.0
   0
LINE
   5
3A5
 100
AcDbEntity
   8
LEVEL002
 370
20
 100
AcDbLine
   6
CONTINUOUS
  62
7
  10
 881.04856321839
  20
 1200.8503362134
  30
0.0
  11
 894.04856321839
  21
 1200.8503362134
  31
0.0
   0
LINE
   5
3A6
 100
AcDbEntity
   8
LEVEL002
 370
20
 100
AcDbLine
   6
CONTINUOUS
  62
7
  10
 881.04856321839
  20
 1173.9812331794
  30
0.0
  11
 867.04856321839
  21
 1173.9812331794
  31
0.0
   0
LINE
   5
3A7
 100
AcDbEntity
   8
LEVEL002
 370
20
 100
AcDbLine
   6
CONTINUOUS
  62
7
  10
 867.04856321839
  20
 1173.9812331794
  30
0.0
  11
 867.04856321839
  21
 1103.9812331794
  31
0.0
   0
LINE
   5
3A8
 100
AcDbEntity
   8
LEVEL002
 370
20
 100
AcDbLine
   6
CONTINUOUS
  62
7
  10
 867.04856321839
  20
 1103.9812331794
  30
0.0
  11
 881.04856321839
  21
 1103.9812331794
  31
0.0
   0
LINE
   5
3A9
 100
AcDbEntity
   8
LEVEL002
 370
20
 100
AcDbLine
   6
CONTINUOUS
  62
7
  10
 600.84856321839
  20
 1286.3299124247
  30
0.0
  11
 600.84856321839
  21
 1224.3299124247
  31
0.0
   0
LINE
   5
3AA
 100
AcDbEntity
   8
LEVEL002
 370
20
 100
AcDbLine
   6
CONTINUOUS
  62
7
  10
 622.44856321839
  20
 1286.3299124247
  30
0.0
  11
 622.44856321839
  21
 1224.3299124247
  31
0.0
   0
LINE
   5
3AB
 100
AcDbEntity
   8
LEVEL002
 370
20
 100
AcDbLine
   6
CONTINUOUS
  62
7
  10
 644.04856321839
  20
 1286.3299124247
  30
0.0
  11
 644.04856321839
  21
 1224.3299124247
  31
0.0
   0
LINE
   5
3AC
 100
AcDbEntity
   8
LEVEL002
 370
20
 100
AcDbLine
   6
CONTINUOUS
  62
7
  10
 665.64856321839
  20
 1286.3299124247
  30
0.0
  11
 665.64856321839
  21
 1224.3299124247
  31
0.0
   0
LINE
   5
3AD
 100
AcDbEntity
   8
LEVEL002
 370
20
 100
AcDbLine
   6
CONTINUOUS
  62
7
  10
 687.24856321839
  20
 1286.3299124247
  30
0.0
  11
 687.24856321839
  21
 1224.3299124247
  31
0.0
   0
LINE
   5
3AE
 100
AcDbEntity
   8
LEVEL002
 370
20
 100
AcDbLine
   6
CONTINUOUS
  62
7
  10
 708.84856321839
  20
 1286.3299124247
  30
0.0
  11
 708.84856321839
  21
 1224.3299124247
  31
0.0
   0
LINE
   5
3AF
 100
AcDbEntity
   8
LEVEL002
 370
20
 100
AcDbLine
   6
CONTINUOUS
  62
7
  10
 730.44856321839
  20
 1286.3299124247
  30
0.0
  11
 730.44856321839
  21
 1224.3299124247
  31
0.0
   0
LINE
   5
3B0
 100
AcDbEntity
   8
LEVEL002
 370
20
 100
AcDbLine
   6
CONTINUOUS
  62
7
  10
 752.04856321839
  20
 1286.3299124247
  30
0.0
  11
 752.04856321839
  21
 1224.3299124247
  31
0.0
   0
LINE
   5
3B1
 100
AcDbEntity
   8
LEVEL002
 370
20
 100
AcDbLine
   6
CONTINUOUS
  62
7
  10
 773.64856321839
  20
 1286.3299124247
  30
0.0
  11
 773.64856321839
  21
 1224.3299124247
  31
0.0
   0
LINE
   5
3B2
 100
AcDbEntity
   8
LEVEL002
 370
20
 100
AcDbLine
   6
CONTINUOUS
  62
7
  10
 795.24856321839
  20
 1286.3299124247
  30
0.0
  11
 795.24856321839
  21
 1224.3299124247
  31
0.0
   0
LINE
   5
3B3
 100
AcDbEntity
   8
LEVEL002
 370
20
 100
AcDbLine
   6
CONTINUOUS
  62
7
  10
 816.84856321839
  20
 1286.3299124247
  30
0.0
  11
 816.84856321839
  21
 1224.3299124247
  31
0.0
   0
LINE
   5
3B4
 100
AcDbEntity
   8
LEVEL002
 370
20
 100
AcDbLine
   6
CONTINUOUS
  62
7
  10
 573.84856321839
  20
 1270.3299124247
  30
0.0
  11
 573.84856321839
  21
 1240.3299124247
  31
0.0
   0
LINE
   5
3B5
 100
AcDbEntity
   8
LEVEL002
 370
20
 100
AcDbLine
   6
CONTINUOUS
  62
7
  10
 578.17869023732
  20
 1237.8299124247
  30
0.0
  11
 578.17869023732
  21
 1272.8299124247
  31
0.0
   0
LINE
   5
3B6
 100
AcDbEntity
   8
LEVEL002
 370
20
 100
AcDbLine
   6
CONTINUOUS
  62
7
  10
 839.51843619938
  20
 1237.8299124247
  30
0.0
  11
 839.51843619938
  21
 1272.8299124247
  31
0.0
   0
LINE
   5
3B7
 100
AcDbEntity
   8
LEVEL002
 370
20
 100
AcDbLine
   6
CONTINUOUS
  62
7
  10
 843.84856321839
  20
 1270.3299124247
  30
0.0
  11
 843.84856321839
  21
 1240.3299124247
  31
0.0
   0
LINE
   5
3B8
 100
AcDbEntity
   8
LEVEL002
 370
20
 100
AcDbLine
   6
CONTINUOUS
  62
7
  10
 806.04856321839
  20
 1169.9812331794
  30
0.0
  11
 806.04856321839
  21
 1107.9812331794
  31
0.0
   0
LINE
   5
3B9
 100
AcDbEntity
   8
LEVEL002
 370
20
 100
AcDbLine
   6
CONTINUOUS
  62
7
  10
 784.44856321839
  20
 1169.9812331794
  30
0.0
  11
 784.44856321839
  21
 1107.9812331794
  31
0.0
   0
LINE
   5
3BA
 100
AcDbEntity
   8
LEVEL002
 370
20
 100
AcDbLine
   6
CONTINUOUS
  62
7
  10
 762.84856321839
  20
 1169.9812331794
  30
0.0
  11
 762.84856321839
  21
 1107.9812331794
  31
0.0
   0
LINE
   5
3BB
 100
AcDbEntity
   8
LEVEL002
 370
20
 100
AcDbLine
   6
CONTINUOUS
  62
7
  10
 741.24856321839
  20
 1169.9812331794
  30
0.0
  11
 741.24856321839
  21
 1107.9812331794
  31
0.0
   0
LINE
   5
3BC
 100
AcDbEntity
   8
LEVEL002
 370
20
 100
AcDbLine
   6
CONTINUOUS
  62
7
  10
 719.64856321839
  20
 1169.9812331794
  30
0.0
  11
 719.64856321839
  21
 1107.9812331794
  31
0.0
   0
LINE
   5
3BD
 100
AcDbEntity
   8
LEVEL002
 370
20
 100
AcDbLine
   6
CONTINUOUS
  62
7
  10
 698.04856321839
  20
 1169.9812331794
  30
0.0
  11
 698.04856321839
  21
 1107.9812331794
  31
0.0
   0
LINE
   5
3BE
 100
AcDbEntity
   8
LEVEL002
 370
20
 100
AcDbLine
   6
CONTINUOUS
  62
7
  10
 676.44856321839
  20
 1169.9812331794
  30
0.0
  11
 676.44856321839
  21
 1107.9812331794
  31
0.0
   0
LINE
   5
3BF
 100
AcDbEntity
   8
LEVEL002
 370
20
 100
AcDbLine
   6
CONTINUOUS
  62
7
  10
 654.84856321839
  20
 1169.9812331794
  30
0.0
  11
 654.84856321839
  21
 1107.9812331794
  31
0.0
   0
LINE
   5
3C0
 100
AcDbEntity
   8
LEVEL002
 370
20
 100
AcDbLine
   6
CONTINUOUS
  62
7
  10
 633.24856321839
  20
 1169.9812331794
  30
0.0
  11
 633.24856321839
  21
 1107.9812331794
  31
0.0
   0
LINE
   5
3C1
 100
AcDbEntity
   8
LEVEL002
 370
20
 100
AcDbLine
   6
CONTINUOUS
  62
7
  10
 611.64856321839
  20
 1169.9812331794
  30
0.0
  11
 611.64856321839
  21
 1107.9812331794
  31
0.0
   0
LINE
   5
3C2
 100
AcDbEntity
   8
LEVEL002
 370
20
 100
AcDbLine
   6
CONTINUOUS
  62
7
  10
 828.84856321839
  20
 1138.9812331794
  30
0.0
  11
 828.84856321839
  21
 1204.9812331794
  31
0.0
   0
LINE
   5
3C3
 100
AcDbEntity
   8
LEVEL002
 370
20
 100
AcDbLine
   6
CONTINUOUS
  62
7
  10
 828.84856321839
  20
 1204.9812331794
  30
0.0
  11
 816.84856321839
  21
 1208.9812331794
  31
0.0
   0
LINE
   5
3C4
 100
AcDbEntity
   8
LEVEL002
 370
20
 100
AcDbLine
   6
CONTINUOUS
  62
7
  10
 816.84856321839
  20
 1208.9812331794
  30
0.0
  11
 806.04856321839
  21
 1204.9812331794
  31
0.0
   0
LINE
   5
3C5
 100
AcDbEntity
   8
LEVEL002
 370
20
 100
AcDbLine
   6
CONTINUOUS
  62
7
  10
 806.04856321839
  20
 1204.9812331794
  30
0.0
  11
 795.24856321839
  21
 1208.9812331794
  31
0.0
   0
LINE
   5
3C6
 100
AcDbEntity
   8
LEVEL002
 370
20
 100
AcDbLine
   6
CONTINUOUS
  62
7
  10
 795.24856321839
  20
 1208.9812331794
  30
0.0
  11
 784.44856321839
  21
 1204.9812331794
  31
0.0
   0
LINE
   5
3C7
 100
AcDbEntity
   8
LEVEL002
 370
20
 100
AcDbLine
   6
CONTINUOUS
  62
7
  10
 784.44856321839
  20
 1204.9812331794
  30
0.0
  11
 773.64856321839
  21
 1208.9812331794
  31
0.0
   0
LINE
   5
3C8
 100
AcDbEntity
   8
LEVEL002
 370
20
 100
AcDbLine
   6
CONTINUOUS
  62
7
  10
 773.64856321839
  20
 1208.9812331794
  30
0.0
  11
 762.84856321839
  21
 1204.9812331794
  31
0.0
   0
LINE
   5
3C9
 100
AcDbEntity
   8
LEVEL002
 370
20
 100
AcDbLine
   6
CONTINUOUS
  62
7
  10
 762.84856321839
  20
 1204.9812331794
  30
0.0
  11
 752.04856321839
  21
 1208.9812331794
  31
0.0
   0
LINE
   5
3CA
 100
AcDbEntity
   8
LEVEL002
 370
20
 100
AcDbLine
   6
CONTINUOUS
  62
7
  10
 752.04856321839
  20
 1208.9812331794
  30
0.0
  11
 741.24856321839
  21
 1204.9812331794
  31
0.0
   0
LINE
   5
3CB
 100
AcDbEntity
   8
LEVEL002
 370
20
 100
AcDbLine
   6
CONTINUOUS
  62
7
  10
 741.24856321839
  20
 1204.9812331794
  30
0.0
  11
 730.44856321839
  21
 1208.9812331794
  31
0.0
   0
LINE
   5
3CC
 100
AcDbEntity
   8
LEVEL002
 370
20
 100
AcDbLine
   6
CONTINUOUS
  62
7
  10
 730.44856321839
  20
 1208.9812331794
  30
0.0
  11
 719.64856321839
  21
 1204.9812331794
  31
0.0
   0
LINE
   5
3CD
 100
AcDbEntity
   8
LEVEL002
 370
20
 100
AcDbLine
   6
CONTINUOUS
  62
7
  10
 719.64856321839
  20
 1204.9812331794
  30
0.0
  11
 708.84856321839
  21
 1208.9812331794
  31
0.0
   0
LINE
   5
3CE
 100
AcDbEntity
   8
LEVEL002
 370
20
 100
AcDbLine
   6
CONTINUOUS
  62
7
  10
 708.84856321839
  20
 1208.9812331794
  30
0.0
  11
 698.04856321839
  21
 1204.9812331794
  31
0.0
   0
LINE
   5
3CF
 100
AcDbEntity
   8
LEVEL002
 370
20
 100
AcDbLine
   6
CONTINUOUS
  62
7
  10
 698.04856321839
  20
 1204.9812331794
  30
0.0
  11
 687.24856321839
  21
 1208.9812331794
  31
0.0
   0
LINE
   5
3D0
 100
AcDbEntity
   8
LEVEL002
 370
20
 100
AcDbLine
   6
CONTINUOUS
  62
7
  10
 687.24856321839
  20
 1208.9812331794
  30
0.0
  11
 676.44856321839
  21
 1204.9812331794
  31
0.0
   0
LINE
   5
3D1
 100
AcDbEntity
   8
LEVEL002
 370
20
 100
AcDbLine
   6
CONTINUOUS
  62
7
  10
 676.44856321839
  20
 1204.9812331794
  30
0.0
  11
 665.64856321839
  21
 1208.9812331794
  31
0.0
   0
LINE
   5
3D2
 100
AcDbEntity
   8
LEVEL002
 370
20
 100
AcDbLine
   6
CONTINUOUS
  62
7
  10
 665.64856321839
  20
 1208.9812331794
  30
0.0
  11
 654.84856321839
  21
 1204.9812331794
  31
0.0
   0
LINE
   5
3D3
 100
AcDbEntity
   8
LEVEL002
 370
20
 100
AcDbLine
   6
CONTINUOUS
  62
7
  10
 654.84856321839
  20
 1204.9812331794
  30
0.0
  11
 644.04856321839
  21
 1208.9812331794
  31
0.0
   0
LINE
   5
3D4
 100
AcDbEntity
   8
LEVEL002
 370
20
 100
AcDbLine
   6
CONTINUOUS
  62
7
  10
 644.04856321839
  20
 1208.9812331794
  30
0.0
  11
 633.24856321839
  21
 1204.9812331794
  31
0.0
   0
LINE
   5
3D5
 100
AcDbEntity
   8
LEVEL002
 370
20
 100
AcDbLine
   6
CONTINUOUS
  62
7
  10
 633.24856321839
  20
 1204.9812331794
  30
0.0
  11
 622.44856321839
  21
 1208.9812331794
  31
0.0
   0
LINE
   5
3D6
 100
AcDbEntity
   8
LEVEL002
 370
20
 100
AcDbLine
   6
CONTINUOUS
  62
7
  10
 622.44856321839
  20
 1208.9812331794
  30
0.0
  11
 611.64856321839
  21
 1204.9812331794
  31
0.0
   0
LINE
   5
3D7
 100
AcDbEntity
   8
LEVEL002
 370
20
 100
AcDbLine
   6
CONTINUOUS
  62
7
  10
 611.64856321839
  20
 1204.9812331794
  30
0.0
  11
 600.84856321839
  21
 1208.9812331794
  31
0.0
   0
LINE
   5
3D8
 100
AcDbEntity
   8
LEVEL002
 370
20
 100
AcDbLine
   6
CONTINUOUS
  62
7
  10
 600.84856321839
  20
 1208.9812331794
  30
0.0
  11
 588.84856321839
  21
 1204.9812331794
  31
0.0
   0
LINE
   5
3D9
 100
AcDbEntity
   8
LEVEL002
 370
20
 100
AcDbLine
   6
CONTINUOUS
  62
7
  10
 588.84856321839
  20
 1204.9812331794
  30
0.0
  11
 588.84856321839
  21
 1138.9812331794
  31
0.0
   0
LINE
   5
3DA
 100
AcDbEntity
   8
LEVEL002
 370
20
 100
AcDbLine
   6
CONTINUOUS
  62
7
  10
 851.51843619935
  20
 1153.9812331794
  30
0.0
  11
 851.51843619935
  21
 1123.9812331794
  31
0.0
   0
LINE
   5
3DB
 100
AcDbEntity
   8
LEVEL002
 370
20
 100
AcDbLine
   6
CONTINUOUS
  62
7
  10
 855.84856321839
  20
 1151.4812331794
  30
0.0
  11
 855.84856321839
  21
 1126.4812331794
  31
0.0
   0
LINE
   5
3DC
 100
AcDbEntity
   8
LEVEL002
 370
20
 100
AcDbLine
   6
CONTINUOUS
  62
7
  10
 566.17869023743
  20
 1153.9812331794
  30
0.0
  11
 566.17869023743
  21
 1123.9812331794
  31
0.0
   0
LINE
   5
3DD
 100
AcDbEntity
   8
LEVEL002
 370
20
 100
AcDbLine
   6
CONTINUOUS
  62
7
  10
 561.84856321839
  20
 1151.4812331794
  30
0.0
  11
 561.84856321839
  21
 1126.4812331794
  31
0.0
   0
LINE
   5
3DE
 100
AcDbEntity
   8
LEVEL002
 370
20
 100
AcDbLine
   6
CONTINUOUS
  62
7
  10
 588.84856321839
  20
 1272.8299124247
  30
0.0
  11
 578.17869023732
  21
 1272.8299124247
  31
0.0
   0
LINE
   5
3DF
 100
AcDbEntity
   8
LEVEL002
 370
20
 100
AcDbLine
   6
CONTINUOUS
  62
7
  10
 578.17869023732
  20
 1272.8299124247
  30
0.0
  11
 573.84856321839
  21
 1270.3299124247
  31
0.0
   0
LINE
   5
3E0
 100
AcDbEntity
   8
LEVEL002
 370
20
 100
AcDbLine
   6
CONTINUOUS
  62
7
  10
 573.84856321839
  20
 1270.3299124247
  30
0.0
  11
 567.84856321839
  21
 1270.3299124247
  31
0.0
   0
LINE
   5
3E1
 100
AcDbEntity
   8
LEVEL002
 370
20
 100
AcDbLine
   6
CONTINUOUS
  62
7
  10
 567.84856321839
  20
 1240.3299124247
  30
0.0
  11
 573.84856321839
  21
 1240.3299124247
  31
0.0
   0
LINE
   5
3E2
 100
AcDbEntity
   8
LEVEL002
 370
20
 100
AcDbLine
   6
CONTINUOUS
  62
7
  10
 573.84856321839
  20
 1240.3299124247
  30
0.0
  11
 578.17869023732
  21
 1237.8299124247
  31
0.0
   0
LINE
   5
3E3
 100
AcDbEntity
   8
LEVEL002
 370
20
 100
AcDbLine
   6
CONTINUOUS
  62
7
  10
 578.17869023732
  20
 1237.8299124247
  30
0.0
  11
 588.84856321839
  21
 1237.8299124247
  31
0.0
   0
LINE
   5
3E4
 100
AcDbEntity
   8
LEVEL002
 370
20
 100
AcDbLine
   6
CONTINUOUS
  62
7
  10
 828.84856321839
  20
 1272.8299124247
  30
0.0
  11
 839.51843619938
  21
 1272.8299124247
  31
0.0
   0
LINE
   5
3E5
 100
AcDbEntity
   8
LEVEL002
 370
20
 100
AcDbLine
   6
CONTINUOUS
  62
7
  10
 839.51843619938
  20
 1272.8299124247
  30
0.0
  11
 843.84856321839
  21
 1270.3299124247
  31
0.0
   0
LINE
   5
3E6
 100
AcDbEntity
   8
LEVEL002
 370
20
 100
AcDbLine
   6
CONTINUOUS
  62
7
  10
 843.84856321839
  20
 1270.3299124247
  30
0.0
  11
 849.84856321839
  21
 1270.3299124247
  31
0.0
   0
LINE
   5
3E7
 100
AcDbEntity
   8
LEVEL002
 370
20
 100
AcDbLine
   6
CONTINUOUS
  62
7
  10
 849.84856321839
  20
 1240.3299124247
  30
0.0
  11
 843.84856321839
  21
 1240.3299124247
  31
0.0
   0
LINE
   5
3E8
 100
AcDbEntity
   8
LEVEL002
 370
20
 100
AcDbLine
   6
CONTINUOUS
  62
7
  10
 843.84856321839
  20
 1240.3299124247
  30
0.0
  11
 839.51843619938
  21
 1237.8299124247
  31
0.0
   0
LINE
   5
3E9
 100
AcDbEntity
   8
LEVEL002
 370
20
 100
AcDbLine
   6
CONTINUOUS
  62
7
  10
 839.51843619938
  20
 1237.8299124247
  30
0.0
  11
 828.84856321839
  21
 1237.8299124247
  31
0.0
   0
LINE
   5
3EA
 100
AcDbEntity
   8
LEVEL002
 370
20
 100
AcDbLine
   6
CONTINUOUS
  62
7
  10
 828.84856321839
  20
 1153.9812331794
  30
0.0
  11
 851.51843619935
  21
 1153.9812331794
  31
0.0
   0
LINE
   5
3EB
 100
AcDbEntity
   8
LEVEL002
 370
20
 100
AcDbLine
   6
CONTINUOUS
  62
7
  10
 851.51843619935
  20
 1153.9812331794
  30
0.0
  11
 855.84856321839
  21
 1151.4812331794
  31
0.0
   0
LINE
   5
3EC
 100
AcDbEntity
   8
LEVEL002
 370
20
 100
AcDbLine
   6
CONTINUOUS
  62
7
  10
 855.84856321839
  20
 1151.4812331794
  30
0.0
  11
 867.04856321839
  21
 1151.4812331794
  31
0.0
   0
LINE
   5
3ED
 100
AcDbEntity
   8
LEVEL002
 370
20
 100
AcDbLine
   6
CONTINUOUS
  62
7
  10
 867.04856321839
  20
 1126.4812331794
  30
0.0
  11
 855.84856321839
  21
 1126.4812331794
  31
0.0
   0
LINE
   5
3EE
 100
AcDbEntity
   8
LEVEL002
 370
20
 100
AcDbLine
   6
CONTINUOUS
  62
7
  10
 855.84856321839
  20
 1126.4812331794
  30
0.0
  11
 851.51843619935
  21
 1123.9812331794
  31
0.0
   0
LINE
   5
3EF
 100
AcDbEntity
   8
LEVEL002
 370
20
 100
AcDbLine
   6
CONTINUOUS
  62
7
  10
 851.51843619935
  20
 1123.9812331794
  30
0.0
  11
 828.84856321839
  21
 1123.9812331794
  31
0.0
   0
LINE
   5
3F0
 100
AcDbEntity
   8
LEVEL002
 370
20
 100
AcDbLine
   6
CONTINUOUS
  62
7
  10
 588.84856321839
  20
 1153.9812331794
  30
0.0
  11
 566.17869023743
  21
 1153.9812331794
  31
0.0
   0
LINE
   5
3F1
 100
AcDbEntity
   8
LEVEL002
 370
20
 100
AcDbLine
   6
CONTINUOUS
  62
7
  10
 566.17869023743
  20
 1153.9812331794
  30
0.0
  11
 561.84856321839
  21
 1151.4812331794
  31
0.0
   0
LINE
   5
3F2
 100
AcDbEntity
   8
LEVEL002
 370
20
 100
AcDbLine
   6
CONTINUOUS
  62
7
  10
 561.84856321839
  20
 1151.4812331794
  30
0.0
  11
 550.64856321839
  21
 1151.4812331794
  31
0.0
   0
LINE
   5
3F3
 100
AcDbEntity
   8
LEVEL002
 370
20
 100
AcDbLine
   6
CONTINUOUS
  62
7
  10
 550.64856321839
  20
 1126.4812331794
  30
0.0
  11
 561.84856321839
  21
 1126.4812331794
  31
0.0
   0
LINE
   5
3F4
 100
AcDbEntity
   8
LEVEL002
 370
20
 100
AcDbLine
   6
CONTINUOUS
  62
7
  10
 561.84856321839
  20
 1126.4812331794
  30
0.0
  11
 566.17869023743
  21
 1123.9812331794
  31
0.0
   0
LINE
   5
3F5
 100
AcDbEntity
   8
LEVEL002
 370
20
 100
AcDbLine
   6
CONTINUOUS
  62
7
  10
 566.17869023743
  20
 1123.9812331794
  30
0.0
  11
 588.84856321839
  21
 1123.9812331794
  31
0.0
   0
LINE
   5
3F6
 100
AcDbEntity
   8
LEVEL002
 370
20
 100
AcDbLine
   6
CONTINUOUS
  62
7
  10
 567.14856321839
  20
 1028.3299124247
  30
0.0
  11
 581.34856321839
  21
 1028.3299124247
  31
0.0
   0
LINE
   5
3F7
 100
AcDbEntity
   8
LEVEL002
 370
20
 100
AcDbLine
   6
CONTINUOUS
  62
7
  10
 850.54856321839
  20
 1028.3299124247
  30
0.0
  11
 836.34856321839
  21
 1028.3299124247
  31
0.0
   0
LINE
   5
3F8
 100
AcDbEntity
   8
LEVEL002
 370
20
 100
AcDbLine
   6
CONTINUOUS
  62
7
  10
 533.34856321839
  20
 1512.3299124247
  30
0.0
  11
 527.84856321839
  21
 1512.3299124247
  31
0.0
   0
LINE
   5
3F9
 100
AcDbEntity
   8
LEVEL002
 370
20
 100
AcDbLine
   6
CONTINUOUS
  62
7
  10
 527.84856321839
  20
 1512.3299124247
  30
0.0
  11
 527.84856321839
  21
 1379.2299124247
  31
0.0
   0
LINE
   5
3FA
 100
AcDbEntity
   8
LEVEL002
 370
20
 100
AcDbLine
   6
CONTINUOUS
  62
7
  10
 527.84856321839
  20
 1379.2299124247
  30
0.0
  11
 542.84856321839
  21
 1379.2299124247
  31
0.0
   0
LINE
   5
3FB
 100
AcDbEntity
   8
LEVEL002
 370
20
 100
AcDbLine
   6
CONTINUOUS
  62
7
  10
 842.84856321839
  20
 1385.3299124247
  30
0.0
  11
 842.84856321839
  21
 1509.3299124247
  31
0.0
   0
LINE
   5
3FC
 100
AcDbEntity
   8
LEVEL002
 370
20
 100
AcDbLine
   6
CONTINUOUS
  62
7
  10
 842.84856321839
  20
 1509.3299124247
  30
0.0
  11
 833.34856321839
  21
 1509.3299124247
  31
0.0
   0
LINE
   5
3FD
 100
AcDbEntity
   8
LEVEL002
 370
20
 100
AcDbLine
   6
CONTINUOUS
  62
7
  10
 542.84856321839
  20
 1299.3299124247
  30
0.0
  11
 542.84856321839
  21
 1173.9812331794
  31
0.0
   0
LINE
   5
3FE
 100
AcDbEntity
   8
LEVEL002
 370
20
 100
AcDbLine
   6
CONTINUOUS
  62
7
  10
 542.84856321839
  20
 1103.9812331794
  30
0.0
  11
 542.84856321839
  21
 1079.3299124247
  31
0.0
   0
LINE
   5
3FF
 100
AcDbEntity
   8
LEVEL002
 370
20
 100
AcDbLine
   6
CONTINUOUS
  62
7
  10
 874.84856321839
  20
 1299.3299124247
  30
0.0
  11
 874.84856321839
  21
 1173.9812331794
  31
0.0
   0
LINE
   5
400
 100
AcDbEntity
   8
LEVEL002
 370
20
 100
AcDbLine
   6
CONTINUOUS
  62
7
  10
 874.84856321839
  20
 1103.9812331794
  30
0.0
  11
 874.84856321839
  21
 1079.3299124247
  31
0.0
   0
LINE
   5
401
 100
AcDbEntity
   8
LEVEL002
 370
20
 100
AcDbLine
   6
CONTINUOUS
  62
7
  10
 536.64856321839
  20
 1070.4916781863
  30
0.0
  11
 881.04856321839
  21
 1070.4916781863
  31
0.0
   0
LINE
   5
402
 100
AcDbEntity
   8
LEVEL002
 370
20
 100
AcDbLine
   6
CONTINUOUS
  62
7
  10
 881.04856321839
  20
 1054.4916781864
  30
0.0
  11
 536.64856321839
  21
 1054.4916781864
  31
0.0
   0
LINE
   5
403
 100
AcDbEntity
   8
LEVEL002
 370
20
 100
AcDbLine
   6
CONTINUOUS
  62
7
  10
 828.84856321839
  20
 1138.9812331794
  30
0.0
  11
 828.84856321839
  21
 1072.9812331794
  31
0.0
   0
LINE
   5
404
 100
AcDbEntity
   8
LEVEL002
 370
20
 100
AcDbLine
   6
CONTINUOUS
  62
7
  10
 828.84856321839
  20
 1072.9812331794
  30
0.0
  11
 821.37989823907
  21
 1070.4916781863
  31
0.0
   0
LINE
   5
405
 100
AcDbEntity
   8
LEVEL002
 370
20
 100
AcDbLine
   6
CONTINUOUS
  62
7
  10
 812.77036169977
  20
 1070.4916781863
  30
0.0
  11
 806.04856321839
  21
 1072.9812331794
  31
0.0
   0
LINE
   5
406
 100
AcDbEntity
   8
LEVEL002
 370
20
 100
AcDbLine
   6
CONTINUOUS
  62
7
  10
 806.04856321839
  20
 1072.9812331794
  30
0.0
  11
 799.32676473701
  21
 1070.4916781863
  31
0.0
   0
LINE
   5
407
 100
AcDbEntity
   8
LEVEL002
 370
20
 100
AcDbLine
   6
CONTINUOUS
  62
7
  10
 791.17036169977
  20
 1070.4916781863
  30
0.0
  11
 784.44856321839
  21
 1072.9812331794
  31
0.0
   0
LINE
   5
408
 100
AcDbEntity
   8
LEVEL002
 370
20
 100
AcDbLine
   6
CONTINUOUS
  62
7
  10
 784.44856321839
  20
 1072.9812331794
  30
0.0
  11
 777.72676473701
  21
 1070.4916781863
  31
0.0
   0
LINE
   5
409
 100
AcDbEntity
   8
LEVEL002
 370
20
 100
AcDbLine
   6
CONTINUOUS
  62
7
  10
 769.57036169977
  20
 1070.4916781863
  30
0.0
  11
 762.84856321839
  21
 1072.9812331794
  31
0.0
   0
LINE
   5
40A
 100
AcDbEntity
   8
LEVEL002
 370
20
 100
AcDbLine
   6
CONTINUOUS
  62
7
  10
 762.84856321839
  20
 1072.9812331794
  30
0.0
  11
 756.12676473701
  21
 1070.4916781863
  31
0.0
   0
LINE
   5
40B
 100
AcDbEntity
   8
LEVEL002
 370
20
 100
AcDbLine
   6
CONTINUOUS
  62
7
  10
 747.97036169977
  20
 1070.4916781863
  30
0.0
  11
 741.24856321839
  21
 1072.9812331794
  31
0.0
   0
LINE
   5
40C
 100
AcDbEntity
   8
LEVEL002
 370
20
 100
AcDbLine
   6
CONTINUOUS
  62
7
  10
 741.24856321839
  20
 1072.9812331794
  30
0.0
  11
 734.52676473701
  21
 1070.4916781863
  31
0.0
   0
LINE
   5
40D
 100
AcDbEntity
   8
LEVEL002
 370
20
 100
AcDbLine
   6
CONTINUOUS
  62
7
  10
 726.37036169977
  20
 1070.4916781863
  30
0.0
  11
 719.64856321839
  21
 1072.9812331794
  31
0.0
   0
LINE
   5
40E
 100
AcDbEntity
   8
LEVEL002
 370
20
 100
AcDbLine
   6
CONTINUOUS
  62
7
  10
 719.64856321839
  20
 1072.9812331794
  30
0.0
  11
 712.92676473701
  21
 1070.4916781863
  31
0.0
   0
LINE
   5
40F
 100
AcDbEntity
   8
LEVEL002
 370
20
 100
AcDbLine
   6
CONTINUOUS
  62
7
  10
 704.77036169977
  20
 1070.4916781863
  30
0.0
  11
 698.04856321839
  21
 1072.9812331794
  31
0.0
   0
LINE
   5
410
 100
AcDbEntity
   8
LEVEL002
 370
20
 100
AcDbLine
   6
CONTINUOUS
  62
7
  10
 698.04856321839
  20
 1072.9812331794
  30
0.0
  11
 691.32676473701
  21
 1070.4916781863
  31
0.0
   0
LINE
   5
411
 100
AcDbEntity
   8
LEVEL002
 370
20
 100
AcDbLine
   6
CONTINUOUS
  62
7
  10
 683.17036169977
  20
 1070.4916781863
  30
0.0
  11
 676.44856321839
  21
 1072.9812331794
  31
0.0
   0
LINE
   5
412
 100
AcDbEntity
   8
LEVEL002
 370
20
 100
AcDbLine
   6
CONTINUOUS
  62
7
  10
 676.44856321839
  20
 1072.9812331794
  30
0.0
  11
 669.72676473701
  21
 1070.4916781863
  31
0.0
   0
LINE
   5
413
 100
AcDbEntity
   8
LEVEL002
 370
20
 100
AcDbLine
   6
CONTINUOUS
  62
7
  10
 661.57036169977
  20
 1070.4916781863
  30
0.0
  11
 654.84856321839
  21
 1072.9812331794
  31
0.0
   0
LINE
   5
414
 100
AcDbEntity
   8
LEVEL002
 370
20
 100
AcDbLine
   6
CONTINUOUS
  62
7
  10
 654.84856321839
  20
 1072.9812331794
  30
0.0
  11
 648.12676473701
  21
 1070.4916781863
  31
0.0
   0
LINE
   5
415
 100
AcDbEntity
   8
LEVEL002
 370
20
 100
AcDbLine
   6
CONTINUOUS
  62
7
  10
 639.97036169977
  20
 1070.4916781863
  30
0.0
  11
 633.24856321839
  21
 1072.9812331794
  31
0.0
   0
LINE
   5
416
 100
AcDbEntity
   8
LEVEL002
 370
20
 100
AcDbLine
   6
CONTINUOUS
  62
7
  10
 633.24856321839
  20
 1072.9812331794
  30
0.0
  11
 626.52676473701
  21
 1070.4916781863
  31
0.0
   0
LINE
   5
417
 100
AcDbEntity
   8
LEVEL002
 370
20
 100
AcDbLine
   6
CONTINUOUS
  62
7
  10
 618.37036169977
  20
 1070.4916781863
  30
0.0
  11
 611.64856321839
  21
 1072.9812331794
  31
0.0
   0
LINE
   5
418
 100
AcDbEntity
   8
LEVEL002
 370
20
 100
AcDbLine
   6
CONTINUOUS
  62
7
  10
 611.64856321839
  20
 1072.9812331794
  30
0.0
  11
 604.92676473701
  21
 1070.4916781863
  31
0.0
   0
LINE
   5
419
 100
AcDbEntity
   8
LEVEL002
 370
20
 100
AcDbLine
   6
CONTINUOUS
  62
7
  10
 596.31722819771
  20
 1070.4916781863
  30
0.0
  11
 588.84856321839
  21
 1072.9812331794
  31
0.0
   0
LINE
   5
41A
 100
AcDbEntity
   8
LEVEL002
 370
20
 100
AcDbLine
   6
CONTINUOUS
  62
7
  10
 588.84856321839
  20
 1072.9812331794
  30
0.0
  11
 588.84856321839
  21
 1138.9812331794
  31
0.0
   0
LINE
   5
41B
 100
AcDbEntity
   8
LEVEL002
 370
20
 100
AcDbLine
   6
CONTINUOUS
  62
7
  10
 567.84856321839
  20
 1123.9812331794
  30
0.0
  11
 567.84856321839
  21
 1070.4916781863
  31
0.0
   0
LINE
   5
41C
 100
AcDbEntity
   8
LEVEL002
 370
20
 100
AcDbLine
   6
CONTINUOUS
  62
7
  10
 567.84856321839
  20
 1054.4916781864
  30
0.0
  11
 567.84856321839
  21
 930.32991242474
  31
0.0
   0
LINE
   5
41D
 100
AcDbEntity
   8
LEVEL002
 370
20
 100
AcDbLine
   6
CONTINUOUS
  62
7
  10
 567.84856321839
  20
 930.32991242474
  30
0.0
  11
 567.14856321839
  21
 930.32991242474
  31
0.0
   0
LINE
   5
41E
 100
AcDbEntity
   8
LEVEL002
 370
20
 100
AcDbLine
   6
CONTINUOUS
  62
7
  10
 849.84856321839
  20
 1123.9812331794
  30
0.0
  11
 849.84856321839
  21
 1070.4916781863
  31
0.0
   0
LINE
   5
41F
 100
AcDbEntity
   8
LEVEL002
 370
20
 100
AcDbLine
   6
CONTINUOUS
  62
7
  10
 849.84856321839
  20
 1054.4916781864
  30
0.0
  11
 849.84856321839
  21
 930.32991242474
  31
0.0
   0
LINE
   5
420
 100
AcDbEntity
   8
LEVEL002
 370
20
 100
AcDbLine
   6
CONTINUOUS
  62
7
  10
 849.84856321839
  20
 930.32991242474
  30
0.0
  11
 850.54856321839
  21
 930.32991242474
  31
0.0
   0
LINE
   5
421
 100
AcDbEntity
   8
LEVEL002
 370
20
 100
AcDbLine
   6
CONTINUOUS
  62
7
  10
 600.84856321839
  20
 1054.4916781864
  30
0.0
  11
 600.84856321839
  21
 1044.8603293288
  31
0.0
   0
LINE
   5
422
 100
AcDbEntity
   8
LEVEL002
 370
20
 100
AcDbLine
   6
CONTINUOUS
  62
7
  10
 622.44856321839
  20
 1054.4916781864
  30
0.0
  11
 622.44856321839
  21
 1044.8603293288
  31
0.0
   0
LINE
   5
423
 100
AcDbEntity
   8
LEVEL002
 370
20
 100
AcDbLine
   6
CONTINUOUS
  62
7
  10
 644.04856321839
  20
 1054.4916781864
  30
0.0
  11
 644.04856321839
  21
 1044.8603293288
  31
0.0
   0
LINE
   5
424
 100
AcDbEntity
   8
LEVEL002
 370
20
 100
AcDbLine
   6
CONTINUOUS
  62
7
  10
 665.64856321839
  20
 1054.4916781864
  30
0.0
  11
 665.64856321839
  21
 1044.8603293288
  31
0.0
   0
LINE
   5
425
 100
AcDbEntity
   8
LEVEL002
 370
20
 100
AcDbLine
   6
CONTINUOUS
  62
7
  10
 687.24856321839
  20
 1054.4916781864
  30
0.0
  11
 687.24856321839
  21
 1044.8603293288
  31
0.0
   0
LINE
   5
426
 100
AcDbEntity
   8
LEVEL002
 370
20
 100
AcDbLine
   6
CONTINUOUS
  62
7
  10
 708.84856321839
  20
 1054.4916781864
  30
0.0
  11
 708.84856321839
  21
 1044.8603293288
  31
0.0
   0
LINE
   5
427
 100
AcDbEntity
   8
LEVEL002
 370
20
 100
AcDbLine
   6
CONTINUOUS
  62
7
  10
 730.44856321839
  20
 1054.4916781864
  30
0.0
  11
 730.44856321839
  21
 1044.8603293288
  31
0.0
   0
LINE
   5
428
 100
AcDbEntity
   8
LEVEL002
 370
20
 100
AcDbLine
   6
CONTINUOUS
  62
7
  10
 752.04856321839
  20
 1054.4916781864
  30
0.0
  11
 752.04856321839
  21
 1044.8603293288
  31
0.0
   0
LINE
   5
429
 100
AcDbEntity
   8
LEVEL002
 370
20
 100
AcDbLine
   6
CONTINUOUS
  62
7
  10
 773.64856321839
  20
 1054.4916781864
  30
0.0
  11
 773.64856321839
  21
 1044.8603293288
  31
0.0
   0
LINE
   5
42A
 100
AcDbEntity
   8
LEVEL002
 370
20
 100
AcDbLine
   6
CONTINUOUS
  62
7
  10
 795.24856321839
  20
 1054.4916781864
  30
0.0
  11
 795.24856321839
  21
 1044.8603293288
  31
0.0
   0
LINE
   5
42B
 100
AcDbEntity
   8
LEVEL002
 370
20
 100
AcDbLine
   6
CONTINUOUS
  62
7
  10
 816.84856321839
  20
 1054.4916781864
  30
0.0
  11
 816.84856321839
  21
 1044.8603293288
  31
0.0
   0
LINE
   5
42C
 100
AcDbEntity
   8
LEVEL002
 370
20
 100
AcDbLine
   6
CONTINUOUS
  62
7
  10
 581.34856321839
  20
 1123.9812331794
  30
0.0
  11
 581.34856321839
  21
 1070.4916781863
  31
0.0
   0
LINE
   5
42D
 100
AcDbEntity
   8
LEVEL002
 370
20
 100
AcDbLine
   6
CONTINUOUS
  62
7
  10
 581.34856321839
  20
 1054.4916781864
  30
0.0
  11
 581.34856321839
  21
 961.33323475188
  31
0.0
   0
LINE
   5
42E
 100
AcDbEntity
   8
LEVEL002
 370
20
 100
AcDbLine
   6
CONTINUOUS
  62
7
  10
 587.84856321839
  20
 961.33323475188
  30
0.0
  11
 587.84856321839
  21
 973.32991242474
  31
0.0
   0
LINE
   5
42F
 100
AcDbEntity
   8
LEVEL002
 370
20
 100
AcDbLine
   6
CONTINUOUS
  62
7
  10
 587.84856321839
  20
 973.32991242474
  30
0.0
  11
 588.84856321839
  21
 973.32991242474
  31
0.0
   0
LINE
   5
430
 100
AcDbEntity
   8
LEVEL002
 370
20
 100
AcDbLine
   6
CONTINUOUS
  62
7
  10
 588.84856321839
  20
 973.32991242474
  30
0.0
  11
 588.84856321839
  21
 1054.4916781864
  31
0.0
   0
LINE
   5
431
 100
AcDbEntity
   8
LEVEL002
 370
20
 100
AcDbLine
   6
CONTINUOUS
  62
7
  10
 588.84856321839
  20
 1070.4916781863
  30
0.0
  11
 588.84856321839
  21
 1113.3299124247
  31
0.0
   0
LINE
   5
432
 100
AcDbEntity
   8
LEVEL002
 370
20
 100
AcDbLine
   6
CONTINUOUS
  62
7
  10
 588.84856321839
  20
 1113.3299124247
  30
0.0
  11
 587.84856321839
  21
 1113.3299124247
  31
0.0
   0
LINE
   5
433
 100
AcDbEntity
   8
LEVEL002
 370
20
 100
AcDbLine
   6
CONTINUOUS
  62
7
  10
 587.84856321839
  20
 1113.3299124247
  30
0.0
  11
 587.84856321839
  21
 1123.9812331794
  31
0.0
   0
LINE
   5
434
 100
AcDbEntity
   8
LEVEL002
 370
20
 100
AcDbLine
   6
CONTINUOUS
  62
7
  10
 836.34856321839
  20
 1123.9812331794
  30
0.0
  11
 836.34856321839
  21
 1070.4916781863
  31
0.0
   0
LINE
   5
435
 100
AcDbEntity
   8
LEVEL002
 370
20
 100
AcDbLine
   6
CONTINUOUS
  62
7
  10
 836.34856321839
  20
 1054.4916781864
  30
0.0
  11
 836.34856321839
  21
 961.33323475188
  31
0.0
   0
LINE
   5
436
 100
AcDbEntity
   8
LEVEL002
 370
20
 100
AcDbLine
   6
CONTINUOUS
  62
7
  10
 829.84856321839
  20
 961.33323475188
  30
0.0
  11
 829.84856321839
  21
 973.32991242474
  31
0.0
   0
LINE
   5
437
 100
AcDbEntity
   8
LEVEL002
 370
20
 100
AcDbLine
   6
CONTINUOUS
  62
7
  10
 829.84856321839
  20
 973.32991242474
  30
0.0
  11
 828.84856321839
  21
 973.32991242474
  31
0.0
   0
LINE
   5
438
 100
AcDbEntity
   8
LEVEL002
 370
20
 100
AcDbLine
   6
CONTINUOUS
  62
7
  10
 828.84856321839
  20
 973.32991242474
  30
0.0
  11
 828.84856321839
  21
 1054.4916781864
  31
0.0
   0
LINE
   5
439
 100
AcDbEntity
   8
LEVEL002
 370
20
 100
AcDbLine
   6
CONTINUOUS
  62
7
  10
 828.84856321839
  20
 1070.4916781863
  30
0.0
  11
 828.84856321839
  21
 1113.3299124247
  31
0.0
   0
LINE
   5
43A
 100
AcDbEntity
   8
LEVEL002
 370
20
 100
AcDbLine
   6
CONTINUOUS
  62
7
  10
 828.84856321839
  20
 1113.3299124247
  30
0.0
  11
 829.84856321839
  21
 1113.3299124247
  31
0.0
   0
LINE
   5
43B
 100
AcDbEntity
   8
LEVEL002
 370
20
 100
AcDbLine
   6
CONTINUOUS
  62
7
  10
 829.84856321839
  20
 1113.3299124247
  30
0.0
  11
 829.84856321839
  21
 1123.9812331794
  31
0.0
   0
LINE
   5
43C
 100
AcDbEntity
   8
LEVEL002
 370
20
 100
AcDbLine
   6
CONTINUOUS
  62
7
  10
 931.04856321839
  20
 1079.3299124247
  30
0.0
  11
 906.04856321839
  21
 1079.3299124247
  31
0.0
   0
LINE
   5
43D
 100
AcDbEntity
   8
LEVEL002
 370
20
 100
AcDbLine
   6
CONTINUOUS
  62
7
  10
 881.04856321839
  20
 1079.3299124247
  30
0.0
  11
 850.54856321839
  21
 1079.3299124247
  31
0.0
   0
LINE
   5
43E
 100
AcDbEntity
   8
LEVEL002
 370
20
 100
AcDbLine
   6
CONTINUOUS
  62
7
  10
 507.84856321839
  20
 1339.3299124247
  30
0.0
  11
 507.84856321839
  21
 1340.3299124247
  31
0.0
   0
LINE
   5
43F
 100
AcDbEntity
   8
LEVEL002
 370
20
 100
AcDbLine
   6
CONTINUOUS
  62
7
  10
 507.84856321839
  20
 1340.3299124247
  30
0.0
  11
 511.64856321839
  21
 1340.3299124247
  31
0.0
   0
LINE
   5
440
 100
AcDbEntity
   8
LEVEL002
 370
20
 100
AcDbLine
   6
CONTINUOUS
  62
7
  10
 523.64856321839
  20
 1340.3299124247
  30
0.0
  11
 567.84856321839
  21
 1340.3299124247
  31
0.0
   0
LINE
   5
441
 100
AcDbEntity
   8
LEVEL002
 370
20
 100
AcDbLine
   6
CONTINUOUS
  62
7
  10
 567.84856321839
  20
 1340.3299124247
  30
0.0
  11
 567.84856321839
  21
 1153.9812331794
  31
0.0
   0
LINE
   5
442
 100
AcDbEntity
   8
LEVEL002
 370
20
 100
AcDbLine
   6
CONTINUOUS
  62
7
  10
 909.84856321839
  20
 1339.3299124247
  30
0.0
  11
 909.84856321839
  21
 1340.3299124247
  31
0.0
   0
LINE
   5
443
 100
AcDbEntity
   8
LEVEL002
 370
20
 100
AcDbLine
   6
CONTINUOUS
  62
7
  10
 909.84856321839
  20
 1340.3299124247
  30
0.0
  11
 906.04856321839
  21
 1340.3299124247
  31
0.0
   0
LINE
   5
444
 100
AcDbEntity
   8
LEVEL002
 370
20
 100
AcDbLine
   6
CONTINUOUS
  62
7
  10
 894.04856321839
  20
 1340.3299124247
  30
0.0
  11
 849.84856321839
  21
 1340.3299124247
  31
0.0
   0
LINE
   5
445
 100
AcDbEntity
   8
LEVEL002
 370
20
 100
AcDbLine
   6
CONTINUOUS
  62
7
  10
 849.84856321839
  20
 1340.3299124247
  30
0.0
  11
 849.84856321839
  21
 1153.9812331794
  31
0.0
   0
LINE
   5
446
 100
AcDbEntity
   8
LEVEL002
 370
20
 100
AcDbLine
   6
CONTINUOUS
  62
7
  10
 536.64856321839
  20
 1079.3299124247
  30
0.0
  11
 567.14856321839
  21
 1079.3299124247
  31
0.0
   0
LINE
   5
447
 100
AcDbEntity
   8
LEVEL002
 370
20
 100
AcDbLine
   6
CONTINUOUS
  62
7
  10
 568.34856321839
  20
 939.32659009760
  30
0.0
  11
 568.34856321839
  21
 930.32991242474
  31
0.0
   0
LINE
   5
448
 100
AcDbEntity
   8
LEVEL002
 370
20
 100
AcDbLine
   6
CONTINUOUS
  62
7
  10
 568.34856321839
  20
 930.32991242474
  30
0.0
  11
 849.34856321839
  21
 930.32991242474
  31
0.0
   0
LINE
   5
449
 100
AcDbEntity
   8
LEVEL002
 370
20
 100
AcDbLine
   6
CONTINUOUS
  62
7
  10
 849.34856321839
  20
 930.32991242474
  30
0.0
  11
 849.34856321839
  21
 939.32659009760
  31
0.0
   0
LINE
   5
44A
 100
AcDbEntity
   8
LEVEL002
 370
20
 100
AcDbLine
   6
CONTINUOUS
  62
7
  10
 511.64856321839
  20
 1148.2512896507
  30
0.0
  11
 465.64856321839
  21
 1148.2512896507
  31
0.0
   0
LINE
   5
44B
 100
AcDbEntity
   8
LEVEL002
 370
20
 100
AcDbLine
   6
CONTINUOUS
  62
7
  10
 511.64856321839
  20
 1078.5737461472
  30
0.0
  11
 511.64856321839
  21
 1249.0257362411
  31
0.0
   0
LINE
   5
44C
 100
AcDbEntity
   8
LEVEL002
 370
20
 100
AcDbLine
   6
CONTINUOUS
  62
7
  10
 511.64856321839
  20
 1249.0257362411
  30
0.0
  11
 465.64856321839
  21
 1249.0257362411
  31
0.0
   0
LINE
   5
44D
 100
AcDbEntity
   8
LEVEL002
 370
20
 100
AcDbLine
   6
CONTINUOUS
  62
7
  10
 465.64856321839
  20
 1249.0257362411
  30
0.0
  11
 465.64856321839
  21
 1065.0729991083
  31
0.0
   0
LINE
   5
44E
 100
AcDbEntity
   8
LEVEL002
 370
20
 100
AcDbLine
   6
CONTINUOUS
  62
7
  10
 465.64856321839
  20
 1065.0729991083
  30
0.0
  11
 495.64856321839
  21
 1065.0729991083
  31
0.0
   0
CIRCLE
   5
44F
 100
AcDbEntity
   8
LEVEL002
 370
20
 100
AcDbCircle
   6
CONTINUOUS
  62
7
  10
 472.14856321839
  20
 969.32991242474
  30
0.0
  40
 20.000000000000
   0
LINE
   5
450
 100
AcDbEntity
   8
LEVEL002
 370
20
 100
AcDbLine
   6
CONTINUOUS
  62
7
  10
 452.14856321839
  20
 969.32991242474
  30
0.0
  11
 452.14856321839
  21
 999.32991242474
  31
0.0
   0
LINE
   5
451
 100
AcDbEntity
   8
LEVEL002
 370
20
 100
AcDbLine
   6
CONTINUOUS
  62
7
  10
 452.14856321839
  20
 999.32991242474
  30
0.0
  11
 492.14856321839
  21
 999.32991242474
  31
0.0
   0
LINE
   5
452
 100
AcDbEntity
   8
LEVEL002
 370
20
 100
AcDbLine
   6
CONTINUOUS
  62
7
  10
 492.14856321839
  20
 999.32991242474
  30
0.0
  11
 492.14856321839
  21
 969.32991242474
  31
0.0
   0
CIRCLE
   5
453
 100
AcDbEntity
   8
LEVEL002
 370
20
 100
AcDbCircle
   6
CONTINUOUS
  62
7
  10
 525.14856321839
  20
 969.32991242474
  30
0.0
  40
 17.000000000000
   0
CIRCLE
   5
454
 100
AcDbEntity
   8
LEVEL002
 370
20
 100
AcDbCircle
   6
CONTINUOUS
  62
7
  10
 525.14856321839
  20
 969.32991242474
  30
0.0
  40
 15.000000000000
   0
CIRCLE
   5
455
 100
AcDbEntity
   8
LEVEL002
 370
20
 100
AcDbCircle
   6
CONTINUOUS
  62
7
  10
 525.14856321839
  20
 969.32991242474
  30
0.0
  40
 13.500000000000
   0
LINE
   5
456
 100
AcDbEntity
   8
LEVEL002
 370
20
 100
AcDbLine
   6
CONTINUOUS
  62
7
  10
 520.14856321839
  20
 956.82991242474
  30
0.0
  11
 530.14856321839
  21
 956.82991242474
  31
0.0
   0
LINE
   5
457
 100
AcDbEntity
   8
LEVEL002
 370
20
 100
AcDbLine
   6
CONTINUOUS
  62
7
  10
 530.14856321839
  20
 956.82991242474
  30
0.0
  11
 530.14856321839
  21
 981.82991242474
  31
0.0
   0
LINE
   5
458
 100
AcDbEntity
   8
LEVEL002
 370
20
 100
AcDbLine
   6
CONTINUOUS
  62
7
  10
 530.14856321839
  20
 981.82991242474
  30
0.0
  11
 520.14856321839
  21
 981.82991242474
  31
0.0
   0
LINE
   5
459
 100
AcDbEntity
   8
LEVEL002
 370
20
 100
AcDbLine
   6
CONTINUOUS
  62
7
  10
 520.14856321839
  20
 981.82991242474
  30
0.0
  11
 520.14856321839
  21
 956.82991242474
  31
0.0
   0
LINE
   5
45A
 100
AcDbEntity
   8
LEVEL002
 370
20
 100
AcDbLine
   6
CONTINUOUS
  62
7
  10
 522.14856321839
  20
 981.82991242474
  30
0.0
  11
 522.14856321839
  21
 961.82991242474
  31
0.0
   0
LINE
   5
45B
 100
AcDbEntity
   8
LEVEL002
 370
20
 100
AcDbLine
   6
CONTINUOUS
  62
7
  10
 522.14856321839
  20
 961.82991242474
  30
0.0
  11
 528.14856321839
  21
 961.82991242474
  31
0.0
   0
LINE
   5
45C
 100
AcDbEntity
   8
LEVEL002
 370
20
 100
AcDbLine
   6
CONTINUOUS
  62
7
  10
 528.14856321839
  20
 961.82991242474
  30
0.0
  11
 528.14856321839
  21
 981.82991242474
  31
0.0
   0
LINE
   5
45D
 100
AcDbEntity
   8
LEVEL002
 370
20
 100
AcDbLine
   6
CONTINUOUS
  62
7
  10
 525.14856321839
  20
 963.82991242474
  30
0.0
  11
 525.14856321839
  21
 981.82991242474
  31
0.0
   0
ARC
   5
45E
 100
AcDbEntity
   8
LEVEL002
 370
20
   6
CONTINUOUS
  62
7
 100
AcDbCircle
  10
 525.14856321839
  20
 969.32991242474
  30
0.0
  40
 20.000000000000
 100
AcDbArc
  50
 180.00000000000
  51
0.0
   0
LINE
   5
45F
 100
AcDbEntity
   8
LEVEL002
 370
20
 100
AcDbLine
   6
CONTINUOUS
  62
7
  10
 505.14856321839
  20
 969.32991242474
  30
0.0
  11
 505.14856321839
  21
 999.32991242474
  31
0.0
   0
LINE
   5
460
 100
AcDbEntity
   8
LEVEL002
 370
20
 100
AcDbLine
   6
CONTINUOUS
  62
7
  10
 505.14856321839
  20
 999.32991242474
  30
0.0
  11
 545.14856321839
  21
 999.32991242474
  31
0.0
   0
LINE
   5
461
 100
AcDbEntity
   8
LEVEL002
 370
20
 100
AcDbLine
   6
CONTINUOUS
  62
7
  10
 545.14856321839
  20
 999.32991242474
  30
0.0
  11
 545.14856321839
  21
 969.32991242474
  31
0.0
   0
LINE
   5
462
 100
AcDbEntity
   8
LEVEL002
 370
20
 100
AcDbLine
   6
CONTINUOUS
  62
7
  10
 536.64856321839
  20
 1368.0301307195
  30
0.0
  11
 542.84856321839
  21
 1368.0301307195
  31
0.0
   0
LINE
   5
463
 100
AcDbEntity
   8
LEVEL002
 370
20
 100
AcDbLine
   6
CONTINUOUS
  62
7
  10
 542.84856321839
  20
 1352.0301307195
  30
0.0
  11
 536.64856321839
  21
 1352.0301307195
  31
0.0
   0
LINE
   5
464
 100
AcDbEntity
   8
LEVEL002
 370
20
 100
AcDbLine
   6
CONTINUOUS
  62
7
  10
 568.34856321839
  20
 1295.9638870210
  30
0.0
  11
 849.34856321839
  21
 1295.9638870210
  31
0.0
   0
LINE
   5
465
 100
AcDbEntity
   8
LEVEL002
 370
20
 100
AcDbLine
   6
CONTINUOUS
  62
7
  10
 849.34856321839
  20
 1295.9638870210
  30
0.0
  11
 849.34856321839
  21
 1340.3299124247
  31
0.0
   0
LINE
   5
466
 100
AcDbEntity
   8
LEVEL002
 370
20
 100
AcDbLine
   6
CONTINUOUS
  62
7
  10
 849.34856321839
  20
 1340.3299124247
  30
0.0
  11
 568.34856321839
  21
 1340.3299124247
  31
0.0
   0
LINE
   5
467
 100
AcDbEntity
   8
LEVEL002
 370
20
 100
AcDbLine
   6
CONTINUOUS
  62
7
  10
 568.34856321839
  20
 1340.3299124247
  30
0.0
  11
 568.34856321839
  21
 1295.9638870210
  31
0.0
   0
LINE
   5
468
 100
AcDbEntity
   8
LEVEL002
 370
20
 100
AcDbLine
   6
CONTINUOUS
  62
7
  10
 568.34856321839
  20
 1303.7525621556
  30
0.0
  11
 849.34856321839
  21
 1303.7525621556
  31
0.0
   0
LINE
   5
469
 100
AcDbEntity
   8
LEVEL002
 370
20
 100
AcDbLine
   6
CONTINUOUS
  62
7
  10
 588.84856321839
  20
 1295.9638870210
  30
0.0
  11
 588.84856321839
  21
 1185.3299124247
  31
0.0
   0
LINE
   5
46A
 100
AcDbEntity
   8
LEVEL002
 370
20
 100
AcDbLine
   6
CONTINUOUS
  62
7
  10
 828.84856321839
  20
 1295.9638870210
  30
0.0
  11
 828.84856321839
  21
 1185.3299124247
  31
0.0
   0
LINE
   5
46B
 100
AcDbEntity
   8
LEVEL002
 370
20
 100
AcDbLine
   6
CONTINUOUS
  62
7
  10
 850.54856321839
  20
 1054.4916781864
  30
0.0
  11
 850.54856321839
  21
 929.32991242474
  31
0.0
   0
LINE
   5
46C
 100
AcDbEntity
   8
LEVEL002
 370
20
 100
AcDbLine
   6
CONTINUOUS
  62
7
  10
 850.54856321839
  20
 929.32991242474
  30
0.0
  11
 985.54856321839
  21
 929.32991242474
  31
0.0
   0
LINE
   5
46D
 100
AcDbEntity
   8
LEVEL002
 370
20
 100
AcDbLine
   6
CONTINUOUS
  62
7
  10
 985.54856321839
  20
 929.32991242474
  30
0.0
  11
 985.54856321839
  21
 1339.3299124247
  31
0.0
   0
LINE
   5
46E
 100
AcDbEntity
   8
LEVEL002
 370
20
 100
AcDbLine
   6
CONTINUOUS
  62
7
  10
 985.54856321839
  20
 1339.3299124247
  30
0.0
  11
 850.54856321839
  21
 1339.3299124247
  31
0.0
   0
LINE
   5
46F
 100
AcDbEntity
   8
LEVEL002
 370
20
 100
AcDbLine
   6
CONTINUOUS
  62
7
  10
 567.14856321839
  20
 1054.4916781864
  30
0.0
  11
 567.14856321839
  21
 929.32991242474
  31
0.0
   0
LINE
   5
470
 100
AcDbEntity
   8
LEVEL002
 370
20
 100
AcDbLine
   6
CONTINUOUS
  62
7
  10
 567.14856321839
  20
 929.32991242474
  30
0.0
  11
 432.14856321839
  21
 929.32991242474
  31
0.0
   0
LINE
   5
471
 100
AcDbEntity
   8
LEVEL002
 370
20
 100
AcDbLine
   6
CONTINUOUS
  62
7
  10
 432.14856321839
  20
 929.32991242474
  30
0.0
  11
 432.14856321839
  21
 1339.3299124247
  31
0.0
   0
LINE
   5
472
 100
AcDbEntity
   8
LEVEL002
 370
20
 100
AcDbLine
   6
CONTINUOUS
  62
7
  10
 432.14856321839
  20
 1339.3299124247
  30
0.0
  11
 567.14856321839
  21
 1339.3299124247
  31
0.0
   0
LINE
   5
473
 100
AcDbEntity
   8
LEVEL002
 370
20
 100
AcDbLine
   6
CONTINUOUS
  62
7
  10
 567.14856321839
  20
 1299.3299124247
  30
0.0
  11
 467.14856321839
  21
 1299.3299124247
  31
0.0
   0
LINE
   5
474
 100
AcDbEntity
   8
LEVEL002
 370
20
 100
AcDbLine
   6
CONTINUOUS
  62
7
  10
 467.14856321839
  20
 1299.3299124247
  30
0.0
  11
 467.14856321839
  21
 1249.0257362411
  31
0.0
   0
LINE
   5
475
 100
AcDbEntity
   8
LEVEL002
 370
20
 100
AcDbLine
   6
CONTINUOUS
  62
7
  10
 511.64856321839
  20
 1299.3299124247
  30
0.0
  11
 511.64856321839
  21
 1042.4916781864
  31
0.0
   0
LINE
   5
476
 100
AcDbEntity
   8
LEVEL002
 370
20
 100
AcDbLine
   6
CONTINUOUS
  62
7
  10
 511.64856321839
  20
 1042.4916781864
  30
0.0
  11
 523.64856321839
  21
 1042.4916781864
  31
0.0
   0
LINE
   5
477
 100
AcDbEntity
   8
LEVEL002
 370
20
 100
AcDbLine
   6
CONTINUOUS
  62
7
  10
 523.64856321839
  20
 1042.4916781864
  30
0.0
  11
 523.64856321839
  21
 1299.3299124247
  31
0.0
   0
LINE
   5
478
 100
AcDbEntity
   8
LEVEL002
 370
20
 100
AcDbLine
   6
CONTINUOUS
  62
7
  10
 523.64856321839
  20
 1339.3299124247
  30
0.0
  11
 523.64856321839
  21
 1376.0301307195
  31
0.0
   0
LINE
   5
479
 100
AcDbEntity
   8
LEVEL002
 370
20
 100
AcDbLine
   6
CONTINUOUS
  62
7
  10
 523.64856321839
  20
 1376.0301307195
  30
0.0
  11
 511.64856321839
  21
 1376.0301307195
  31
0.0
   0
LINE
   5
47A
 100
AcDbEntity
   8
LEVEL002
 370
20
 100
AcDbLine
   6
CONTINUOUS
  62
7
  10
 511.64856321839
  20
 1376.0301307195
  30
0.0
  11
 511.64856321839
  21
 1339.3299124247
  31
0.0
   0
LINE
   5
47B
 100
AcDbEntity
   8
LEVEL002
 370
20
 100
AcDbLine
   6
CONTINUOUS
  62
7
  10
 894.04856321839
  20
 1299.3299124247
  30
0.0
  11
 894.04856321839
  21
 1042.4916781864
  31
0.0
   0
LINE
   5
47C
 100
AcDbEntity
   8
LEVEL002
 370
20
 100
AcDbLine
   6
CONTINUOUS
  62
7
  10
 894.04856321839
  20
 1042.4916781864
  30
0.0
  11
 906.04856321839
  21
 1042.4916781864
  31
0.0
   0
LINE
   5
47D
 100
AcDbEntity
   8
LEVEL002
 370
20
 100
AcDbLine
   6
CONTINUOUS
  62
7
  10
 906.04856321839
  20
 1042.4916781864
  30
0.0
  11
 906.04856321839
  21
 1299.3299124247
  31
0.0
   0
LINE
   5
47E
 100
AcDbEntity
   8
LEVEL002
 370
20
 100
AcDbLine
   6
CONTINUOUS
  62
7
  10
 906.04856321839
  20
 1339.3299124247
  30
0.0
  11
 906.04856321839
  21
 1376.0301307195
  31
0.0
   0
LINE
   5
47F
 100
AcDbEntity
   8
LEVEL002
 370
20
 100
AcDbLine
   6
CONTINUOUS
  62
7
  10
 906.04856321839
  20
 1376.0301307195
  30
0.0
  11
 894.04856321839
  21
 1376.0301307195
  31
0.0
   0
LINE
   5
480
 100
AcDbEntity
   8
LEVEL002
 370
20
 100
AcDbLine
   6
CONTINUOUS
  62
7
  10
 894.04856321839
  20
 1376.0301307195
  30
0.0
  11
 894.04856321839
  21
 1339.1939953722
  31
0.0
   0
LINE
   5
481
 100
AcDbEntity
   8
LEVEL002
 370
20
 100
AcDbLine
   6
CONTINUOUS
  62
7
  10
 850.54856321839
  20
 1299.3299124247
  30
0.0
  11
 950.54856321839
  21
 1299.3299124247
  31
0.0
   0
LINE
   5
482
 100
AcDbEntity
   8
LEVEL002
 370
20
 100
AcDbLine
   6
CONTINUOUS
  62
7
  10
 950.54856321839
  20
 1299.3299124247
  30
0.0
  11
 950.54856321839
  21
 1143.2565092528
  31
0.0
   0
LINE
   5
483
 100
AcDbEntity
   8
LEVEL002
 370
20
 100
AcDbLine
   6
CONTINUOUS
  62
7
  10
 931.04856321839
  20
 1299.3299124247
  30
0.0
  11
 931.04856321839
  21
 1071.2565092528
  31
0.0
   0
LINE
   5
484
 100
AcDbEntity
   8
LEVEL002
 370
20
 100
AcDbLine
   6
CONTINUOUS
  62
7
  10
 931.04856321839
  20
 1071.2565092528
  30
0.0
  11
 940.04856321839
  21
 1071.2565092528
  31
0.0
   0
LINE
   5
485
 100
AcDbEntity
   8
LEVEL002
 370
20
 100
AcDbLine
   6
CONTINUOUS
  62
7
  10
 940.04856321839
  20
 1071.2565092528
  30
0.0
  11
 940.04856321839
  21
 1299.3299124247
  31
0.0
   0
LINE
   5
486
 100
AcDbEntity
   8
LEVEL002
 370
9
 100
AcDbLine
   6
DASHDOT
  62
1
  10
 919.84856321839
  20
 1255.3299124247
  30
0.0
  11
 497.84856321839
  21
 1255.3299124247
  31
0.0
   0
LINE
   5
487
 100
AcDbEntity
   8
LEVEL002
 370
9
 100
AcDbLine
   6
DASHDOT
  62
1
  10
 919.84856321839
  20
 1138.9812331794
  30
0.0
  11
 497.84856321839
  21
 1138.9812331794
  31
0.0
   0
LINE
   5
488
 100
AcDbEntity
   8
LEVEL002
 370
9
 100
AcDbLine
   6
DASHDOT
  62
1
  10
 919.84856321839
  20
 1043.3299124247
  30
0.0
  11
 497.84856321839
  21
 1043.3299124247
  31
0.0
   0
LINE
   5
489
 100
AcDbEntity
   8
LEVEL002
 370
20
 100
AcDbLine
   6
CONTINUOUS
  62
7
  10
 936.14856321839
  20
 931.25650925282
  30
0.0
  11
 971.14856321839
  21
 931.25650925282
  31
0.0
   0
LINE
   5
48A
 100
AcDbEntity
   8
LEVEL002
 370
20
 100
AcDbLine
   6
CONTINUOUS
  62
7
  10
 971.14856321839
  20
 931.25650925282
  30
0.0
  11
 971.14856321839
  21
 1061.2565092528
  31
0.0
   0
LINE
   5
48B
 100
AcDbEntity
   8
LEVEL002
 370
20
 100
AcDbLine
   6
CONTINUOUS
  62
7
  10
 971.14856321839
  20
 1061.2565092528
  30
0.0
  11
 936.14856321839
  21
 1061.2565092528
  31
0.0
   0
LINE
   5
48C
 100
AcDbEntity
   8
LEVEL002
 370
20
 100
AcDbLine
   6
CONTINUOUS
  62
7
  10
 936.14856321839
  20
 1061.2565092528
  30
0.0
  11
 936.14856321839
  21
 931.25650925282
  31
0.0
   0
LINE
   5
48D
 100
AcDbEntity
   8
LEVEL002
 370
20
 100
AcDbLine
   6
CONTINUOUS
  62
7
  10
 967.24856321839
  20
 1061.2565092528
  30
0.0
  11
 967.24856321839
  21
 1143.2565092528
  31
0.0
   0
LINE
   5
48E
 100
AcDbEntity
   8
LEVEL002
 370
20
 100
AcDbLine
   6
CONTINUOUS
  62
7
  10
 967.24856321839
  20
 1143.2565092528
  30
0.0
  11
 940.04856321839
  21
 1143.2565092528
  31
0.0
   0
LINE
   5
48F
 100
AcDbEntity
   8
LEVEL002
 370
20
 100
AcDbLine
   6
CONTINUOUS
  62
7
  10
 940.04856321839
  20
 1143.2565092528
  30
0.0
  11
 940.04856321839
  21
 1061.2565092528
  31
0.0
   0
LINE
   5
490
 100
AcDbEntity
   8
LEVEL002
 370
20
 100
AcDbLine
   6
CONTINUOUS
  62
7
  10
 567.14856321839
  20
 1339.3299124247
  30
0.0
  11
 567.14856321839
  21
 1299.3299124247
  31
0.0
   0
LINE
   5
491
 100
AcDbEntity
   8
LEVEL002
 370
20
 100
AcDbLine
   6
CONTINUOUS
  62
7
  10
 850.54856321839
  20
 1339.3299124247
  30
0.0
  11
 850.54856321839
  21
 1299.3299124247
  31
0.0
   0
LINE
   5
492
 100
AcDbEntity
   8
LEVEL002
 370
20
 100
AcDbLine
   6
CONTINUOUS
  62
7
  10
 850.54856321839
  20
 1079.3299124247
  30
0.0
  11
 850.54856321839
  21
 1070.4916781863
  31
0.0
   0
LINE
   5
493
 100
AcDbEntity
   8
LEVEL002
 370
20
 100
AcDbLine
   6
CONTINUOUS
  62
7
  10
 567.14856321839
  20
 1079.3299124247
  30
0.0
  11
 567.14856321839
  21
 1070.4916781863
  31
0.0
   0
LINE
   5
494
 100
AcDbEntity
   8
LEVEL002
 370
9
 100
AcDbLine
   6
DASHDOT
  62
1
  10
 708.84856321839
  20
 1403.3299124247
  30
0.0
  11
 708.84856321839
  21
 903.32991242474
  31
0.0
   0
LINE
   5
495
 100
AcDbEntity
   8
LEVEL002
 370
9
 100
AcDbLine
   6
DIVIDE
  62
1
  10
 1543.3478983665
  20
 795.89626887175
  30
0.0
  11
 1557.6607013352
  21
 827.83595689741
  31
0.0
   0
LINE
   5
496
 100
AcDbEntity
   8
LEVEL002
 370
9
 100
AcDbLine
   6
DIVIDE
  62
1
  10
 1557.6607013352
  20
 827.83595689741
  30
0.0
  11
 1439.0275743828
  21
 880.99779649574
  31
0.0
   0
LINE
   5
497
 100
AcDbEntity
   8
LEVEL002
 370
9
 100
AcDbLine
   6
DIVIDE
  62
1
  10
 1439.0275743828
  20
 880.99779649574
  30
0.0
  11
 1424.7147714140
  21
 849.05810847007
  31
0.0
   0
LINE
   5
498
 100
AcDbEntity
   8
LEVEL002
 370
9
 100
AcDbLine
   6
DIVIDE
  62
1
  10
 1424.7147714140
  20
 849.05810847007
  30
0.0
  11
 1543.3478983665
  21
 795.89626887175
  31
0.0
   0
LINE
   5
499
 100
AcDbEntity
   8
LEVEL002
 370
9
 100
AcDbLine
   6
DIVIDE
  62
1
  10
 1544.9427535544
  20
 799.45526268036
  30
0.0
  11
 1619.7728797860
  21
 765.92241001065
  31
0.0
   0
LINE
   5
49A
 100
AcDbEntity
   8
LEVEL002
 370
9
 100
AcDbLine
   6
DIVIDE
  62
1
  10
 1619.7728797860
  20
 765.92241001065
  30
0.0
  11
 1630.8959723788
  21
 790.74411041910
  31
0.0
   0
LINE
   5
49B
 100
AcDbEntity
   8
LEVEL002
 370
9
 100
AcDbLine
   6
DIVIDE
  62
1
  10
 1630.8959723788
  20
 790.74411041910
  30
0.0
  11
 1556.0658461473
  21
 824.27696308880
  31
0.0
   0
LINE
   5
49C
 100
AcDbEntity
   8
LEVEL002
 370
9
 100
AcDbLine
   6
DIVIDE
  62
1
  10
 1676.7495663184
  20
 667.17701040638
  30
0.0
  11
 1635.1489195467
  21
 800.23476057530
  31
0.0
   0
LINE
   5
49D
 100
AcDbEntity
   8
LEVEL002
 370
9
 100
AcDbLine
   6
DIVIDE
  62
1
  10
 1635.1489195467
  20
 800.23476057530
  30
0.0
  11
 1569.4444184653
  21
 829.67824096821
  31
0.0
   0
LINE
   5
49E
 100
AcDbEntity
   8
LEVEL002
 370
9
 100
AcDbLine
   6
DIVIDE
  62
1
  10
 1569.4444184653
  20
 829.67824096821
  30
0.0
  11
 1565.1914712975
  21
 820.18759081201
  31
0.0
   0
LINE
   5
49F
 100
AcDbEntity
   8
LEVEL002
 370
9
 100
AcDbLine
   6
DIVIDE
  62
1
  10
 1554.0683787046
  20
 795.36589040356
  30
0.0
  11
 1547.1805472609
  21
 779.99537297483
  31
0.0
   0
LINE
   5
4A0
 100
AcDbEntity
   8
LEVEL002
 370
9
 100
AcDbLine
   6
DIVIDE
  62
1
  10
 1547.1805472609
  20
 779.99537297483
  30
0.0
  11
 1581.3188797394
  21
 670.80549092726
  31
0.0
   0
ARC
   5
4A1
 100
AcDbEntity
   8
LEVEL002
 370
9
   6
DIVIDE
  62
1
 100
AcDbCircle
  10
 1618.8583745391
  20
 750.30211534716
  30
0.0
  40
 70.000000000000
 100
AcDbArc
  50
 334.45426493749
  51
 68.701978620555
   0
LINE
   5
4A2
 100
AcDbEntity
   8
LEVEL002
 370
9
 100
AcDbLine
   6
DIVIDE
  62
1
  10
 1584.8004923015
  20
 848.20600542591
  30
0.0
  11
 1654.9625405318
  21
 809.65361265801
  31
0.0
   0
ARC
   5
4A3
 100
AcDbEntity
   8
LEVEL002
 370
9
   6
DIVIDE
  62
1
 100
AcDbCircle
  10
 1645.3312119886
  20
 792.12542078056
  30
0.0
  40
 20.000000000000
 100
AcDbArc
  50
 12.667475639205
  51
 61.212242094788
   0
ARC
   5
4A4
 100
AcDbEntity
   8
LEVEL002
 370
9
   6
DIVIDE
  62
1
 100
AcDbCircle
  10
 1575.1691637583
  20
 830.67781354846
  30
0.0
  40
 20.000000000000
 100
AcDbArc
  50
 61.212242094824
  51
 181.98256323922
   0
ARC
   5
4A5
 100
AcDbEntity
   8
LEVEL002
 370
9
   6
DIVIDE
  62
1
 100
AcDbCircle
  10
 1618.8583745391
  20
 750.30211534716
  30
0.0
  40
 70.000000000000
 100
AcDbArc
  50
 165.65361446977
  51
 229.07020438190
   0
LINE
   5
4A6
 100
AcDbEntity
   8
LEVEL002
 370
9
 100
AcDbLine
   6
DIVIDE
  62
1
  10
 1688.2425107352
  20
 701.53038537637
  30
0.0
  11
 1683.3813463114
  21
 723.15831101411
  31
0.0
   0
LINE
   5
4A7
 100
AcDbEntity
   8
LEVEL002
 370
9
 100
AcDbLine
   6
DIVIDE
  62
1
  10
 1665.5605497477
  20
 802.44525325414
  30
0.0
  11
 1663.1335309614
  21
 813.24336194902
  31
0.0
   0
LINE
   5
4A8
 100
AcDbEntity
   8
LEVEL002
 370
9
 100
AcDbLine
   6
DIVIDE
  62
1
  10
 1663.1335309614
  20
 813.24336194902
  30
0.0
  11
 1653.5645255175
  21
 811.09260049302
  31
0.0
   0
LINE
   5
4A9
 100
AcDbEntity
   8
LEVEL002
 370
20
 100
AcDbLine
   6
CONTINUOUS
  62
7
  10
 1558.0122862717
  20
 779.30083517470
  30
0.0
  11
 1550.7699404444
  21
 787.66970597622
  31
0.0
   0
LINE
   5
4AA
 100
AcDbEntity
   8
LEVEL002
 370
20
 100
AcDbLine
   6
CONTINUOUS
  62
7
  10
 1550.7699404444
  20
 787.66970597622
  30
0.0
  11
 1543.3536629719
  21
 781.25172588293
  31
0.0
   0
LINE
   5
4AB
 100
AcDbEntity
   8
LEVEL002
 370
20
 100
AcDbLine
   6
CONTINUOUS
  62
7
  10
 1625.6963958639
  20
 701.08866718440
  30
0.0
  11
 1611.1904373277
  21
 717.85098366792
  31
0.0
   0
ARC
   5
4AC
 100
AcDbEntity
   8
LEVEL002
 370
9
   6
DASHDOT
  62
1
 100
AcDbCircle
  10
 1657.8485632184
  20
 576.82991242474
  30
0.0
  40
 374.70084981921
 100
AcDbArc
  50
 122.21987996102
  51
 149.86965514900
   0
LINE
   5
4AD
 100
AcDbEntity
   8
LEVEL002
 370
9
 100
AcDbLine
   6
DASHDOT
  62
1
  10
 1698.6450787676
  20
 768.23524007583
  30
0.0
  11
 1547.5142211480
  21
 734.26656639453
  31
0.0
   0
LINE
   5
4AE
 100
AcDbEntity
   8
LEVEL002
 370
9
 100
AcDbLine
   6
DASHDOT
  62
1
  10
 1598.1459931741
  20
 760.29731208649
  30
0.0
  11
 1482.1827419417
  21
 659.94375321248
  31
0.0
   0
LINE
   5
4AF
 100
AcDbEntity
   8
LEVEL002
 370
9
 100
AcDbLine
   6
DASHDOT
  62
1
  10
 1484.5564347180
  20
 777.07710703724
  30
0.0
  11
 1593.4171056951
  21
 651.28348816125
  31
0.0
   0
ARC
   5
4B0
 100
AcDbEntity
   8
LEVEL002
 370
9
   6
DASHDOT
  62
1
 100
AcDbCircle
  10
 1657.8485632184
  20
 576.82991242474
  30
0.0
  40
 177.80000000000
 100
AcDbArc
  50
 87.746901919733
  51
 153.14374025290
   0
LINE
   5
4B1
 100
AcDbEntity
   8
LEVEL002
 370
9
 100
AcDbLine
   6
DIVIDE
  62
1
  10
 1664.8443956694
  20
 796.51126877597
  30
0.0
  11
 1686.2911923670
  21
 701.09180057680
  31
0.0
   0
LINE
   5
4B2
 100
AcDbEntity
   8
LEVEL002
 370
9
 100
AcDbLine
   6
DIVIDE
  62
1
  10
 1686.2911923670
  20
 701.09180057680
  30
0.0
  11
 1688.2425107351
  21
 701.53038537634
  31
0.0
   0
LINE
   5
4B3
 100
AcDbEntity
   8
LEVEL002
 370
9
 100
AcDbLine
   6
DIVIDE
  62
1
  10
 1688.2425107351
  20
 701.53038537634
  30
0.0
  11
 1695.8171410034
  21
 667.82991242474
  31
0.0
   0
LINE
   5
4B4
 100
AcDbEntity
   8
LEVEL002
 370
9
 100
AcDbLine
   6
DASHDOT
  62
1
  10
 1601.1801120393
  20
 828.95490579440
  30
0.0
  11
 1637.3890322655
  21
 667.85691243121
  31
0.0
   0
LINE
   5
4B5
 100
AcDbEntity
   8
LEVEL002
 370
20
 100
AcDbLine
   6
CONTINUOUS
  62
7
  10
 1857.8485632184
  20
 1098.3299124247
  30
0.0
  11
 1210.8485632184
  21
 1098.3299124247
  31
0.0
   0
LINE
   5
4B6
 100
AcDbEntity
   8
LEVEL002
 370
20
 100
AcDbLine
   6
CONTINUOUS
  62
7
  10
 1857.8485632184
  20
 1450.3299124247
  30
0.0
  11
 1210.8485632184
  21
 1450.3299124247
  31
0.0
   0
LINE
   5
4B7
 100
AcDbEntity
   8
LEVEL002
 370
20
 100
AcDbLine
   6
CONTINUOUS
  62
7
  10
 1210.8485632184
  20
 1418.3299124247
  30
0.0
  11
 1857.8485632184
  21
 1418.3299124247
  31
0.0
   0
LINE
   5
4B8
 100
AcDbEntity
   8
LEVEL002
 370
20
 100
AcDbLine
   6
CONTINUOUS
  62
7
  10
 1210.8485632184
  20
 1386.3299124247
  30
0.0
  11
 1857.8485632184
  21
 1386.3299124247
  31
0.0
   0
LINE
   5
4B9
 100
AcDbEntity
   8
LEVEL002
 370
20
 100
AcDbLine
   6
CONTINUOUS
  62
7
  10
 1210.8485632184
  20
 1354.3299124247
  30
0.0
  11
 1857.8485632184
  21
 1354.3299124247
  31
0.0
   0
LINE
   5
4BA
 100
AcDbEntity
   8
LEVEL002
 370
20
 100
AcDbLine
   6
CONTINUOUS
  62
7
  10
 1210.8485632184
  20
 1322.3299124247
  30
0.0
  11
 1857.8485632184
  21
 1322.3299124247
  31
0.0
   0
LINE
   5
4BB
 100
AcDbEntity
   8
LEVEL002
 370
20
 100
AcDbLine
   6
CONTINUOUS
  62
7
  10
 1210.8485632184
  20
 1290.3299124247
  30
0.0
  11
 1857.8485632184
  21
 1290.3299124247
  31
0.0
   0
LINE
   5
4BC
 100
AcDbEntity
   8
LEVEL002
 370
20
 100
AcDbLine
   6
CONTINUOUS
  62
7
  10
 1210.8485632184
  20
 1258.3299124247
  30
0.0
  11
 1857.8485632184
  21
 1258.3299124247
  31
0.0
   0
LINE
   5
4BD
 100
AcDbEntity
   8
LEVEL002
 370
20
 100
AcDbLine
   6
CONTINUOUS
  62
7
  10
 1242.8485632184
  20
 1226.3299124247
  30
0.0
  11
 1857.8485632184
  21
 1226.3299124247
  31
0.0
   0
LINE
   5
4BE
 100
AcDbEntity
   8
LEVEL002
 370
20
 100
AcDbLine
   6
CONTINUOUS
  62
7
  10
 1210.8485632184
  20
 1162.3299124247
  30
0.0
  11
 1857.8485632184
  21
 1162.3299124247
  31
0.0
   0
LINE
   5
4BF
 100
AcDbEntity
   8
LEVEL002
 370
20
 100
AcDbLine
   6
CONTINUOUS
  62
7
  10
 1210.8485632184
  20
 1130.3299124247
  30
0.0
  11
 1857.8485632184
  21
 1130.3299124247
  31
0.0
   0
LINE
   5
4C0
 100
AcDbEntity
   8
LEVEL002
 370
20
 100
AcDbLine
   6
CONTINUOUS
  62
7
  10
 1210.8485632184
  20
 1194.3299124247
  30
0.0
  11
 1857.8485632184
  21
 1194.3299124247
  31
0.0
   0
LINE
   5
4C1
 100
AcDbEntity
   8
LEVEL002
 370
20
 100
AcDbLine
   6
CONTINUOUS
  62
7
  10
 1242.8485632184
  20
 1194.3299124247
  30
0.0
  11
 1242.8485632184
  21
 1258.3299124247
  31
0.0
   0
LINE
   5
4C2
 100
AcDbEntity
   8
LEVEL002
 370
20
 100
AcDbLine
   6
CONTINUOUS
  62
7
  10
 1210.8485632184
  20
 1098.3299124247
  30
0.0
  11
 1210.8485632184
  21
 1450.3299124247
  31
0.0
   0
LINE
   5
4C3
 100
AcDbEntity
   8
LEVEL002
 370
20
 100
AcDbLine
   6
CONTINUOUS
  62
7
  10
 1417.8485632184
  20
 1450.3299124247
  30
0.0
  11
 1417.8485632184
  21
 1098.3299124247
  31
0.0
   0
LINE
   5
4C4
 100
AcDbEntity
   8
LEVEL002
 370
20
 100
AcDbLine
   6
CONTINUOUS
  62
7
  10
 1857.8485632184
  20
 1450.3299124247
  30
0.0
  11
 1857.8485632184
  21
 1098.3299124247
  31
0.0
   0
MTEXT
   5
4C6
 100
AcDbEntity
   8
LEVEL002
 370
9
  62
1
 100
AcDbMText
  10
 1246.8485632184
  20
 1358.3299124247
  30
0.0
  40
 16.000000000000
  41
0.0
  71
7
  72
1
   1
\T1.000000;寸法（Ｗ×Ｄ×Ｈ）
   7
GMM001
  44
 0.79999984000003
   0
MTEXT
   5
4C8
 100
AcDbEntity
   8
LEVEL002
 370
9
  62
1
 100
AcDbMText
  10
 1246.8485632184
  20
 1262.3299124247
  30
0.0
  40
 16.000000000000
  41
0.0
  71
7
  72
1
   1
\W1.000000;\T1.000000;消\W0.500000;\T1.000000;  \W1.000000;\T1.000000;費\W0.500000;\T1.000000;  \W1.000000;\T1.000000;電\W0.500000;\T1.000000;  \W1.000000;\T1.000000;力
   7
GMM001
  44
 0.79999984000003
   0
MTEXT
   5
4CA
 100
AcDbEntity
   8
LEVEL002
 370
9
  62
1
 100
AcDbMText
  10
 1246.8485632184
  20
 1294.3299124247
  30
0.0
  40
 16.000000000000
  41
0.0
  71
7
  72
1
   1
\W1.000000;\T1.000000;電\W0.500000;\T1.000000;          \W1.000000;\T1.000000;源
   7
GMM001
  44
 0.79999984000003
   0
MTEXT
   5
4CC
 100
AcDbEntity
   8
LEVEL002
 370
9
  62
1
 100
AcDbMText
  10
 1246.8485632184
  20
 1326.3299124247
  30
0.0
  40
 16.000000000000
  41
0.0
  71
7
  72
1
   1
\W1.000000;\T1.000000;能\W0.500000;\T1.000000;          \W1.000000;\T1.000000;力
   7
GMM001
  44
 0.79999984000003
   0
MTEXT
   5
4CE
 100
AcDbEntity
   8
LEVEL002
 370
9
  62
1
 100
AcDbMText
  10
 1246.8485632184
  20
 1390.3299124247
  30
0.0
  40
 16.000000000000
  41
0.0
  71
7
  72
1
   1
\W1.000000;\T1.000000;型\W0.500000;\T1.000000;          \W1.000000;\T1.000000;式
   7
GMM001
  44
 0.79999984000003
   0
MTEXT
   5
4D0
 100
AcDbEntity
   8
LEVEL002
 370
9
  62
1
 100
AcDbMText
  10
 1246.8485632184
  20
 1422.3299124247
  30
0.0
  40
 16.000000000000
  41
0.0
  71
7
  72
1
   1
\W1.000000;\T1.000000;製　\W0.500000;\T1.000000;  \W1.000000;\T1.000000;品\W0.500000;\T1.000000;  \W1.000000;\T1.000000;　名
   7
GMM001
  44
 0.79999984000003
   0
MTEXT
   5
4D2
 100
AcDbEntity
   8
LEVEL002
 370
9
  62
1
 100
AcDbMText
  10
 1422.8485632184
  20
 1422.3299124247
  30
0.0
  40
 16.000000000000
  41
0.0
  71
7
  72
1
   1
\T1.000000;手打麺生地プレス成形機
   7
GMM001
  44
 0.79999984000003
   0
MTEXT
   5
4D4
 100
AcDbEntity
   8
LEVEL002
 370
9
  62
1
 100
AcDbMText
  10
 1217.8485632184
  20
 1229.3299124247
  30
0.0
  40
 16.000000000000
  41
0.0
  71
7
  72
1
   1
\T1.000000;材
   7
GMM001
  44
 0.79999984000003
   0
MTEXT
   5
4D6
 100
AcDbEntity
   8
LEVEL002
 370
9
  62
1
 100
AcDbMText
  10
 1217.8485632184
  20
 1207.9965790914
  30
0.0
  40
 16.000000000000
  41
0.0
  71
7
  72
1
   1
\T1.000000;質
   7
GMM001
  44
 0.79999984000003
   0
MTEXT
   5
4D8
 100
AcDbEntity
   8
LEVEL002
 370
9
  62
1
 100
AcDbMText
  10
 1246.8485632184
  20
 1166.3299124247
  30
0.0
  40
 16.000000000000
  41
0.0
  71
7
  72
1
   1
\T1.000000;コ－ド長さ
   7
GMM001
  44
 0.79999984000003
   0
MTEXT
   5
4DA
 100
AcDbEntity
   8
LEVEL002
 370
9
  62
1
 100
AcDbMText
  10
 1246.8485632184
  20
 1134.3299124247
  30
0.0
  40
 16.000000000000
  41
0.0
  71
7
  72
1
   1
\T1.000000;電源プラグ
   7
GMM001
  44
 0.79999984000003
   0
MTEXT
   5
4DC
 100
AcDbEntity
   8
LEVEL002
 370
9
  62
1
 100
AcDbMText
  10
 1246.8485632184
  20
 1102.3299124247
  30
0.0
  40
 16.000000000000
  41
0.0
  71
7
  72
1
   1
\T1.000000;製品重量
   7
GMM001
  44
 0.79999984000003
   0
MTEXT
   5
4DE
 100
AcDbEntity
   8
LEVEL002
 370
9
  62
1
 100
AcDbMText
  10
 1422.8485632184
  20
 1166.3299124247
  30
0.0
  40
 16.000000000000
  41
0.0
  71
7
  72
1
   1
\T1.000000;３．０ｍ
   7
GMM001
  44
 0.79999984000003
   0
MTEXT
   5
4E0
 100
AcDbEntity
   8
LEVEL002
 370
9
  62
1
 100
AcDbMText
  10
 1246.8485632184
  20
 1230.3299124247
  30
0.0
  40
 16.000000000000
  41
0.0
  71
7
  72
1
   1
\T1.000000;凹凸ロ－ル
   7
GMM001
  44
 0.79999984000003
   0
MTEXT
   5
4E2
 100
AcDbEntity
   8
LEVEL002
 370
9
  62
1
 100
AcDbMText
  10
 1246.8485632184
  20
 1198.3299124247
  30
0.0
  40
 16.000000000000
  41
0.0
  71
7
  72
1
   1
\T1.000000;安全カバ－類
   7
GMM001
  44
 0.79999984000003
   0
MTEXT
   5
4E4
 100
AcDbEntity
   8
LEVEL002
 370
9
  62
1
 100
AcDbMText
  10
 1422.8485632184
  20
 1390.3299124247
  30
0.0
  40
 16.000000000000
  41
0.0
  71
7
  72
1
   1
\T1.000000;ロ－リングプレス　ＲＰ－２００Ｐ型
   7
GMM001
  44
 0.79999984000003
   0
MTEXT
   5
4E6
 100
AcDbEntity
   8
LEVEL002
 370
9
  62
1
 100
AcDbMText
  10
 1422.8485632184
  20
 1326.3299124247
  30
0.0
  40
 16.000000000000
  41
0.0
  71
7
  72
1
   1
\T1.000000;２ｋｇ／回
   7
GMM001
  44
 0.79999984000003
   0
MTEXT
   5
4E8
 100
AcDbEntity
   8
LEVEL002
 370
9
  62
1
 100
AcDbMText
  10
 1422.8485632184
  20
 1262.3299124247
  30
0.0
  40
 16.000000000000
  41
0.0
  71
7
  72
1
   1
\T1.000000;２９０Ｗ
   7
GMM001
  44
 0.79999984000003
   0
MTEXT
   5
4EA
 100
AcDbEntity
   8
LEVEL002
 370
9
  62
1
 100
AcDbMText
  10
 1422.8485632184
  20
 1230.3299124247
  30
0.0
  40
 16.000000000000
  41
0.0
  71
7
  72
1
   1
\T1.000000;ポリプロピレン
   7
GMM001
  44
 0.79999984000003
   0
MTEXT
   5
4EC
 100
AcDbEntity
   8
LEVEL002
 370
9
  62
1
 100
AcDbMText
  10
 1422.8485632184
  20
 1198.3299124247
  30
0.0
  40
 16.000000000000
  41
0.0
  71
7
  72
1
   1
\T1.000000;ＳＵＳ４３０
   7
GMM001
  44
 0.79999984000003
   0
MTEXT
   5
4EE
 100
AcDbEntity
   8
LEVEL002
 370
9
  62
1
 100
AcDbMText
  10
 1422.8485632184
  20
 1102.3299124247
  30
0.0
  40
 16.000000000000
  41
0.0
  71
7
  72
1
   1
\T1.000000;１４０ｋｇ
   7
GMM001
  44
 0.79999984000003
   0
MTEXT
   5
4F0
 100
AcDbEntity
   8
LEVEL002
 370
9
  62
1
 100
AcDbMText
  10
 1422.8485632184
  20
 1358.3299124247
  30
0.0
  40
 16.000000000000
  41
0.0
  71
7
  72
1
   1
\T1.000000;５６０×６２０×６６０
   7
GMM001
  44
 0.79999984000003
   0
LINE
   5
4F1
 100
AcDbEntity
   8
LEVEL001
 370
20
 100
AcDbLine
   6
CONTINUOUS
  62
7
  10
 533.34856321839
  20
 1545.3299124247
  30
0.0
  11
 833.34856321839
  21
 1545.3299124247
  31
0.0
   0
LINE
   5
4F2
 100
AcDbEntity
   8
LEVEL002
 370
20
 100
AcDbLine
   6
CONTINUOUS
  62
7
  10
 1947.8485632184
  20
 464.32991242474
  30
0.0
  11
 1947.8485632184
  21
 664.32991242474
  31
0.0
   0
LINE
   5
4F3
 100
AcDbEntity
   8
LEVEL002
 370
20
 100
AcDbLine
   6
CONTINUOUS
  62
7
  10
 1751.8485632184
  20
 239.82991242474
  30
0.0
  11
 1911.8485632184
  21
 239.82991242474
  31
0.0
   0
LINE
   5
4F4
 100
AcDbEntity
   8
LEVEL002
 370
20
 100
AcDbLine
   6
CONTINUOUS
  62
7
  10
 1742.8485632184
  20
 216.82991242474
  30
0.0
  11
 1751.8485632184
  21
 216.82991242474
  31
0.0
   0
LINE
   5
4F5
 100
AcDbEntity
   8
LEVEL002
 370
20
 100
AcDbLine
   6
CONTINUOUS
  62
7
  10
 1751.8485632184
  20
 234.82991242474
  30
0.0
  11
 1764.8485632184
  21
 234.82991242474
  31
0.0
   0
LINE
   5
4F6
 100
AcDbEntity
   8
LEVEL002
 370
20
 100
AcDbLine
   6
CONTINUOUS
  62
7
  10
 1764.8485632184
  20
 224.82991242474
  30
0.0
  11
 1751.8485632184
  21
 224.82991242474
  31
0.0
   0
LINE
   5
4F7
 100
AcDbEntity
   8
LEVEL002
 370
20
 100
AcDbLine
   6
CONTINUOUS
  62
7
  10
 568.34856321839
  20
 196.82991242474
  30
0.0
  11
 849.34856321839
  21
 196.82991242474
  31
0.0
   0
LINE
   5
4F8
 100
AcDbEntity
   8
LEVEL002
 370
20
 100
AcDbLine
   6
CONTINUOUS
  62
7
  10
 567.14856321839
  20
 196.82991242474
  30
0.0
  11
 567.84856321839
  21
 196.82991242474
  31
0.0
   0
LINE
   5
4F9
 100
AcDbEntity
   8
LEVEL002
 370
20
 100
AcDbLine
   6
CONTINUOUS
  62
7
  10
 850.54856321839
  20
 196.82991242474
  30
0.0
  11
 849.84856321839
  21
 196.82991242474
  31
0.0
   0
ARC
   5
4FA
 100
AcDbEntity
   8
LEVEL002
 370
20
   6
CONTINUOUS
  62
7
 100
AcDbCircle
  10
 1784.0693979221
  20
 229.82991242474
  30
0.0
  40
 13.779165296305
 100
AcDbArc
  50
 339.13593563448
  51
 20.864064365522
   0
ARC
   5
4FB
 100
AcDbEntity
   8
LEVEL002
 370
20
   6
CONTINUOUS
  62
7
 100
AcDbCircle
  10
 1794.0649492895
  20
 237.19112835687
  30
0.0
  40
 3.7836139288987
 100
AcDbArc
  50
 319.57010315284
  51
 0.30127566375895E-11
   0
LINE
   5
4FC
 100
AcDbEntity
   8
LEVEL002
 370
20
 100
AcDbLine
   6
CONTINUOUS
  62
7
  10
 1789.8485632184
  20
 220.01495784854
  30
0.0
  11
 1789.8485632184
  21
 239.64486700094
  31
0.0
   0
LINE
   5
4FD
 100
AcDbEntity
   8
LEVEL002
 370
20
 100
AcDbLine
   6
CONTINUOUS
  62
7
  10
 1789.8485632184
  20
 239.64486700094
  30
0.0
  11
 1796.9450362725
  21
 239.64486700094
  31
0.0
   0
LINE
   5
4FE
 100
AcDbEntity
   8
LEVEL002
 370
20
 100
AcDbLine
   6
CONTINUOUS
  62
7
  10
 1796.9450362725
  20
 239.64486700094
  30
0.0
  11
 1797.8485632184
  21
 238.07991242474
  31
0.0
   0
LINE
   5
4FF
 100
AcDbEntity
   8
LEVEL002
 370
20
 100
AcDbLine
   6
CONTINUOUS
  62
7
  10
 1797.8485632184
  20
 238.07991242474
  30
0.0
  11
 1797.8485632184
  21
 221.57991242474
  31
0.0
   0
LINE
   5
500
 100
AcDbEntity
   8
LEVEL002
 370
20
 100
AcDbLine
   6
CONTINUOUS
  62
7
  10
 1797.8485632184
  20
 221.57991242474
  30
0.0
  11
 1796.9450362725
  21
 220.01495784854
  31
0.0
   0
LINE
   5
501
 100
AcDbEntity
   8
LEVEL002
 370
20
 100
AcDbLine
   6
CONTINUOUS
  62
7
  10
 1796.9450362725
  20
 220.01495784854
  30
0.0
  11
 1789.8485632184
  21
 220.01495784854
  31
0.0
   0
LINE
   5
502
 100
AcDbEntity
   8
LEVEL002
 370
20
 100
AcDbLine
   6
CONTINUOUS
  62
7
  10
 1789.8485632184
  20
 234.73738971280
  30
0.0
  11
 1796.9450362725
  21
 234.73738971280
  31
0.0
   0
ARC
   5
503
 100
AcDbEntity
   8
LEVEL002
 370
20
   6
CONTINUOUS
  62
7
 100
AcDbCircle
  10
 1794.0649492895
  20
 222.46869649261
  30
0.0
  40
 3.7836139288987
 100
AcDbArc
  50
 0.43039380536992E-12
  51
 40.429896847159
   0
LINE
   5
504
 100
AcDbEntity
   8
LEVEL002
 370
20
 100
AcDbLine
   6
CONTINUOUS
  62
7
  10
 1789.8485632184
  20
 224.92243513668
  30
0.0
  11
 1796.9450362725
  21
 224.92243513668
  31
0.0
   0
LINE
   5
505
 100
AcDbEntity
   8
LEVEL002
 370
20
 100
AcDbLine
   6
CONTINUOUS
  62
7
  10
 1789.8485632184
  20
 239.02991242474
  30
0.0
  11
 1787.3485632184
  21
 239.02991242474
  31
0.0
   0
LINE
   5
506
 100
AcDbEntity
   8
LEVEL002
 370
20
 100
AcDbLine
   6
CONTINUOUS
  62
7
  10
 1787.3485632184
  20
 239.02991242474
  30
0.0
  11
 1787.3485632184
  21
 220.62991242474
  31
0.0
   0
LINE
   5
507
 100
AcDbEntity
   8
LEVEL002
 370
20
 100
AcDbLine
   6
CONTINUOUS
  62
7
  10
 1787.3485632184
  20
 220.62991242474
  30
0.0
  11
 1789.8485632184
  21
 220.62991242474
  31
0.0
   0
LINE
   5
508
 100
AcDbEntity
   8
LEVEL002
 370
20
 100
AcDbLine
   6
CONTINUOUS
  62
7
  10
 1789.8485632184
  20
 220.62991242474
  30
0.0
  11
 1789.8485632184
  21
 239.02991242474
  31
0.0
   0
LINE
   5
509
 100
AcDbEntity
   8
LEVEL002
 370
20
 100
AcDbLine
   6
CONTINUOUS
  62
7
  10
 1789.8485632184
  20
 229.82991242474
  30
0.0
  11
 1787.3485632184
  21
 227.32991242474
  31
0.0
   0
LINE
   5
50A
 100
AcDbEntity
   8
LEVEL002
 370
20
 100
AcDbLine
   6
CONTINUOUS
  62
7
  10
 1789.8485632184
  20
 232.32991242474
  30
0.0
  11
 1787.3485632184
  21
 229.82991242474
  31
0.0
   0
ARC
   5
50B
 100
AcDbEntity
   8
LEVEL002
 370
20
   6
CONTINUOUS
  62
7
 100
AcDbCircle
  10
 1778.6277285147
  20
 229.82991242474
  30
0.0
  40
 13.779165296305
 100
AcDbArc
  50
 159.13593563448
  51
 200.86406436552
   0
ARC
   5
50C
 100
AcDbEntity
   8
LEVEL002
 370
20
   6
CONTINUOUS
  62
7
 100
AcDbCircle
  10
 1768.6321771473
  20
 222.46869649261
  30
0.0
  40
 3.7836139288987
 100
AcDbArc
  50
 139.57010315284
  51
 180.00000000000
   0
LINE
   5
50D
 100
AcDbEntity
   8
LEVEL002
 370
20
 100
AcDbLine
   6
CONTINUOUS
  62
7
  10
 1772.8485632184
  20
 239.64486700094
  30
0.0
  11
 1772.8485632184
  21
 220.01495784854
  31
0.0
   0
LINE
   5
50E
 100
AcDbEntity
   8
LEVEL002
 370
20
 100
AcDbLine
   6
CONTINUOUS
  62
7
  10
 1772.8485632184
  20
 220.01495784854
  30
0.0
  11
 1765.7520901643
  21
 220.01495784854
  31
0.0
   0
LINE
   5
50F
 100
AcDbEntity
   8
LEVEL002
 370
20
 100
AcDbLine
   6
CONTINUOUS
  62
7
  10
 1765.7520901643
  20
 220.01495784854
  30
0.0
  11
 1764.8485632184
  21
 221.57991242474
  31
0.0
   0
LINE
   5
510
 100
AcDbEntity
   8
LEVEL002
 370
20
 100
AcDbLine
   6
CONTINUOUS
  62
7
  10
 1764.8485632184
  20
 221.57991242474
  30
0.0
  11
 1764.8485632184
  21
 238.07991242474
  31
0.0
   0
LINE
   5
511
 100
AcDbEntity
   8
LEVEL002
 370
20
 100
AcDbLine
   6
CONTINUOUS
  62
7
  10
 1764.8485632184
  20
 238.07991242474
  30
0.0
  11
 1765.7520901643
  21
 239.64486700094
  31
0.0
   0
LINE
   5
512
 100
AcDbEntity
   8
LEVEL002
 370
20
 100
AcDbLine
   6
CONTINUOUS
  62
7
  10
 1765.7520901643
  20
 239.64486700094
  30
0.0
  11
 1772.8485632184
  21
 239.64486700094
  31
0.0
   0
LINE
   5
513
 100
AcDbEntity
   8
LEVEL002
 370
20
 100
AcDbLine
   6
CONTINUOUS
  62
7
  10
 1772.8485632184
  20
 224.92243513668
  30
0.0
  11
 1765.7520901643
  21
 224.92243513668
  31
0.0
   0
ARC
   5
514
 100
AcDbEntity
   8
LEVEL002
 370
20
   6
CONTINUOUS
  62
7
 100
AcDbCircle
  10
 1768.6321771473
  20
 237.19112835687
  30
0.0
  40
 3.7836139288987
 100
AcDbArc
  50
 180.00000000000
  51
 220.42989684716
   0
LINE
   5
515
 100
AcDbEntity
   8
LEVEL002
 370
20
 100
AcDbLine
   6
CONTINUOUS
  62
7
  10
 1772.8485632184
  20
 234.73738971280
  30
0.0
  11
 1765.7520901643
  21
 234.73738971280
  31
0.0
   0
LINE
   5
516
 100
AcDbEntity
   8
LEVEL002
 370
20
 100
AcDbLine
   6
CONTINUOUS
  62
7
  10
 1772.8485632184
  20
 220.62991242474
  30
0.0
  11
 1775.3485632184
  21
 220.62991242474
  31
0.0
   0
LINE
   5
517
 100
AcDbEntity
   8
LEVEL002
 370
20
 100
AcDbLine
   6
CONTINUOUS
  62
7
  10
 1775.3485632184
  20
 220.62991242474
  30
0.0
  11
 1775.3485632184
  21
 239.02991242474
  31
0.0
   0
LINE
   5
518
 100
AcDbEntity
   8
LEVEL002
 370
20
 100
AcDbLine
   6
CONTINUOUS
  62
7
  10
 1775.3485632184
  20
 239.02991242474
  30
0.0
  11
 1772.8485632184
  21
 239.02991242474
  31
0.0
   0
LINE
   5
519
 100
AcDbEntity
   8
LEVEL002
 370
20
 100
AcDbLine
   6
CONTINUOUS
  62
7
  10
 1772.8485632184
  20
 239.02991242474
  30
0.0
  11
 1772.8485632184
  21
 220.62991242474
  31
0.0
   0
LINE
   5
51A
 100
AcDbEntity
   8
LEVEL002
 370
20
 100
AcDbLine
   6
CONTINUOUS
  62
7
  10
 1772.8485632184
  20
 229.82991242474
  30
0.0
  11
 1775.3485632184
  21
 232.32991242474
  31
0.0
   0
LINE
   5
51B
 100
AcDbEntity
   8
LEVEL002
 370
20
 100
AcDbLine
   6
CONTINUOUS
  62
7
  10
 1772.8485632184
  20
 227.32991242474
  30
0.0
  11
 1775.3485632184
  21
 229.82991242474
  31
0.0
   0
LINE
   5
51C
 100
AcDbEntity
   8
LEVEL002
 370
20
 100
AcDbLine
   6
CONTINUOUS
  62
7
  10
 1787.3485632184
  20
 217.82991242474
  30
0.0
  11
 1775.3485632184
  21
 217.82991242474
  31
0.0
   0
LINE
   5
51D
 100
AcDbEntity
   8
LEVEL002
 370
20
 100
AcDbLine
   6
CONTINUOUS
  62
7
  10
 1867.3485632184
  20
 237.32991242474
  30
0.0
  11
 1867.3485632184
  21
 236.82991242474
  31
0.0
   0
LINE
   5
51E
 100
AcDbEntity
   8
LEVEL002
 370
20
 100
AcDbLine
   6
CONTINUOUS
  62
7
  10
 1827.3485632184
  20
 237.32991242474
  30
0.0
  11
 1827.3485632184
  21
 236.82991242474
  31
0.0
   0
LINE
   5
51F
 100
AcDbEntity
   8
LEVEL002
 370
20
 100
AcDbLine
   6
CONTINUOUS
  62
7
  10
 1867.3485632184
  20
 236.82991242474
  30
0.0
  11
 1827.3485632184
  21
 236.82991242474
  31
0.0
   0
LINE
   5
520
 100
AcDbEntity
   8
LEVEL002
 370
20
 100
AcDbLine
   6
CONTINUOUS
  62
7
  10
 1827.3485632184
  20
 237.32991242474
  30
0.0
  11
 1822.8485632184
  21
 237.32991242474
  31
0.0
   0
LINE
   5
521
 100
AcDbEntity
   8
LEVEL002
 370
20
 100
AcDbLine
   6
CONTINUOUS
  62
7
  10
 1871.8285632184
  20
 237.32991242474
  30
0.0
  11
 1867.3485632184
  21
 237.32991242474
  31
0.0
   0
LINE
   5
522
 100
AcDbEntity
   8
LEVEL002
 370
20
 100
AcDbLine
   6
CONTINUOUS
  62
7
  10
 1787.3485632184
  20
 231.38991242474
  30
0.0
  11
 1787.3485632184
  21
 217.82991242474
  31
0.0
   0
LINE
   5
523
 100
AcDbEntity
   8
LEVEL002
 370
20
 100
AcDbLine
   6
CONTINUOUS
  62
7
  10
 1806.3485632184
  20
 234.82991242474
  30
0.0
  11
 1806.3485632184
  21
 224.82991242474
  31
0.0
   0
LINE
   5
524
 100
AcDbEntity
   8
LEVEL002
 370
20
 100
AcDbLine
   6
CONTINUOUS
  62
7
  10
 1775.3485632184
  20
 239.82991242474
  30
0.0
  11
 1775.3485632184
  21
 217.82991242474
  31
0.0
   0
LINE
   5
525
 100
AcDbEntity
   8
LEVEL002
 370
20
 100
AcDbLine
   6
CONTINUOUS
  62
7
  10
 1787.3485632184
  20
 239.82991242474
  30
0.0
  11
 1787.3485632184
  21
 231.38991242474
  31
0.0
   0
ARC
   5
526
 100
AcDbEntity
   8
LEVEL002
 370
20
   6
CONTINUOUS
  62
7
 100
AcDbCircle
  10
 1847.3485632184
  20
 294.82991242475
  30
0.0
  40
 62.500000000000
 100
AcDbArc
  50
 241.64236342369
  51
 246.91999999897
   0
ARC
   5
527
 100
AcDbEntity
   8
LEVEL002
 370
20
   6
CONTINUOUS
  62
7
 100
AcDbCircle
  10
 1847.3485632184
  20
 294.82991242473
  30
0.0
  40
 62.500000000000
 100
AcDbArc
  50
 293.06999999995
  51
 298.35763657635
   0
ARC
   5
528
 100
AcDbEntity
   8
LEVEL002
 370
20
   6
CONTINUOUS
  62
7
 100
AcDbCircle
  10
 1812.8285632184
  20
 239.16991242479
  30
0.0
  40
 3.0000000000000
 100
AcDbArc
  50
 295.97999999973
  51
 12.709032993509
   0
ARC
   5
529
 100
AcDbEntity
   8
LEVEL002
 370
20
   6
CONTINUOUS
  62
7
 100
AcDbCircle
  10
 1847.3485632184
  20
 294.82991242474
  30
0.0
  40
 67.500000000000
 100
AcDbArc
  50
 245.46999999896
  51
 305.43094468734
   0
LINE
   5
52A
 100
AcDbEntity
   8
LEVEL002
 370
20
 100
AcDbLine
   6
CONTINUOUS
  62
7
  10
 1797.8485632184
  20
 234.82991242474
  30
0.0
  11
 1806.3485632184
  21
 234.82991242474
  31
0.0
   0
LINE
   5
52B
 100
AcDbEntity
   8
LEVEL002
 370
20
 100
AcDbLine
   6
CONTINUOUS
  62
7
  10
 1806.3485632184
  20
 234.82991242474
  30
0.0
  11
 1807.8485632184
  21
 233.32991242474
  31
0.0
   0
LINE
   5
52C
 100
AcDbEntity
   8
LEVEL002
 370
20
 100
AcDbLine
   6
CONTINUOUS
  62
7
  10
 1807.8485632184
  20
 233.32991242474
  30
0.0
  11
 1807.8485632184
  21
 226.32991242474
  31
0.0
   0
LINE
   5
52D
 100
AcDbEntity
   8
LEVEL002
 370
20
 100
AcDbLine
   6
CONTINUOUS
  62
7
  10
 1807.8485632184
  20
 226.32991242474
  30
0.0
  11
 1806.3485632184
  21
 224.82991242474
  31
0.0
   0
LINE
   5
52E
 100
AcDbEntity
   8
LEVEL002
 370
20
 100
AcDbLine
   6
CONTINUOUS
  62
7
  10
 1806.3485632184
  20
 224.82991242474
  30
0.0
  11
 1797.8485632184
  21
 224.82991242474
  31
0.0
   0
LINE
   5
52F
 100
AcDbEntity
   8
LEVEL002
 370
20
 100
AcDbLine
   6
CONTINUOUS
  62
7
  10
 1807.8013116762
  20
 233.37716396689
  30
0.0
  11
 1814.1485632184
  21
 236.46991242474
  31
0.0
   0
LINE
   5
530
 100
AcDbEntity
   8
LEVEL002
 370
20
 100
AcDbLine
   6
CONTINUOUS
  62
7
  10
 1827.3485632184
  20
 237.32991242474
  30
0.0
  11
 1807.8485632184
  21
 227.82366242474
  31
0.0
   0
LINE
   5
531
 100
AcDbEntity
   8
LEVEL002
 370
20
 100
AcDbLine
   6
CONTINUOUS
  62
7
  10
 1801.7075375774
  20
 224.82991242474
  30
0.0
  11
 1797.6595096004
  21
 222.85649878596
  31
0.0
   0
LINE
   5
532
 100
AcDbEntity
   8
LEVEL002
 370
20
 100
AcDbLine
   6
CONTINUOUS
  62
7
  10
 1791.8307076775
  20
 220.01495784854
  30
0.0
  11
 1787.3485632184
  21
 217.82991242474
  31
0.0
   0
LINE
   5
533
 100
AcDbEntity
   8
LEVEL002
 370
20
 100
AcDbLine
   6
CONTINUOUS
  62
7
  10
 850.54856321839
  20
 191.82991242474
  30
0.0
  11
 985.54856321839
  21
 191.82991242474
  31
0.0
   0
LINE
   5
534
 100
AcDbEntity
   8
LEVEL002
 370
20
 100
AcDbLine
   6
CONTINUOUS
  62
7
  10
 567.14856321839
  20
 191.82991242474
  30
0.0
  11
 432.14856321839
  21
 191.82991242474
  31
0.0
   0
LINE
   5
535
 100
AcDbEntity
   8
LEVEL002
 370
20
 100
AcDbLine
   6
CONTINUOUS
  62
7
  10
 868.84856321839
  20
 128.82991242474
  30
0.0
  11
 896.84856321839
  21
 128.82991242474
  31
0.0
   0
LINE
   5
536
 100
AcDbEntity
   8
LEVEL002
 370
20
 100
AcDbLine
   6
CONTINUOUS
  62
7
  10
 896.84856321839
  20
 128.82991242474
  30
0.0
  11
 896.84856321839
  21
 178.82991242474
  31
0.0
   0
LINE
   5
537
 100
AcDbEntity
   8
LEVEL002
 370
20
 100
AcDbLine
   6
CONTINUOUS
  62
7
  10
 896.84856321839
  20
 178.82991242474
  30
0.0
  11
 868.84856321839
  21
 178.82991242474
  31
0.0
   0
LINE
   5
538
 100
AcDbEntity
   8
LEVEL002
 370
20
 100
AcDbLine
   6
CONTINUOUS
  62
7
  10
 868.84856321839
  20
 178.82991242474
  30
0.0
  11
 868.84856321839
  21
 128.82991242474
  31
0.0
   0
LINE
   5
539
 100
AcDbEntity
   8
LEVEL002
 370
20
 100
AcDbLine
   6
CONTINUOUS
  62
7
  10
 520.84856321839
  20
 128.82991242474
  30
0.0
  11
 548.84856321839
  21
 128.82991242474
  31
0.0
   0
LINE
   5
53A
 100
AcDbEntity
   8
LEVEL002
 370
20
 100
AcDbLine
   6
CONTINUOUS
  62
7
  10
 548.84856321839
  20
 128.82991242474
  30
0.0
  11
 548.84856321839
  21
 178.82991242474
  31
0.0
   0
LINE
   5
53B
 100
AcDbEntity
   8
LEVEL002
 370
20
 100
AcDbLine
   6
CONTINUOUS
  62
7
  10
 548.84856321839
  20
 178.82991242474
  30
0.0
  11
 520.84856321839
  21
 178.82991242474
  31
0.0
   0
LINE
   5
53C
 100
AcDbEntity
   8
LEVEL002
 370
20
 100
AcDbLine
   6
CONTINUOUS
  62
7
  10
 520.84856321839
  20
 178.82991242474
  30
0.0
  11
 520.84856321839
  21
 128.82991242474
  31
0.0
   0
LINE
   5
53D
 100
AcDbEntity
   8
LEVEL002
 370
20
 100
AcDbLine
   6
CONTINUOUS
  62
7
  10
 516.84856321839
  20
 191.82991242474
  30
0.0
  11
 516.84856321839
  21
 145.82991242474
  31
0.0
   0
LINE
   5
53E
 100
AcDbEntity
   8
LEVEL002
 370
20
 100
AcDbLine
   6
CONTINUOUS
  62
7
  10
 516.84856321839
  20
 145.82991242474
  30
0.0
  11
 520.84856321839
  21
 145.82991242474
  31
0.0
   0
LINE
   5
53F
 100
AcDbEntity
   8
LEVEL002
 370
20
 100
AcDbLine
   6
CONTINUOUS
  62
7
  10
 548.84856321839
  20
 145.82991242474
  30
0.0
  11
 552.84856321839
  21
 145.82991242474
  31
0.0
   0
LINE
   5
540
 100
AcDbEntity
   8
LEVEL002
 370
20
 100
AcDbLine
   6
CONTINUOUS
  62
7
  10
 552.84856321839
  20
 145.82991242474
  30
0.0
  11
 552.84856321839
  21
 191.82991242474
  31
0.0
   0
LINE
   5
541
 100
AcDbEntity
   8
LEVEL002
 370
20
 100
AcDbLine
   6
CONTINUOUS
  62
7
  10
 864.84856321839
  20
 191.82991242474
  30
0.0
  11
 864.84856321839
  21
 145.82991242474
  31
0.0
   0
LINE
   5
542
 100
AcDbEntity
   8
LEVEL002
 370
20
 100
AcDbLine
   6
CONTINUOUS
  62
7
  10
 864.84856321839
  20
 145.82991242474
  30
0.0
  11
 868.84856321839
  21
 145.82991242474
  31
0.0
   0
LINE
   5
543
 100
AcDbEntity
   8
LEVEL002
 370
20
 100
AcDbLine
   6
CONTINUOUS
  62
7
  10
 896.84856321839
  20
 145.82991242474
  30
0.0
  11
 900.84856321839
  21
 145.82991242474
  31
0.0
   0
LINE
   5
544
 100
AcDbEntity
   8
LEVEL002
 370
20
 100
AcDbLine
   6
CONTINUOUS
  62
7
  10
 900.84856321839
  20
 145.82991242474
  30
0.0
  11
 900.84856321839
  21
 191.82991242474
  31
0.0
   0
LINE
   5
545
 100
AcDbEntity
   8
LEVEL002
 370
20
 100
AcDbLine
   6
CONTINUOUS
  62
7
  10
 418.84856321839
  20
 128.82991242474
  30
0.0
  11
 1006.8485632184
  21
 128.82991242474
  31
0.0
   0
LINE
   5
546
 100
AcDbEntity
   8
LEVEL002
 370
20
 100
AcDbLine
   6
CONTINUOUS
  62
7
  10
 1331.8485632184
  20
 191.82991242474
  30
0.0
  11
 1741.8485632184
  21
 191.82991242474
  31
0.0
   0
CIRCLE
   5
547
 100
AcDbEntity
   8
LEVEL002
 370
20
 100
AcDbCircle
   6
CONTINUOUS
  62
7
  10
 1374.8485632184
  20
 153.82991242474
  30
0.0
  40
 5.0000000000000
   0
CIRCLE
   5
548
 100
AcDbEntity
   8
LEVEL002
 370
20
 100
AcDbCircle
   6
CONTINUOUS
  62
7
  10
 1700.8485632184
  20
 153.82991242474
  30
0.0
  40
 5.0000000000000
   0
LINE
   5
549
 100
AcDbEntity
   8
LEVEL002
 370
20
 100
AcDbLine
   6
CONTINUOUS
  62
7
  10
 1423.8687385612
  20
 191.82991242474
  30
0.0
  11
 1380.5244708352
  21
 148.19217593517
  31
0.0
   0
LINE
   5
54A
 100
AcDbEntity
   8
LEVEL002
 370
20
 100
AcDbLine
   6
CONTINUOUS
  62
7
  10
 1675.1834719508
  20
 191.82991242474
  30
0.0
  11
 1693.5394960307
  21
 150.57759988652
  31
0.0
   0
LINE
   5
54B
 100
AcDbEntity
   8
LEVEL002
 370
20
 100
AcDbLine
   6
CONTINUOUS
  62
7
  10
 1726.5136544860
  20
 191.82991242474
  30
0.0
  11
 1708.1576304061
  21
 150.57759988652
  31
0.0
   0
ARC
   5
54C
 100
AcDbEntity
   8
LEVEL002
 370
20
   6
CONTINUOUS
  62
7
 100
AcDbCircle
  10
 1374.8485632184
  20
 153.82991242474
  30
0.0
  40
 25.000000000000
 100
AcDbArc
  50
 100.21731692782
  51
 26.530384730349
   0
ARC
   5
54D
 100
AcDbEntity
   8
LEVEL002
 370
20
   6
CONTINUOUS
  62
7
 100
AcDbCircle
  10
 1374.8485632184
  20
 153.82991242473
  30
0.0
  40
 8.0000000000000
 100
AcDbArc
  50
 171.55439204284
  51
 315.19330961535
   0
ARC
   5
54E
 100
AcDbEntity
   8
LEVEL002
 370
20
   6
CONTINUOUS
  62
7
 100
AcDbCircle
  10
 1700.8485632184
  20
 153.82991242474
  30
0.0
  40
 25.000000000000
 100
AcDbArc
  50
 132.65053391477
  51
 47.349466085236
   0
ARC
   5
54F
 100
AcDbEntity
   8
LEVEL002
 370
20
   6
CONTINUOUS
  62
7
 100
AcDbCircle
  10
 1700.8485632184
  20
 153.82991242474
  30
0.0
  40
 8.0000000000000
 100
AcDbArc
  50
 203.98760902981
  51
 336.01239097020
   0
LINE
   5
550
 100
AcDbEntity
   8
LEVEL002
 370
20
 100
AcDbLine
   6
CONTINUOUS
  62
7
  10
 1372.4031213738
  20
 191.82991242474
  30
0.0
  11
 1366.9353173292
  21
 155.00487603990
  31
0.0
   0
LINE
   5
551
 100
AcDbEntity
   8
LEVEL002
 370
20
 100
AcDbLine
   6
CONTINUOUS
  62
7
  10
 1313.8485632184
  20
 128.82991242474
  30
0.0
  11
 1756.8485632184
  21
 128.82991242474
  31
0.0
   0
MTEXT
   5
553
 100
AcDbEntity
   8
LEVEL002
 370
9
  62
1
 100
AcDbMText
  10
 1422.8485632184
  20
 1294.3299124247
  30
0.0
  40
 16.000000000000
  41
0.0
  71
7
  72
1
   1
\T1.000000;単相１００Ｖ　５０／６０Ｈｚ
   7
GMM001
  44
 0.79999984000003
   0
MTEXT
   5
555
 100
AcDbEntity
   8
LEVEL002
 370
9
  62
1
 100
AcDbMText
  10
 1422.8485632184
  20
 1134.3299124247
  30
0.0
  40
 16.000000000000
  41
0.0
  71
7
  72
1
   1
\T1.000000;２Ｐ１５Ａ
   7
GMM001
  44
 0.79999984000003
   0
DIMENSION
   5
556
 100
AcDbEntity
   8
LEVEL001
 370
20
   6
CONTINUOUS
  62
7
 100
AcDbDimension
   2
*D1
  10
 1742.8485632184
  20
 925.21184495703
  30
0.0
  11
 1537.3485632184
  21
 925.21184495703
  31
0.0
  70
0
   1
\A1;411
   3
GMM001
 100
AcDbAlignedDimension
  13
 1331.8485632184
  23
 667.82991242474
  33
0.0
  14
 1742.8485632184
  24
 667.82991242474
  34
0.0
 100
AcDbRotatedDimension
   0
DIMENSION
   5
558
 100
AcDbEntity
   8
LEVEL001
 370
20
   6
CONTINUOUS
  62
7
 100
AcDbDimension
   2
*D2
  10
 1947.8485632184
  20
 925.21184495703
  30
0.0
  11
 1845.3485632184
  21
 925.21184495703
  31
0.0
  70
0
   1
\A1;{2}{0}{5}
   3
GMM001
 100
AcDbAlignedDimension
  13
 1742.8485632184
  23
 667.82991242474
  33
0.0
  14
 1947.8485632184
  24
 664.32991242474
  34
0.0
 100
AcDbRotatedDimension
   0
DIMENSION
   5
55A
 100
AcDbEntity
   8
LEVEL001
 370
20
   6
CONTINUOUS
  62
7
 100
AcDbDimension
   2
*D3
  10
 1949.8485632184
  20
 966.63592995497
  30
0.0
  11
 1639.8485632184
  21
 966.63592995497
  31
0.0
  70
0
   1
\A1;620
   3
GMM001
 100
AcDbAlignedDimension
  13
 1329.8485632184
  23
 671.11613429724
  33
0.0
  14
 1949.8485632184
  24
 667.82622369698
  34
0.0
 100
AcDbRotatedDimension
   0
DIMENSION
   5
55C
 100
AcDbEntity
   8
LEVEL001
 370
20
   6
CONTINUOUS
  62
7
 100
AcDbDimension
   2
*D4
  10
 1153.8623348400
  20
 128.82991242474
  30
0.0
  11
 1153.8623348400
  21
 511.32991242474
  31
0.0
  70
0
   1
\A1;765
   3
GMM001
 100
AcDbAlignedDimension
  13
 1451.2396114466
  23
 893.82991242474
  33
0.0
  14
 1313.8485632184
  24
 128.82991242474
  34
0.0
  50
 270.00000000000
 100
AcDbRotatedDimension
   0
DIMENSION
   5
55E
 100
AcDbEntity
   8
LEVEL001
 370
20
   6
CONTINUOUS
  62
7
 100
AcDbDimension
   2
*D5
  10
 1200.1410659326
  20
 128.82991242474
  30
0.0
  11
 1200.1410659326
  21
 458.82991242474
  31
0.0
  70
0
   1
\A1;660
   3
GMM001
 100
AcDbAlignedDimension
  13
 1516.8307211050
  23
 788.82991242474
  33
0.0
  14
 1313.8485632184
  24
 128.82991242474
  34
0.0
  50
 270.00000000000
 100
AcDbRotatedDimension
   0
DIMENSION
   5
560
 100
AcDbEntity
   8
LEVEL001
 370
20
   6
CONTINUOUS
  62
7
 100
AcDbDimension
   2
*D6
  10
 988.84856321839
  20
 848.98820781857
  30
0.0
  11
 708.84856321839
  21
 848.98820781857
  31
0.0
  70
0
   1
\A1;560
   3
GMM002
 100
AcDbAlignedDimension
  13
 428.84856321839
  23
 691.93073655420
  33
0.0
  14
 988.84856321839
  24
 689.99970207144
  34
0.0
 100
AcDbRotatedDimension
   0
MTEXT
   5
563
 100
AcDbEntity
   8
LEVEL001
 370
20
  62
7
 100
AcDbMText
  10
 1877.5172413793
  20
 166.34482758621
  30
0.0
  40
 16.000000000000
  41
0.0
  71
7
  72
1
   1
\W0.500000;\T1.000000;RP-200P \W1.000000;\T1.000000;承認図
   7
GMM001
  44
 0.79999984000003
   0
MTEXT
   5
564
 100
AcDbEntity
   8
LEVEL001
 370
20
  62
7
 100
AcDbMText
  10
 2167.5172413793
  20
 166.34482758621
  30
0.0
  40
 16.000000000000
  41
0.0
  71
7
  72
1
   1
\T1.000000;RP-200P-A
   7
GMM002
  44
 0.79999984000003
   0
MTEXT
   5
566
 100
AcDbEntity
   8
LEVEL001
 370
20
  62
7
 100
AcDbMText
  10
 2275.5172413793
  20
 94.344827586207
  30
0.0
  40
 16.000000000000
  41
0.0
  71
7
  72
1
   1
\T1.000000;宮崎
   7
GMM001
  44
 0.79999984000003
   0
MTEXT
   5
567
 100
AcDbEntity
   8
LEVEL001
 370
20
  62
7
 100
AcDbMText
  10
 2238.7797413793
  20
 96.744827586207
  30
0.0
  40
 16.000000000000
  41
0.0
  71
7
  72
1
   1
\T1.000000;17
   7
GMM002
  44
 0.79999984000003
   0
MTEXT
   5
568
 100
AcDbEntity
   8
LEVEL001
 370
20
  62
7
 100
AcDbMText
  10
 2209.4922413793
  20
 96.744827586207
  30
0.0
  40
 16.000000000000
  41
0.0
  71
7
  72
1
   1
\T1.000000;3
   7
GMM002
  44
 0.79999984000003
   0
MTEXT
   5
569
 100
AcDbEntity
   8
LEVEL001
 370
20
  62
7
 100
AcDbMText
  10
 2171.4547413793
  20
 96.744827586207
  30
0.0
  40
 16.000000000000
  41
0.0
  71
7
  72
1
   1
\T1.000000;'22
   7
GMM002
  44
 0.79999984000003
   0
ENDSEC
  0
SECTION
  2
OBJECTS
  0
DICTIONARY
  5
C
100
AcDbDictionary
  3
ACAD_GROUP
350
D
  3
ACAD_MLINESTYLE
350
1B
  3
DWGPROPS
350
1E
  0
DICTIONARY
  5
D
102
{ACAD_REACTORS
330
C
102
}
100
AcDbDictionary
  0
DICTIONARY
  5
1B
102
{ACAD_REACTORS
330
C
102
}
100
AcDbDictionary
  3
STANDARD
350
1C
  0
MLINESTYLE
  5
1C
102
{ACAD_REACTORS
330
1B
102
}
100
AcDbMlineStyle
  2
STANDARD
 70
     0
  3

 62
   256
 51
90.0
 52
90.0
 71
     2
 49
0.5
 62
   256
  6
BYLAYER
 49
-0.5
 62
   256
  6
BYLAYER
   0
XRECORD
   5
1E
 102
{ACAD_REACTORS
 330
C
 102
}
 330
C
 100
AcDbXrecord
 280
1
   1
DWGPROPS COOKIE
   2
 
   3
 
   4
 
   6
 
   7
RP-200P_1
   8
 
   9

 300
 = 
 301
 = 
 302
 = 
 303
 = 
 304
 = 
 305
 = 
 306
 = 
 307
 = 
 308
 = 
 309
 = 
  40
0.0
  41
 2460136.5000000
  42
 2460136.5000000
   1

  90
10
   0
ENDSEC
   0
EOF
