   0
SECTION
   2
HEADER
   9
$ACADVER
   1
AC1015
   9
$DWGCODEPAGE
   3
ANSI_932
   9
$LIMMIN
  10
0.0
  20
0.0
   9
$LIMMAX
  10
 1782.0000000000
  20
 1260.0000000000
   9
$EXTMIN
  10
0.0
  20
0.0
  30
0.0
   9
$EXTMAX
  10
 1782.0000000000
  20
 1260.0000000000
  30
0.0
   9
$LTSCALE
  40
 35.640000000000
   9
$HANDSEED
   5
319
   0
ENDSEC
   0
SECTION
   2
TABLES
  0
TABLE
  2
VPORT
  5
8
100
AcDbSymbolTable
 70
     1
  0
VPORT
  5
318
100
AcDbSymbolTableRecord
100
AcDbViewportTableRecord
  2
*ACTIVE
 70
     0
 10
0.0
 20
0.0
 11
1.0
 21
1.0
  12
 891.00000000000
  22
 630.00000000000
 13
0.0
 23
0.0
 14
1.0
 24
1.0
 15
0.0
 25
0.0
 16
0.0
 26
0.0
 36
1.0
 17
0.0
 27
0.0
 37
0.0
  40
 1782.0000000000
  41
 1.4787878787879
 42
50.0
 43
0.0
 44
0.0
 50
0.0
 51
0.0
 71
     0
 72
   100
 73
     1
 74
     1
 75
     0
 76
     0
 77
     0
 78
     0
  0
ENDTAB
  0
TABLE
  2
LTYPE
  5
5
100
AcDbSymbolTable
 70
    25
  0
LTYPE
  5
12
100
AcDbSymbolTableRecord
100
AcDbLinetypeTableRecord
  2
BYBLOCK
 70
     0
  3

 72
    65
 73
     0
 40
0.0
  0
LTYPE
  5
13
100
AcDbSymbolTableRecord
100
AcDbLinetypeTableRecord
  2
BYLAYER
 70
     0
  3

 72
    65
 73
     0
 40
0.0
  0
LTYPE
  5
14
100
AcDbSymbolTableRecord
100
AcDbLinetypeTableRecord
  2
CONTINUOUS
 70
     0
  3
Solid line
 72
    65
 73
     0
 40
0.0
  0
LTYPE
  5
20
100
AcDbSymbolTableRecord
100
AcDbLinetypeTableRecord
  2
BORDER
 70
     0
  3
__ __ . __ __ . __ __ . __ __ . __ __ . __ __ .
 72
    65
 73
     6
 40
1.75
 49
0.5
 74
     0
 49
-0.25
 74
     0
 49
0.5
 74
     0
 49
-0.25
 74
     0
 49
0.0
 74
     0
 49
-0.25
 74
     0
  0
LTYPE
  5
21
100
AcDbSymbolTableRecord
100
AcDbLinetypeTableRecord
  2
BORDER2
 70
     0
  3
__.__.__.__.__.__.__.__.__.__.__.__.__.__.__.__
 72
    65
 73
     6
 40
0.875
 49
0.25
 74
     0
 49
-0.125
 74
     0
 49
0.25
 74
     0
 49
-0.125
 74
     0
 49
0.0
 74
     0
 49
-0.125
 74
     0
  0
LTYPE
  5
22
100
AcDbSymbolTableRecord
100
AcDbLinetypeTableRecord
  2
BORDERX2
 70
     0
  3
____  ____  .  ____  ____  .  ____  ____  .  __
 72
    65
 73
     6
 40
3.5
 49
1.0
 74
     0
 49
-0.5
 74
     0
 49
1.0
 74
     0
 49
-0.5
 74
     0
 49
0.0
 74
     0
 49
-0.5
 74
     0
  0
LTYPE
  5
23
100
AcDbSymbolTableRecord
100
AcDbLinetypeTableRecord
  2
CENTER
 70
     0
  3
____ _ ____ _ ____ _ ____ _ ____ _ ____ _ ____ 
 72
    65
 73
     4
 40
2.0
 49
1.25
 74
     0
 49
-0.25
 74
     0
 49
0.25
 74
     0
 49
-0.25
 74
     0
  0
LTYPE
  5
24
100
AcDbSymbolTableRecord
100
AcDbLinetypeTableRecord
  2
CENTER2
 70
     0
  3
___ _ ___ _ ___ _ ___ _ ___ _ ___ _ ___ _ ___ _
 72
    65
 73
     4
 40
1.125
 49
0.75
 74
     0
 49
-0.125
 74
     0
 49
0.125
 74
     0
 49
-0.125
 74
     0
  0
LTYPE
  5
25
100
AcDbSymbolTableRecord
100
AcDbLinetypeTableRecord
  2
CENTERX2
 70
     0
  3
________  __  ________  __  ________  __  _____
 72
    65
 73
     4
 40
4.0
 49
2.5
 74
     0
 49
-0.5
 74
     0
 49
0.5
 74
     0
 49
-0.5
 74
     0
  0
LTYPE
  5
26
100
AcDbSymbolTableRecord
100
AcDbLinetypeTableRecord
  2
DASHDOT
 70
     0
  3
__ . __ . __ . __ . __ . __ . __ . __ . __ . __
 72
    65
 73
     4
 40
1.0
 49
0.5
 74
     0
 49
-0.25
 74
     0
 49
0.0
 74
     0
 49
-0.25
 74
     0
  0
LTYPE
  5
27
100
AcDbSymbolTableRecord
100
AcDbLinetypeTableRecord
  2
DASHDOT2
 70
     0
  3
_._._._._._._._._._._._._._._._._._._._._._._._
 72
    65
 73
     4
 40
0.5
 49
0.25
 74
     0
 49
-0.125
 74
     0
 49
0.0
 74
     0
 49
-0.125
 74
     0
  0
LTYPE
  5
28
100
AcDbSymbolTableRecord
100
AcDbLinetypeTableRecord
  2
DASHDOTX2
 70
     0
  3
____  .  ____  .  ____  .  ____  .  ____  .  __
 72
    65
 73
     4
 40
2.0
 49
1.0
 74
     0
 49
-0.5
 74
     0
 49
0.0
 74
     0
 49
-0.5
 74
     0
  0
LTYPE
  5
29
100
AcDbSymbolTableRecord
100
AcDbLinetypeTableRecord
  2
DASHED
 70
     0
  3
__ __ __ __ __ __ __ __ __ __ __ __ __ __ __ __
 72
    65
 73
     2
 40
0.75
 49
0.5
 74
     0
 49
-0.25
 74
     0
  0
LTYPE
  5
2A
100
AcDbSymbolTableRecord
100
AcDbLinetypeTableRecord
  2
DASHED2
 70
     0
  3
_ _ _ _ _ _ _ _ _ _ _ _ _ _ _ _ _ _ _ _ _ _ _ _
 72
    65
 73
     2
 40
0.375
 49
0.25
 74
     0
 49
-0.125
 74
     0
  0
LTYPE
  5
2B
100
AcDbSymbolTableRecord
100
AcDbLinetypeTableRecord
  2
DASHEDX2
 70
     0
  3
____  ____  ____  ____  ____  ____  ____  ____ 
 72
    65
 73
     2
 40
1.5
 49
1.0
 74
     0
 49
-0.5
 74
     0
  0
LTYPE
  5
2C
100
AcDbSymbolTableRecord
100
AcDbLinetypeTableRecord
  2
DIVIDE
 70
     0
  3
____ . . ____ . . ____ . . ____ . . ____ . . __
 72
    65
 73
     6
 40
1.25
 49
0.5
 74
     0
 49
-0.25
 74
     0
 49
0.0
 74
     0
 49
-0.25
 74
     0
 49
0.0
 74
     0
 49
-0.25
 74
     0
  0
LTYPE
  5
2D
100
AcDbSymbolTableRecord
100
AcDbLinetypeTableRecord
  2
DIVIDE2
 70
     0
  3
__..__..__..__..__..__..__..__..__..__..__..__.
 72
    65
 73
     6
 40
0.625
 49
0.25
 74
     0
 49
-0.125
 74
     0
 49
0.0
 74
     0
 49
-0.125
 74
     0
 49
0.0
 74
     0
 49
-0.125
 74
     0
  0
LTYPE
  5
2E
100
AcDbSymbolTableRecord
100
AcDbLinetypeTableRecord
  2
DIVIDEX2
 70
     0
  3
________  .  .  ________  .  .  ________  .  . 
 72
    65
 73
     6
 40
2.5
 49
1.0
 74
     0
 49
-0.5
 74
     0
 49
0.0
 74
     0
 49
-0.5
 74
     0
 49
0.0
 74
     0
 49
-0.5
 74
     0
  0
LTYPE
  5
2F
100
AcDbSymbolTableRecord
100
AcDbLinetypeTableRecord
  2
DOT
 70
     0
  3
. . . . . . . . . . . . . . . . . . . . . . . .
 72
    65
 73
     2
 40
0.25
 49
0.0
 74
     0
 49
-0.25
 74
     0
  0
LTYPE
  5
30
100
AcDbSymbolTableRecord
100
AcDbLinetypeTableRecord
  2
DOT2
 70
     0
  3
...............................................
 72
    65
 73
     2
 40
0.125
 49
0.0
 74
     0
 49
-0.125
 74
     0
  0
LTYPE
  5
31
100
AcDbSymbolTableRecord
100
AcDbLinetypeTableRecord
  2
DOTX2
 70
     0
  3
.  .  .  .  .  .  .  .  .  .  .  .  .  .  .  . 
 72
    65
 73
     2
 40
0.5
 49
0.0
 74
     0
 49
-0.5
 74
     0
  0
LTYPE
  5
32
100
AcDbSymbolTableRecord
100
AcDbLinetypeTableRecord
  2
HIDDEN
 70
     0
  3
__ __ __ __ __ __ __ __ __ __ __ __ __ __ __ __
 72
    65
 73
     2
 40
0.375
 49
0.25
 74
     0
 49
-0.125
 74
     0
  0
LTYPE
  5
33
100
AcDbSymbolTableRecord
100
AcDbLinetypeTableRecord
  2
HIDDEN2
 70
     0
  3
_ _ _ _ _ _ _ _ _ _ _ _ _ _ _ _ _ _ _ _ _ _ _ _
 72
    65
 73
     2
 40
0.1875
 49
0.125
 74
     0
 49
-0.0625
 74
     0
  0
LTYPE
  5
34
100
AcDbSymbolTableRecord
100
AcDbLinetypeTableRecord
  2
HIDDENX2
 70
     0
  3
____ ____ ____ ____ ____ ____ ____ ____ ____ __
 72
    65
 73
     2
 40
0.75
 49
0.5
 74
     0
 49
-0.25
 74
     0
  0
LTYPE
  5
35
100
AcDbSymbolTableRecord
100
AcDbLinetypeTableRecord
  2
PHANTOM
 70
     0
  3
______  __  __  ______  __  __  ______  __  __ 
 72
    65
 73
     6
 40
2.5
 49
1.25
 74
     0
 49
-0.25
 74
     0
 49
0.25
 74
     0
 49
-0.25
 74
     0
 49
0.25
 74
     0
 49
-0.25
 74
     0
  0
LTYPE
  5
36
100
AcDbSymbolTableRecord
100
AcDbLinetypeTableRecord
  2
PHANTOM2
 70
     0
  3
___ _ _ ___ _ _ ___ _ _ ___ _ _ ___ _ _ ___ _ _
 72
    65
 73
     6
 40
1.25
 49
0.625
 74
     0
 49
-0.125
 74
     0
 49
0.125
 74
     0
 49
-0.125
 74
     0
 49
0.125
 74
     0
 49
-0.125
 74
     0
  0
LTYPE
  5
37
100
AcDbSymbolTableRecord
100
AcDbLinetypeTableRecord
  2
PHANTOMX2
 70
     0
  3
____________    ____    ____    ____________   
 72
    65
 73
     6
 40
5.0
 49
2.5
 74
     0
 49
-0.5
 74
     0
 49
0.5
 74
     0
 49
-0.5
 74
     0
 49
0.5
 74
     0
 49
-0.5
 74
     0
  0
ENDTAB
   0
TABLE
   2
LAYER
   5
2
 100
AcDbSymbolTable
  70
5
   0
LAYER
   5
E
 100
AcDbSymbolTableRecord
 100
AcDbLayerTableRecord
   2
0
  70
0
  62
7
   6
CONTINUOUS
 390
30
   0
LAYER
   5
39
 100
AcDbSymbolTableRecord
 100
AcDbLayerTableRecord
   2
LEVEL001
  70
0
  62
7
   6
CONTINUOUS
 390
30
   0
LAYER
   5
3A
 100
AcDbSymbolTableRecord
 100
AcDbLayerTableRecord
   2
内図枠(作図領域)
  70
0
  62
7
   6
CONTINUOUS
 390
30
   0
LAYER
   5
3B
 100
AcDbSymbolTableRecord
 100
AcDbLayerTableRecord
   2
外図枠(出力紙領域)
  70
0
  62
7
   6
CONTINUOUS
 390
30
   0
LAYER
   5
3C
 100
AcDbSymbolTableRecord
 100
AcDbLayerTableRecord
   2
部品表金額表示用
  70
0
  62
7
   6
CONTINUOUS
 390
30
   0
ENDTAB
  0
TABLE
  2
STYLE
  5
3
100
AcDbSymbolTable
  70
6
  0
STYLE
  5
F
100
AcDbSymbolTableRecord
100
AcDbTextStyleTableRecord
  2
STANDARD
 70
     0
 40
0.0
 41
1.0
 50
0.0
 71
     0
 42
0.2
  3
TXT
  4
BIGFONT
  0
STYLE
  5
38
100
AcDbSymbolTableRecord
100
AcDbTextStyleTableRecord
  2
STANDARD1
 70
     4
 40
0.0
 41
1.0
 50
0.0
 71
     0
 42
0.2
  3
TXT
  4
BIGFONT
   0
STYLE
   5
3D
 100
AcDbSymbolTableRecord
 100
AcDbTextStyleTableRecord
   2
GMM001
  70
0
  40
0.0
  41
 1.0000000000000
  50
0.0
  71
     0
  42
1.0
   3
txt.shx
   4
bigfont.shx
   0
STYLE
   5
3E
 100
AcDbSymbolTableRecord
 100
AcDbTextStyleTableRecord
   2
GMM002
  70
4
  40
0.0
  41
 1.0000000000000
  50
0.0
  71
     0
  42
1.0
   3
txt.shx
   4
bigfont.shx
   0
STYLE
   5
3F
 100
AcDbSymbolTableRecord
 100
AcDbTextStyleTableRecord
   2
GMM003
  70
0
  40
0.0
  41
 0.80000001192093
  50
0.0
  71
     0
  42
1.0
   3
txt.shx
   4
bigfont.shx
   0
STYLE
   5
40
 100
AcDbSymbolTableRecord
 100
AcDbTextStyleTableRecord
   2
GMM004
  70
0
  40
0.0
  41
 0.50000000000000
  50
0.0
  71
     0
  42
1.0
   3
txt.shx
   4
bigfont.shx
   0
ENDTAB
  0
TABLE
  2
VIEW
  5
6
100
AcDbSymbolTable
 70
     0
  0
ENDTAB
  0
TABLE
  2
UCS
  5
7
100
AcDbSymbolTable
 70
     0
  0
ENDTAB
  0
TABLE
  2
APPID
  5
9
100
AcDbSymbolTable
 70
     1
  0
APPID
  5
10
100
AcDbSymbolTableRecord
100
AcDbRegAppTableRecord
  2
ACAD
 70
     0
  0
ENDTAB
   0
TABLE
   2
DIMSTYLE
   5
A
 100
AcDbSymbolTable
  70
5
 100
AcDbDimStyleTable
  0
DIMSTYLE
105
1D
100
AcDbSymbolTableRecord
100
AcDbDimStyleTableRecord
  2
STANDARD
 70
     0
  3

  4

  5

  6

  7

 40
1.0
 41
0.18
 42
0.0625
 43
0.38
 44
0.18
 45
0.0
 46
0.0
 47
0.0
 48
0.0
140
0.18
141
0.09
142
0.0
143
25.4
144
1.0
145
0.0
146
1.0
147
0.09
 71
     0
 72
     0
 73
     1
 74
     1
 75
     0
 76
     0
 77
     0
 78
     0
170
     0
171
     2
172
     0
173
     0
174
     0
175
     0
176
     0
177
     0
178
     0
270
     2
271
     4
272
     4
273
     2
274
     2
340
F
275
     0
280
     0
281
     0
282
     0
283
     1
284
     0
285
     0
286
     0
287
     3
288
     0
   0
DIMSTYLE
 105
41
 100
AcDbSymbolTableRecord
 100
AcDbDimStyleTableRecord
   2
GMM001
  70
0
   3

   4

   5

   6
_OPEN30
   7
_OPEN30
  40
 1.0000000000000
  41
 9.0000000000000
  42
0.0
  43
 24.000000000000
  44
 6.0000000000000
  45
0.0
  46
0.0
  47
0.0
  48
0.0
 140
 12.000000000000
 141
 3.0000000000000
 142
0.0
 143
 0.39400000000000E-1
 144
 1.0000000000000
 145
0.0
 146
 0.62500000000000
 147
 3.0000000000000
  71
0
  72
0
  73
0
  74
0
  75
0
  76
0
  77
3
  78
8
 170
0
 171
2
 172
1
 173
1
 174
0
 175
0
 176
1
 177
1
 178
7
 270
2
 271
6
 272
0
 273
2
 274
2
 340
3D
 275
0
 280
0
 281
0
 282
0
 283
1
 284
0
 285
0
 286
0
 287
5
 288
1
   0
DIMSTYLE
 105
42
 100
AcDbSymbolTableRecord
 100
AcDbDimStyleTableRecord
   2
GMM002
  70
0
   3

   4

   5

   6
_OPEN30
   7
_OPEN30
  40
 1.0000000000000
  41
 9.0000000000000
  42
0.0
  43
 24.000000000000
  44
 6.0000000000000
  45
0.0
  46
0.0
  47
0.0
  48
0.0
 140
 12.000000000000
 141
 3.0000000000000
 142
0.0
 143
 0.39400000000000E-1
 144
 1.0000000000000
 145
0.0
 146
 0.62500000000000
 147
 3.0000000000000
  71
0
  72
0
  73
0
  74
0
  75
0
  76
0
  77
3
  78
8
 170
0
 171
2
 172
1
 173
1
 174
0
 175
0
 176
1
 177
1
 178
7
 270
2
 271
6
 272
0
 273
2
 274
2
 340
3D
 275
0
 280
0
 281
0
 282
0
 283
1
 284
0
 285
0
 286
0
 287
3
 288
0
   0
DIMSTYLE
 105
43
 100
AcDbSymbolTableRecord
 100
AcDbDimStyleTableRecord
   2
GMM003
  70
0
   3

   4

   5

   6
_OPEN30
   7
_NONE
  40
 1.0000000000000
  41
 9.0000000000000
  42
0.0
  43
 24.000000000000
  44
 6.0000000000000
  45
0.0
  46
0.0
  47
0.0
  48
0.0
 140
 12.000000000000
 141
 3.0000000000000
 142
0.0
 143
 0.39400000000000E-1
 144
 1.0000000000000
 145
0.0
 146
 0.62500000000000
 147
 3.0000000000000
  71
0
  72
0
  73
0
  74
0
  75
0
  76
0
  77
3
  78
8
 170
0
 171
2
 172
1
 173
1
 174
0
 175
0
 176
1
 177
1
 178
7
 270
2
 271
6
 272
0
 273
2
 274
2
 340
3D
 275
0
 280
0
 281
0
 282
0
 283
1
 284
0
 285
0
 286
0
 287
5
 288
1
   0
ENDTAB
  0
TABLE
  2
BLOCK_RECORD
  5
1
100
AcDbSymbolTable
 70
     0
  0
BLOCK_RECORD
  5
18
100
AcDbSymbolTableRecord
100
AcDbBlockTableRecord
  2
*MODEL_SPACE
  0
BLOCK_RECORD
  5
15
100
AcDbSymbolTableRecord
100
AcDbBlockTableRecord
  2
*PAPER_SPACE
   0
BLOCK_RECORD
   5
44
 100
AcDbSymbolTableRecord
 100
AcDbBlockTableRecord
   2
BLOCK001
   0
BLOCK_RECORD
   5
45
 100
AcDbSymbolTableRecord
 100
AcDbBlockTableRecord
   2
BLOCK002
   0
BLOCK_RECORD
   5
46
 100
AcDbSymbolTableRecord
 100
AcDbBlockTableRecord
   2
BLOCK003
   0
BLOCK_RECORD
   5
47
 100
AcDbSymbolTableRecord
 100
AcDbBlockTableRecord
   2
AGM
   0
BLOCK_RECORD
   5
48
 100
AcDbSymbolTableRecord
 100
AcDbBlockTableRecord
   2
BLOCK004
   0
BLOCK_RECORD
   5
49
 100
AcDbSymbolTableRecord
 100
AcDbBlockTableRecord
   2
BLOCK005
   0
BLOCK_RECORD
   5
4A
 100
AcDbSymbolTableRecord
 100
AcDbBlockTableRecord
   2
BLOCK006
   0
BLOCK_RECORD
   5
4B
 100
AcDbSymbolTableRecord
 100
AcDbBlockTableRecord
   2
*D1
   0
BLOCK_RECORD
   5
4C
 100
AcDbSymbolTableRecord
 100
AcDbBlockTableRecord
   2
*D2
   0
BLOCK_RECORD
   5
4D
 100
AcDbSymbolTableRecord
 100
AcDbBlockTableRecord
   2
*D3
   0
BLOCK_RECORD
   5
4E
 100
AcDbSymbolTableRecord
 100
AcDbBlockTableRecord
   2
*D4
   0
BLOCK_RECORD
   5
4F
 100
AcDbSymbolTableRecord
 100
AcDbBlockTableRecord
   2
*D5
   0
BLOCK_RECORD
   5
50
 100
AcDbSymbolTableRecord
 100
AcDbBlockTableRecord
   2
*D6
   0
BLOCK_RECORD
   5
51
 100
AcDbSymbolTableRecord
 100
AcDbBlockTableRecord
   2
GMM001
   0
BLOCK_RECORD
   5
52
 100
AcDbSymbolTableRecord
 100
AcDbBlockTableRecord
   2
_ARCHTICK
   0
BLOCK_RECORD
   5
53
 100
AcDbSymbolTableRecord
 100
AcDbBlockTableRecord
   2
_BOXBLANK
   0
BLOCK_RECORD
   5
54
 100
AcDbSymbolTableRecord
 100
AcDbBlockTableRecord
   2
_BOXFILLED
   0
BLOCK_RECORD
   5
55
 100
AcDbSymbolTableRecord
 100
AcDbBlockTableRecord
   2
_CLOSED
   0
BLOCK_RECORD
   5
56
 100
AcDbSymbolTableRecord
 100
AcDbBlockTableRecord
   2
_CLOSEDBLANK
   0
BLOCK_RECORD
   5
57
 100
AcDbSymbolTableRecord
 100
AcDbBlockTableRecord
   2
_DATUMBLANK
   0
BLOCK_RECORD
   5
58
 100
AcDbSymbolTableRecord
 100
AcDbBlockTableRecord
   2
_DATUMFILLED
   0
BLOCK_RECORD
   5
59
 100
AcDbSymbolTableRecord
 100
AcDbBlockTableRecord
   2
_DOT
   0
BLOCK_RECORD
   5
5A
 100
AcDbSymbolTableRecord
 100
AcDbBlockTableRecord
   2
_DOTBLANK
   0
BLOCK_RECORD
   5
5B
 100
AcDbSymbolTableRecord
 100
AcDbBlockTableRecord
   2
_DOTSMALL
   0
BLOCK_RECORD
   5
5C
 100
AcDbSymbolTableRecord
 100
AcDbBlockTableRecord
   2
_INTEGRAL
   0
BLOCK_RECORD
   5
5D
 100
AcDbSymbolTableRecord
 100
AcDbBlockTableRecord
   2
_NONE
   0
BLOCK_RECORD
   5
5E
 100
AcDbSymbolTableRecord
 100
AcDbBlockTableRecord
   2
_OBLIQUE
   0
BLOCK_RECORD
   5
5F
 100
AcDbSymbolTableRecord
 100
AcDbBlockTableRecord
   2
_OPEN
   0
BLOCK_RECORD
   5
60
 100
AcDbSymbolTableRecord
 100
AcDbBlockTableRecord
   2
_OPEN30
   0
BLOCK_RECORD
   5
61
 100
AcDbSymbolTableRecord
 100
AcDbBlockTableRecord
   2
_OPEN90
   0
BLOCK_RECORD
   5
62
 100
AcDbSymbolTableRecord
 100
AcDbBlockTableRecord
   2
_ORIGIN
   0
ENDTAB
   0
ENDSEC
  0
SECTION
  2
BLOCKS
  0
BLOCK
  5
19
100
AcDbEntity
  8
0
100
AcDbBlockBegin
  2
*MODEL_SPACE
 70
     0
 10
0.0
 20
0.0
 30
0.0
  3
*MODEL_SPACE
  1

  0
ENDBLK
  5
1A
100
AcDbEntity
  8
0
100
AcDbBlockEnd
  0
BLOCK
  5
16
100
AcDbEntity
 67
     1
  8
0
100
AcDbBlockBegin
  2
*PAPER_SPACE
 70
     0
 10
0.0
 20
0.0
 30
0.0
  3
*PAPER_SPACE
  1

  0
ENDBLK
  5
17
100
AcDbEntity
 67
     1
  8
0
100
AcDbBlockEnd
   0
BLOCK
   5
63
 100
AcDbEntity
   8
0
 100
AcDbBlockBegin
   2
_ARCHTICK
  70
0
  10
0.0
  20
0.0
  30
0.0
   3
_ARCHTICK
   0
POLYLINE
   5
64
 100
AcDbEntity
   8
0
 370
-2
   6
BYBLOCK
  62
0
 100
AcDb2dPolyline
  66
1
  10
0.0
  20
0.0
  30
0.0
  70
1
  40
 0.15000000000000
  41
 0.15000000000000
   0
VERTEX
   5
65
 100
AcDbEntity
   8
0
   6
BYBLOCK
  62
0
 100
AcDbVertex
 100
AcDb2dVertex
  10
-0.50000000000000
  20
-0.50000000000000
  30
0.0
  40
 0.15000000000000
  41
 0.15000000000000
   0
VERTEX
   5
66
 100
AcDbEntity
   8
0
   6
BYBLOCK
  62
0
 100
AcDbVertex
 100
AcDb2dVertex
  10
 0.50000000000000
  20
 0.50000000000000
  30
0.0
  40
 0.15000000000000
  41
 0.15000000000000
   0
SEQEND
   5
67
 100
AcDbEntity
   8
0
   6
BYBLOCK
  62
0
   0
ENDBLK
   5
68
 100
AcDbEntity
   8
0
 100
AcDbBlockEnd
   0
BLOCK
   5
69
 100
AcDbEntity
   8
0
 100
AcDbBlockBegin
   2
_OBLIQUE
  70
0
  10
0.0
  20
0.0
  30
0.0
   3
_OBLIQUE
   0
LINE
   5
6A
 100
AcDbEntity
   8
0
 370
-2
 100
AcDbLine
   6
BYBLOCK
  62
0
  10
-0.50000000000000
  20
-0.50000000000000
  30
0.0
  11
 0.50000000000000
  21
 0.50000000000000
  31
0.0
   0
ENDBLK
   5
6B
 100
AcDbEntity
   8
0
 100
AcDbBlockEnd
   0
BLOCK
   5
6C
 100
AcDbEntity
   8
0
 100
AcDbBlockBegin
   2
_BOXBLANK
  70
0
  10
0.0
  20
0.0
  30
0.0
   3
_BOXBLANK
   0
LINE
   5
6D
 100
AcDbEntity
   8
0
 370
-2
 100
AcDbLine
   6
BYBLOCK
  62
0
  10
-0.50000000000000
  20
-0.50000000000000
  30
0.0
  11
 0.50000000000000
  21
-0.50000000000000
  31
0.0
   0
LINE
   5
6E
 100
AcDbEntity
   8
0
 370
-2
 100
AcDbLine
   6
BYBLOCK
  62
0
  10
 0.50000000000000
  20
-0.50000000000000
  30
0.0
  11
 0.50000000000000
  21
 0.50000000000000
  31
0.0
   0
LINE
   5
6F
 100
AcDbEntity
   8
0
 370
-2
 100
AcDbLine
   6
BYBLOCK
  62
0
  10
 0.50000000000000
  20
 0.50000000000000
  30
0.0
  11
-0.50000000000000
  21
 0.50000000000000
  31
0.0
   0
LINE
   5
70
 100
AcDbEntity
   8
0
 370
-2
 100
AcDbLine
   6
BYBLOCK
  62
0
  10
-0.50000000000000
  20
 0.50000000000000
  30
0.0
  11
-0.50000000000000
  21
-0.50000000000000
  31
0.0
   0
LINE
   5
71
 100
AcDbEntity
   8
0
 370
-2
 100
AcDbLine
   6
BYBLOCK
  62
0
  10
-0.50000000000000
  20
0.0
  30
0.0
  11
-1.0000000000000
  21
0.0
  31
0.0
   0
ENDBLK
   5
72
 100
AcDbEntity
   8
0
 100
AcDbBlockEnd
   0
BLOCK
   5
73
 100
AcDbEntity
   8
0
 100
AcDbBlockBegin
   2
_BOXFILLED
  70
0
  10
0.0
  20
0.0
  30
0.0
   3
_BOXFILLED
   0
SOLID
   5
74
 100
AcDbEntity
   8
0
 100
AcDbTrace
   6
BYBLOCK
  62
0
  10
-0.50000000000000
  20
 0.50000000000000
  30
0.0
  11
 0.50000000000000
  21
 0.50000000000000
  31
0.0
  12
-0.50000000000000
  22
-0.50000000000000
  32
0.0
  13
 0.50000000000000
  23
-0.50000000000000
  33
0.0
   0
LINE
   5
75
 100
AcDbEntity
   8
0
 370
-2
 100
AcDbLine
   6
BYBLOCK
  62
0
  10
-0.50000000000000
  20
0.0
  30
0.0
  11
-1.0000000000000
  21
0.0
  31
0.0
   0
ENDBLK
   5
76
 100
AcDbEntity
   8
0
 100
AcDbBlockEnd
   0
BLOCK
   5
77
 100
AcDbEntity
   8
0
 100
AcDbBlockBegin
   2
_CLOSED
  70
0
  10
0.0
  20
0.0
  30
0.0
   3
_CLOSED
   0
LINE
   5
78
 100
AcDbEntity
   8
0
 370
-2
 100
AcDbLine
   6
BYBLOCK
  62
0
  10
-1.0000000000000
  20
 0.16666666666667
  30
0.0
  11
0.0
  21
0.0
  31
0.0
   0
LINE
   5
79
 100
AcDbEntity
   8
0
 370
-2
 100
AcDbLine
   6
BYBLOCK
  62
0
  10
0.0
  20
0.0
  30
0.0
  11
-1.0000000000000
  21
-0.16666666666667
  31
0.0
   0
LINE
   5
7A
 100
AcDbEntity
   8
0
 370
-2
 100
AcDbLine
   6
BYBLOCK
  62
0
  10
-1.0000000000000
  20
 0.16666666666667
  30
0.0
  11
-1.0000000000000
  21
-0.16666666666667
  31
0.0
   0
LINE
   5
7B
 100
AcDbEntity
   8
0
 370
-2
 100
AcDbLine
   6
BYBLOCK
  62
0
  10
0.0
  20
0.0
  30
0.0
  11
-1.0000000000000
  21
0.0
  31
0.0
   0
ENDBLK
   5
7C
 100
AcDbEntity
   8
0
 100
AcDbBlockEnd
   0
BLOCK
   5
7D
 100
AcDbEntity
   8
0
 100
AcDbBlockBegin
   2
_OPEN
  70
0
  10
0.0
  20
0.0
  30
0.0
   3
_OPEN
   0
LINE
   5
7E
 100
AcDbEntity
   8
0
 370
-2
 100
AcDbLine
   6
BYBLOCK
  62
0
  10
-1.0000000000000
  20
 0.16666666666667
  30
0.0
  11
0.0
  21
0.0
  31
0.0
   0
LINE
   5
7F
 100
AcDbEntity
   8
0
 370
-2
 100
AcDbLine
   6
BYBLOCK
  62
0
  10
0.0
  20
0.0
  30
0.0
  11
-1.0000000000000
  21
-0.16666666666667
  31
0.0
   0
LINE
   5
80
 100
AcDbEntity
   8
0
 370
-2
 100
AcDbLine
   6
BYBLOCK
  62
0
  10
0.0
  20
0.0
  30
0.0
  11
-1.0000000000000
  21
0.0
  31
0.0
   0
ENDBLK
   5
81
 100
AcDbEntity
   8
0
 100
AcDbBlockEnd
   0
BLOCK
   5
82
 100
AcDbEntity
   8
0
 100
AcDbBlockBegin
   2
_OPEN30
  70
0
  10
0.0
  20
0.0
  30
0.0
   3
_OPEN30
   0
LINE
   5
83
 100
AcDbEntity
   8
0
 370
-2
 100
AcDbLine
   6
BYBLOCK
  62
0
  10
-1.0000000000000
  20
 0.26794919243110
  30
0.0
  11
0.0
  21
0.0
  31
0.0
   0
LINE
   5
84
 100
AcDbEntity
   8
0
 370
-2
 100
AcDbLine
   6
BYBLOCK
  62
0
  10
0.0
  20
0.0
  30
0.0
  11
-1.0000000000000
  21
-0.26794919243110
  31
0.0
   0
LINE
   5
85
 100
AcDbEntity
   8
0
 370
-2
 100
AcDbLine
   6
BYBLOCK
  62
0
  10
0.0
  20
0.0
  30
0.0
  11
-1.0000000000000
  21
0.0
  31
0.0
   0
ENDBLK
   5
86
 100
AcDbEntity
   8
0
 100
AcDbBlockEnd
   0
BLOCK
   5
87
 100
AcDbEntity
   8
0
 100
AcDbBlockBegin
   2
_OPEN90
  70
0
  10
0.0
  20
0.0
  30
0.0
   3
_OPEN90
   0
LINE
   5
88
 100
AcDbEntity
   8
0
 370
-2
 100
AcDbLine
   6
BYBLOCK
  62
0
  10
-0.50000000000000
  20
 0.50000000000000
  30
0.0
  11
0.0
  21
0.0
  31
0.0
   0
LINE
   5
89
 100
AcDbEntity
   8
0
 370
-2
 100
AcDbLine
   6
BYBLOCK
  62
0
  10
0.0
  20
0.0
  30
0.0
  11
-0.50000000000000
  21
-0.50000000000000
  31
0.0
   0
LINE
   5
8A
 100
AcDbEntity
   8
0
 370
-2
 100
AcDbLine
   6
BYBLOCK
  62
0
  10
0.0
  20
0.0
  30
0.0
  11
-1.0000000000000
  21
0.0
  31
0.0
   0
ENDBLK
   5
8B
 100
AcDbEntity
   8
0
 100
AcDbBlockEnd
   0
BLOCK
   5
8C
 100
AcDbEntity
   8
0
 100
AcDbBlockBegin
   2
_CLOSEDBLANK
  70
0
  10
0.0
  20
0.0
  30
0.0
   3
_CLOSEDBLANK
   0
LINE
   5
8D
 100
AcDbEntity
   8
0
 370
-2
 100
AcDbLine
   6
BYBLOCK
  62
0
  10
-1.0000000000000
  20
 0.16666666666667
  30
0.0
  11
0.0
  21
0.0
  31
0.0
   0
LINE
   5
8E
 100
AcDbEntity
   8
0
 370
-2
 100
AcDbLine
   6
BYBLOCK
  62
0
  10
0.0
  20
0.0
  30
0.0
  11
-1.0000000000000
  21
-0.16666666666667
  31
0.0
   0
LINE
   5
8F
 100
AcDbEntity
   8
0
 370
-2
 100
AcDbLine
   6
BYBLOCK
  62
0
  10
-1.0000000000000
  20
 0.16666666666667
  30
0.0
  11
-1.0000000000000
  21
-0.16666666666667
  31
0.0
   0
ENDBLK
   5
90
 100
AcDbEntity
   8
0
 100
AcDbBlockEnd
   0
BLOCK
   5
91
 100
AcDbEntity
   8
0
 100
AcDbBlockBegin
   2
_DOT
  70
0
  10
0.0
  20
0.0
  30
0.0
   3
_DOT
   0
POLYLINE
   5
92
 100
AcDbEntity
   8
0
 370
-2
   6
BYBLOCK
  62
0
 100
AcDb2dPolyline
  66
1
  10
0.0
  20
0.0
  30
0.0
  70
1
  40
 0.50000000000000
  41
 0.50000000000000
   0
VERTEX
   5
93
 100
AcDbEntity
   8
0
   6
BYBLOCK
  62
0
 100
AcDbVertex
 100
AcDb2dVertex
  10
-0.25000000000000
  20
0.0
  30
0.0
  42
 1.0000000000000
  40
 0.50000000000000
  41
 0.50000000000000
   0
VERTEX
   5
94
 100
AcDbEntity
   8
0
   6
BYBLOCK
  62
0
 100
AcDbVertex
 100
AcDb2dVertex
  10
 0.25000000000000
  20
0.0
  30
0.0
  42
 1.0000000000000
  40
 0.50000000000000
  41
 0.50000000000000
   0
SEQEND
   5
95
 100
AcDbEntity
   8
0
   6
BYBLOCK
  62
0
   0
LINE
   5
96
 100
AcDbEntity
   8
0
 370
-2
 100
AcDbLine
   6
BYBLOCK
  62
0
  10
-0.50000000000000
  20
0.0
  30
0.0
  11
-1.0000000000000
  21
0.0
  31
0.0
   0
ENDBLK
   5
97
 100
AcDbEntity
   8
0
 100
AcDbBlockEnd
   0
BLOCK
   5
98
 100
AcDbEntity
   8
0
 100
AcDbBlockBegin
   2
_DOTSMALL
  70
0
  10
0.0
  20
0.0
  30
0.0
   3
_DOTSMALL
   0
POLYLINE
   5
99
 100
AcDbEntity
   8
0
 370
-2
   6
BYBLOCK
  62
0
 100
AcDb2dPolyline
  66
1
  10
0.0
  20
0.0
  30
0.0
  70
1
  40
 0.50000000000000
  41
 0.50000000000000
   0
VERTEX
   5
9A
 100
AcDbEntity
   8
0
   6
BYBLOCK
  62
0
 100
AcDbVertex
 100
AcDb2dVertex
  10
-0.62500000000000E-1
  20
0.0
  30
0.0
  42
 1.0000000000000
  40
 0.50000000000000
  41
 0.50000000000000
   0
VERTEX
   5
9B
 100
AcDbEntity
   8
0
   6
BYBLOCK
  62
0
 100
AcDbVertex
 100
AcDb2dVertex
  10
 0.62500000000000E-1
  20
0.0
  30
0.0
  42
 1.0000000000000
  40
 0.50000000000000
  41
 0.50000000000000
   0
SEQEND
   5
9C
 100
AcDbEntity
   8
0
   6
BYBLOCK
  62
0
   0
ENDBLK
   5
9D
 100
AcDbEntity
   8
0
 100
AcDbBlockEnd
   0
BLOCK
   5
9E
 100
AcDbEntity
   8
0
 100
AcDbBlockBegin
   2
_DATUMBLANK
  70
0
  10
0.0
  20
0.0
  30
0.0
   3
_DATUMBLANK
   0
LINE
   5
9F
 100
AcDbEntity
   8
0
 370
-2
 100
AcDbLine
   6
BYBLOCK
  62
0
  10
0.0
  20
 0.57735027000000
  30
0.0
  11
-1.0000000000000
  21
0.0
  31
0.0
   0
LINE
   5
A0
 100
AcDbEntity
   8
0
 370
-2
 100
AcDbLine
   6
BYBLOCK
  62
0
  10
-1.0000000000000
  20
0.0
  30
0.0
  11
0.0
  21
-0.57735027000000
  31
0.0
   0
LINE
   5
A1
 100
AcDbEntity
   8
0
 370
-2
 100
AcDbLine
   6
BYBLOCK
  62
0
  10
0.0
  20
-0.57735027000000
  30
0.0
  11
0.0
  21
 0.57735027000000
  31
0.0
   0
ENDBLK
   5
A2
 100
AcDbEntity
   8
0
 100
AcDbBlockEnd
   0
BLOCK
   5
A3
 100
AcDbEntity
   8
0
 100
AcDbBlockBegin
   2
_DATUMFILLED
  70
0
  10
0.0
  20
0.0
  30
0.0
   3
_DATUMFILLED
   0
SOLID
   5
A4
 100
AcDbEntity
   8
0
 100
AcDbTrace
   6
BYBLOCK
  62
0
  10
0.0
  20
 0.57735027000000
  30
0.0
  11
-1.0000000000000
  21
0.0
  31
0.0
  12
0.0
  22
-0.57735027000000
  32
0.0
  13
0.0
  23
-0.57735027000000
  33
0.0
   0
ENDBLK
   5
A5
 100
AcDbEntity
   8
0
 100
AcDbBlockEnd
   0
BLOCK
   5
A6
 100
AcDbEntity
   8
0
 100
AcDbBlockBegin
   2
_ORIGIN
  70
0
  10
0.0
  20
0.0
  30
0.0
   3
_ORIGIN
   0
CIRCLE
   5
A7
 100
AcDbEntity
   8
0
 370
-2
 100
AcDbCircle
   6
BYBLOCK
  62
0
  10
0.0
  20
0.0
  30
0.0
  40
 0.50000000000000
   0
LINE
   5
A8
 100
AcDbEntity
   8
0
 370
-2
 100
AcDbLine
   6
BYBLOCK
  62
0
  10
0.0
  20
0.0
  30
0.0
  11
-1.0000000000000
  21
0.0
  31
0.0
   0
ENDBLK
   5
A9
 100
AcDbEntity
   8
0
 100
AcDbBlockEnd
   0
BLOCK
   5
AA
 100
AcDbEntity
   8
0
 100
AcDbBlockBegin
   2
_NONE
  70
0
  10
0.0
  20
0.0
  30
0.0
   3
_NONE
   0
CIRCLE
   5
AB
 100
AcDbEntity
   8
0
 370
-2
 100
AcDbCircle
   6
BYBLOCK
  62
0
  10
0.0
  20
0.0
  30
0.0
  40
 0.25000000000000
   0
ENDBLK
   5
AC
 100
AcDbEntity
   8
0
 100
AcDbBlockEnd
   0
BLOCK
   5
AD
 100
AcDbEntity
   8
0
 100
AcDbBlockBegin
   2
_DOTBLANK
  70
0
  10
0.0
  20
0.0
  30
0.0
   3
_DOTBLANK
   0
CIRCLE
   5
AE
 100
AcDbEntity
   8
0
 370
-2
 100
AcDbCircle
   6
BYBLOCK
  62
0
  10
0.0
  20
0.0
  30
0.0
  40
 0.50000000000000
   0
LINE
   5
AF
 100
AcDbEntity
   8
0
 370
-2
 100
AcDbLine
   6
BYBLOCK
  62
0
  10
-0.50000000000000
  20
0.0
  30
0.0
  11
-1.0000000000000
  21
0.0
  31
0.0
   0
ENDBLK
   5
B0
 100
AcDbEntity
   8
0
 100
AcDbBlockEnd
   0
BLOCK
   5
B1
 100
AcDbEntity
   8
0
 100
AcDbBlockBegin
   2
_INTEGRAL
  70
0
  10
0.0
  20
0.0
  30
0.0
   3
_INTEGRAL
   0
ARC
   5
B2
 100
AcDbEntity
   8
0
 370
-2
   6
BYBLOCK
  62
0
 100
AcDbCircle
  10
 0.44488800000000
  20
-0.91335000000000E-1
  30
0.0
  40
 0.45416700000000
 100
AcDbArc
  50
 102.00000000000
  51
 168.00000000000
   0
ARC
   5
B3
 100
AcDbEntity
   8
0
 370
-2
   6
BYBLOCK
  62
0
 100
AcDbCircle
  10
-0.44488800000000
  20
 0.91335000000000E-1
  30
0.0
  40
 0.45416700000000
 100
AcDbArc
  50
 282.00000000000
  51
 348.00000000000
   0
ENDBLK
   5
B4
 100
AcDbEntity
   8
0
 100
AcDbBlockEnd
   0
BLOCK
   5
B5
 100
AcDbEntity
   8
0
 100
AcDbBlockBegin
   2
BLOCK001
  70
64
  10
0.0
  20
0.0
  30
0.0
   3
BLOCK001
   0
LINE
   5
B6
 100
AcDbEntity
   8
LEVEL001
 370
30
 100
AcDbLine
   6
CONTINUOUS
  62
7
  10
 1329.8183461667
  20
 108.00000000000
  30
0.0
  11
 1737.8183461667
  21
 108.00000000000
  31
0.0
   0
LINE
   5
B7
 100
AcDbEntity
   8
LEVEL001
 370
30
 100
AcDbLine
   6
CONTINUOUS
  62
7
  10
 1329.8183461667
  20
 72.000000000000
  30
0.0
  11
 1737.8183461667
  21
 72.000000000000
  31
0.0
   0
LINE
   5
B8
 100
AcDbEntity
   8
LEVEL001
 370
30
 100
AcDbLine
   6
CONTINUOUS
  62
7
  10
 1329.8183461667
  20
 108.00000000000
  30
0.0
  11
 1329.8183461667
  21
 72.000000000000
  31
0.0
   0
LINE
   5
B9
 100
AcDbEntity
   8
LEVEL001
 370
30
 100
AcDbLine
   6
CONTINUOUS
  62
7
  10
 1353.8183461667
  20
 108.00000000000
  30
0.0
  11
 1353.8183461667
  21
 72.000000000000
  31
0.0
   0
LINE
   5
BA
 100
AcDbEntity
   8
LEVEL001
 370
30
 100
AcDbLine
   6
CONTINUOUS
  62
7
  10
 1533.8183461667
  20
 108.00000000000
  30
0.0
  11
 1533.8183461667
  21
 72.000000000000
  31
0.0
   0
LINE
   5
BB
 100
AcDbEntity
   8
LEVEL001
 370
30
 100
AcDbLine
   6
CONTINUOUS
  62
7
  10
 1557.8183461667
  20
 108.00000000000
  30
0.0
  11
 1557.8183461667
  21
 72.000000000000
  31
0.0
   0
LINE
   5
BC
 100
AcDbEntity
   8
LEVEL001
 370
30
 100
AcDbLine
   6
CONTINUOUS
  62
7
  10
 1737.8183461667
  20
 108.00000000000
  30
0.0
  11
 1737.8183461667
  21
 72.000000000000
  31
0.0
   0
ENDBLK
   5
BD
 100
AcDbEntity
   8
0
 100
AcDbBlockEnd
   0
BLOCK
   5
BE
 100
AcDbEntity
   8
0
 100
AcDbBlockBegin
   2
BLOCK002
  70
64
  10
0.0
  20
0.0
  30
0.0
   3
BLOCK002
   0
LINE
   5
BF
 100
AcDbEntity
   8
LEVEL001
 370
30
 100
AcDbLine
   6
CONTINUOUS
  62
7
  10
 1329.8183461667
  20
 72.000000000000
  30
0.0
  11
 1737.8183461667
  21
 72.000000000000
  31
0.0
   0
LINE
   5
C0
 100
AcDbEntity
   8
LEVEL001
 370
30
 100
AcDbLine
   6
CONTINUOUS
  62
7
  10
 1443.8183461667
  20
 48.000000000000
  30
0.0
  11
 1737.8183461667
  21
 48.000000000000
  31
0.0
   0
LINE
   5
C1
 100
AcDbEntity
   8
LEVEL001
 370
30
 100
AcDbLine
   6
CONTINUOUS
  62
7
  10
 1329.8183461667
  20
 24.000000000000
  30
0.0
  11
 1737.8183461667
  21
 24.000000000000
  31
0.0
   0
LINE
   5
C2
 100
AcDbEntity
   8
LEVEL001
 370
30
 100
AcDbLine
   6
CONTINUOUS
  62
7
  10
 1329.8183461667
  20
0.0
  30
0.0
  11
 1737.8183461667
  21
0.0
  31
0.0
   0
LINE
   5
C3
 100
AcDbEntity
   8
LEVEL001
 370
30
 100
AcDbLine
   6
CONTINUOUS
  62
7
  10
 1329.8183461667
  20
 72.000000000000
  30
0.0
  11
 1329.8183461667
  21
0.0
  31
0.0
   0
LINE
   5
C4
 100
AcDbEntity
   8
LEVEL001
 370
30
 100
AcDbLine
   6
CONTINUOUS
  62
7
  10
 1353.8183461667
  20
 72.000000000000
  30
0.0
  11
 1353.8183461667
  21
 24.000000000000
  31
0.0
   0
LINE
   5
C5
 100
AcDbEntity
   8
LEVEL001
 370
30
 100
AcDbLine
   6
CONTINUOUS
  62
7
  10
 1443.8183461667
  20
 72.000000000000
  30
0.0
  11
 1443.8183461667
  21
 24.000000000000
  31
0.0
   0
LINE
   5
C6
 100
AcDbEntity
   8
LEVEL001
 370
30
 100
AcDbLine
   6
CONTINUOUS
  62
7
  10
 1533.8183461667
  20
 72.000000000000
  30
0.0
  11
 1533.8183461667
  21
 24.000000000000
  31
0.0
   0
LINE
   5
C7
 100
AcDbEntity
   8
LEVEL001
 370
30
 100
AcDbLine
   6
CONTINUOUS
  62
7
  10
 1557.8183461667
  20
 72.000000000000
  30
0.0
  11
 1557.8183461667
  21
 24.000000000000
  31
0.0
   0
LINE
   5
C8
 100
AcDbEntity
   8
LEVEL001
 370
30
 100
AcDbLine
   6
CONTINUOUS
  62
7
  10
 1617.8183461667
  20
 72.000000000000
  30
0.0
  11
 1617.8183461667
  21
 24.000000000000
  31
0.0
   0
LINE
   5
C9
 100
AcDbEntity
   8
LEVEL001
 370
30
 100
AcDbLine
   6
CONTINUOUS
  62
7
  10
 1638.8183461667
  20
 72.000000000000
  30
0.0
  11
 1638.8183461667
  21
 24.000000000000
  31
0.0
   0
LINE
   5
CA
 100
AcDbEntity
   8
LEVEL001
 370
30
 100
AcDbLine
   6
CONTINUOUS
  62
7
  10
 1656.8183461667
  20
 72.000000000000
  30
0.0
  11
 1656.8183461667
  21
 24.000000000000
  31
0.0
   0
LINE
   5
CB
 100
AcDbEntity
   8
LEVEL001
 370
30
 100
AcDbLine
   6
CONTINUOUS
  62
7
  10
 1677.8183461667
  20
 72.000000000000
  30
0.0
  11
 1677.8183461667
  21
 24.000000000000
  31
0.0
   0
LINE
   5
CC
 100
AcDbEntity
   8
LEVEL001
 370
30
 100
AcDbLine
   6
CONTINUOUS
  62
7
  10
 1737.8183461667
  20
 72.000000000000
  30
0.0
  11
 1737.8183461667
  21
0.0
  31
0.0
   0
ENDBLK
   5
CD
 100
AcDbEntity
   8
0
 100
AcDbBlockEnd
   0
BLOCK
   5
CE
 100
AcDbEntity
   8
0
 100
AcDbBlockBegin
   2
BLOCK003
  70
64
  10
0.0
  20
0.0
  30
0.0
   3
BLOCK003
   0
MTEXT
   5
D0
 100
AcDbEntity
   8
LEVEL001
 370
30
  62
7
 100
AcDbMText
  10
 1441.4183598996
  20
 6.0000000000000
  30
0.0
  40
 12.000000000000
  41
0.0
  71
7
  72
1
   1
\T1.800000;さぬき麺機株式会社
   7
GMM001
  44
 0.79999984000003
   0
TEXT
   5
D1
 100
AcDbEntity
   8
LEVEL001
 370
30
  62
7
 100
AcDbText
  10
 1337.8183461667
  20
 105.33332061768
  30
0.0
  40
 4.0000000000000
   1
名称
   7
STANDARD1
 100
AcDbText
   0
TEXT
   5
D2
 100
AcDbEntity
   8
LEVEL001
 370
30
  62
7
 100
AcDbText
  10
 1541.8183461667
  20
 105.33329772949
  30
0.0
  40
 4.0000000000000
   1
図番
   7
STANDARD1
 100
AcDbText
   0
TEXT
   5
D3
 100
AcDbEntity
   8
LEVEL001
 370
30
  62
7
 100
AcDbText
  10
 1337.8183461667
  20
 65.333333492279
  30
0.0
  40
 4.0000000000000
   1
画法
   7
STANDARD1
 100
AcDbText
   0
MTEXT
   5
D5
 100
AcDbEntity
   8
LEVEL001
 370
30
  62
7
 100
AcDbMText
  10
 1362.2183463813
  20
 42.000000000000
  30
0.0
  40
 12.000000000000
  41
0.0
  71
7
  72
1
   1
\T1.700000;第三角法
   7
GMM001
  44
 0.79999984000003
   0
MTEXT
   5
D7
 100
AcDbEntity
   8
LEVEL001
 370
30
  62
7
 100
AcDbMText
  10
 1452.2183463813
  20
 54.000000000000
  30
0.0
  40
 12.000000000000
  41
0.0
  71
7
  72
1
   1
\T1.700000;共通機種
   7
GMM001
  44
 0.79999984000003
   0
MTEXT
   5
D9
 100
AcDbEntity
   8
LEVEL001
 370
30
  62
7
 100
AcDbMText
  10
 1536.2183460251
  20
 54.000000000000
  30
0.0
  40
 12.000000000000
  41
0.0
  71
7
  72
1
   1
\T1.000000;個数
   7
GMM003
  44
 0.79999984000003
   0
MTEXT
   5
DB
 100
AcDbEntity
   8
LEVEL001
 370
30
  62
7
 100
AcDbMText
  10
 1569.8183461667
  20
 54.000000000000
  30
0.0
  40
 12.000000000000
  41
0.0
  71
7
  72
1
   1
\T2.000000;尺度
   7
GMM001
  44
 0.79999984000003
   0
MTEXT
   5
DD
 100
AcDbEntity
   8
LEVEL001
 370
30
  62
7
 100
AcDbMText
  10
 1623.8183461667
  20
 54.000000000000
  30
0.0
  40
 12.000000000000
  41
0.0
  71
7
  72
1
   1
\T1.500000;年月日
   7
GMM001
  44
 0.79999984000003
   0
MTEXT
   5
DF
 100
AcDbEntity
   8
LEVEL001
 370
30
  62
7
 100
AcDbMText
  10
 1689.8183461667
  20
 54.000000000000
  30
0.0
  40
 12.000000000000
  41
0.0
  71
7
  72
1
   1
\T2.000000;製図
   7
GMM001
  44
 0.79999984000003
   0
ENDBLK
   5
E0
 100
AcDbEntity
   8
0
 100
AcDbBlockEnd
   0
BLOCK
   5
E1
 100
AcDbEntity
   8
0
 100
AcDbBlockBegin
   2
AGM
  70
64
  10
0.0
  20
0.0
  30
0.0
   3
AGM
   0
LINE
   5
E2
 100
AcDbEntity
   8
LEVEL001
 370
30
 100
AcDbLine
   6
DASHDOT
  62
7
  10
 526.66258837218
  20
 121.81128969610
  30
0.0
  11
 526.66258837218
  21
 51.013989696097
  31
0.0
   0
LINE
   5
E3
 100
AcDbEntity
   8
LEVEL001
 370
30
 100
AcDbLine
   6
DASHDOT
  62
7
  10
 506.66258837218
  20
 79.553990696097
  30
0.0
  11
 546.66258837218
  21
 79.553990696097
  31
0.0
   0
LINE
   5
E4
 100
AcDbEntity
   8
LEVEL001
 370
30
 100
AcDbLine
   6
DASHDOT
  62
7
  10
 514.16258837218
  20
 121.81128969610
  30
0.0
  11
 514.16258837218
  21
 114.85914969610
  31
0.0
   0
LINE
   5
E5
 100
AcDbEntity
   8
LEVEL001
 370
30
 100
AcDbLine
   6
DASHDOT
  62
7
  10
 539.16258837218
  20
 121.81128969610
  30
0.0
  11
 539.16258837218
  21
 114.85914969610
  31
0.0
   0
LINE
   5
E6
 100
AcDbEntity
   8
LEVEL001
 370
30
 100
AcDbLine
   6
CONTINUOUS
  62
7
  10
 536.66258837218
  20
 101.88262969610
  30
0.0
  11
 536.66258837218
  21
 57.225346696097
  31
0.0
   0
LINE
   5
E7
 100
AcDbEntity
   8
LEVEL001
 370
30
 100
AcDbLine
   6
CONTINUOUS
  62
7
  10
 516.66258837218
  20
 101.88262969610
  30
0.0
  11
 516.66258837218
  21
 57.225346696097
  31
0.0
   0
LINE
   5
E8
 100
AcDbEntity
   8
LEVEL001
 370
30
 100
AcDbLine
   6
CONTINUOUS
  62
7
  10
 542.98653837218
  20
 96.701359696097
  30
0.0
  11
 545.20366837218
  21
 114.96265969610
  31
0.0
   0
LINE
   5
E9
 100
AcDbEntity
   8
LEVEL001
 370
30
 100
AcDbLine
   6
CONTINUOUS
  62
7
  10
 544.97192837218
  20
 96.460309696097
  30
0.0
  11
 547.02882837218
  21
 113.40194969610
  31
0.0
   0
LINE
   5
EA
 100
AcDbEntity
   8
LEVEL001
 370
30
 100
AcDbLine
   6
CONTINUOUS
  62
7
  10
 546.34319837218
  20
 107.75473969610
  30
0.0
  11
 546.06981837218
  21
 99.425892696097
  31
0.0
   0
LINE
   5
EB
 100
AcDbEntity
   8
LEVEL001
 370
30
 100
AcDbLine
   6
CONTINUOUS
  62
7
  10
 542.46266837218
  20
 117.55398969610
  30
0.0
  11
 542.12808837218
  21
 93.252560696097
  31
0.0
   0
LINE
   5
EC
 100
AcDbEntity
   8
LEVEL001
 370
30
 100
AcDbLine
   6
CONTINUOUS
  62
7
  10
 510.33863637218
  20
 96.701359696097
  30
0.0
  11
 508.12151937218
  21
 114.96265969610
  31
0.0
   0
LINE
   5
ED
 100
AcDbEntity
   8
LEVEL001
 370
30
 100
AcDbLine
   6
CONTINUOUS
  62
7
  10
 508.35324737218
  20
 96.460309696097
  30
0.0
  11
 506.29634737218
  21
 113.40194969610
  31
0.0
   0
LINE
   5
EE
 100
AcDbEntity
   8
LEVEL001
 370
30
 100
AcDbLine
   6
CONTINUOUS
  62
7
  10
 506.98197737218
  20
 107.75473969610
  30
0.0
  11
 507.25536137218
  21
 99.425892696097
  31
0.0
   0
LINE
   5
EF
 100
AcDbEntity
   8
LEVEL001
 370
30
 100
AcDbLine
   6
CONTINUOUS
  62
7
  10
 510.86251637218
  20
 117.55398969610
  30
0.0
  11
 511.19708837218
  21
 93.252568696097
  31
0.0
   0
LINE
   5
F0
 100
AcDbEntity
   8
LEVEL001
 370
30
 100
AcDbLine
   6
CONTINUOUS
  62
7
  10
 538.66258837218
  20
 76.303990696097
  30
0.0
  11
 539.66158837218
  21
 76.303990696097
  31
0.0
   0
LINE
   5
F1
 100
AcDbEntity
   8
LEVEL001
 370
30
 100
AcDbLine
   6
CONTINUOUS
  62
7
  10
 538.66258837218
  20
 82.803990696097
  30
0.0
  11
 539.67180837218
  21
 82.803990696097
  31
0.0
   0
LINE
   5
F2
 100
AcDbEntity
   8
LEVEL001
 370
30
 100
AcDbLine
   6
CONTINUOUS
  62
7
  10
 514.66258837218
  20
 89.553990696097
  30
0.0
  11
 514.66258837218
  21
 69.553990696097
  31
0.0
   0
LINE
   5
F3
 100
AcDbEntity
   8
LEVEL001
 370
30
 100
AcDbLine
   6
CONTINUOUS
  62
7
  10
 538.66258837218
  20
 89.553990696097
  30
0.0
  11
 538.66258837218
  21
 69.553990696097
  31
0.0
   0
LINE
   5
F4
 100
AcDbEntity
   8
LEVEL001
 370
30
 100
AcDbLine
   6
CONTINUOUS
  62
7
  10
 511.36258537218
  20
 83.827305696097
  30
0.0
  11
 511.36258537218
  21
 75.280674696097
  31
0.0
   0
LINE
   5
F5
 100
AcDbEntity
   8
LEVEL001
 370
30
 100
AcDbLine
   6
CONTINUOUS
  62
7
  10
 511.65320437218
  20
 82.911282696097
  30
0.0
  11
 511.67095737218
  21
 71.618245696097
  31
0.0
   0
LINE
   5
F6
 100
AcDbEntity
   8
LEVEL001
 370
30
 100
AcDbLine
   6
CONTINUOUS
  62
7
  10
 513.64263737218
  20
 89.630169696097
  30
0.0
  11
 513.67095737218
  21
 71.621403696097
  31
0.0
   0
LINE
   5
F7
 100
AcDbEntity
   8
LEVEL001
 370
30
 100
AcDbLine
   6
CONTINUOUS
  62
7
  10
 515.66258837218
  20
 68.553990696097
  30
0.0
  11
 516.66258837218
  21
 68.553990696097
  31
0.0
   0
LINE
   5
F8
 100
AcDbEntity
   8
LEVEL001
 370
30
 100
AcDbLine
   6
CONTINUOUS
  62
7
  10
 513.66359537218
  20
 76.303990696097
  30
0.0
  11
 514.66258837218
  21
 76.303990696097
  31
0.0
   0
LINE
   5
F9
 100
AcDbEntity
   8
LEVEL001
 370
30
 100
AcDbLine
   6
CONTINUOUS
  62
7
  10
 511.67098037218
  20
 71.618245696097
  30
0.0
  11
 513.67098037218
  21
 71.621388696097
  31
0.0
   0
LINE
   5
FA
 100
AcDbEntity
   8
LEVEL001
 370
30
 100
AcDbLine
   6
CONTINUOUS
  62
7
  10
 536.66258837218
  20
 68.553990696097
  30
0.0
  11
 537.66258837218
  21
 68.553990696097
  31
0.0
   0
LINE
   5
FB
 100
AcDbEntity
   8
LEVEL001
 370
30
 100
AcDbLine
   6
CONTINUOUS
  62
7
  10
 515.66258837218
  20
 90.553990696097
  30
0.0
  11
 516.66258837218
  21
 90.553990696097
  31
0.0
   0
LINE
   5
FC
 100
AcDbEntity
   8
LEVEL001
 370
30
 100
AcDbLine
   6
CONTINUOUS
  62
7
  10
 513.65337937218
  20
 82.803990696097
  30
0.0
  11
 514.66258837218
  21
 82.803990696097
  31
0.0
   0
LINE
   5
FD
 100
AcDbEntity
   8
LEVEL001
 370
30
 100
AcDbLine
   6
CONTINUOUS
  62
7
  10
 512.85476537218
  20
 88.036389696097
  30
0.0
  11
 510.85441437218
  21
 94.330937696097
  31
0.0
   0
LINE
   5
FE
 100
AcDbEntity
   8
LEVEL001
 370
30
 100
AcDbLine
   6
CONTINUOUS
  62
7
  10
 510.94865237218
  20
 87.430653696097
  30
0.0
  11
 508.94830137218
  21
 93.725201696097
  31
0.0
   0
LINE
   5
FF
 100
AcDbEntity
   8
LEVEL001
 370
30
 100
AcDbLine
   6
CONTINUOUS
  62
7
  10
 508.71405637218
  20
 94.541836696097
  30
0.0
  11
 508.63117837218
  21
 94.682698696097
  31
0.0
   0
LINE
   5
100
 100
AcDbEntity
   8
LEVEL001
 370
30
 100
AcDbLine
   6
CONTINUOUS
  62
7
  10
 536.66258837218
  20
 90.553990696097
  30
0.0
  11
 537.66258837218
  21
 90.553990696097
  31
0.0
   0
LINE
   5
101
 100
AcDbEntity
   8
LEVEL001
 370
30
 100
AcDbLine
   6
CONTINUOUS
  62
7
  10
 541.67196837218
  20
 82.911274696097
  30
0.0
  11
 541.65421837218
  21
 71.618245696097
  31
0.0
   0
LINE
   5
102
 100
AcDbEntity
   8
LEVEL001
 370
30
 100
AcDbLine
   6
CONTINUOUS
  62
7
  10
 539.68253837218
  20
 89.630154696097
  30
0.0
  11
 539.65421837218
  21
 71.621388696097
  31
0.0
   0
LINE
   5
103
 100
AcDbEntity
   8
LEVEL001
 370
30
 100
AcDbLine
   6
CONTINUOUS
  62
7
  10
 541.65419837218
  20
 71.618237696097
  30
0.0
  11
 539.65419837218
  21
 71.621380696097
  31
0.0
   0
LINE
   5
104
 100
AcDbEntity
   8
LEVEL001
 370
30
 100
AcDbLine
   6
CONTINUOUS
  62
7
  10
 540.47041837218
  20
 88.036381696097
  30
0.0
  11
 542.47075837218
  21
 94.330929696097
  31
0.0
   0
LINE
   5
105
 100
AcDbEntity
   8
LEVEL001
 370
30
 100
AcDbLine
   6
CONTINUOUS
  62
7
  10
 542.37652837218
  20
 87.430645696097
  30
0.0
  11
 544.37687837218
  21
 93.725194696097
  31
0.0
   0
LINE
   5
106
 100
AcDbEntity
   8
LEVEL001
 370
30
 100
AcDbLine
   6
CONTINUOUS
  62
7
  10
 544.61111837218
  20
 94.541829696097
  30
0.0
  11
 544.69399837218
  21
 94.682690696097
  31
0.0
   0
LINE
   5
107
 100
AcDbEntity
   8
LEVEL001
 370
30
 100
AcDbLine
   6
CONTINUOUS
  62
7
  10
 513.06259037218
  20
 116.35398969610
  30
0.0
  11
 540.44797837218
  21
 116.35398969610
  31
0.0
   0
LINE
   5
108
 100
AcDbEntity
   8
LEVEL001
 370
30
 100
AcDbLine
   6
CONTINUOUS
  62
7
  10
 506.66258837218
  20
 117.55398969610
  30
0.0
  11
 546.66258837218
  21
 117.55398969610
  31
0.0
   0
LINE
   5
109
 100
AcDbEntity
   8
LEVEL001
 370
30
 100
AcDbLine
   6
CONTINUOUS
  62
7
  10
 506.66258837218
  20
 119.55398969610
  30
0.0
  11
 546.66258837218
  21
 119.55398969610
  31
0.0
   0
LINE
   5
10A
 100
AcDbEntity
   8
LEVEL001
 370
30
 100
AcDbLine
   6
CONTINUOUS
  62
7
  10
 507.11755937218
  20
 117.55398969610
  30
0.0
  11
 508.12154937218
  21
 114.96266969610
  31
0.0
   0
LINE
   5
10B
 100
AcDbEntity
   8
LEVEL001
 370
30
 100
AcDbLine
   6
CONTINUOUS
  62
7
  10
 506.66258837218
  20
 119.55398969610
  30
0.0
  11
 506.66258837218
  21
 117.55398969610
  31
0.0
   0
LINE
   5
10C
 100
AcDbEntity
   8
LEVEL001
 370
30
 100
AcDbLine
   6
CONTINUOUS
  62
7
  10
 546.20761837218
  20
 117.55398969610
  30
0.0
  11
 545.20362837218
  21
 114.96266969610
  31
0.0
   0
LINE
   5
10D
 100
AcDbEntity
   8
LEVEL001
 370
30
 100
AcDbLine
   6
CONTINUOUS
  62
7
  10
 546.66258837218
  20
 119.55398969610
  30
0.0
  11
 546.66258837218
  21
 117.55398969610
  31
0.0
   0
LINE
   5
10E
 100
AcDbEntity
   8
LEVEL001
 370
30
 100
AcDbLine
   6
CONTINUOUS
  62
7
  10
 541.83240837218
  20
 84.303990696097
  30
0.0
  11
 541.83240837218
  21
 74.803990696097
  31
0.0
   0
LINE
   5
10F
 100
AcDbEntity
   8
LEVEL001
 370
30
 100
AcDbLine
   6
CONTINUOUS
  62
7
  10
 541.73893837218
  20
 84.303990696097
  30
0.0
  11
 541.83240837218
  21
 84.303990696097
  31
0.0
   0
LINE
   5
110
 100
AcDbEntity
   8
LEVEL001
 370
30
 100
AcDbLine
   6
CONTINUOUS
  62
7
  10
 541.65922837218
  20
 74.803990696097
  30
0.0
  11
 541.83240837218
  21
 74.803990696097
  31
0.0
   0
ARC
   5
111
 100
AcDbEntity
   8
LEVEL001
 370
30
   6
CONTINUOUS
  62
7
 100
AcDbCircle
  10
 518.66258837218
  20
 57.225346696097
  30
0.0
  40
 2.0000000000000
 100
AcDbArc
  50
 179.99997999997
  51
 260.40582999995
   0
ARC
   5
112
 100
AcDbEntity
   8
LEVEL001
 370
30
   6
CONTINUOUS
  62
7
 100
AcDbCircle
  10
 534.66258837218
  20
 57.225346696097
  30
0.0
  40
 2.0000000000000
 100
AcDbArc
  50
 279.59414999995
  51
0.0
   0
ARC
   5
113
 100
AcDbEntity
   8
LEVEL001
 370
30
   6
CONTINUOUS
  62
7
 100
AcDbCircle
  10
 526.66258837218
  20
 104.55398969610
  30
0.0
  40
 50.000000000000
 100
AcDbArc
  50
 260.40590999995
  51
 279.59406999995
   0
ARC
   5
114
 100
AcDbEntity
   8
LEVEL001
 370
30
   6
CONTINUOUS
  62
7
 100
AcDbCircle
  10
 517.24999037218
  20
 99.753956696097
  30
0.0
  40
 10.000000000000
 100
AcDbArc
  50
 181.87997999996
  51
 210.47225999996
   0
ARC
   5
115
 100
AcDbEntity
   8
LEVEL001
 370
30
   6
CONTINUOUS
  62
7
 100
AcDbCircle
  10
 518.06977637218
  20
 79.553990696097
  30
0.0
  40
 8.6071840000000
 100
AcDbArc
  50
 156.73285999997
  51
 203.26712999996
   0
ARC
   5
116
 100
AcDbEntity
   8
LEVEL001
 370
30
   6
CONTINUOUS
  62
7
 100
AcDbCircle
  10
 515.66258837218
  20
 69.553990696097
  30
0.0
  40
 1.0000000000000
 100
AcDbArc
  50
 179.99997999996
  51
 270.00002999995
   0
ARC
   5
117
 100
AcDbEntity
   8
LEVEL001
 370
30
   6
CONTINUOUS
  62
7
 100
AcDbCircle
  10
 511.66258837218
  20
 76.953991696097
  30
0.0
  40
 1.7000000000000
 100
AcDbArc
  50
 208.07243999996
  51
 270.08948999995
   0
ARC
   5
118
 100
AcDbEntity
   8
LEVEL001
 370
30
   6
CONTINUOUS
  62
7
 100
AcDbCircle
  10
 537.66258837218
  20
 69.553990696097
  30
0.0
  40
 1.0000000000000
 100
AcDbArc
  50
 270.00001999995
  51
0.0
   0
ARC
   5
119
 100
AcDbEntity
   8
LEVEL001
 370
30
   6
CONTINUOUS
  62
7
 100
AcDbCircle
  10
 515.66258837218
  20
 89.553990696097
  30
0.0
  40
 1.0000000000000
 100
AcDbArc
  50
 89.999981999981
  51
 180.00001999997
   0
ARC
   5
11A
 100
AcDbEntity
   8
LEVEL001
 370
30
   6
CONTINUOUS
  62
7
 100
AcDbCircle
  10
 511.66258837218
  20
 82.153988696097
  30
0.0
  40
 1.7000000000000
 100
AcDbArc
  50
 91.363997999983
  51
 151.92743999997
   0
ARC
   5
11B
 100
AcDbEntity
   8
LEVEL001
 370
30
   6
CONTINUOUS
  62
7
 100
AcDbCircle
  10
 523.24390237218
  20
 98.268200696098
  30
0.0
  40
 13.000000000000
 100
AcDbArc
  50
 186.92242999996
  51
 197.62976999996
   0
ARC
   5
11C
 100
AcDbEntity
   8
LEVEL001
 370
30
   6
CONTINUOUS
  62
7
 100
AcDbCircle
  10
 496.65325037218
  20
 82.887700696097
  30
0.0
  40
 17.000000000000
 100
AcDbArc
  50
 0.90094000000100E-1
  51
 17.629704999997
   0
ARC
   5
11D
 100
AcDbEntity
   8
LEVEL001
 370
30
   6
CONTINUOUS
  62
7
 100
AcDbCircle
  10
 506.64267537218
  20
 89.619153696098
  30
0.0
  40
 7.0000000000000
 100
AcDbArc
  50
 0.90093999999395E-1
  51
 48.626404999990
   0
ARC
   5
11E
 100
AcDbEntity
   8
LEVEL001
 370
30
   6
CONTINUOUS
  62
7
 100
AcDbCircle
  10
 496.65325037218
  20
 82.887700696097
  30
0.0
  40
 15.000000000000
 100
AcDbArc
  50
 0.90093999999914E-1
  51
 17.629704999997
   0
ARC
   5
11F
 100
AcDbEntity
   8
LEVEL001
 370
30
   6
CONTINUOUS
  62
7
 100
AcDbCircle
  10
 523.24390237218
  20
 98.268200696098
  30
0.0
  40
 15.000000000000
 100
AcDbArc
  50
 186.92242999996
  51
 197.62976999996
   0
ARC
   5
120
 100
AcDbEntity
   8
LEVEL001
 370
30
   6
CONTINUOUS
  62
7
 100
AcDbCircle
  10
 537.66258837218
  20
 89.553990696097
  30
0.0
  40
 1.0000000000000
 100
AcDbArc
  50
 0.81422199845466E-12
  51
 89.999981999981
   0
ARC
   5
121
 100
AcDbEntity
   8
LEVEL001
 370
30
   6
CONTINUOUS
  62
7
 100
AcDbCircle
  10
 530.08127837218
  20
 98.268200696097
  30
0.0
  40
 13.000000000000
 100
AcDbArc
  50
 342.37021999994
  51
 353.07754999993
   0
ARC
   5
122
 100
AcDbEntity
   8
LEVEL001
 370
30
   6
CONTINUOUS
  62
7
 100
AcDbCircle
  10
 556.67192837218
  20
 82.887700696097
  30
0.0
  40
 17.000000000000
 100
AcDbArc
  50
 162.37025999997
  51
 179.90986999997
   0
ARC
   5
123
 100
AcDbEntity
   8
LEVEL001
 370
30
   6
CONTINUOUS
  62
7
 100
AcDbCircle
  10
 546.68249837218
  20
 89.619153696097
  30
0.0
  40
 7.0000000000000
 100
AcDbArc
  50
 131.37354999998
  51
 179.90985999997
   0
ARC
   5
124
 100
AcDbEntity
   8
LEVEL001
 370
30
   6
CONTINUOUS
  62
7
 100
AcDbCircle
  10
 556.67192837218
  20
 82.887700696098
  30
0.0
  40
 15.000000000000
 100
AcDbArc
  50
 162.37025999997
  51
 179.90986999997
   0
ARC
   5
125
 100
AcDbEntity
   8
LEVEL001
 370
30
   6
CONTINUOUS
  62
7
 100
AcDbCircle
  10
 530.08127837218
  20
 98.268200696097
  30
0.0
  40
 15.000000000000
 100
AcDbArc
  50
 342.37021999994
  51
 353.07754999994
   0
ARC
   5
126
 100
AcDbEntity
   8
LEVEL001
 370
30
   6
CONTINUOUS
  62
7
 100
AcDbCircle
  10
 536.07518837218
  20
 99.753956696098
  30
0.0
  40
 10.000000000000
 100
AcDbArc
  50
 329.52773999994
  51
 358.12001999993
   0
ARC
   5
127
 100
AcDbEntity
   8
LEVEL001
 370
30
   6
CONTINUOUS
  62
7
 100
AcDbCircle
  10
 521.28232437218
  20
 114.05028969610
  30
0.0
  40
 15.000000000000
 100
AcDbArc
  50
 166.49208999997
  51
 181.87995999996
   0
ARC
   5
128
 100
AcDbEntity
   8
LEVEL001
 370
30
   6
CONTINUOUS
  62
7
 100
AcDbCircle
  10
 526.66258837218
  20
 54.553990696097
  30
0.0
  40
 50.000000000000
 100
AcDbArc
  50
 80.405928999985
  51
 99.594088999981
   0
ARC
   5
129
 100
AcDbEntity
   8
LEVEL001
 370
30
   6
CONTINUOUS
  62
7
 100
AcDbCircle
  10
 518.66258837218
  20
 101.88262969610
  30
0.0
  40
 2.0000000000000
 100
AcDbArc
  50
 99.594163999980
  51
 180.00001999997
   0
ARC
   5
12A
 100
AcDbEntity
   8
LEVEL001
 370
30
   6
CONTINUOUS
  62
7
 100
AcDbCircle
  10
 513.06259037218
  20
 119.77065969610
  30
0.0
  40
 3.4166640000000
 100
AcDbArc
  50
 230.03620999996
  51
 270.00001999995
   0
ARC
   5
12B
 100
AcDbEntity
   8
LEVEL001
 370
30
   6
CONTINUOUS
  62
7
 100
AcDbCircle
  10
 534.66258837218
  20
 101.88262969610
  30
0.0
  40
 2.0000000000000
 100
AcDbArc
  50
 0.40711099922733E-12
  51
 80.405853999984
   0
ARC
   5
12C
 100
AcDbEntity
   8
LEVEL001
 370
30
   6
CONTINUOUS
  62
7
 100
AcDbCircle
  10
 540.27246837218
  20
 119.76613969610
  30
0.0
  40
 3.4166640000000
 100
AcDbArc
  50
 272.94441999995
  51
 309.96376999994
   0
ARC
   5
12D
 100
AcDbEntity
   8
LEVEL001
 370
30
   6
CONTINUOUS
  62
7
 100
AcDbCircle
  10
 532.04284837218
  20
 114.05028969610
  30
0.0
  40
 15.000000000000
 100
AcDbArc
  50
 358.11999999993
  51
 13.507873999998
   0
ARC
   5
12E
 100
AcDbEntity
   8
LEVEL001
 370
30
   6
CONTINUOUS
  62
7
 100
AcDbCircle
  10
 538.16668837218
  20
 79.553990696097
  30
0.0
  40
 6.0000000000000
 100
AcDbArc
  50
 307.65845999994
  51
 0.13570366640911E-12
   0
ARC
   5
12F
 100
AcDbEntity
   8
LEVEL001
 370
30
   6
CONTINUOUS
  62
7
 100
AcDbCircle
  10
 538.16668837218
  20
 79.553990696097
  30
0.0
  40
 6.0000000000000
 100
AcDbArc
  50
 0.27140733281822E-12
  51
 52.341538999990
   0
LINE
   5
130
 100
AcDbEntity
   8
LEVEL001
 370
30
 100
AcDbLine
   6
HIDDEN
  62
7
  10
 510.91258837218
  20
 117.55398969610
  30
0.0
  11
 510.91258837218
  21
 119.55398969610
  31
0.0
   0
LINE
   5
131
 100
AcDbEntity
   8
LEVEL001
 370
30
 100
AcDbLine
   6
HIDDEN
  62
7
  10
 517.41258837218
  20
 117.55398969610
  30
0.0
  11
 517.41258837218
  21
 119.55398969610
  31
0.0
   0
LINE
   5
132
 100
AcDbEntity
   8
LEVEL001
 370
30
 100
AcDbLine
   6
HIDDEN
  62
7
  10
 535.91258837218
  20
 117.55398969610
  30
0.0
  11
 535.91258837218
  21
 119.55398969610
  31
0.0
   0
LINE
   5
133
 100
AcDbEntity
   8
LEVEL001
 370
30
 100
AcDbLine
   6
HIDDEN
  62
7
  10
 542.41258837218
  20
 117.55398969610
  30
0.0
  11
 542.41258837218
  21
 119.55398969610
  31
0.0
   0
POINT
   5
134
 100
AcDbEntity
   8
LEVEL001
 100
AcDbPoint
  62
7
  10
 526.66258837218
  20
 54.553990696097
  30
0.0
   0
ENDBLK
   5
135
 100
AcDbEntity
   8
0
 100
AcDbBlockEnd
   0
BLOCK
   5
136
 100
AcDbEntity
   8
0
 100
AcDbBlockBegin
   2
BLOCK004
  70
64
  10
0.0
  20
0.0
  30
0.0
   3
BLOCK004
   0
LINE
   5
137
 100
AcDbEntity
   8
LEVEL001
 370
30
 100
AcDbLine
   6
DASHDOT
  62
7
  10
 266.66258837218
  20
 121.81128969610
  30
0.0
  11
 266.66258837218
  21
 51.013989696097
  31
0.0
   0
LINE
   5
138
 100
AcDbEntity
   8
LEVEL001
 370
30
 100
AcDbLine
   6
DASHDOT
  62
7
  10
 246.66258837218
  20
 79.553990696097
  30
0.0
  11
 286.66258837218
  21
 79.553990696097
  31
0.0
   0
LINE
   5
139
 100
AcDbEntity
   8
LEVEL001
 370
30
 100
AcDbLine
   6
DASHDOT
  62
7
  10
 254.16258837218
  20
 121.81128969610
  30
0.0
  11
 254.16258837218
  21
 114.85914969610
  31
0.0
   0
LINE
   5
13A
 100
AcDbEntity
   8
LEVEL001
 370
30
 100
AcDbLine
   6
DASHDOT
  62
7
  10
 279.16258837218
  20
 121.81128969610
  30
0.0
  11
 279.16258837218
  21
 114.85914969610
  31
0.0
   0
LINE
   5
13B
 100
AcDbEntity
   8
LEVEL001
 370
30
 100
AcDbLine
   6
CONTINUOUS
  62
7
  10
 276.66258837218
  20
 101.88262969610
  30
0.0
  11
 276.66258837218
  21
 57.225346696097
  31
0.0
   0
LINE
   5
13C
 100
AcDbEntity
   8
LEVEL001
 370
30
 100
AcDbLine
   6
CONTINUOUS
  62
7
  10
 256.66258837218
  20
 101.88262969610
  30
0.0
  11
 256.66258837218
  21
 57.225346696097
  31
0.0
   0
LINE
   5
13D
 100
AcDbEntity
   8
LEVEL001
 370
30
 100
AcDbLine
   6
CONTINUOUS
  62
7
  10
 282.98653837218
  20
 96.701359696097
  30
0.0
  11
 285.20366837218
  21
 114.96265969610
  31
0.0
   0
LINE
   5
13E
 100
AcDbEntity
   8
LEVEL001
 370
30
 100
AcDbLine
   6
CONTINUOUS
  62
7
  10
 284.97192837218
  20
 96.460309696097
  30
0.0
  11
 287.02882837218
  21
 113.40194969610
  31
0.0
   0
LINE
   5
13F
 100
AcDbEntity
   8
LEVEL001
 370
30
 100
AcDbLine
   6
CONTINUOUS
  62
7
  10
 286.34319837218
  20
 107.75473969610
  30
0.0
  11
 286.06981837218
  21
 99.425892696097
  31
0.0
   0
LINE
   5
140
 100
AcDbEntity
   8
LEVEL001
 370
30
 100
AcDbLine
   6
CONTINUOUS
  62
7
  10
 282.46266837218
  20
 117.55398969610
  30
0.0
  11
 282.12808837218
  21
 93.252560696097
  31
0.0
   0
LINE
   5
141
 100
AcDbEntity
   8
LEVEL001
 370
30
 100
AcDbLine
   6
CONTINUOUS
  62
7
  10
 250.33863637218
  20
 96.701359696097
  30
0.0
  11
 248.12151937218
  21
 114.96265969610
  31
0.0
   0
LINE
   5
142
 100
AcDbEntity
   8
LEVEL001
 370
30
 100
AcDbLine
   6
CONTINUOUS
  62
7
  10
 248.35324737218
  20
 96.460309696097
  30
0.0
  11
 246.29634737218
  21
 113.40194969610
  31
0.0
   0
LINE
   5
143
 100
AcDbEntity
   8
LEVEL001
 370
30
 100
AcDbLine
   6
CONTINUOUS
  62
7
  10
 246.98197737218
  20
 107.75473969610
  30
0.0
  11
 247.25536137218
  21
 99.425892696097
  31
0.0
   0
LINE
   5
144
 100
AcDbEntity
   8
LEVEL001
 370
30
 100
AcDbLine
   6
CONTINUOUS
  62
7
  10
 250.86251637218
  20
 117.55398969610
  30
0.0
  11
 251.19708837218
  21
 93.252568696097
  31
0.0
   0
LINE
   5
145
 100
AcDbEntity
   8
LEVEL001
 370
30
 100
AcDbLine
   6
CONTINUOUS
  62
7
  10
 278.66258837218
  20
 76.303990696097
  30
0.0
  11
 279.66158837218
  21
 76.303990696097
  31
0.0
   0
LINE
   5
146
 100
AcDbEntity
   8
LEVEL001
 370
30
 100
AcDbLine
   6
CONTINUOUS
  62
7
  10
 278.66258837218
  20
 82.803990696097
  30
0.0
  11
 279.67180837218
  21
 82.803990696097
  31
0.0
   0
LINE
   5
147
 100
AcDbEntity
   8
LEVEL001
 370
30
 100
AcDbLine
   6
CONTINUOUS
  62
7
  10
 254.66258837218
  20
 89.553990696097
  30
0.0
  11
 254.66258837218
  21
 69.553990696097
  31
0.0
   0
LINE
   5
148
 100
AcDbEntity
   8
LEVEL001
 370
30
 100
AcDbLine
   6
CONTINUOUS
  62
7
  10
 278.66258837218
  20
 89.553990696097
  30
0.0
  11
 278.66258837218
  21
 69.553990696097
  31
0.0
   0
LINE
   5
149
 100
AcDbEntity
   8
LEVEL001
 370
30
 100
AcDbLine
   6
CONTINUOUS
  62
7
  10
 251.36258537218
  20
 83.827305696097
  30
0.0
  11
 251.36258537218
  21
 75.280674696097
  31
0.0
   0
LINE
   5
14A
 100
AcDbEntity
   8
LEVEL001
 370
30
 100
AcDbLine
   6
CONTINUOUS
  62
7
  10
 251.65320437218
  20
 82.911282696097
  30
0.0
  11
 251.67095737218
  21
 71.618245696097
  31
0.0
   0
LINE
   5
14B
 100
AcDbEntity
   8
LEVEL001
 370
30
 100
AcDbLine
   6
CONTINUOUS
  62
7
  10
 253.64263737218
  20
 89.630169696097
  30
0.0
  11
 253.67095737218
  21
 71.621403696097
  31
0.0
   0
LINE
   5
14C
 100
AcDbEntity
   8
LEVEL001
 370
30
 100
AcDbLine
   6
CONTINUOUS
  62
7
  10
 255.66258837218
  20
 68.553990696097
  30
0.0
  11
 256.66258837218
  21
 68.553990696097
  31
0.0
   0
LINE
   5
14D
 100
AcDbEntity
   8
LEVEL001
 370
30
 100
AcDbLine
   6
CONTINUOUS
  62
7
  10
 253.66359537218
  20
 76.303990696097
  30
0.0
  11
 254.66258837218
  21
 76.303990696097
  31
0.0
   0
LINE
   5
14E
 100
AcDbEntity
   8
LEVEL001
 370
30
 100
AcDbLine
   6
CONTINUOUS
  62
7
  10
 251.67098037218
  20
 71.618245696097
  30
0.0
  11
 253.67098037218
  21
 71.621388696097
  31
0.0
   0
LINE
   5
14F
 100
AcDbEntity
   8
LEVEL001
 370
30
 100
AcDbLine
   6
CONTINUOUS
  62
7
  10
 276.66258837218
  20
 68.553990696097
  30
0.0
  11
 277.66258837218
  21
 68.553990696097
  31
0.0
   0
LINE
   5
150
 100
AcDbEntity
   8
LEVEL001
 370
30
 100
AcDbLine
   6
CONTINUOUS
  62
7
  10
 255.66258837218
  20
 90.553990696097
  30
0.0
  11
 256.66258837218
  21
 90.553990696097
  31
0.0
   0
LINE
   5
151
 100
AcDbEntity
   8
LEVEL001
 370
30
 100
AcDbLine
   6
CONTINUOUS
  62
7
  10
 253.65337937218
  20
 82.803990696097
  30
0.0
  11
 254.66258837218
  21
 82.803990696097
  31
0.0
   0
LINE
   5
152
 100
AcDbEntity
   8
LEVEL001
 370
30
 100
AcDbLine
   6
CONTINUOUS
  62
7
  10
 252.85476537218
  20
 88.036389696097
  30
0.0
  11
 250.85441437218
  21
 94.330937696097
  31
0.0
   0
LINE
   5
153
 100
AcDbEntity
   8
LEVEL001
 370
30
 100
AcDbLine
   6
CONTINUOUS
  62
7
  10
 250.94865237218
  20
 87.430653696097
  30
0.0
  11
 248.94830137218
  21
 93.725201696097
  31
0.0
   0
LINE
   5
154
 100
AcDbEntity
   8
LEVEL001
 370
30
 100
AcDbLine
   6
CONTINUOUS
  62
7
  10
 248.71405637218
  20
 94.541836696097
  30
0.0
  11
 248.63117837218
  21
 94.682698696097
  31
0.0
   0
LINE
   5
155
 100
AcDbEntity
   8
LEVEL001
 370
30
 100
AcDbLine
   6
CONTINUOUS
  62
7
  10
 276.66258837218
  20
 90.553990696097
  30
0.0
  11
 277.66258837218
  21
 90.553990696097
  31
0.0
   0
LINE
   5
156
 100
AcDbEntity
   8
LEVEL001
 370
30
 100
AcDbLine
   6
CONTINUOUS
  62
7
  10
 281.67196837218
  20
 82.911274696097
  30
0.0
  11
 281.65421837218
  21
 71.618245696097
  31
0.0
   0
LINE
   5
157
 100
AcDbEntity
   8
LEVEL001
 370
30
 100
AcDbLine
   6
CONTINUOUS
  62
7
  10
 279.68253837218
  20
 89.630154696097
  30
0.0
  11
 279.65421837218
  21
 71.621388696097
  31
0.0
   0
LINE
   5
158
 100
AcDbEntity
   8
LEVEL001
 370
30
 100
AcDbLine
   6
CONTINUOUS
  62
7
  10
 281.65419837218
  20
 71.618237696097
  30
0.0
  11
 279.65419837218
  21
 71.621380696097
  31
0.0
   0
LINE
   5
159
 100
AcDbEntity
   8
LEVEL001
 370
30
 100
AcDbLine
   6
CONTINUOUS
  62
7
  10
 280.47041837218
  20
 88.036381696097
  30
0.0
  11
 282.47075837218
  21
 94.330929696097
  31
0.0
   0
LINE
   5
15A
 100
AcDbEntity
   8
LEVEL001
 370
30
 100
AcDbLine
   6
CONTINUOUS
  62
7
  10
 282.37652837218
  20
 87.430645696097
  30
0.0
  11
 284.37687837218
  21
 93.725194696097
  31
0.0
   0
LINE
   5
15B
 100
AcDbEntity
   8
LEVEL001
 370
30
 100
AcDbLine
   6
CONTINUOUS
  62
7
  10
 284.61111837218
  20
 94.541829696097
  30
0.0
  11
 284.69399837218
  21
 94.682690696097
  31
0.0
   0
LINE
   5
15C
 100
AcDbEntity
   8
LEVEL001
 370
30
 100
AcDbLine
   6
CONTINUOUS
  62
7
  10
 253.06259037218
  20
 116.35398969610
  30
0.0
  11
 280.44797837218
  21
 116.35398969610
  31
0.0
   0
LINE
   5
15D
 100
AcDbEntity
   8
LEVEL001
 370
30
 100
AcDbLine
   6
CONTINUOUS
  62
7
  10
 246.66258837218
  20
 117.55398969610
  30
0.0
  11
 286.66258837218
  21
 117.55398969610
  31
0.0
   0
LINE
   5
15E
 100
AcDbEntity
   8
LEVEL001
 370
30
 100
AcDbLine
   6
CONTINUOUS
  62
7
  10
 246.66258837218
  20
 119.55398969610
  30
0.0
  11
 286.66258837218
  21
 119.55398969610
  31
0.0
   0
LINE
   5
15F
 100
AcDbEntity
   8
LEVEL001
 370
30
 100
AcDbLine
   6
CONTINUOUS
  62
7
  10
 247.11755937218
  20
 117.55398969610
  30
0.0
  11
 248.12154937218
  21
 114.96266969610
  31
0.0
   0
LINE
   5
160
 100
AcDbEntity
   8
LEVEL001
 370
30
 100
AcDbLine
   6
CONTINUOUS
  62
7
  10
 246.66258837218
  20
 119.55398969610
  30
0.0
  11
 246.66258837218
  21
 117.55398969610
  31
0.0
   0
LINE
   5
161
 100
AcDbEntity
   8
LEVEL001
 370
30
 100
AcDbLine
   6
CONTINUOUS
  62
7
  10
 286.20761837218
  20
 117.55398969610
  30
0.0
  11
 285.20362837218
  21
 114.96266969610
  31
0.0
   0
LINE
   5
162
 100
AcDbEntity
   8
LEVEL001
 370
30
 100
AcDbLine
   6
CONTINUOUS
  62
7
  10
 286.66258837218
  20
 119.55398969610
  30
0.0
  11
 286.66258837218
  21
 117.55398969610
  31
0.0
   0
LINE
   5
163
 100
AcDbEntity
   8
LEVEL001
 370
30
 100
AcDbLine
   6
CONTINUOUS
  62
7
  10
 281.83240837218
  20
 84.303990696097
  30
0.0
  11
 281.83240837218
  21
 74.803990696097
  31
0.0
   0
LINE
   5
164
 100
AcDbEntity
   8
LEVEL001
 370
30
 100
AcDbLine
   6
CONTINUOUS
  62
7
  10
 281.73893837218
  20
 84.303990696097
  30
0.0
  11
 281.83240837218
  21
 84.303990696097
  31
0.0
   0
LINE
   5
165
 100
AcDbEntity
   8
LEVEL001
 370
30
 100
AcDbLine
   6
CONTINUOUS
  62
7
  10
 281.65922837218
  20
 74.803990696097
  30
0.0
  11
 281.83240837218
  21
 74.803990696097
  31
0.0
   0
ARC
   5
166
 100
AcDbEntity
   8
LEVEL001
 370
30
   6
CONTINUOUS
  62
7
 100
AcDbCircle
  10
 258.66258837218
  20
 57.225346696097
  30
0.0
  40
 2.0000000000000
 100
AcDbArc
  50
 179.99997999997
  51
 260.40582999995
   0
ARC
   5
167
 100
AcDbEntity
   8
LEVEL001
 370
30
   6
CONTINUOUS
  62
7
 100
AcDbCircle
  10
 274.66258837218
  20
 57.225346696097
  30
0.0
  40
 2.0000000000000
 100
AcDbArc
  50
 279.59414999995
  51
0.0
   0
ARC
   5
168
 100
AcDbEntity
   8
LEVEL001
 370
30
   6
CONTINUOUS
  62
7
 100
AcDbCircle
  10
 266.66258837218
  20
 104.55398969610
  30
0.0
  40
 50.000000000000
 100
AcDbArc
  50
 260.40590999995
  51
 279.59406999995
   0
ARC
   5
169
 100
AcDbEntity
   8
LEVEL001
 370
30
   6
CONTINUOUS
  62
7
 100
AcDbCircle
  10
 257.24999037218
  20
 99.753956696097
  30
0.0
  40
 10.000000000000
 100
AcDbArc
  50
 181.87997999996
  51
 210.47225999996
   0
ARC
   5
16A
 100
AcDbEntity
   8
LEVEL001
 370
30
   6
CONTINUOUS
  62
7
 100
AcDbCircle
  10
 258.06977637218
  20
 79.553990696097
  30
0.0
  40
 8.6071840000000
 100
AcDbArc
  50
 156.73285999997
  51
 203.26712999996
   0
ARC
   5
16B
 100
AcDbEntity
   8
LEVEL001
 370
30
   6
CONTINUOUS
  62
7
 100
AcDbCircle
  10
 255.66258837218
  20
 69.553990696097
  30
0.0
  40
 1.0000000000000
 100
AcDbArc
  50
 179.99997999996
  51
 270.00002999995
   0
ARC
   5
16C
 100
AcDbEntity
   8
LEVEL001
 370
30
   6
CONTINUOUS
  62
7
 100
AcDbCircle
  10
 251.66258837218
  20
 76.953991696097
  30
0.0
  40
 1.7000000000000
 100
AcDbArc
  50
 208.07243999996
  51
 270.08948999995
   0
ARC
   5
16D
 100
AcDbEntity
   8
LEVEL001
 370
30
   6
CONTINUOUS
  62
7
 100
AcDbCircle
  10
 277.66258837218
  20
 69.553990696097
  30
0.0
  40
 1.0000000000000
 100
AcDbArc
  50
 270.00001999995
  51
0.0
   0
ARC
   5
16E
 100
AcDbEntity
   8
LEVEL001
 370
30
   6
CONTINUOUS
  62
7
 100
AcDbCircle
  10
 255.66258837218
  20
 89.553990696097
  30
0.0
  40
 1.0000000000000
 100
AcDbArc
  50
 89.999981999985
  51
 180.00001999997
   0
ARC
   5
16F
 100
AcDbEntity
   8
LEVEL001
 370
30
   6
CONTINUOUS
  62
7
 100
AcDbCircle
  10
 251.66258837218
  20
 82.153988696097
  30
0.0
  40
 1.7000000000000
 100
AcDbArc
  50
 91.363997999982
  51
 151.92743999997
   0
ARC
   5
170
 100
AcDbEntity
   8
LEVEL001
 370
30
   6
CONTINUOUS
  62
7
 100
AcDbCircle
  10
 263.24390237218
  20
 98.268200696098
  30
0.0
  40
 13.000000000000
 100
AcDbArc
  50
 186.92242999996
  51
 197.62976999996
   0
ARC
   5
171
 100
AcDbEntity
   8
LEVEL001
 370
30
   6
CONTINUOUS
  62
7
 100
AcDbCircle
  10
 236.65325037218
  20
 82.887700696097
  30
0.0
  40
 17.000000000000
 100
AcDbArc
  50
 0.90094000000099E-1
  51
 17.629704999997
   0
ARC
   5
172
 100
AcDbEntity
   8
LEVEL001
 370
30
   6
CONTINUOUS
  62
7
 100
AcDbCircle
  10
 246.64267537218
  20
 89.619153696098
  30
0.0
  40
 7.0000000000000
 100
AcDbArc
  50
 0.90093999999395E-1
  51
 48.626404999990
   0
ARC
   5
173
 100
AcDbEntity
   8
LEVEL001
 370
30
   6
CONTINUOUS
  62
7
 100
AcDbCircle
  10
 236.65325037218
  20
 82.887700696097
  30
0.0
  40
 15.000000000000
 100
AcDbArc
  50
 0.90093999999914E-1
  51
 17.629704999997
   0
ARC
   5
174
 100
AcDbEntity
   8
LEVEL001
 370
30
   6
CONTINUOUS
  62
7
 100
AcDbCircle
  10
 263.24390237218
  20
 98.268200696098
  30
0.0
  40
 15.000000000000
 100
AcDbArc
  50
 186.92242999996
  51
 197.62976999996
   0
ARC
   5
175
 100
AcDbEntity
   8
LEVEL001
 370
30
   6
CONTINUOUS
  62
7
 100
AcDbCircle
  10
 277.66258837218
  20
 89.553990696097
  30
0.0
  40
 1.0000000000000
 100
AcDbArc
  50
 0.81422199845466E-12
  51
 89.999981999981
   0
ARC
   5
176
 100
AcDbEntity
   8
LEVEL001
 370
30
   6
CONTINUOUS
  62
7
 100
AcDbCircle
  10
 270.08127837218
  20
 98.268200696097
  30
0.0
  40
 13.000000000000
 100
AcDbArc
  50
 342.37021999994
  51
 353.07754999993
   0
ARC
   5
177
 100
AcDbEntity
   8
LEVEL001
 370
30
   6
CONTINUOUS
  62
7
 100
AcDbCircle
  10
 296.67192837218
  20
 82.887700696097
  30
0.0
  40
 17.000000000000
 100
AcDbArc
  50
 162.37025999997
  51
 179.90986999997
   0
ARC
   5
178
 100
AcDbEntity
   8
LEVEL001
 370
30
   6
CONTINUOUS
  62
7
 100
AcDbCircle
  10
 286.68249837218
  20
 89.619153696097
  30
0.0
  40
 7.0000000000000
 100
AcDbArc
  50
 131.37354999998
  51
 179.90985999997
   0
ARC
   5
179
 100
AcDbEntity
   8
LEVEL001
 370
30
   6
CONTINUOUS
  62
7
 100
AcDbCircle
  10
 296.67192837218
  20
 82.887700696098
  30
0.0
  40
 15.000000000000
 100
AcDbArc
  50
 162.37025999997
  51
 179.90986999997
   0
ARC
   5
17A
 100
AcDbEntity
   8
LEVEL001
 370
30
   6
CONTINUOUS
  62
7
 100
AcDbCircle
  10
 270.08127837218
  20
 98.268200696097
  30
0.0
  40
 15.000000000000
 100
AcDbArc
  50
 342.37021999994
  51
 353.07754999994
   0
ARC
   5
17B
 100
AcDbEntity
   8
LEVEL001
 370
30
   6
CONTINUOUS
  62
7
 100
AcDbCircle
  10
 276.07518837218
  20
 99.753956696098
  30
0.0
  40
 10.000000000000
 100
AcDbArc
  50
 329.52773999994
  51
 358.12001999993
   0
ARC
   5
17C
 100
AcDbEntity
   8
LEVEL001
 370
30
   6
CONTINUOUS
  62
7
 100
AcDbCircle
  10
 261.28232437218
  20
 114.05028969610
  30
0.0
  40
 15.000000000000
 100
AcDbArc
  50
 166.49208999997
  51
 181.87995999996
   0
ARC
   5
17D
 100
AcDbEntity
   8
LEVEL001
 370
30
   6
CONTINUOUS
  62
7
 100
AcDbCircle
  10
 266.66258837218
  20
 54.553990696097
  30
0.0
  40
 50.000000000000
 100
AcDbArc
  50
 80.405928999985
  51
 99.594088999981
   0
ARC
   5
17E
 100
AcDbEntity
   8
LEVEL001
 370
30
   6
CONTINUOUS
  62
7
 100
AcDbCircle
  10
 258.66258837218
  20
 101.88262969610
  30
0.0
  40
 2.0000000000000
 100
AcDbArc
  50
 99.594163999980
  51
 180.00001999997
   0
ARC
   5
17F
 100
AcDbEntity
   8
LEVEL001
 370
30
   6
CONTINUOUS
  62
7
 100
AcDbCircle
  10
 253.06259037218
  20
 119.77065969610
  30
0.0
  40
 3.4166640000000
 100
AcDbArc
  50
 230.03620999996
  51
 270.00001999995
   0
ARC
   5
180
 100
AcDbEntity
   8
LEVEL001
 370
30
   6
CONTINUOUS
  62
7
 100
AcDbCircle
  10
 274.66258837218
  20
 101.88262969610
  30
0.0
  40
 2.0000000000000
 100
AcDbArc
  50
 0.40711099922733E-12
  51
 80.405853999984
   0
ARC
   5
181
 100
AcDbEntity
   8
LEVEL001
 370
30
   6
CONTINUOUS
  62
7
 100
AcDbCircle
  10
 280.27246837218
  20
 119.76613969610
  30
0.0
  40
 3.4166640000000
 100
AcDbArc
  50
 272.94441999995
  51
 309.96376999994
   0
ARC
   5
182
 100
AcDbEntity
   8
LEVEL001
 370
30
   6
CONTINUOUS
  62
7
 100
AcDbCircle
  10
 272.04284837218
  20
 114.05028969610
  30
0.0
  40
 15.000000000000
 100
AcDbArc
  50
 358.11999999993
  51
 13.507873999998
   0
ARC
   5
183
 100
AcDbEntity
   8
LEVEL001
 370
30
   6
CONTINUOUS
  62
7
 100
AcDbCircle
  10
 278.16668837218
  20
 79.553990696097
  30
0.0
  40
 6.0000000000000
 100
AcDbArc
  50
 307.65845999994
  51
 0.13570366640911E-12
   0
ARC
   5
184
 100
AcDbEntity
   8
LEVEL001
 370
30
   6
CONTINUOUS
  62
7
 100
AcDbCircle
  10
 278.16668837218
  20
 79.553990696097
  30
0.0
  40
 6.0000000000000
 100
AcDbArc
  50
 0.27140733281822E-12
  51
 52.341538999990
   0
LINE
   5
185
 100
AcDbEntity
   8
LEVEL001
 370
30
 100
AcDbLine
   6
HIDDEN
  62
7
  10
 250.91258837218
  20
 117.55398969610
  30
0.0
  11
 250.91258837218
  21
 119.55398969610
  31
0.0
   0
LINE
   5
186
 100
AcDbEntity
   8
LEVEL001
 370
30
 100
AcDbLine
   6
HIDDEN
  62
7
  10
 257.41258837218
  20
 117.55398969610
  30
0.0
  11
 257.41258837218
  21
 119.55398969610
  31
0.0
   0
LINE
   5
187
 100
AcDbEntity
   8
LEVEL001
 370
30
 100
AcDbLine
   6
HIDDEN
  62
7
  10
 275.91258837218
  20
 117.55398969610
  30
0.0
  11
 275.91258837218
  21
 119.55398969610
  31
0.0
   0
LINE
   5
188
 100
AcDbEntity
   8
LEVEL001
 370
30
 100
AcDbLine
   6
HIDDEN
  62
7
  10
 282.41258837218
  20
 117.55398969610
  30
0.0
  11
 282.41258837218
  21
 119.55398969610
  31
0.0
   0
POINT
   5
189
 100
AcDbEntity
   8
LEVEL001
 100
AcDbPoint
  62
7
  10
 266.66258837218
  20
 54.553990696097
  30
0.0
   0
ENDBLK
   5
18A
 100
AcDbEntity
   8
0
 100
AcDbBlockEnd
   0
BLOCK
   5
18B
 100
AcDbEntity
   8
0
 100
AcDbBlockBegin
   2
BLOCK005
  70
64
  10
0.0
  20
0.0
  30
0.0
   3
BLOCK005
   0
LINE
   5
18C
 100
AcDbEntity
   8
LEVEL001
 370
30
 100
AcDbLine
   6
DASHDOT
  62
7
  10
 960.66258836876
  20
 121.81128858965
  30
0.0
  11
 960.66258836876
  21
 51.013988589650
  31
0.0
   0
LINE
   5
18D
 100
AcDbEntity
   8
LEVEL001
 370
30
 100
AcDbLine
   6
DASHDOT
  62
7
  10
 983.16258836876
  20
 121.81128858965
  30
0.0
  11
 983.16258836876
  21
 114.85914858965
  31
0.0
   0
LINE
   5
18E
 100
AcDbEntity
   8
LEVEL001
 370
30
 100
AcDbLine
   6
DASHDOT
  62
7
  10
 932.17257836876
  20
 79.553989589650
  30
0.0
  11
 989.29257836876
  21
 79.553989589650
  31
0.0
   0
LINE
   5
18F
 100
AcDbEntity
   8
LEVEL001
 370
30
 100
AcDbLine
   6
DASHDOT
  62
7
  10
 938.16258836876
  20
 121.81128858965
  30
0.0
  11
 938.16258836876
  21
 114.85914858965
  31
0.0
   0
LINE
   5
190
 100
AcDbEntity
   8
LEVEL001
 370
30
 100
AcDbLine
   6
CONTINUOUS
  62
7
  10
 989.66258836876
  20
 117.55398858965
  30
0.0
  11
 981.59780836876
  21
 117.55398858965
  31
0.0
   0
LINE
   5
191
 100
AcDbEntity
   8
LEVEL001
 370
30
 100
AcDbLine
   6
CONTINUOUS
  62
7
  10
 989.66258836876
  20
 119.55398858965
  30
0.0
  11
 989.66258836876
  21
 117.55398858965
  31
0.0
   0
LINE
   5
192
 100
AcDbEntity
   8
LEVEL001
 370
30
 100
AcDbLine
   6
CONTINUOUS
  62
7
  10
 972.66258836876
  20
 116.05398858965
  30
0.0
  11
 972.66258836876
  21
 91.553989589650
  31
0.0
   0
LINE
   5
193
 100
AcDbEntity
   8
LEVEL001
 370
30
 100
AcDbLine
   6
CONTINUOUS
  62
7
  10
 931.66258836876
  20
 119.55398858965
  30
0.0
  11
 989.66258836876
  21
 119.55398858965
  31
0.0
   0
LINE
   5
194
 100
AcDbEntity
   8
LEVEL001
 370
30
 100
AcDbLine
   6
CONTINUOUS
  62
7
  10
 931.66258836876
  20
 117.55398858965
  30
0.0
  11
 939.72733836876
  21
 117.55398858965
  31
0.0
   0
LINE
   5
195
 100
AcDbEntity
   8
LEVEL001
 370
30
 100
AcDbLine
   6
CONTINUOUS
  62
7
  10
 931.66258836876
  20
 119.55398858965
  30
0.0
  11
 931.66258836876
  21
 117.55398858965
  31
0.0
   0
LINE
   5
196
 100
AcDbEntity
   8
LEVEL001
 370
30
 100
AcDbLine
   6
CONTINUOUS
  62
7
  10
 952.00127836876
  20
 78.108181589650
  30
0.0
  11
 940.60612836876
  21
 118.46161858965
  31
0.0
   0
LINE
   5
197
 100
AcDbEntity
   8
LEVEL001
 370
30
 100
AcDbLine
   6
CONTINUOUS
  62
7
  10
 948.66258836876
  20
 116.05398858965
  30
0.0
  11
 948.66258836876
  21
 91.553989589650
  31
0.0
   0
LINE
   5
198
 100
AcDbEntity
   8
LEVEL001
 370
30
 100
AcDbLine
   6
CONTINUOUS
  62
7
  10
 980.71902836876
  20
 118.46161858965
  30
0.0
  11
 969.32388836876
  21
 78.108181589650
  31
0.0
   0
ARC
   5
199
 100
AcDbEntity
   8
LEVEL001
 370
30
   6
CONTINUOUS
  62
7
 100
AcDbCircle
  10
 982.16258836876
  20
 118.05398858965
  30
0.0
  40
 1.5000000000000
 100
AcDbArc
  50
 89.999981999988
  51
 164.23121999997
   0
ARC
   5
19A
 100
AcDbEntity
   8
LEVEL001
 370
30
   6
CONTINUOUS
  62
7
 100
AcDbCircle
  10
 939.16258836876
  20
 118.05398858965
  30
0.0
  40
 1.5000000000000
 100
AcDbArc
  50
 15.768817999994
  51
 89.999981999979
   0
ARC
   5
19B
 100
AcDbEntity
   8
LEVEL001
 370
30
   6
CONTINUOUS
  62
7
 100
AcDbCircle
  10
 960.66258836876
  20
 80.553989589650
  30
0.0
  40
 9.0000000000000
 100
AcDbArc
  50
 195.76879999996
  51
 344.23117999993
   0
ARC
   5
19C
 100
AcDbEntity
   8
LEVEL001
 370
30
   6
CONTINUOUS
  62
7
 100
AcDbCircle
  10
 960.66258836876
  20
 79.553989589650
  30
0.0
  40
 10.000000000000
 100
AcDbArc
  50
 34.411517999994
  51
 145.58849999997
   0
ARC
   5
19D
 100
AcDbEntity
   8
LEVEL001
 370
30
   6
CONTINUOUS
  62
7
 100
AcDbCircle
  10
 960.66258836876
  20
 82.553989589650
  30
0.0
  40
 13.000000000000
 100
AcDbArc
  50
 36.128930999993
  51
 143.87108999997
   0
ARC
   5
19E
 100
AcDbEntity
   8
LEVEL001
 370
30
   6
CONTINUOUS
  62
7
 100
AcDbCircle
  10
 939.72733836876
  20
 116.05398858965
  30
0.0
  40
 1.5000000000000
 100
AcDbArc
  50
 15.768812999994
  51
 89.999981999979
   0
ARC
   5
19F
 100
AcDbEntity
   8
LEVEL001
 370
30
   6
CONTINUOUS
  62
7
 100
AcDbCircle
  10
 981.59780836876
  20
 116.05398858965
  30
0.0
  40
 1.5000000000000
 100
AcDbArc
  50
 89.999981999988
  51
 164.23121999997
   0
CIRCLE
   5
1A0
 100
AcDbEntity
   8
LEVEL001
 370
30
 100
AcDbCircle
   6
CONTINUOUS
  62
7
  10
 960.66258836876
  20
 79.553989589650
  30
0.0
  40
 4.7500000000000
   0
ARC
   5
1A1
 100
AcDbEntity
   8
LEVEL001
 370
30
   6
CONTINUOUS
  62
7
 100
AcDbCircle
  10
 960.66258836876
  20
 79.553989589650
  30
0.0
  40
 25.000000000000
 100
AcDbArc
  50
 126.20291999998
  51
 53.797065999990
   0
ARC
   5
1A2
 100
AcDbEntity
   8
LEVEL001
 370
30
   6
CONTINUOUS
  62
7
 100
AcDbCircle
  10
 960.66258836876
  20
 79.553989589650
  30
0.0
  40
 18.000000000000
 100
AcDbArc
  50
 134.77489999998
  51
 45.225096999992
   0
ARC
   5
1A3
 100
AcDbEntity
   8
LEVEL001
 370
30
   6
CONTINUOUS
  62
7
 100
AcDbCircle
  10
 960.66258836876
  20
 79.553989589650
  30
0.0
  40
 11.000000000000
 100
AcDbArc
  50
 158.28046999997
  51
 21.719519999996
   0
LINE
   5
1A4
 100
AcDbEntity
   8
LEVEL001
 370
30
 100
AcDbLine
   6
HIDDEN
  62
7
  10
 934.91258836876
  20
 117.55398858965
  30
0.0
  11
 934.91258836876
  21
 119.55398858965
  31
0.0
   0
LINE
   5
1A5
 100
AcDbEntity
   8
LEVEL001
 370
30
 100
AcDbLine
   6
HIDDEN
  62
7
  10
 986.41258836876
  20
 117.55398858965
  30
0.0
  11
 986.41258836876
  21
 119.55398858965
  31
0.0
   0
POINT
   5
1A6
 100
AcDbEntity
   8
LEVEL001
 100
AcDbPoint
  62
7
  10
 960.66258836876
  20
 54.553989589650
  30
0.0
   0
ENDBLK
   5
1A7
 100
AcDbEntity
   8
0
 100
AcDbBlockEnd
   0
BLOCK
   5
1A8
 100
AcDbEntity
   8
0
 100
AcDbBlockBegin
   2
BLOCK006
  70
64
  10
0.0
  20
0.0
  30
0.0
   3
BLOCK006
   0
LINE
   5
1A9
 100
AcDbEntity
   8
LEVEL001
 370
30
 100
AcDbLine
   6
DASHDOT
  62
7
  10
 1243.6625883688
  20
 121.81128858965
  30
0.0
  11
 1243.6625883688
  21
 51.013988589650
  31
0.0
   0
LINE
   5
1AA
 100
AcDbEntity
   8
LEVEL001
 370
30
 100
AcDbLine
   6
DASHDOT
  62
7
  10
 1266.1625883688
  20
 121.81128858965
  30
0.0
  11
 1266.1625883688
  21
 114.85914858965
  31
0.0
   0
LINE
   5
1AB
 100
AcDbEntity
   8
LEVEL001
 370
30
 100
AcDbLine
   6
DASHDOT
  62
7
  10
 1215.1725783688
  20
 79.553989589650
  30
0.0
  11
 1272.2925783688
  21
 79.553989589650
  31
0.0
   0
LINE
   5
1AC
 100
AcDbEntity
   8
LEVEL001
 370
30
 100
AcDbLine
   6
DASHDOT
  62
7
  10
 1221.1625883688
  20
 121.81128858965
  30
0.0
  11
 1221.1625883688
  21
 114.85914858965
  31
0.0
   0
LINE
   5
1AD
 100
AcDbEntity
   8
LEVEL001
 370
30
 100
AcDbLine
   6
CONTINUOUS
  62
7
  10
 1272.6625883688
  20
 117.55398858965
  30
0.0
  11
 1264.5978083688
  21
 117.55398858965
  31
0.0
   0
LINE
   5
1AE
 100
AcDbEntity
   8
LEVEL001
 370
30
 100
AcDbLine
   6
CONTINUOUS
  62
7
  10
 1272.6625883688
  20
 119.55398858965
  30
0.0
  11
 1272.6625883688
  21
 117.55398858965
  31
0.0
   0
LINE
   5
1AF
 100
AcDbEntity
   8
LEVEL001
 370
30
 100
AcDbLine
   6
CONTINUOUS
  62
7
  10
 1255.6625883688
  20
 116.05398858965
  30
0.0
  11
 1255.6625883688
  21
 91.553989589650
  31
0.0
   0
LINE
   5
1B0
 100
AcDbEntity
   8
LEVEL001
 370
30
 100
AcDbLine
   6
CONTINUOUS
  62
7
  10
 1214.6625883688
  20
 119.55398858965
  30
0.0
  11
 1272.6625883688
  21
 119.55398858965
  31
0.0
   0
LINE
   5
1B1
 100
AcDbEntity
   8
LEVEL001
 370
30
 100
AcDbLine
   6
CONTINUOUS
  62
7
  10
 1214.6625883688
  20
 117.55398858965
  30
0.0
  11
 1222.7273383688
  21
 117.55398858965
  31
0.0
   0
LINE
   5
1B2
 100
AcDbEntity
   8
LEVEL001
 370
30
 100
AcDbLine
   6
CONTINUOUS
  62
7
  10
 1214.6625883688
  20
 119.55398858965
  30
0.0
  11
 1214.6625883688
  21
 117.55398858965
  31
0.0
   0
LINE
   5
1B3
 100
AcDbEntity
   8
LEVEL001
 370
30
 100
AcDbLine
   6
CONTINUOUS
  62
7
  10
 1235.0012783688
  20
 78.108181589650
  30
0.0
  11
 1223.6061283688
  21
 118.46161858965
  31
0.0
   0
LINE
   5
1B4
 100
AcDbEntity
   8
LEVEL001
 370
30
 100
AcDbLine
   6
CONTINUOUS
  62
7
  10
 1231.6625883688
  20
 116.05398858965
  30
0.0
  11
 1231.6625883688
  21
 91.553989589650
  31
0.0
   0
LINE
   5
1B5
 100
AcDbEntity
   8
LEVEL001
 370
30
 100
AcDbLine
   6
CONTINUOUS
  62
7
  10
 1263.7190283688
  20
 118.46161858965
  30
0.0
  11
 1252.3238883688
  21
 78.108181589650
  31
0.0
   0
ARC
   5
1B6
 100
AcDbEntity
   8
LEVEL001
 370
30
   6
CONTINUOUS
  62
7
 100
AcDbCircle
  10
 1265.1625883688
  20
 118.05398858965
  30
0.0
  40
 1.5000000000000
 100
AcDbArc
  50
 89.999981999979
  51
 164.23121999997
   0
ARC
   5
1B7
 100
AcDbEntity
   8
LEVEL001
 370
30
   6
CONTINUOUS
  62
7
 100
AcDbCircle
  10
 1222.1625883688
  20
 118.05398858965
  30
0.0
  40
 1.5000000000000
 100
AcDbArc
  50
 15.768817999994
  51
 89.999981999979
   0
ARC
   5
1B8
 100
AcDbEntity
   8
LEVEL001
 370
30
   6
CONTINUOUS
  62
7
 100
AcDbCircle
  10
 1243.6625883688
  20
 80.553989589650
  30
0.0
  40
 9.0000000000000
 100
AcDbArc
  50
 195.76879999996
  51
 344.23117999993
   0
ARC
   5
1B9
 100
AcDbEntity
   8
LEVEL001
 370
30
   6
CONTINUOUS
  62
7
 100
AcDbCircle
  10
 1243.6625883688
  20
 79.553989589650
  30
0.0
  40
 10.000000000000
 100
AcDbArc
  50
 34.411517999994
  51
 145.58849999997
   0
ARC
   5
1BA
 100
AcDbEntity
   8
LEVEL001
 370
30
   6
CONTINUOUS
  62
7
 100
AcDbCircle
  10
 1243.6625883688
  20
 82.553989589650
  30
0.0
  40
 13.000000000000
 100
AcDbArc
  50
 36.128930999993
  51
 143.87108999997
   0
ARC
   5
1BB
 100
AcDbEntity
   8
LEVEL001
 370
30
   6
CONTINUOUS
  62
7
 100
AcDbCircle
  10
 1222.7273383688
  20
 116.05398858965
  30
0.0
  40
 1.5000000000000
 100
AcDbArc
  50
 15.768812999994
  51
 89.999981999970
   0
ARC
   5
1BC
 100
AcDbEntity
   8
LEVEL001
 370
30
   6
CONTINUOUS
  62
7
 100
AcDbCircle
  10
 1264.5978083688
  20
 116.05398858965
  30
0.0
  40
 1.5000000000000
 100
AcDbArc
  50
 89.999981999988
  51
 164.23121999997
   0
CIRCLE
   5
1BD
 100
AcDbEntity
   8
LEVEL001
 370
30
 100
AcDbCircle
   6
CONTINUOUS
  62
7
  10
 1243.6625883688
  20
 79.553989589650
  30
0.0
  40
 4.7500000000000
   0
ARC
   5
1BE
 100
AcDbEntity
   8
LEVEL001
 370
30
   6
CONTINUOUS
  62
7
 100
AcDbCircle
  10
 1243.6625883688
  20
 79.553989589650
  30
0.0
  40
 25.000000000000
 100
AcDbArc
  50
 126.20291999998
  51
 53.797065999990
   0
ARC
   5
1BF
 100
AcDbEntity
   8
LEVEL001
 370
30
   6
CONTINUOUS
  62
7
 100
AcDbCircle
  10
 1243.6625883688
  20
 79.553989589650
  30
0.0
  40
 18.000000000000
 100
AcDbArc
  50
 134.77489999998
  51
 45.225096999991
   0
ARC
   5
1C0
 100
AcDbEntity
   8
LEVEL001
 370
30
   6
CONTINUOUS
  62
7
 100
AcDbCircle
  10
 1243.6625883688
  20
 79.553989589649
  30
0.0
  40
 11.000000000000
 100
AcDbArc
  50
 158.28046999997
  51
 21.719519999997
   0
LINE
   5
1C1
 100
AcDbEntity
   8
LEVEL001
 370
30
 100
AcDbLine
   6
HIDDEN
  62
7
  10
 1217.9125883688
  20
 117.55398858965
  30
0.0
  11
 1217.9125883688
  21
 119.55398858965
  31
0.0
   0
LINE
   5
1C2
 100
AcDbEntity
   8
LEVEL001
 370
30
 100
AcDbLine
   6
HIDDEN
  62
7
  10
 1269.4125883688
  20
 117.55398858965
  30
0.0
  11
 1269.4125883688
  21
 119.55398858965
  31
0.0
   0
POINT
   5
1C3
 100
AcDbEntity
   8
LEVEL001
 100
AcDbPoint
  62
7
  10
 1243.6625883688
  20
 54.553989589650
  30
0.0
   0
ENDBLK
   5
1C4
 100
AcDbEntity
   8
0
 100
AcDbBlockEnd
   0
BLOCK
   5
1C5
 100
AcDbEntity
   8
0
 100
AcDbBlockBegin
   2
*D1
  70
65
  10
0.0
  20
0.0
  30
0.0
   3
*D1
   0
LINE
   5
1C6
 100
AcDbEntity
   8
LEVEL001
 370
9
 100
AcDbLine
   6
CONTINUOUS
  62
1
  10
 964.86258837218
  20
 54.053990696286
  30
0.0
  11
 819.66258837218
  21
 54.053990696286
  31
0.0
   0
LINE
   5
1C7
 100
AcDbEntity
   8
LEVEL001
 370
9
 100
AcDbLine
   6
CONTINUOUS
  62
1
  10
 864.66258837218
  20
 526.05399069629
  30
0.0
  11
 819.66258837218
  21
 526.05399069629
  31
0.0
   0
LINE
   5
1C8
 100
AcDbEntity
   8
LEVEL001
 370
9
 100
AcDbLine
   6
CONTINUOUS
  62
1
  10
 825.66258837218
  20
 54.053990696286
  30
0.0
  11
 825.66258837218
  21
 290.05399069629
  31
0.0
   0
LINE
   5
1C9
 100
AcDbEntity
   8
LEVEL001
 370
9
 100
AcDbLine
   6
CONTINUOUS
  62
1
  10
 825.66258837218
  20
 526.05399069629
  30
0.0
  11
 825.66258837218
  21
 290.05399069629
  31
0.0
   0
INSERT
   5
1CA
 100
AcDbEntity
   8
LEVEL001
   6
CONTINUOUS
  62
1
 100
AcDbBlockReference
   2
_OPEN30
  10
 825.66258837218
  20
 54.053990696286
  30
0.0
  41
 9.0000000000000
  42
 9.0000000000000
  43
 9.0000000000000
  50
 270.00000000000
   0
INSERT
   5
1CB
 100
AcDbEntity
   8
LEVEL001
   6
CONTINUOUS
  62
1
 100
AcDbBlockReference
   2
_OPEN30
  10
 825.66258837218
  20
 526.05399069629
  30
0.0
  41
 9.0000000000000
  42
 9.0000000000000
  43
 9.0000000000000
  50
 90.000000000000
   0
MTEXT
   5
1CC
 100
AcDbEntity
   8
LEVEL001
 370
30
  62
7
 100
AcDbMText
  10
 822.66258837218
  20
 290.05399069629
  30
0.0
  40
 12.000000000000
  41
0.0
  71
8
  72
1
   1
\A1;472
   7
GMM001
  11
0.0
  21
 1.0000000000000
  31
0.0
   0
ENDBLK
   5
1CD
 100
AcDbEntity
   8
0
 100
AcDbBlockEnd
   0
BLOCK
   5
1CE
 100
AcDbEntity
   8
0
 100
AcDbBlockBegin
   2
*D2
  70
65
  10
0.0
  20
0.0
  30
0.0
   3
*D2
   0
LINE
   5
1CF
 100
AcDbEntity
   8
LEVEL001
 370
9
 100
AcDbLine
   6
CONTINUOUS
  62
1
  10
 1311.6625884205
  20
 509.33942758930
  30
0.0
  11
 1311.6625884205
  21
 725.05399069610
  31
0.0
   0
LINE
   5
1D0
 100
AcDbEntity
   8
LEVEL001
 370
9
 100
AcDbLine
   6
CONTINUOUS
  62
1
  10
 866.66258842055
  20
 530.85399069610
  30
0.0
  11
 866.66258842055
  21
 725.05399069610
  31
0.0
   0
LINE
   5
1D1
 100
AcDbEntity
   8
LEVEL001
 370
9
 100
AcDbLine
   6
CONTINUOUS
  62
1
  10
 1311.6625884205
  20
 719.05399069610
  30
0.0
  11
 1089.1625884205
  21
 719.05399069610
  31
0.0
   0
LINE
   5
1D2
 100
AcDbEntity
   8
LEVEL001
 370
9
 100
AcDbLine
   6
CONTINUOUS
  62
1
  10
 866.66258842055
  20
 719.05399069610
  30
0.0
  11
 1089.1625884205
  21
 719.05399069610
  31
0.0
   0
INSERT
   5
1D3
 100
AcDbEntity
   8
LEVEL001
   6
CONTINUOUS
  62
1
 100
AcDbBlockReference
   2
_OPEN30
  10
 1311.6625884205
  20
 719.05399069610
  30
0.0
  41
 9.0000000000000
  42
 9.0000000000000
  43
 9.0000000000000
  50
0.0
   0
INSERT
   5
1D4
 100
AcDbEntity
   8
LEVEL001
   6
CONTINUOUS
  62
1
 100
AcDbBlockReference
   2
_OPEN30
  10
 866.66258842055
  20
 719.05399069610
  30
0.0
  41
 9.0000000000000
  42
 9.0000000000000
  43
 9.0000000000000
  50
 180.00000000000
   0
MTEXT
   5
1D5
 100
AcDbEntity
   8
LEVEL001
 370
30
  62
7
 100
AcDbMText
  10
 1089.1625884205
  20
 722.05399069610
  30
0.0
  40
 12.000000000000
  41
0.0
  71
8
  72
1
   1
\A1;445
   7
GMM001
   0
ENDBLK
   5
1D6
 100
AcDbEntity
   8
0
 100
AcDbBlockEnd
   0
BLOCK
   5
1D7
 100
AcDbEntity
   8
0
 100
AcDbBlockBegin
   2
*D3
  70
65
  10
0.0
  20
0.0
  30
0.0
   3
*D3
   0
LINE
   5
1D8
 100
AcDbEntity
   8
LEVEL001
 370
9
 100
AcDbLine
   6
CONTINUOUS
  62
1
  10
 960.66258836876
  20
 54.053990696286
  30
0.0
  11
 796.57562772012
  21
 54.053990696286
  31
0.0
   0
LINE
   5
1D9
 100
AcDbEntity
   8
LEVEL001
 370
9
 100
AcDbLine
   6
CONTINUOUS
  62
1
  10
 946.22490131222
  20
 674.05399069610
  30
0.0
  11
 796.57562772012
  21
 674.05399069610
  31
0.0
   0
LINE
   5
1DA
 100
AcDbEntity
   8
LEVEL001
 370
9
 100
AcDbLine
   6
CONTINUOUS
  62
1
  10
 802.57562772012
  20
 54.053990696286
  30
0.0
  11
 802.57562772012
  21
 364.05399069619
  31
0.0
   0
LINE
   5
1DB
 100
AcDbEntity
   8
LEVEL001
 370
9
 100
AcDbLine
   6
CONTINUOUS
  62
1
  10
 802.57562772012
  20
 674.05399069610
  30
0.0
  11
 802.57562772012
  21
 364.05399069619
  31
0.0
   0
INSERT
   5
1DC
 100
AcDbEntity
   8
LEVEL001
   6
CONTINUOUS
  62
1
 100
AcDbBlockReference
   2
_OPEN30
  10
 802.57562772012
  20
 54.053990696286
  30
0.0
  41
 9.0000000000000
  42
 9.0000000000000
  43
 9.0000000000000
  50
 270.00000000000
   0
INSERT
   5
1DD
 100
AcDbEntity
   8
LEVEL001
   6
CONTINUOUS
  62
1
 100
AcDbBlockReference
   2
_OPEN30
  10
 802.57562772012
  20
 674.05399069610
  30
0.0
  41
 9.0000000000000
  42
 9.0000000000000
  43
 9.0000000000000
  50
 90.000000000000
   0
MTEXT
   5
1DE
 100
AcDbEntity
   8
LEVEL001
 370
30
  62
7
 100
AcDbMText
  10
 799.57562772012
  20
 364.05399069619
  30
0.0
  40
 12.000000000000
  41
0.0
  71
8
  72
1
   1
\A1;620
   7
GMM001
  11
0.0
  21
 1.0000000000000
  31
0.0
   0
ENDBLK
   5
1DF
 100
AcDbEntity
   8
0
 100
AcDbBlockEnd
   0
BLOCK
   5
1E0
 100
AcDbEntity
   8
0
 100
AcDbBlockBegin
   2
*D4
  70
65
  10
0.0
  20
0.0
  30
0.0
   3
*D4
   0
LINE
   5
1E1
 100
AcDbEntity
   8
LEVEL001
 370
9
 100
AcDbLine
   6
CONTINUOUS
  62
1
  10
 573.16258837218
  20
 436.85399069610
  30
0.0
  11
 573.16258837218
  21
 725.05399069610
  31
0.0
   0
LINE
   5
1E2
 100
AcDbEntity
   8
LEVEL001
 370
9
 100
AcDbLine
   6
CONTINUOUS
  62
1
  10
 233.16258837218
  20
 530.85399069610
  30
0.0
  11
 233.16258837218
  21
 725.05399069610
  31
0.0
   0
LINE
   5
1E3
 100
AcDbEntity
   8
LEVEL001
 370
9
 100
AcDbLine
   6
CONTINUOUS
  62
1
  10
 573.16258837218
  20
 719.05399069610
  30
0.0
  11
 403.16258837218
  21
 719.05399069610
  31
0.0
   0
LINE
   5
1E4
 100
AcDbEntity
   8
LEVEL001
 370
9
 100
AcDbLine
   6
CONTINUOUS
  62
1
  10
 233.16258837218
  20
 719.05399069610
  30
0.0
  11
 403.16258837218
  21
 719.05399069610
  31
0.0
   0
INSERT
   5
1E5
 100
AcDbEntity
   8
LEVEL001
   6
CONTINUOUS
  62
1
 100
AcDbBlockReference
   2
_OPEN30
  10
 573.16258837218
  20
 719.05399069610
  30
0.0
  41
 9.0000000000000
  42
 9.0000000000000
  43
 9.0000000000000
  50
0.0
   0
INSERT
   5
1E6
 100
AcDbEntity
   8
LEVEL001
   6
CONTINUOUS
  62
1
 100
AcDbBlockReference
   2
_OPEN30
  10
 233.16258837218
  20
 719.05399069610
  30
0.0
  41
 9.0000000000000
  42
 9.0000000000000
  43
 9.0000000000000
  50
 180.00000000000
   0
MTEXT
   5
1E7
 100
AcDbEntity
   8
LEVEL001
 370
30
  62
7
 100
AcDbMText
  10
 403.16258837218
  20
 722.05399069610
  30
0.0
  40
 12.000000000000
  41
0.0
  71
8
  72
1
   1
\A1;340
   7
GMM001
   0
ENDBLK
   5
1E8
 100
AcDbEntity
   8
0
 100
AcDbBlockEnd
   0
BLOCK
   5
1E9
 100
AcDbEntity
   8
0
 100
AcDbBlockBegin
   2
*D5
  70
65
  10
0.0
  20
0.0
  30
0.0
   3
*D5
   0
LINE
   5
1EA
 100
AcDbEntity
   8
LEVEL001
 370
9
 100
AcDbLine
   6
CONTINUOUS
  62
1
  10
 573.16258837218
  20
 436.85399069610
  30
0.0
  11
 573.16258837218
  21
 700.48543689320
  31
0.0
   0
LINE
   5
1EB
 100
AcDbEntity
   8
LEVEL001
 370
9
 100
AcDbLine
   6
CONTINUOUS
  62
1
  10
 608.66258837218
  20
 694.48543689320
  30
0.0
  11
 565.66258837218
  21
 694.48543689320
  31
0.0
   0
LINE
   5
1EC
 100
AcDbEntity
   8
LEVEL001
 370
9
 100
AcDbLine
   6
CONTINUOUS
  62
1
  10
 558.16258837218
  20
 694.48543689320
  30
0.0
  11
 565.66258837218
  21
 694.48543689320
  31
0.0
   0
INSERT
   5
1ED
 100
AcDbEntity
   8
LEVEL001
   6
CONTINUOUS
  62
1
 100
AcDbBlockReference
   2
_OPEN30
  10
 573.16258837218
  20
 694.48543689320
  30
0.0
  41
 9.0000000000000
  42
 9.0000000000000
  43
 9.0000000000000
  50
 180.00000000000
   0
MTEXT
   5
1EE
 100
AcDbEntity
   8
LEVEL001
 370
30
  62
7
 100
AcDbMText
  10
 596.66258837218
  20
 697.48543689320
  30
0.0
  40
 12.000000000000
  41
0.0
  71
8
  72
1
   1
\A1;15
   7
GMM001
   0
ENDBLK
   5
1EF
 100
AcDbEntity
   8
0
 100
AcDbBlockEnd
   0
BLOCK
   5
1F0
 100
AcDbEntity
   8
0
 100
AcDbBlockBegin
   2
*D6
  70
65
  10
0.0
  20
0.0
  30
0.0
   3
*D6
   0
LINE
   5
1F1
 100
AcDbEntity
   8
LEVEL001
 370
9
 100
AcDbLine
   6
CONTINUOUS
  62
1
  10
 558.16258837218
  20
 504.85399069610
  30
0.0
  11
 558.16258837218
  21
 700.48543689320
  31
0.0
   0
LINE
   5
1F2
 100
AcDbEntity
   8
LEVEL001
 370
9
 100
AcDbLine
   6
CONTINUOUS
  62
1
  10
 233.16258837218
  20
 530.85399069610
  30
0.0
  11
 233.16258837218
  21
 700.48543689320
  31
0.0
   0
LINE
   5
1F3
 100
AcDbEntity
   8
LEVEL001
 370
9
 100
AcDbLine
   6
CONTINUOUS
  62
1
  10
 558.16258837218
  20
 694.48543689320
  30
0.0
  11
 395.66258837218
  21
 694.48543689320
  31
0.0
   0
LINE
   5
1F4
 100
AcDbEntity
   8
LEVEL001
 370
9
 100
AcDbLine
   6
CONTINUOUS
  62
1
  10
 233.16258837218
  20
 694.48543689320
  30
0.0
  11
 395.66258837218
  21
 694.48543689320
  31
0.0
   0
INSERT
   5
1F5
 100
AcDbEntity
   8
LEVEL001
   6
CONTINUOUS
  62
1
 100
AcDbBlockReference
   2
_OPEN30
  10
 558.16258837218
  20
 694.48543689320
  30
0.0
  41
 9.0000000000000
  42
 9.0000000000000
  43
 9.0000000000000
  50
0.0
   0
INSERT
   5
1F6
 100
AcDbEntity
   8
LEVEL001
   6
CONTINUOUS
  62
1
 100
AcDbBlockReference
   2
_OPEN30
  10
 233.16258837218
  20
 694.48543689320
  30
0.0
  41
 9.0000000000000
  42
 9.0000000000000
  43
 9.0000000000000
  50
 180.00000000000
   0
MTEXT
   5
1F7
 100
AcDbEntity
   8
LEVEL001
 370
30
  62
7
 100
AcDbMText
  10
 395.66258837218
  20
 697.48543689320
  30
0.0
  40
 12.000000000000
  41
0.0
  71
8
  72
1
   1
\A1;325
   7
GMM001
   0
ENDBLK
   5
1F8
 100
AcDbEntity
   8
0
 100
AcDbBlockEnd
   0
BLOCK
   5
1F9
 100
AcDbEntity
   8
0
 100
AcDbBlockBegin
   2
GMM001
  70
64
  10
0.0
  20
0.0
  30
0.0
   3
GMM001
   0
LWPOLYLINE
   5
1FA
 100
AcDbEntity
   8
LEVEL001
 370
30
   6
CONTINUOUS
  62
7
 100
AcDbPolyline
  90
4
  70
1
  10
-568.00000000000
  20
 394.00000000000
  10
-568.00000000000
  20
0.0
  10
0.0
  20
0.0
  10
0.0
  20
 394.00000000000
   0
ENDBLK
   5
1FB
 100
AcDbEntity
   8
0
 100
AcDbBlockEnd
   0
ENDSEC
   0
SECTION
   2
ENTITIES
   0
MTEXT
   5
1FD
 100
AcDbEntity
   8
LEVEL001
 370
30
  62
7
 100
AcDbMText
  10
 1695.8183461667
  20
 30.000000000000
  30
0.0
  40
 12.000000000000
  41
0.0
  71
7
  72
1
   1
\T1.000000;井上
   7
GMM001
  44
 0.79999984000003
   0
INSERT
   5
1FE
 100
AcDbEntity
   8
LEVEL001
 100
AcDbBlockReference
   2
BLOCK001
  10
0.0
  20
0.0
  30
0.0
   0
INSERT
   5
1FF
 100
AcDbEntity
   8
LEVEL001
 100
AcDbBlockReference
   2
BLOCK002
  10
0.0
  20
0.0
  30
0.0
   0
INSERT
   5
200
 100
AcDbEntity
   8
0
 100
AcDbBlockReference
   2
BLOCK003
  10
0.0
  20
0.0
  30
0.0
   0
LWPOLYLINE
   5
201
 100
AcDbEntity
   8
LEVEL001
 370
30
   6
CONTINUOUS
  62
7
 100
AcDbPolyline
  90
4
  70
1
  10
 1238.6625883722
  20
 124.05399069610
  10
 1226.6625883722
  20
 124.05399069610
  10
 1226.6625883722
  20
 304.05399069610
  10
 1238.6625883722
  20
 304.05399069610
   0
LINE
   5
202
 100
AcDbEntity
   8
LEVEL001
 370
30
 100
AcDbLine
   6
CONTINUOUS
  62
7
  10
 1226.6625883722
  20
 124.05399069610
  30
0.0
  11
 977.66258837218
  21
 124.05399069610
  31
0.0
   0
LINE
   5
203
 100
AcDbEntity
   8
LEVEL001
 370
30
 100
AcDbLine
   6
CONTINUOUS
  62
7
  10
 1188.6625883722
  20
 520.70399069610
  30
0.0
  11
 1015.6625883722
  21
 520.70399069610
  31
0.0
   0
LINE
   5
204
 100
AcDbEntity
   8
LEVEL001
 370
30
 100
AcDbLine
   6
CONTINUOUS
  62
7
  10
 1015.6625883722
  20
 499.00399069610
  30
0.0
  11
 1188.6625883722
  21
 499.00399069610
  31
0.0
   0
LWPOLYLINE
   5
205
 100
AcDbEntity
   8
LEVEL001
 370
30
   6
CONTINUOUS
  62
7
 100
AcDbPolyline
  90
4
  70
0
  10
 1241.6625883722
  20
 525.85399069610
  10
 1241.6625883722
  20
 601.85399069610
  10
 1281.6625883722
  20
 601.85399069610
  10
 1281.6625883722
  20
 525.85399069610
   0
LWPOLYLINE
   5
206
 100
AcDbEntity
   8
LEVEL001
 370
30
   6
CONTINUOUS
  62
7
 100
AcDbPolyline
  90
3
  70
0
  10
 1280.6625883722
  20
 525.85399069610
  10
 1280.6625883722
  20
 526.85399069610
  10
 1241.6625883722
  20
 526.85399069610
   0
LINE
   5
207
 100
AcDbEntity
   8
LEVEL001
 370
30
 100
AcDbLine
   6
CONTINUOUS
  62
7
  10
 1187.6625883722
  20
 351.28816444743
  30
0.0
  11
 1016.6625883722
  21
 351.28816444743
  31
0.0
   0
LWPOLYLINE
   5
208
 100
AcDbEntity
   8
LEVEL001
 370
30
   6
CONTINUOUS
  62
7
 100
AcDbPolyline
  90
4
  70
1
  10
 1225.1625883722
  20
 124.05399069610
  10
 979.16258837218
  20
 124.05399069610
  10
 979.16258837218
  20
 302.05399069610
  10
 1225.1625883722
  20
 302.05399069610
   0
LINE
   5
209
 100
AcDbEntity
   8
LEVEL001
 370
30
 100
AcDbLine
   6
CONTINUOUS
  62
7
  10
 979.16258837218
  20
 301.25399069610
  30
0.0
  11
 1225.1625883722
  21
 301.25399069610
  31
0.0
   0
LWPOLYLINE
   5
20A
 100
AcDbEntity
   8
LEVEL001
 370
30
   6
CONTINUOUS
  62
7
 100
AcDbPolyline
  90
3
  70
0
  10
 1147.8625883721
  20
 304.85399069610
  10
 1145.6625883722
  20
 307.05399069610
  10
 1143.4625883723
  20
 304.85399069610
   0
LWPOLYLINE
   5
20B
 100
AcDbEntity
   8
LEVEL001
 370
30
   6
CONTINUOUS
  62
7
 100
AcDbPolyline
  90
3
  70
0
  10
 1147.5312175222
  20
 304.05399069610
  10
 1145.6625883722
  20
 305.92261984619
  10
 1143.7939592222
  20
 304.05399069610
   0
LWPOLYLINE
   5
20C
 100
AcDbEntity
   8
LEVEL001
 370
30
   6
CONTINUOUS
  62
7
 100
AcDbPolyline
  90
3
  70
0
  10
 1060.8625883721
  20
 304.85399069610
  10
 1058.6625883722
  20
 307.05399069610
  10
 1056.4625883723
  20
 304.85399069610
   0
LWPOLYLINE
   5
20D
 100
AcDbEntity
   8
LEVEL001
 370
30
   6
CONTINUOUS
  62
7
 100
AcDbPolyline
  90
3
  70
0
  10
 1060.5312175222
  20
 304.05399069610
  10
 1058.6625883722
  20
 305.92261984619
  10
 1056.7939592222
  20
 304.05399069610
   0
LWPOLYLINE
   5
20E
 100
AcDbEntity
   8
LEVEL001
 370
30
   6
CONTINUOUS
  62
7
 100
AcDbPolyline
  90
4
  70
0
  10
 1147.8625883721
  20
 304.85399069610
  10
 1225.6625883722
  20
 304.85399069610
  10
 1225.6625883722
  20
 304.05399069610
  10
 1147.5312175222
  20
 304.05399069610
   0
LINE
   5
20F
 100
AcDbEntity
   8
LEVEL001
 370
30
 100
AcDbLine
   6
CONTINUOUS
  62
7
  10
 1143.4625883723
  20
 304.85399069610
  30
0.0
  11
 1060.8625883721
  21
 304.85399069610
  31
0.0
   0
LINE
   5
210
 100
AcDbEntity
   8
LEVEL001
 370
30
 100
AcDbLine
   6
CONTINUOUS
  62
7
  10
 1060.5312175222
  20
 304.05399069610
  30
0.0
  11
 1143.7939592222
  21
 304.05399069610
  31
0.0
   0
LINE
   5
211
 100
AcDbEntity
   8
LEVEL001
 370
30
 100
AcDbLine
   6
CONTINUOUS
  62
7
  10
 1056.4625883723
  20
 304.85399069610
  30
0.0
  11
 1015.6625883722
  21
 304.85399069610
  31
0.0
   0
LINE
   5
212
 100
AcDbEntity
   8
LEVEL001
 370
30
 100
AcDbLine
   6
CONTINUOUS
  62
7
  10
 1015.6625883722
  20
 304.05399069610
  30
0.0
  11
 1056.7939592222
  21
 304.05399069610
  31
0.0
   0
LWPOLYLINE
   5
213
 100
AcDbEntity
   8
LEVEL001
 370
30
   6
CONTINUOUS
  62
7
 100
AcDbPolyline
  90
4
  70
0
  10
 965.66258837218
  20
 303.85399069610
  10
 965.66258837218
  20
 124.05399069610
  10
 964.86258837218
  20
 124.05399069610
  10
 964.86258837218
  20
 303.85399069610
   0
LWPOLYLINE
   5
214
 100
AcDbEntity
   8
LEVEL001
 370
30
   6
CONTINUOUS
  62
7
 100
AcDbPolyline
  90
3
  70
0
  10
 977.66258837218
  20
 303.85399069610
  10
 977.66258837218
  20
 124.05399069610
  10
 965.66258837218
  20
 124.05399069610
   0
LWPOLYLINE
   5
215
 100
AcDbEntity
   8
LEVEL001
 370
30
   6
CONTINUOUS
  62
7
 100
AcDbPolyline
  90
19
  70
0
  10
 1177.1625883722
  20
 336.73569377920
  10
 1177.1625883722
  20
 336.35399069610
  10
 1175.6625883722
  20
 336.35399069610
  10
 1165.1625883722
  20
 333.85399069610
  10
 1154.6625883722
  20
 336.35399069610
  10
 1144.1625883722
  20
 333.85399069610
  10
 1133.6625883722
  20
 336.35399069610
  10
 1123.1625883722
  20
 333.85399069610
  10
 1112.6625883722
  20
 336.35399069610
  10
 1102.1625883722
  20
 333.85399069610
  10
 1091.6625883722
  20
 336.35399069610
  10
 1081.1625883722
  20
 333.85399069610
  10
 1070.6625883722
  20
 336.35399069610
  10
 1060.1625883722
  20
 333.85399069610
  10
 1049.6625883722
  20
 336.35399069610
  10
 1039.1625883722
  20
 333.85399069610
  10
 1028.6625883722
  20
 336.35399069610
  10
 1027.1625883722
  20
 336.35399069610
  10
 1027.1625883722
  20
 336.73569377920
   0
LWPOLYLINE
   5
216
 100
AcDbEntity
   8
LEVEL001
 370
30
   6
CONTINUOUS
  62
7
 100
AcDbPolyline
  90
19
  70
0
  10
 1177.1625883722
  20
 520.70399069610
  10
 1177.1625883722
  20
 523.63573662662
  10
 1175.6625883722
  20
 523.63573662662
  10
 1165.1625883722
  20
 521.13573662662
  10
 1154.6625883722
  20
 523.63573662662
  10
 1144.1625883722
  20
 521.13573662662
  10
 1133.6625883722
  20
 523.63573662662
  10
 1123.1625883722
  20
 521.13573662662
  10
 1112.6625883722
  20
 523.63573662662
  10
 1102.1625883722
  20
 521.13573662662
  10
 1091.6625883722
  20
 523.63573662662
  10
 1081.1625883722
  20
 521.13573662662
  10
 1070.6625883722
  20
 523.63573662662
  10
 1060.1625883722
  20
 521.13573662662
  10
 1049.6625883722
  20
 523.63573662662
  10
 1039.1625883722
  20
 521.13573662662
  10
 1028.6625883722
  20
 523.63573662662
  10
 1027.1625883722
  20
 523.63573662662
  10
 1027.1625883722
  20
 520.70399069610
   0
LINE
   5
217
 100
AcDbEntity
   8
LEVEL001
 370
30
 100
AcDbLine
   6
CONTINUOUS
  62
7
  10
 1176.1625883722
  20
 555.85399069610
  30
0.0
  11
 1176.1625883722
  21
 523.63573662662
  31
0.0
   0
LINE
   5
218
 100
AcDbEntity
   8
LEVEL001
 370
30
 100
AcDbLine
   6
CONTINUOUS
  62
7
  10
 1028.1625883722
  20
 523.63573662662
  30
0.0
  11
 1028.1625883722
  21
 555.85399069610
  31
0.0
   0
LWPOLYLINE
   5
219
 100
AcDbEntity
   8
LEVEL001
 370
30
   6
CONTINUOUS
  62
7
 100
AcDbPolyline
  90
10
  70
0
  10
 1188.6625883722
  20
 351.35399069610
  10
 1188.6625883722
  20
 304.85399069610
  10
 1238.6625883722
  20
 304.85399069610
  10
 1238.6625883722
  20
 129.85399069610
  10
 1239.6625883722
  20
 129.85399069610
  10
 1239.6625883722
  20
 143.85399069610
  10
 1281.6625883722
  20
 143.85399069610
  10
 1281.6625883722
  20
 525.85399069610
  10
 1188.6625883722
  20
 525.85399069610
  10
 1188.6625883722
  20
 495.85399069610
   0
LWPOLYLINE
   5
21A
 100
AcDbEntity
   8
LEVEL001
 370
30
   6
CONTINUOUS
  62
7
 100
AcDbPolyline
  90
4
  70
0
  10
 1177.1625883722
  20
 520.70399069610
  10
 1177.1625883722
  20
 536.35399069610
  10
 1185.1625883722
  20
 536.35399069610
  10
 1185.1625883722
  20
 520.70399069610
   0
LWPOLYLINE
   5
21B
 100
AcDbEntity
   8
LEVEL001
 370
30
   6
CONTINUOUS
  62
7
 100
AcDbPolyline
  90
4
  70
0
  10
 1027.1625883722
  20
 520.70399069610
  10
 1027.1625883722
  20
 536.35399069610
  10
 1019.1625883722
  20
 536.35399069610
  10
 1019.1625883722
  20
 520.70399069610
   0
LINE
   5
21C
 100
AcDbEntity
   8
LEVEL001
 370
30
 100
AcDbLine
   6
CONTINUOUS
  62
7
  10
 1177.1625883722
  20
 496.35399069610
  30
0.0
  11
 1177.1625883722
  21
 499.00399069610
  31
0.0
   0
LINE
   5
21D
 100
AcDbEntity
   8
LEVEL001
 370
30
 100
AcDbLine
   6
CONTINUOUS
  62
7
  10
 1027.1625883722
  20
 496.35399069610
  30
0.0
  11
 1027.1625883722
  21
 499.00399069610
  31
0.0
   0
LINE
   5
21E
 100
AcDbEntity
   8
LEVEL001
 370
30
 100
AcDbLine
   6
CONTINUOUS
  62
7
  10
 1186.6625883722
  20
 499.00399069610
  30
0.0
  11
 1186.6625883722
  21
 496.35399069610
  31
0.0
   0
LINE
   5
21F
 100
AcDbEntity
   8
LEVEL001
 370
30
 100
AcDbLine
   6
CONTINUOUS
  62
7
  10
 1017.6625883722
  20
 499.00399069610
  30
0.0
  11
 1017.6625883722
  21
 496.35399069610
  31
0.0
   0
LINE
   5
220
 100
AcDbEntity
   8
LEVEL001
 370
30
 100
AcDbLine
   6
CONTINUOUS
  62
7
  10
 1226.6625883722
  20
 304.05399069610
  30
0.0
  11
 1015.6625883722
  21
 304.05399069610
  31
0.0
   0
LWPOLYLINE
   5
221
 100
AcDbEntity
   8
LEVEL001
 370
30
   6
CONTINUOUS
  62
7
 100
AcDbPolyline
  90
4
  70
0
  10
 1236.6625883722
  20
 564.64143426554
  10
 1240.6625883722
  20
 564.64143426554
  10
 1240.6625883722
  20
 544.64143426554
  10
 1236.6625883722
  20
 544.64143426554
   0
LINE
   5
222
 100
AcDbEntity
   8
LEVEL001
 370
30
 100
AcDbLine
   6
CONTINUOUS
  62
7
  10
 1240.6625883722
  20
 563.14143426554
  30
0.0
  11
 1241.6625883722
  21
 563.14143426554
  31
0.0
   0
LINE
   5
223
 100
AcDbEntity
   8
LEVEL001
 370
30
 100
AcDbLine
   6
CONTINUOUS
  62
7
  10
 1241.6625883722
  20
 546.14143426554
  30
0.0
  11
 1240.6625883722
  21
 546.14143426554
  31
0.0
   0
LWPOLYLINE
   5
224
 100
AcDbEntity
   8
LEVEL001
 370
30
   6
CONTINUOUS
  62
7
 100
AcDbPolyline
  90
4
  70
0
  10
 1204.6625883722
  20
 569.14143426554
  10
 1195.6625883722
  20
 569.14143426554
  10
 1195.6625883722
  20
 540.14143426554
  10
 1204.6625883722
  20
 540.14143426554
   0
LINE
   5
225
 100
AcDbEntity
   8
LEVEL001
 370
30
 100
AcDbLine
   6
CONTINUOUS
  62
7
  10
 1176.1625883722
  20
 564.64143426554
  30
0.0
  11
 1195.6625883722
  21
 564.64143426554
  31
0.0
   0
LINE
   5
226
 100
AcDbEntity
   8
LEVEL001
 370
30
 100
AcDbLine
   6
CONTINUOUS
  62
7
  10
 1195.6625883722
  20
 544.64143426554
  30
0.0
  11
 1176.1625883722
  21
 544.64143426554
  31
0.0
   0
LWPOLYLINE
   5
227
 100
AcDbEntity
   8
LEVEL001
 370
30
   6
CONTINUOUS
  62
7
 100
AcDbPolyline
  90
4
  70
0
  10
 999.66258837218
  20
 569.14143426554
  10
 1008.6625883722
  20
 569.14143426554
  10
 1008.6625883722
  20
 540.14143426554
  10
 999.66258837218
  20
 540.14143426554
   0
LINE
   5
228
 100
AcDbEntity
   8
LEVEL001
 370
30
 100
AcDbLine
   6
CONTINUOUS
  62
7
  10
 1028.1625883722
  20
 564.64143426554
  30
0.0
  11
 1008.6625883722
  21
 564.64143426554
  31
0.0
   0
LINE
   5
229
 100
AcDbEntity
   8
LEVEL001
 370
30
 100
AcDbLine
   6
CONTINUOUS
  62
7
  10
 1008.6625883722
  20
 544.64143426554
  30
0.0
  11
 1028.1625883722
  21
 544.64143426554
  31
0.0
   0
LWPOLYLINE
   5
22A
 100
AcDbEntity
   8
LEVEL001
 370
30
   6
CONTINUOUS
  62
7
 100
AcDbPolyline
  90
19
  70
0
  10
 1176.1625883722
  20
 554.64143426554
  10
 1176.1625883722
  20
 608.14143426554
  10
 1175.6625883722
  20
 608.14143426554
  10
 1165.1625883722
  20
 610.64143426554
  10
 1154.6625883722
  20
 608.14143426554
  10
 1144.1625883722
  20
 610.64143426554
  10
 1133.6625883722
  20
 608.14143426554
  10
 1123.1625883722
  20
 610.64143426554
  10
 1112.6625883722
  20
 608.14143426554
  10
 1102.1625883722
  20
 610.64143426554
  10
 1091.6625883722
  20
 608.14143426554
  10
 1081.1625883722
  20
 610.64143426554
  10
 1070.6625883722
  20
 608.14143426554
  10
 1060.1625883722
  20
 610.64143426554
  10
 1049.6625883722
  20
 608.14143426554
  10
 1039.1625883722
  20
 610.64143426554
  10
 1028.6625883722
  20
 608.14143426554
  10
 1028.1625883722
  20
 608.14143426554
  10
 1028.1625883722
  20
 554.64143426554
   0
LINE
   5
22B
 100
AcDbEntity
   8
LEVEL001
 370
30
 100
AcDbLine
   6
CONTINUOUS
  62
7
  10
 990.66258837218
  20
 585.03591936409
  30
0.0
  11
 990.66258837218
  21
 576.18819464138
  31
0.0
   0
LINE
   5
22C
 100
AcDbEntity
   8
LEVEL001
 370
30
 100
AcDbLine
   6
CONTINUOUS
  62
7
  10
 1213.6625883722
  20
 585.03591936409
  30
0.0
  11
 1213.6625883722
  21
 576.18819464138
  31
0.0
   0
LINE
   5
22D
 100
AcDbEntity
   8
LEVEL001
 370
30
 100
AcDbLine
   6
CONTINUOUS
  62
7
  10
 1213.6625883722
  20
 525.85399069610
  30
0.0
  11
 1213.6625883722
  21
 540.32554139955
  31
0.0
   0
LWPOLYLINE
   5
22E
 100
AcDbEntity
   8
LEVEL001
 370
30
   6
CONTINUOUS
  62
7
 100
AcDbPolyline
  90
5
  70
0
  10
 1224.6625883722
  20
 599.25090370345
  10
 1213.6625883722
  20
 599.25090370345
  10
 1213.6625883722
  20
 585.03591936409
  10
 1204.6625883722
  20
 585.03591936409
  10
 1204.6625883722
  20
 525.85399069610
   0
LWPOLYLINE
   5
22F
 100
AcDbEntity
   8
LEVEL001
 370
30
   6
CONTINUOUS
  62
7
 100
AcDbPolyline
  90
5
  70
0
  10
 979.66258837218
  20
 599.25090370345
  10
 990.66258837218
  20
 599.25090370345
  10
 990.66258837218
  20
 585.03591936409
  10
 999.66258837218
  20
 585.03591936409
  10
 999.66258837218
  20
 525.85399069610
   0
LINE
   5
230
 100
AcDbEntity
   8
LEVEL001
 370
30
 100
AcDbLine
   6
CONTINUOUS
  62
7
  10
 990.66258837218
  20
 525.85399069610
  30
0.0
  11
 990.66258837218
  21
 540.32554139955
  31
0.0
   0
LINE
   5
231
 100
AcDbEntity
   8
LEVEL001
 370
30
 100
AcDbLine
   6
CONTINUOUS
  62
7
  10
 1209.6625883722
  20
 660.61835069579
  30
0.0
  11
 994.66258837218
  21
 660.61835069579
  31
0.0
   0
LINE
   5
232
 100
AcDbEntity
   8
LEVEL001
 370
30
 100
AcDbLine
   6
CONTINUOUS
  62
7
  10
 994.66258837218
  20
 638.91835069579
  30
0.0
  11
 1209.6625883722
  21
 638.91835069579
  31
0.0
   0
LWPOLYLINE
   5
233
 100
AcDbEntity
   8
LEVEL001
 370
30
   6
CONTINUOUS
  62
7
 100
AcDbPolyline
  90
4
  70
0
  10
 979.66258837218
  20
 667.76835069579
  10
 994.66258837218
  20
 663.76835069579
  10
 994.66258837218
  20
 635.76835069579
  10
 979.66258837218
  20
 631.76835069579
   0
LINE
   5
234
 100
AcDbEntity
   8
LEVEL001
 370
30
 100
AcDbLine
   6
CONTINUOUS
  62
7
  10
 979.66258837218
  20
 631.76835069579
  30
0.0
  11
 967.66258837218
  21
 631.76835069579
  31
0.0
   0
LWPOLYLINE
   5
235
 100
AcDbEntity
   8
LEVEL001
 370
30
   6
CONTINUOUS
  62
7
 100
AcDbPolyline
  90
4
  70
0
  10
 1224.6625883722
  20
 667.76835069579
  10
 1209.6625883722
  20
 663.76835069579
  10
 1209.6625883722
  20
 635.76835069579
  10
 1224.6625883722
  20
 631.76835069579
   0
LINE
   5
236
 100
AcDbEntity
   8
LEVEL001
 370
30
 100
AcDbLine
   6
CONTINUOUS
  62
7
  10
 1224.6625883722
  20
 631.76835069579
  30
0.0
  11
 1236.6625883722
  21
 631.76835069579
  31
0.0
   0
ARC
   5
237
 100
AcDbEntity
   8
LEVEL001
 370
30
   6
CONTINUOUS
  62
7
 100
AcDbCircle
  10
 974.62755165688
  20
 649.76835069579
  30
0.0
  40
 10.464963284702
 100
AcDbArc
  50
 158.98551792465
  51
 201.01448207535
   0
ARC
   5
238
 100
AcDbEntity
   8
LEVEL001
 370
30
   6
CONTINUOUS
  62
7
 100
AcDbCircle
  10
 967.03983918252
  20
 644.13918557123
  30
0.0
  40
 2.8772508103391
 100
AcDbArc
  50
 139.29638266486
  51
 180.00000000000
   0
ARC
   5
239
 100
AcDbEntity
   8
LEVEL001
 370
30
   6
CONTINUOUS
  62
7
 100
AcDbCircle
  10
 967.03983918252
  20
 655.39751582035
  30
0.0
  40
 2.8772508103391
 100
AcDbArc
  50
 180.00000000000
  51
 220.70361733514
   0
LWPOLYLINE
   5
23A
 100
AcDbEntity
   8
LEVEL001
 370
30
   6
CONTINUOUS
  62
7
 100
AcDbPolyline
  90
6
  70
0
  10
 967.66258837218
  20
 642.26279719635
  10
 964.85861500967
  20
 642.26279719635
  10
 964.16258837218
  20
 643.46835069579
  10
 964.16258837218
  20
 656.06835069579
  10
 964.85861500967
  20
 657.27390419523
  10
 967.66258837218
  20
 657.27390419523
   0
LINE
   5
23B
 100
AcDbEntity
   8
LEVEL001
 370
30
 100
AcDbLine
   6
CONTINUOUS
  62
7
  10
 967.66258837218
  20
 646.01557394611
  30
0.0
  11
 964.85861500967
  21
 646.01557394611
  31
0.0
   0
LINE
   5
23C
 100
AcDbEntity
   8
LEVEL001
 370
30
 100
AcDbLine
   6
CONTINUOUS
  62
7
  10
 967.66258837218
  20
 653.52112744547
  30
0.0
  11
 964.85861500967
  21
 653.52112744547
  31
0.0
   0
ARC
   5
23D
 100
AcDbEntity
   8
LEVEL001
 370
30
   6
CONTINUOUS
  62
7
 100
AcDbCircle
  10
 1229.6976250875
  20
 649.76835069579
  30
0.0
  40
 10.464963284702
 100
AcDbArc
  50
 338.98551792465
  51
 21.014482075347
   0
ARC
   5
23E
 100
AcDbEntity
   8
LEVEL001
 370
30
   6
CONTINUOUS
  62
7
 100
AcDbCircle
  10
 1237.2853375618
  20
 644.13918557123
  30
0.0
  40
 2.8772508103391
 100
AcDbArc
  50
0.0
  51
 40.703617335143
   0
ARC
   5
23F
 100
AcDbEntity
   8
LEVEL001
 370
30
   6
CONTINUOUS
  62
7
 100
AcDbCircle
  10
 1237.2853375618
  20
 655.39751582035
  30
0.0
  40
 2.8772508103391
 100
AcDbArc
  50
 319.29638266486
  51
0.0
   0
LWPOLYLINE
   5
240
 100
AcDbEntity
   8
LEVEL001
 370
30
   6
CONTINUOUS
  62
7
 100
AcDbPolyline
  90
6
  70
0
  10
 1236.6625883722
  20
 642.26279719635
  10
 1239.4665617347
  20
 642.26279719635
  10
 1240.1625883722
  20
 643.46835069579
  10
 1240.1625883722
  20
 656.06835069579
  10
 1239.4665617347
  20
 657.27390419523
  10
 1236.6625883722
  20
 657.27390419523
   0
LINE
   5
241
 100
AcDbEntity
   8
LEVEL001
 370
30
 100
AcDbLine
   6
CONTINUOUS
  62
7
  10
 1236.6625883722
  20
 646.01557394611
  30
0.0
  11
 1239.4665617347
  21
 646.01557394611
  31
0.0
   0
LINE
   5
242
 100
AcDbEntity
   8
LEVEL001
 370
30
 100
AcDbLine
   6
CONTINUOUS
  62
7
  10
 1236.6625883722
  20
 653.52112744547
  30
0.0
  11
 1239.4665617347
  21
 653.52112744547
  31
0.0
   0
LWPOLYLINE
   5
243
 100
AcDbEntity
   8
LEVEL001
 370
30
   6
CONTINUOUS
  62
7
 100
AcDbPolyline
  90
4
  70
0
  10
 967.66258837218
  20
 525.85399069610
  10
 967.66258837218
  20
 667.76835069579
  10
 979.66258837218
  20
 667.76835069579
  10
 979.66258837218
  20
 525.85399069610
   0
LWPOLYLINE
   5
244
 100
AcDbEntity
   8
LEVEL001
 370
30
   6
CONTINUOUS
  62
7
 100
AcDbPolyline
  90
4
  70
0
  10
 1236.6625883722
  20
 525.85399069610
  10
 1236.6625883722
  20
 667.76835069579
  10
 1224.6625883722
  20
 667.76835069579
  10
 1224.6625883722
  20
 525.85399069610
   0
LINE
   5
245
 100
AcDbEntity
   8
LEVEL001
 370
30
 100
AcDbLine
   6
CONTINUOUS
  62
7
  10
 1015.6625883722
  20
 781.20399069610
  30
0.0
  11
 1188.6625883722
  21
 781.20399069610
  31
0.0
   0
LINE
   5
246
 100
AcDbEntity
   8
LEVEL001
 370
30
 100
AcDbLine
   6
CONTINUOUS
  62
7
  10
 1188.6625883722
  20
 802.90399069610
  30
0.0
  11
 1015.6625883722
  21
 802.90399069610
  31
0.0
   0
LWPOLYLINE
   5
247
 100
AcDbEntity
   8
LEVEL001
 370
30
   6
CONTINUOUS
  62
7
 100
AcDbPolyline
  90
19
  70
0
  10
 1177.1625883722
  20
 854.27224476558
  10
 1177.1625883722
  20
 910.27224476558
  10
 1175.6625883722
  20
 910.27224476558
  10
 1165.1625883722
  20
 907.77224476558
  10
 1154.6625883722
  20
 910.27224476558
  10
 1144.1625883722
  20
 907.77224476558
  10
 1133.6625883722
  20
 910.27224476558
  10
 1123.1625883722
  20
 907.77224476558
  10
 1112.6625883722
  20
 910.27224476558
  10
 1102.1625883722
  20
 907.77224476558
  10
 1091.6625883722
  20
 910.27224476558
  10
 1081.1625883722
  20
 907.77224476558
  10
 1070.6625883722
  20
 910.27224476558
  10
 1060.1625883722
  20
 907.77224476558
  10
 1049.6625883722
  20
 910.27224476558
  10
 1039.1625883722
  20
 907.77224476558
  10
 1028.6625883722
  20
 910.27224476558
  10
 1027.1625883722
  20
 910.27224476558
  10
 1027.1625883722
  20
 854.27224476558
   0
LWPOLYLINE
   5
248
 100
AcDbEntity
   8
LEVEL001
 370
30
   6
CONTINUOUS
  62
7
 100
AcDbPolyline
  90
4
  70
0
  10
 1177.1625883722
  20
 866.77224476558
  10
 1181.6625883722
  20
 866.77224476558
  10
 1181.6625883722
  20
 841.77224476558
  10
 1177.1625883722
  20
 841.77224476558
   0
LWPOLYLINE
   5
249
 100
AcDbEntity
   8
LEVEL001
 370
30
   6
CONTINUOUS
  62
7
 100
AcDbPolyline
  90
4
  70
0
  10
 1027.1625883722
  20
 866.77224476558
  10
 1022.6625883722
  20
 866.77224476558
  10
 1022.6625883722
  20
 841.77224476558
  10
 1027.1625883722
  20
 841.77224476558
   0
LWPOLYLINE
   5
24A
 100
AcDbEntity
   8
LEVEL001
 370
30
   6
CONTINUOUS
  62
7
 100
AcDbPolyline
  90
4
  70
0
  10
 1281.6625883722
  20
 1086.5539906961
  10
 1241.6625883722
  20
 1086.5539906961
  10
 1241.6625883722
  20
 924.55399069610
  10
 1281.6625883722
  20
 924.55399069610
   0
LWPOLYLINE
   5
24B
 100
AcDbEntity
   8
LEVEL001
 370
30
   6
CONTINUOUS
  62
7
 100
AcDbPolyline
  90
4
  70
0
  10
 1280.6625883722
  20
 1086.5539906961
  10
 1280.6625883722
  20
 1096.5539906961
  10
 1241.6625883722
  20
 1096.5539906961
  10
 1241.6625883722
  20
 1086.5539906961
   0
LWPOLYLINE
   5
24C
 100
AcDbEntity
   8
LEVEL001
 370
30
   6
CONTINUOUS
  62
7
 100
AcDbPolyline
  90
4
  70
0
  10
 1241.6625883722
  20
 924.55399069610
  10
 1241.6625883722
  20
 914.55399069610
  10
 1280.6625883722
  20
 914.55399069610
  10
 1280.6625883722
  20
 924.55399069610
   0
LINE
   5
24D
 100
AcDbEntity
   8
LEVEL001
 370
30
 100
AcDbLine
   6
CONTINUOUS
  62
7
  10
 1241.6625883722
  20
 933.55399069610
  30
0.0
  11
 1188.6625883722
  21
 933.55399069610
  31
0.0
   0
LWPOLYLINE
   5
24E
 100
AcDbEntity
   8
LEVEL001
 370
30
   6
CONTINUOUS
  62
7
 100
AcDbPolyline
  90
6
  70
0
  10
 1188.6625883722
  20
 1078.5539906961
  10
 1188.6625883722
  20
 1098.5539906961
  10
 1281.6625883722
  20
 1098.5539906961
  10
 1281.6625883722
  20
 775.55399069610
  10
 1188.6625883722
  20
 775.55399069610
  10
 1188.6625883722
  20
 933.55399069610
   0
LINE
   5
24F
 100
AcDbEntity
   8
LEVEL001
 370
30
 100
AcDbLine
   6
CONTINUOUS
  62
7
  10
 1181.6625883722
  20
 864.27224476558
  30
0.0
  11
 1188.6625883722
  21
 864.27224476558
  31
0.0
   0
LINE
   5
250
 100
AcDbEntity
   8
LEVEL001
 370
30
 100
AcDbLine
   6
CONTINUOUS
  62
7
  10
 1188.6625883722
  20
 844.27224476558
  30
0.0
  11
 1181.6625883722
  21
 844.27224476558
  31
0.0
   0
LINE
   5
251
 100
AcDbEntity
   8
LEVEL001
 370
30
 100
AcDbLine
   6
CONTINUOUS
  62
7
  10
 1022.6625883722
  20
 864.27224476558
  30
0.0
  11
 1015.6625883722
  21
 864.27224476558
  31
0.0
   0
LINE
   5
252
 100
AcDbEntity
   8
LEVEL001
 370
30
 100
AcDbLine
   6
CONTINUOUS
  62
7
  10
 1015.6625883722
  20
 844.27224476558
  30
0.0
  11
 1022.6625883722
  21
 844.27224476558
  31
0.0
   0
LINE
   5
253
 100
AcDbEntity
   8
LEVEL001
 370
30
 100
AcDbLine
   6
CONTINUOUS
  62
7
  10
 1188.6625883722
  20
 1061.5056357452
  30
0.0
  11
 1176.1625883722
  21
 1061.5056357452
  31
0.0
   0
LINE
   5
254
 100
AcDbEntity
   8
LEVEL001
 370
30
 100
AcDbLine
   6
CONTINUOUS
  62
7
  10
 1028.1625883722
  20
 1061.5056357452
  30
0.0
  11
 1015.6625883722
  21
 1061.5056357452
  31
0.0
   0
LINE
   5
255
 100
AcDbEntity
   8
LEVEL001
 370
30
 100
AcDbLine
   6
CONTINUOUS
  62
7
  10
 1016.6625883722
  20
 776.55399069610
  30
0.0
  11
 1016.6625883722
  21
 781.20399069610
  31
0.0
   0
LINE
   5
256
 100
AcDbEntity
   8
LEVEL001
 370
30
 100
AcDbLine
   6
CONTINUOUS
  62
7
  10
 1187.6625883722
  20
 781.20399069610
  30
0.0
  11
 1187.6625883722
  21
 776.55399069610
  31
0.0
   0
LINE
   5
257
 100
AcDbEntity
   8
LEVEL001
 370
30
 100
AcDbLine
   6
CONTINUOUS
  62
7
  10
 1188.6625883722
  20
 776.55399069610
  30
0.0
  11
 1015.6625883722
  21
 776.55399069610
  31
0.0
   0
LINE
   5
258
 100
AcDbEntity
   8
LEVEL001
 370
30
 100
AcDbLine
   6
CONTINUOUS
  62
7
  10
 1177.1625883722
  20
 854.27224476558
  30
0.0
  11
 1177.1625883722
  21
 802.90399069610
  31
0.0
   0
LINE
   5
259
 100
AcDbEntity
   8
LEVEL001
 370
30
 100
AcDbLine
   6
CONTINUOUS
  62
7
  10
 1027.1625883722
  20
 802.90399069610
  30
0.0
  11
 1027.1625883722
  21
 854.27224476558
  31
0.0
   0
LWPOLYLINE
   5
25A
 100
AcDbEntity
   8
LEVEL001
 370
30
   6
CONTINUOUS
  62
7
 100
AcDbPolyline
  90
19
  70
0
  10
 1176.1625883722
  20
 1043.6788520504
  10
 1176.1625883722
  20
 1097.1788520504
  10
 1175.6625883722
  20
 1097.1788520504
  10
 1165.1625883722
  20
 1099.6788520504
  10
 1154.6625883722
  20
 1097.1788520504
  10
 1144.1625883722
  20
 1099.6788520504
  10
 1133.6625883722
  20
 1097.1788520504
  10
 1123.1625883722
  20
 1099.6788520504
  10
 1112.6625883722
  20
 1097.1788520504
  10
 1102.1625883722
  20
 1099.6788520504
  10
 1091.6625883722
  20
 1097.1788520504
  10
 1081.1625883722
  20
 1099.6788520504
  10
 1070.6625883722
  20
 1097.1788520504
  10
 1060.1625883722
  20
 1099.6788520504
  10
 1049.6625883722
  20
 1097.1788520504
  10
 1039.1625883722
  20
 1099.6788520504
  10
 1028.6625883722
  20
 1097.1788520504
  10
 1028.1625883722
  20
 1097.1788520504
  10
 1028.1625883722
  20
 1043.6788520504
   0
LWPOLYLINE
   5
25B
 100
AcDbEntity
   8
LEVEL001
 370
30
   6
CONTINUOUS
  62
7
 100
AcDbPolyline
  90
4
  70
0
  10
 1204.6625883722
  20
 1058.1788520504
  10
 1195.6625883722
  20
 1058.1788520504
  10
 1195.6625883722
  20
 1029.1788520504
  10
 1204.6625883722
  20
 1029.1788520504
   0
LWPOLYLINE
   5
25C
 100
AcDbEntity
   8
LEVEL001
 370
30
   6
CONTINUOUS
  62
7
 100
AcDbPolyline
  90
4
  70
0
  10
 999.66258837218
  20
 1058.1788520504
  10
 1008.6625883722
  20
 1058.1788520504
  10
 1008.6625883722
  20
 1029.1788520504
  10
 999.66258837218
  20
 1029.1788520504
   0
LINE
   5
25D
 100
AcDbEntity
   8
LEVEL001
 370
30
 100
AcDbLine
   6
CONTINUOUS
  62
7
  10
 1008.6625883722
  20
 1033.6788520504
  30
0.0
  11
 1028.1625883722
  21
 1033.6788520504
  31
0.0
   0
LINE
   5
25E
 100
AcDbEntity
   8
LEVEL001
 370
30
 100
AcDbLine
   6
CONTINUOUS
  62
7
  10
 1028.1625883722
  20
 1053.6788520504
  30
0.0
  11
 1008.6625883722
  21
 1053.6788520504
  31
0.0
   0
LINE
   5
25F
 100
AcDbEntity
   8
LEVEL001
 370
30
 100
AcDbLine
   6
CONTINUOUS
  62
7
  10
 1176.1625883722
  20
 1053.6788520504
  30
0.0
  11
 1195.6625883722
  21
 1053.6788520504
  31
0.0
   0
LINE
   5
260
 100
AcDbEntity
   8
LEVEL001
 370
30
 100
AcDbLine
   6
CONTINUOUS
  62
7
  10
 1195.6625883722
  20
 1033.6788520504
  30
0.0
  11
 1176.1625883722
  21
 1033.6788520504
  31
0.0
   0
LWPOLYLINE
   5
261
 100
AcDbEntity
   8
LEVEL001
 370
30
   6
CONTINUOUS
  62
7
 100
AcDbPolyline
  90
4
  70
0
  10
 1236.6625883722
  20
 1053.6788520504
  10
 1240.6625883722
  20
 1053.6788520504
  10
 1240.6625883722
  20
 1033.6788520504
  10
 1236.6625883722
  20
 1033.6788520504
   0
LWPOLYLINE
   5
262
 100
AcDbEntity
   8
LEVEL001
 370
30
   6
CONTINUOUS
  62
7
 100
AcDbPolyline
  90
4
  70
1
  10
 1204.6625883722
  20
 1074.1788520504
  10
 1204.6625883722
  20
 1013.1788520504
  10
 1224.6625883722
  20
 1013.1788520504
  10
 1224.6625883722
  20
 1074.1788520504
   0
LWPOLYLINE
   5
263
 100
AcDbEntity
   8
LEVEL001
 370
30
   6
CONTINUOUS
  62
7
 100
AcDbPolyline
  90
4
  70
1
  10
 999.66258837218
  20
 1074.1788520504
  10
 999.66258837218
  20
 1013.1788520504
  10
 979.66258837218
  20
 1013.1788520504
  10
 979.66258837218
  20
 1074.1788520504
   0
LINE
   5
264
 100
AcDbEntity
   8
LEVEL001
 370
30
 100
AcDbLine
   6
CONTINUOUS
  62
7
  10
 1200.6625883722
  20
 1078.5539906961
  30
0.0
  11
 1200.6625883722
  21
 1058.1788520504
  31
0.0
   0
LINE
   5
265
 100
AcDbEntity
   8
LEVEL001
 370
30
 100
AcDbLine
   6
CONTINUOUS
  62
7
  10
 1188.6625883722
  20
 1078.5539906961
  30
0.0
  11
 1188.6625883722
  21
 1053.6788520504
  31
0.0
   0
LINE
   5
266
 100
AcDbEntity
   8
LEVEL001
 370
30
 100
AcDbLine
   6
CONTINUOUS
  62
7
  10
 1177.1625883722
  20
 1053.6788520504
  30
0.0
  11
 1177.1625883722
  21
 1061.5056357452
  31
0.0
   0
LINE
   5
267
 100
AcDbEntity
   8
LEVEL001
 370
30
 100
AcDbLine
   6
CONTINUOUS
  62
7
  10
 1027.1625883722
  20
 1061.5056357452
  30
0.0
  11
 1027.1625883722
  21
 1053.6788520504
  31
0.0
   0
LINE
   5
268
 100
AcDbEntity
   8
LEVEL001
 370
30
 100
AcDbLine
   6
CONTINUOUS
  62
7
  10
 1015.6625883722
  20
 1073.5539906961
  30
0.0
  11
 1015.6625883722
  21
 1053.6788520504
  31
0.0
   0
LINE
   5
269
 100
AcDbEntity
   8
LEVEL001
 370
30
 100
AcDbLine
   6
CONTINUOUS
  62
7
  10
 1003.6625883722
  20
 1073.5539906961
  30
0.0
  11
 1003.6625883722
  21
 1058.1788520504
  31
0.0
   0
LWPOLYLINE
   5
26A
 100
AcDbEntity
   8
LEVEL001
 370
30
   6
CONTINUOUS
  62
7
 100
AcDbPolyline
  90
3
  70
0
  10
 1022.6625883722
  20
 1033.6788520504
  10
 1022.6625883722
  20
 1014.8167851124
  10
 1027.1625883722
  20
 1014.8167851124
   0
LWPOLYLINE
   5
26B
 100
AcDbEntity
   8
LEVEL001
 370
30
   6
CONTINUOUS
  62
7
 100
AcDbPolyline
  90
3
  70
0
  10
 1181.6625883722
  20
 1033.6788520504
  10
 1181.6625883722
  20
 1014.8167851124
  10
 1177.1625883722
  20
 1014.8167851124
   0
LINE
   5
26C
 100
AcDbEntity
   8
LEVEL001
 370
30
 100
AcDbLine
   6
CONTINUOUS
  62
7
  10
 1015.6625883722
  20
 1017.3167851124
  30
0.0
  11
 1022.6625883722
  21
 1017.3167851124
  31
0.0
   0
LINE
   5
26D
 100
AcDbEntity
   8
LEVEL001
 370
30
 100
AcDbLine
   6
CONTINUOUS
  62
7
  10
 1188.6625883722
  20
 1017.3167851124
  30
0.0
  11
 1181.6625883722
  21
 1017.3167851124
  31
0.0
   0
LWPOLYLINE
   5
26E
 100
AcDbEntity
   8
LEVEL001
 370
30
   6
CONTINUOUS
  62
7
 100
AcDbPolyline
  90
4
  70
0
  10
 1224.6625883722
  20
 1000.0276576543
  10
 1209.6625883722
  20
 996.02765765429
  10
 1209.6625883722
  20
 968.02765765429
  10
 1224.6625883722
  20
 964.02765765429
   0
LWPOLYLINE
   5
26F
 100
AcDbEntity
   8
LEVEL001
 370
30
   6
CONTINUOUS
  62
7
 100
AcDbPolyline
  90
6
  70
0
  10
 1236.6625883722
  20
 974.52210415486
  10
 1239.4665617347
  20
 974.52210415486
  10
 1240.1625883722
  20
 975.72765765429
  10
 1240.1625883722
  20
 988.32765765429
  10
 1239.4665617347
  20
 989.53321115373
  10
 1236.6625883722
  20
 989.53321115373
   0
LINE
   5
270
 100
AcDbEntity
   8
LEVEL001
 370
30
 100
AcDbLine
   6
CONTINUOUS
  62
7
  10
 1236.6625883722
  20
 978.27488090461
  30
0.0
  11
 1239.4665617347
  21
 978.27488090461
  31
0.0
   0
LINE
   5
271
 100
AcDbEntity
   8
LEVEL001
 370
30
 100
AcDbLine
   6
CONTINUOUS
  62
7
  10
 1236.6625883722
  20
 985.78043440398
  30
0.0
  11
 1239.4665617347
  21
 985.78043440398
  31
0.0
   0
ARC
   5
272
 100
AcDbEntity
   8
LEVEL001
 370
30
   6
CONTINUOUS
  62
7
 100
AcDbCircle
  10
 974.62755165688
  20
 982.02765765430
  30
0.0
  40
 10.464963284702
 100
AcDbArc
  50
 158.98551792465
  51
 201.01448207535
   0
ARC
   5
273
 100
AcDbEntity
   8
LEVEL001
 370
30
   6
CONTINUOUS
  62
7
 100
AcDbCircle
  10
 967.03983918252
  20
 976.39849252973
  30
0.0
  40
 2.8772508103391
 100
AcDbArc
  50
 139.29638266486
  51
 180.00000000000
   0
ARC
   5
274
 100
AcDbEntity
   8
LEVEL001
 370
30
   6
CONTINUOUS
  62
7
 100
AcDbCircle
  10
 967.03983918252
  20
 987.65682277886
  30
0.0
  40
 2.8772508103391
 100
AcDbArc
  50
 180.00000000000
  51
 220.70361733514
   0
LWPOLYLINE
   5
275
 100
AcDbEntity
   8
LEVEL001
 370
30
   6
CONTINUOUS
  62
7
 100
AcDbPolyline
  90
6
  70
0
  10
 967.66258837218
  20
 974.52210415486
  10
 964.85861500967
  20
 974.52210415486
  10
 964.16258837218
  20
 975.72765765429
  10
 964.16258837218
  20
 988.32765765429
  10
 964.85861500967
  20
 989.53321115373
  10
 967.66258837218
  20
 989.53321115373
   0
LINE
   5
276
 100
AcDbEntity
   8
LEVEL001
 370
30
 100
AcDbLine
   6
CONTINUOUS
  62
7
  10
 967.66258837218
  20
 978.27488090461
  30
0.0
  11
 964.85861500967
  21
 978.27488090461
  31
0.0
   0
LINE
   5
277
 100
AcDbEntity
   8
LEVEL001
 370
30
 100
AcDbLine
   6
CONTINUOUS
  62
7
  10
 967.66258837218
  20
 985.78043440398
  30
0.0
  11
 964.85861500967
  21
 985.78043440398
  31
0.0
   0
ARC
   5
278
 100
AcDbEntity
   8
LEVEL001
 370
30
   6
CONTINUOUS
  62
7
 100
AcDbCircle
  10
 1229.6976250875
  20
 982.02765765430
  30
0.0
  40
 10.464963284702
 100
AcDbArc
  50
 338.98551792465
  51
 21.014482075347
   0
ARC
   5
279
 100
AcDbEntity
   8
LEVEL001
 370
30
   6
CONTINUOUS
  62
7
 100
AcDbCircle
  10
 1237.2853375618
  20
 976.39849252973
  30
0.0
  40
 2.8772508103391
 100
AcDbArc
  50
0.0
  51
 40.703617335143
   0
ARC
   5
27A
 100
AcDbEntity
   8
LEVEL001
 370
30
   6
CONTINUOUS
  62
7
 100
AcDbCircle
  10
 1237.2853375618
  20
 987.65682277886
  30
0.0
  40
 2.8772508103391
 100
AcDbArc
  50
 319.29638266486
  51
0.0
   0
LINE
   5
27B
 100
AcDbEntity
   8
LEVEL001
 370
30
 100
AcDbLine
   6
CONTINUOUS
  62
7
  10
 1209.6625883722
  20
 992.87765765429
  30
0.0
  11
 994.66258837218
  21
 992.87765765429
  31
0.0
   0
LINE
   5
27C
 100
AcDbEntity
   8
LEVEL001
 370
30
 100
AcDbLine
   6
CONTINUOUS
  62
7
  10
 994.66258837218
  20
 971.17765765429
  30
0.0
  11
 1209.6625883722
  21
 971.17765765429
  31
0.0
   0
LWPOLYLINE
   5
27D
 100
AcDbEntity
   8
LEVEL001
 370
30
   6
CONTINUOUS
  62
7
 100
AcDbPolyline
  90
4
  70
0
  10
 979.66258837218
  20
 1000.0276576543
  10
 994.66258837218
  20
 996.02765765429
  10
 994.66258837218
  20
 968.02765765429
  10
 979.66258837218
  20
 964.02765765429
   0
LWPOLYLINE
   5
27E
 100
AcDbEntity
   8
LEVEL001
 370
30
   6
CONTINUOUS
  62
7
 100
AcDbPolyline
  90
4
  70
1
  10
 1224.6625883722
  20
 964.02765765429
  10
 1236.6625883722
  20
 964.02765765429
  10
 1236.6625883722
  20
 1085.5858327977
  10
 1224.6625883722
  20
 1085.5858327977
   0
LWPOLYLINE
   5
27F
 100
AcDbEntity
   8
LEVEL001
 370
30
   6
CONTINUOUS
  62
7
 100
AcDbPolyline
  90
4
  70
1
  10
 979.66258837218
  20
 964.02765765429
  10
 967.66258837218
  20
 964.02765765429
  10
 967.66258837218
  20
 1085.5858327977
  10
 979.66258837218
  20
 1085.5858327977
   0
LINE
   5
280
 100
AcDbEntity
   8
LEVEL001
 370
30
 100
AcDbLine
   6
CONTINUOUS
  62
7
  10
 1015.6625883722
  20
 1033.6788520504
  30
0.0
  11
 1015.6625883722
  21
 992.87765765429
  31
0.0
   0
LINE
   5
281
 100
AcDbEntity
   8
LEVEL001
 370
30
 100
AcDbLine
   6
CONTINUOUS
  62
7
  10
 1003.6625883722
  20
 1029.1788520504
  30
0.0
  11
 1003.6625883722
  21
 992.87765765429
  31
0.0
   0
LINE
   5
282
 100
AcDbEntity
   8
LEVEL001
 370
30
 100
AcDbLine
   6
CONTINUOUS
  62
7
  10
 1188.6625883722
  20
 1033.6788520504
  30
0.0
  11
 1188.6625883722
  21
 992.87765765429
  31
0.0
   0
LINE
   5
283
 100
AcDbEntity
   8
LEVEL001
 370
30
 100
AcDbLine
   6
CONTINUOUS
  62
7
  10
 1200.6625883722
  20
 1029.1788520504
  30
0.0
  11
 1200.6625883722
  21
 992.87765765429
  31
0.0
   0
LINE
   5
284
 100
AcDbEntity
   8
LEVEL001
 370
30
 100
AcDbLine
   6
CONTINUOUS
  62
7
  10
 1200.6625883722
  20
 971.17765765429
  30
0.0
  11
 1200.6625883722
  21
 933.55399069610
  31
0.0
   0
LINE
   5
285
 100
AcDbEntity
   8
LEVEL001
 370
30
 100
AcDbLine
   6
CONTINUOUS
  62
7
  10
 1188.6625883722
  20
 971.17765765429
  30
0.0
  11
 1188.6625883722
  21
 933.55399069610
  31
0.0
   0
LINE
   5
286
 100
AcDbEntity
   8
LEVEL001
 370
30
 100
AcDbLine
   6
CONTINUOUS
  62
7
  10
 1015.6625883722
  20
 971.17765765429
  30
0.0
  11
 1015.6625883722
  21
 933.55399069610
  31
0.0
   0
LINE
   5
287
 100
AcDbEntity
   8
LEVEL001
 370
30
 100
AcDbLine
   6
CONTINUOUS
  62
7
  10
 1003.6625883722
  20
 971.17765765429
  30
0.0
  11
 1003.6625883722
  21
 933.55399069610
  31
0.0
   0
LINE
   5
288
 100
AcDbEntity
   8
LEVEL001
 370
30
 100
AcDbLine
   6
CONTINUOUS
  62
7
  10
 1177.1625883722
  20
 1033.6788520504
  30
0.0
  11
 1177.1625883722
  21
 992.87765765429
  31
0.0
   0
LINE
   5
289
 100
AcDbEntity
   8
LEVEL001
 370
30
 100
AcDbLine
   6
CONTINUOUS
  62
7
  10
 1027.1625883722
  20
 992.87765765429
  30
0.0
  11
 1027.1625883722
  21
 1033.6788520504
  31
0.0
   0
LINE
   5
28A
 100
AcDbEntity
   8
LEVEL001
 370
30
 100
AcDbLine
   6
CONTINUOUS
  62
7
  10
 1176.1625883722
  20
 1043.6788520504
  30
0.0
  11
 1176.1625883722
  21
 992.87765765429
  31
0.0
   0
LINE
   5
28B
 100
AcDbEntity
   8
LEVEL001
 370
30
 100
AcDbLine
   6
CONTINUOUS
  62
7
  10
 1028.1625883722
  20
 992.87765765429
  30
0.0
  11
 1028.1625883722
  21
 1043.6788520504
  31
0.0
   0
LWPOLYLINE
   5
28C
 100
AcDbEntity
   8
LEVEL001
 370
30
   6
CONTINUOUS
  62
7
 100
AcDbPolyline
  90
4
  70
0
  10
 1177.1625883722
  20
 992.87765765429
  10
 1177.1625883722
  20
 1000.5539906961
  10
 1185.1625883722
  20
 1000.5539906961
  10
 1185.1625883722
  20
 992.87765765429
   0
LWPOLYLINE
   5
28D
 100
AcDbEntity
   8
LEVEL001
 370
30
   6
CONTINUOUS
  62
7
 100
AcDbPolyline
  90
4
  70
0
  10
 1027.1625883722
  20
 992.87765765429
  10
 1027.1625883722
  20
 1000.5539906961
  10
 1019.1625883722
  20
 1000.5539906961
  10
 1019.1625883722
  20
 992.87765765429
   0
LINE
   5
28E
 100
AcDbEntity
   8
LEVEL001
 370
30
 100
AcDbLine
   6
CONTINUOUS
  62
7
  10
 1188.6625883722
  20
 1090.0539906961
  30
0.0
  11
 1176.1625883722
  21
 1090.0539906961
  31
0.0
   0
LINE
   5
28F
 100
AcDbEntity
   8
LEVEL001
 370
30
 100
AcDbLine
   6
CONTINUOUS
  62
7
  10
 1028.1625883722
  20
 1090.0539906961
  30
0.0
  11
 1015.6625883722
  21
 1090.0539906961
  31
0.0
   0
LINE
   5
290
 100
AcDbEntity
   8
LEVEL001
 370
30
 100
AcDbLine
   6
CONTINUOUS
  62
7
  10
 1188.6625883722
  20
 1083.2056357452
  30
0.0
  11
 1176.1625883722
  21
 1083.2056357452
  31
0.0
   0
LINE
   5
291
 100
AcDbEntity
   8
LEVEL001
 370
30
 100
AcDbLine
   6
CONTINUOUS
  62
7
  10
 1028.1625883722
  20
 1083.2056357452
  30
0.0
  11
 1015.6625883722
  21
 1083.2056357452
  31
0.0
   0
LINE
   5
292
 100
AcDbEntity
   8
LEVEL001
 370
30
 100
AcDbLine
   6
CONTINUOUS
  62
7
  10
 1241.6625883722
  20
 1078.5539906961
  30
0.0
  11
 1236.6625883722
  21
 1078.5539906961
  31
0.0
   0
LINE
   5
293
 100
AcDbEntity
   8
LEVEL001
 370
30
 100
AcDbLine
   6
CONTINUOUS
  62
7
  10
 1224.6625883722
  20
 1078.5539906961
  30
0.0
  11
 1188.6625883722
  21
 1078.5539906961
  31
0.0
   0
LWPOLYLINE
   5
294
 100
AcDbEntity
   8
LEVEL001
 370
30
   6
CONTINUOUS
  62
7
 100
AcDbPolyline
  90
4
  70
0
  10
 967.66258837218
  20
 1073.5539906961
  10
 960.66258837218
  20
 1073.5539906961
  10
 960.66258837218
  20
 933.55399069610
  10
 1015.6625883722
  20
 933.55399069610
   0
LINE
   5
295
 100
AcDbEntity
   8
LEVEL001
 370
30
 100
AcDbLine
   6
CONTINUOUS
  62
7
  10
 1015.6625883722
  20
 1073.5539906961
  30
0.0
  11
 999.66258837218
  21
 1073.5539906961
  31
0.0
   0
LINE
   5
296
 100
AcDbEntity
   8
LEVEL001
 370
30
 100
AcDbLine
   6
CONTINUOUS
  62
7
  10
 1188.6625883722
  20
 1094.3539906961
  30
0.0
  11
 1176.1625883722
  21
 1094.3539906961
  31
0.0
   0
LINE
   5
297
 100
AcDbEntity
   8
LEVEL001
 370
30
 100
AcDbLine
   6
CONTINUOUS
  62
7
  10
 1028.1625883722
  20
 1094.3539906961
  30
0.0
  11
 1015.6625883722
  21
 1094.3539906961
  31
0.0
   0
LWPOLYLINE
   5
298
 100
AcDbEntity
   8
LEVEL001
 370
30
   6
CONTINUOUS
  62
7
 100
AcDbPolyline
  90
4
  70
0
  10
 1027.1625883722
  20
 971.17765765429
  10
 1027.1625883722
  20
 885.55399069610
  10
 1019.1625883722
  20
 885.55399069610
  10
 1019.1625883722
  20
 971.17765765429
   0
LWPOLYLINE
   5
299
 100
AcDbEntity
   8
LEVEL001
 370
30
   6
CONTINUOUS
  62
7
 100
AcDbPolyline
  90
4
  70
0
  10
 1185.1625883722
  20
 971.17765765429
  10
 1185.1625883722
  20
 885.55399069610
  10
 1177.1625883722
  20
 885.55399069610
  10
 1177.1625883722
  20
 971.17765765429
   0
LWPOLYLINE
   5
29A
 100
AcDbEntity
   8
LEVEL001
 370
30
   6
CONTINUOUS
  62
7
 100
AcDbPolyline
  90
4
  70
1
  10
 1187.1625883722
  20
 327.05399069610
  10
 1187.1625883722
  20
 307.05399069610
  10
 1017.1625883722
  20
 307.05399069610
  10
 1017.1625883722
  20
 327.05399069610
   0
LWPOLYLINE
   5
29B
 100
AcDbEntity
   8
LEVEL001
 370
30
   6
CONTINUOUS
  62
7
 100
AcDbPolyline
  90
3
  70
0
  10
 236.66258837218
  20
 129.85399069610
  10
 235.16258837218
  20
 129.85399069610
  10
 235.16258837218
  20
 143.85399069610
   0
LWPOLYLINE
   5
29C
 100
AcDbEntity
   8
LEVEL001
 370
30
   6
CONTINUOUS
  62
7
 100
AcDbPolyline
  90
3
  70
0
  10
 558.16258837218
  20
 143.85399069610
  10
 558.16258837218
  20
 129.85399069610
  10
 556.66258837218
  20
 129.85399069610
   0
ARC
   5
29D
 100
AcDbEntity
   8
LEVEL001
 370
30
   6
CONTINUOUS
  62
7
 100
AcDbCircle
  10
 390.66258837218
  20
 478.85399069610
  30
0.0
  40
 57.500000000000
 100
AcDbArc
  50
 54.824499502852
  51
 125.17550049715
   0
CIRCLE
   5
29E
 100
AcDbEntity
   8
LEVEL001
 370
30
 100
AcDbCircle
   6
CONTINUOUS
  62
7
  10
 290.03772701783
  20
 554.64143426554
  30
0.0
  40
 15.000000000000
   0
CIRCLE
   5
29F
 100
AcDbEntity
   8
LEVEL001
 370
30
 100
AcDbCircle
   6
CONTINUOUS
  62
7
  10
 290.03772701783
  20
 554.64143426554
  30
0.0
  40
 14.500000000000
   0
CIRCLE
   5
2A0
 100
AcDbEntity
   8
LEVEL001
 370
30
 100
AcDbCircle
   6
CONTINUOUS
  62
7
  10
 351.68892141399
  20
 649.76835069579
  30
0.0
  40
 7.7000000000000
   0
LINE
   5
2A1
 100
AcDbEntity
   8
LEVEL001
 370
30
 100
AcDbLine
   6
CONTINUOUS
  62
7
  10
 321.65995332476
  20
 634.17152167524
  30
0.0
  11
 353.31038750695
  21
 638.88851394567
  31
0.0
   0
LINE
   5
2A2
 100
AcDbEntity
   8
LEVEL001
 370
30
 100
AcDbLine
   6
CONTINUOUS
  62
7
  10
 322.69179538392
  20
 627.24798919788
  30
0.0
  11
 354.34222956610
  21
 631.96498146832
  31
0.0
   0
ARC
   5
2A3
 100
AcDbEntity
   8
LEVEL001
 370
30
   6
CONTINUOUS
  62
7
 100
AcDbCircle
  10
 324.60807349378
  20
 614.39000031137
  30
0.0
  40
 20.000000000000
 100
AcDbArc
  50
 98.476630741738
  51
 188.47663074174
   0
ARC
   5
2A4
 100
AcDbEntity
   8
LEVEL001
 370
30
   6
CONTINUOUS
  62
7
 100
AcDbCircle
  10
 324.60807349378
  20
 614.39000031137
  30
0.0
  40
 13.000000000000
 100
AcDbArc
  50
 98.476630741738
  51
 188.47663074174
   0
ARC
   5
2A5
 100
AcDbEntity
   8
LEVEL001
 370
30
   6
CONTINUOUS
  62
7
 100
AcDbCircle
  10
 351.68892141399
  20
 649.76835069579
  30
0.0
  40
 18.000000000000
 100
AcDbArc
  50
 278.47663074174
  51
 98.476630741738
   0
ARC
   5
2A6
 100
AcDbEntity
   8
LEVEL001
 370
30
   6
CONTINUOUS
  62
7
 100
AcDbCircle
  10
 351.68892141399
  20
 649.76835069579
  30
0.0
  40
 11.000000000000
 100
AcDbArc
  50
 278.47663074174
  51
 98.476630741738
   0
LINE
   5
2A7
 100
AcDbEntity
   8
LEVEL001
 370
30
 100
AcDbLine
   6
CONTINUOUS
  62
7
  10
 349.03561326187
  20
 667.57171992327
  30
0.0
  11
 264.96414746544
  21
 655.04220920493
  31
0.0
   0
LINE
   5
2A8
 100
AcDbEntity
   8
LEVEL001
 370
30
 100
AcDbLine
   6
CONTINUOUS
  62
7
  10
 350.06745532102
  20
 660.64818744592
  30
0.0
  11
 265.99598952460
  21
 648.11867672758
  31
0.0
   0
ARC
   5
2A9
 100
AcDbEntity
   8
LEVEL001
 370
30
   6
CONTINUOUS
  62
7
 100
AcDbCircle
  10
 267.91226763446
  20
 635.26068784107
  30
0.0
  40
 20.000000000000
 100
AcDbArc
  50
 98.476630741738
  51
 188.47663074174
   0
ARC
   5
2AA
 100
AcDbEntity
   8
LEVEL001
 370
30
   6
CONTINUOUS
  62
7
 100
AcDbCircle
  10
 267.91226763446
  20
 635.26068784107
  30
0.0
  40
 13.000000000000
 100
AcDbArc
  50
 98.476630741738
  51
 188.47663074174
   0
CIRCLE
   5
2AB
 100
AcDbEntity
   8
LEVEL001
 370
30
 100
AcDbCircle
   6
CONTINUOUS
  62
7
  10
 290.03772701783
  20
 554.64143426554
  30
0.0
  40
 10.000000000000
   0
LWPOLYLINE
   5
2AC
 100
AcDbEntity
   8
LEVEL001
 370
30
   6
CONTINUOUS
  62
7
 100
AcDbPolyline
  90
3
  70
0
  10
 320.15374460469
  20
 601.85399069610
  10
 409.16258837218
  20
 601.85399069610
  10
 409.16258837218
  20
 533.29662105136
   0
LINE
   5
2AD
 100
AcDbEntity
   8
LEVEL001
 370
30
 100
AcDbLine
   6
CONTINUOUS
  62
7
  10
 248.13074627060
  20
 632.31256767205
  30
0.0
  11
 263.99669875095
  21
 525.85399069610
  31
0.0
   0
LINE
   5
2AE
 100
AcDbEntity
   8
LEVEL001
 370
30
 100
AcDbLine
   6
CONTINUOUS
  62
7
  10
 255.05427874795
  20
 633.34440973121
  30
0.0
  11
 271.07401082542
  21
 525.85399069610
  31
0.0
   0
LINE
   5
2AF
 100
AcDbEntity
   8
LEVEL001
 370
30
 100
AcDbLine
   6
CONTINUOUS
  62
7
  10
 324.65937367503
  20
 525.85399069610
  30
0.0
  11
 311.75008460727
  21
 612.47372220151
  31
0.0
   0
LINE
   5
2B0
 100
AcDbEntity
   8
LEVEL001
 370
30
 100
AcDbLine
   6
CONTINUOUS
  62
7
  10
 317.58206160056
  20
 525.85399069610
  30
0.0
  11
 304.82655212992
  21
 611.44188014235
  31
0.0
   0
ARC
   5
2B1
 100
AcDbEntity
   8
LEVEL001
 370
30
   6
CONTINUOUS
  62
7
 100
AcDbCircle
  10
 290.03772701783
  20
 554.64143426554
  30
0.0
  40
 56.000000000000
 100
AcDbArc
  50
 329.06525556234
  51
 66.084265255895
   0
ARC
   5
2B2
 100
AcDbEntity
   8
LEVEL001
 370
30
   6
CONTINUOUS
  62
7
 100
AcDbCircle
  10
 290.03772701783
  20
 554.64143426554
  30
0.0
  40
 56.000000000000
 100
AcDbArc
  50
 130.86899622758
  51
 210.93474443766
   0
LWPOLYLINE
   5
2B3
 100
AcDbEntity
   8
LEVEL001
 370
30
   6
CONTINUOUS
  62
7
 100
AcDbPolyline
  90
4
  70
0
  10
 242.00354030945
  20
 525.85399069610
  10
 237.16258837218
  20
 525.85399069610
  10
 237.16258837218
  20
 526.85399069610
  10
 241.41820439703
  20
 526.85399069610
   0
LWPOLYLINE
   5
2B4
 100
AcDbEntity
   8
LEVEL001
 370
30
   6
CONTINUOUS
  62
7
 100
AcDbPolyline
  90
3
  70
0
  10
 247.16258837218
  20
 590.66534974008
  10
 247.16258837218
  20
 601.85399069610
  10
 252.67011123909
  20
 601.85399069610
   0
LWPOLYLINE
   5
2B5
 100
AcDbEntity
   8
LEVEL001
 370
30
   6
CONTINUOUS
  62
7
 100
AcDbPolyline
  90
4
  70
0
  10
 566.16258837218
  20
 436.85399069610
  10
 568.16258837218
  20
 436.85399069610
  10
 568.16258837218
  20
 419.85399069610
  10
 566.16258837218
  20
 419.85399069610
   0
LWPOLYLINE
   5
2B6
 100
AcDbEntity
   8
LEVEL001
 370
30
   6
CONTINUOUS
  62
7
 100
AcDbPolyline
  90
4
  70
0
  10
 566.16258837218
  20
 413.85399069610
  10
 568.16258837218
  20
 413.85399069610
  10
 568.16258837218
  20
 396.85399069610
  10
 566.16258837218
  20
 396.85399069610
   0
LWPOLYLINE
   5
2B7
 100
AcDbEntity
   8
LEVEL001
 370
30
   6
CONTINUOUS
  62
7
 100
AcDbPolyline
  90
4
  70
0
  10
 558.16258837218
  20
 474.85399069610
  10
 566.16258837218
  20
 474.85399069610
  10
 566.16258837218
  20
 374.85399069610
  10
 558.16258837218
  20
 374.85399069610
   0
LINE
   5
2B8
 100
AcDbEntity
   8
LEVEL001
 370
30
 100
AcDbLine
   6
CONTINUOUS
  62
7
  10
 697.71031086575
  20
 1069.0000000000
  30
0.0
  11
 212.46031086575
  21
 1069.0000000000
  31
0.0
   0
LINE
   5
2B9
 100
AcDbEntity
   8
LEVEL001
 370
30
 100
AcDbLine
   6
CONTINUOUS
  62
7
  10
 212.46031086575
  20
 1045.0000000000
  30
0.0
  11
 697.71031086575
  21
 1045.0000000000
  31
0.0
   0
LINE
   5
2BA
 100
AcDbEntity
   8
LEVEL001
 370
30
 100
AcDbLine
   6
CONTINUOUS
  62
7
  10
 212.46031086575
  20
 1021.0000000000
  30
0.0
  11
 697.71031086575
  21
 1021.0000000000
  31
0.0
   0
LINE
   5
2BB
 100
AcDbEntity
   8
LEVEL001
 370
30
 100
AcDbLine
   6
CONTINUOUS
  62
7
  10
 212.46031086575
  20
 997.00000000000
  30
0.0
  11
 697.71031086575
  21
 997.00000000000
  31
0.0
   0
LINE
   5
2BC
 100
AcDbEntity
   8
LEVEL001
 370
30
 100
AcDbLine
   6
CONTINUOUS
  62
7
  10
 212.46031086575
  20
 973.00000000000
  30
0.0
  11
 697.71031086575
  21
 973.00000000000
  31
0.0
   0
LINE
   5
2BD
 100
AcDbEntity
   8
LEVEL001
 370
30
 100
AcDbLine
   6
CONTINUOUS
  62
7
  10
 212.46031086575
  20
 949.00000000000
  30
0.0
  11
 697.71031086575
  21
 949.00000000000
  31
0.0
   0
MTEXT
   5
2BF
 100
AcDbEntity
   8
LEVEL001
 370
9
  62
1
 100
AcDbMText
  10
 239.46031086575
  20
 1000.0000000000
  30
0.0
  40
 12.000000000000
  41
0.0
  71
7
  72
1
   1
\T1.000000;寸法（Ｗ×Ｄ×Ｈ）
   7
GMM001
  44
 0.79999984000003
   0
MTEXT
   5
2C1
 100
AcDbEntity
   8
LEVEL001
 370
9
  62
1
 100
AcDbMText
  10
 239.46031086575
  20
 928.00000000000
  30
0.0
  40
 12.000000000000
  41
0.0
  71
7
  72
1
   1
\W1.000000;\T1.000000;消\W0.500000;\T1.000000;  \W1.000000;\T1.000000;費\W0.500000;\T1.000000;  \W1.000000;\T1.000000;電\W0.500000;\T1.000000;  \W1.000000;\T1.000000;力
   7
GMM001
  44
 0.79999984000003
   0
MTEXT
   5
2C3
 100
AcDbEntity
   8
LEVEL001
 370
9
  62
1
 100
AcDbMText
  10
 239.46031086575
  20
 952.00000000000
  30
0.0
  40
 12.000000000000
  41
0.0
  71
7
  72
1
   1
\W1.000000;\T1.000000;電\W0.500000;\T1.000000;          \W1.000000;\T1.000000;源
   7
GMM001
  44
 0.79999984000003
   0
MTEXT
   5
2C5
 100
AcDbEntity
   8
LEVEL001
 370
9
  62
1
 100
AcDbMText
  10
 239.46031086575
  20
 976.00000000000
  30
0.0
  40
 12.000000000000
  41
0.0
  71
7
  72
1
   1
\W1.000000;\T1.000000;能\W0.500000;\T1.000000;          \W1.000000;\T1.000000;力
   7
GMM001
  44
 0.79999984000003
   0
MTEXT
   5
2C7
 100
AcDbEntity
   8
LEVEL001
 370
9
  62
1
 100
AcDbMText
  10
 239.46031086575
  20
 1024.0000000000
  30
0.0
  40
 12.000000000000
  41
0.0
  71
7
  72
1
   1
\W1.000000;\T1.000000;型\W0.500000;\T1.000000;          \W1.000000;\T1.000000;式
   7
GMM001
  44
 0.79999984000003
   0
MTEXT
   5
2C9
 100
AcDbEntity
   8
LEVEL001
 370
9
  62
1
 100
AcDbMText
  10
 239.46031086575
  20
 1048.0000000000
  30
0.0
  40
 12.000000000000
  41
0.0
  71
7
  72
1
   1
\W1.000000;\T1.000000;製　\W0.500000;\T1.000000;  \W1.000000;\T1.000000;品\W0.500000;\T1.000000;  \W1.000000;\T1.000000;　名
   7
GMM001
  44
 0.79999984000003
   0
MTEXT
   5
2CB
 100
AcDbEntity
   8
LEVEL001
 370
9
  62
1
 100
AcDbMText
  10
 371.46031086575
  20
 1048.0000000000
  30
0.0
  40
 12.000000000000
  41
0.0
  71
7
  72
1
   1
\T1.000000;手打麺生地プレス成形機
   7
GMM001
  44
 0.79999984000003
   0
MTEXT
   5
2CD
 100
AcDbEntity
   8
LEVEL001
 370
9
  62
1
 100
AcDbMText
  10
 371.46031086575
  20
 928.00000000000
  30
0.0
  40
 12.000000000000
  41
0.0
  71
7
  72
1
   1
\T1.000000;１００Ｗ
   7
GMM001
  44
 0.79999984000003
   0
MTEXT
   5
2CF
 100
AcDbEntity
   8
LEVEL001
 370
9
  62
1
 100
AcDbMText
  10
 371.46031086575
  20
 1024.0000000000
  30
0.0
  40
 12.000000000000
  41
0.0
  71
7
  72
1
   1
\T1.000000;ロ－リングプレス　ＲＰ－１Ｐ型
   7
GMM001
  44
 0.79999984000003
   0
LINE
   5
2D0
 100
AcDbEntity
   8
LEVEL001
 370
30
 100
AcDbLine
   6
CONTINUOUS
  62
7
  10
 697.71031086575
  20
 877.00000000000
  30
0.0
  11
 212.46031086575
  21
 877.00000000000
  31
0.0
   0
LINE
   5
2D1
 100
AcDbEntity
   8
LEVEL001
 370
30
 100
AcDbLine
   6
CONTINUOUS
  62
7
  10
 212.46031086575
  20
 925.00000000000
  30
0.0
  11
 697.71031086575
  21
 925.00000000000
  31
0.0
   0
LINE
   5
2D2
 100
AcDbEntity
   8
LEVEL001
 370
30
 100
AcDbLine
   6
CONTINUOUS
  62
7
  10
 212.46031086575
  20
 901.00000000000
  30
0.0
  11
 697.71031086575
  21
 901.00000000000
  31
0.0
   0
LINE
   5
2D3
 100
AcDbEntity
   8
LEVEL001
 370
30
 100
AcDbLine
   6
CONTINUOUS
  62
7
  10
 212.46031086575
  20
 877.00000000000
  30
0.0
  11
 212.46031086575
  21
 1069.0000000000
  31
0.0
   0
LINE
   5
2D4
 100
AcDbEntity
   8
LEVEL001
 370
30
 100
AcDbLine
   6
CONTINUOUS
  62
7
  10
 367.71031086575
  20
 1069.0000000000
  30
0.0
  11
 367.71031086575
  21
 877.00000000000
  31
0.0
   0
LINE
   5
2D5
 100
AcDbEntity
   8
LEVEL001
 370
30
 100
AcDbLine
   6
CONTINUOUS
  62
7
  10
 697.71031086575
  20
 1069.0000000000
  30
0.0
  11
 697.71031086575
  21
 877.00000000000
  31
0.0
   0
MTEXT
   5
2D7
 100
AcDbEntity
   8
LEVEL001
 370
9
  62
1
 100
AcDbMText
  10
 239.46031086575
  20
 880.00000000000
  30
0.0
  40
 12.000000000000
  41
0.0
  71
7
  72
1
   1
\T1.000000;製品重量
   7
GMM001
  44
 0.79999984000003
   0
MTEXT
   5
2D9
 100
AcDbEntity
   8
LEVEL001
 370
9
  62
1
 100
AcDbMText
  10
 371.46031086575
  20
 880.00000000000
  30
0.0
  40
 12.000000000000
  41
0.0
  71
7
  72
1
   1
\T1.000000;４５ｋｇ
   7
GMM001
  44
 0.79999984000003
   0
MTEXT
   5
2DB
 100
AcDbEntity
   8
LEVEL001
 370
9
  62
1
 100
AcDbMText
  10
 239.46031086575
  20
 904.00000000000
  30
0.0
  40
 12.000000000000
  41
0.0
  71
7
  72
1
   1
\T1.000000;プレス処理時間
   7
GMM001
  44
 0.79999984000003
   0
MTEXT
   5
2DD
 100
AcDbEntity
   8
LEVEL001
 370
9
  62
1
 100
AcDbMText
  10
 371.46031086575
  20
 904.00000000000
  30
0.0
  40
 12.000000000000
  41
0.0
  71
7
  72
1
   1
\T1.000000;５０食分／７～８分
   7
GMM001
  44
 0.79999984000003
   0
MTEXT
   5
2DF
 100
AcDbEntity
   8
LEVEL001
 370
9
  62
1
 100
AcDbMText
  10
 371.46031086575
  20
 976.00000000000
  30
0.0
  40
 12.000000000000
  41
0.0
  71
7
  72
1
   1
\W1.000000;\T1.000000;０\W0.500000;\T1.000000;.\W1.000000;\T1.000000;６～１\W0.500000;\T1.000000;.\W1.000000;\T1.000000;２ｋｇ／回
   7
GMM001
  44
 0.79999984000003
   0
LWPOLYLINE
   5
2E0
 100
AcDbEntity
   8
LEVEL001
 370
30
   6
CONTINUOUS
  62
7
 100
AcDbPolyline
  90
3
  70
0
  10
 235.16258837218
  20
 143.85399069610
  10
 235.16258837218
  20
 525.85399069610
  10
 558.16258837218
  20
 525.85399069610
   0
LINE
   5
2E1
 100
AcDbEntity
   8
LEVEL001
 370
30
 100
AcDbLine
   6
CONTINUOUS
  62
7
  10
 558.16258837218
  20
 525.85399069610
  30
0.0
  11
 558.16258837218
  21
 143.85399069610
  31
0.0
   0
LWPOLYLINE
   5
2E2
 100
AcDbEntity
   8
LEVEL001
 370
30
   6
CONTINUOUS
  62
7
 100
AcDbPolyline
  90
10
  70
0
  10
 1015.6625883722
  20
 351.35399069610
  10
 1015.6625883722
  20
 304.85399069610
  10
 965.66258837218
  20
 304.85399069610
  10
 965.66258837218
  20
 129.85399069610
  10
 964.66258837218
  20
 129.85399069610
  10
 964.66258837218
  20
 143.85399069610
  10
 866.66258837218
  20
 143.85399069610
  10
 866.66258837218
  20
 525.85399069610
  10
 1015.6625883722
  20
 525.85399069610
  10
 1015.6625883722
  20
 495.85399069610
   0
LINE
   5
2E3
 100
AcDbEntity
   8
LEVEL001
 370
30
 100
AcDbLine
   6
CONTINUOUS
  62
7
  10
 977.66258832382
  20
 124.05399069624
  30
0.0
  11
 1226.6625883238
  21
 124.05399069596
  31
0.0
   0
LINE
   5
2E4
 100
AcDbEntity
   8
LEVEL001
 370
30
 100
AcDbLine
   6
CONTINUOUS
  62
7
  10
 930.66258836876
  20
 124.05399069629
  30
0.0
  11
 1273.6625883688
  21
 124.05399069591
  31
0.0
   0
LINE
   5
2E5
 100
AcDbEntity
   8
LEVEL001
 370
30
 100
AcDbLine
   6
CONTINUOUS
  62
7
  10
 930.66258836876
  20
 119.55398958965
  30
0.0
  11
 1273.6625883688
  21
 119.55398958965
  31
0.0
   0
LINE
   5
2E6
 100
AcDbEntity
   8
LEVEL001
 370
30
 100
AcDbLine
   6
CONTINUOUS
  62
7
  10
 1273.6625883688
  20
 124.05399069591
  30
0.0
  11
 1273.6625883688
  21
 119.55398958965
  31
0.0
   0
LINE
   5
2E7
 100
AcDbEntity
   8
LEVEL001
 370
30
 100
AcDbLine
   6
CONTINUOUS
  62
7
  10
 930.66258836876
  20
 119.55398958965
  30
0.0
  11
 930.66258836876
  21
 124.05399069629
  31
0.0
   0
LINE
   5
2E8
 100
AcDbEntity
   8
LEVEL001
 370
30
 100
AcDbLine
   6
CONTINUOUS
  62
7
  10
 551.66258950082
  20
 124.05399069610
  30
0.0
  11
 551.66258950082
  21
 119.55399069610
  31
0.0
   0
LINE
   5
2E9
 100
AcDbEntity
   8
LEVEL001
 370
30
 100
AcDbLine
   6
CONTINUOUS
  62
7
  10
 551.66258950082
  20
 119.55399069610
  30
0.0
  11
 241.66258726703
  21
 119.55399069610
  31
0.0
   0
LINE
   5
2EA
 100
AcDbEntity
   8
LEVEL001
 370
30
 100
AcDbLine
   6
CONTINUOUS
  62
7
  10
 241.66258726703
  20
 124.05399069610
  30
0.0
  11
 241.66258726703
  21
 119.55399069610
  31
0.0
   0
INSERT
   5
2EB
 100
AcDbEntity
   8
0
 100
AcDbBlockReference
   2
AGM
  10
0.0
  20
0.0
  30
0.0
   0
INSERT
   5
2EC
 100
AcDbEntity
   8
0
 100
AcDbBlockReference
   2
BLOCK004
  10
0.0
  20
0.0
  30
0.0
   0
INSERT
   5
2ED
 100
AcDbEntity
   8
0
 100
AcDbBlockReference
   2
BLOCK005
  10
0.0
  20
0.0
  30
0.0
   0
INSERT
   5
2EE
 100
AcDbEntity
   8
0
 100
AcDbBlockReference
   2
BLOCK006
  10
0.0
  20
0.0
  30
0.0
   0
LINE
   5
2EF
 100
AcDbEntity
   8
LEVEL001
 370
30
 100
AcDbLine
   6
CONTINUOUS
  62
7
  10
 1311.6625884205
  20
 485.35399069610
  30
0.0
  11
 1281.6625884205
  21
 485.35399069610
  31
0.0
   0
LINE
   5
2F0
 100
AcDbEntity
   8
LEVEL001
 370
30
 100
AcDbLine
   6
CONTINUOUS
  62
7
  10
 1311.6625884205
  20
 485.35399069610
  30
0.0
  11
 1311.6625884205
  21
 460.35399069610
  31
0.0
   0
LINE
   5
2F1
 100
AcDbEntity
   8
LEVEL001
 370
30
 100
AcDbLine
   6
CONTINUOUS
  62
7
  10
 1311.6625884205
  20
 460.35399069610
  30
0.0
  11
 1281.6625884205
  21
 460.35399069610
  31
0.0
   0
LWPOLYLINE
   5
2F2
 100
AcDbEntity
   8
LEVEL001
 370
30
   6
CONTINUOUS
  62
7
 100
AcDbPolyline
  90
12
  70
1
  10
 1311.6625883722
  20
 1007.0539906961
  10
 1311.6625883722
  20
 867.05399069610
  10
 1281.6625883722
  20
 867.05399069610
  10
 1281.6625883722
  20
 892.05399069610
  10
 1284.6625883722
  20
 892.05399069610
  10
 1284.6625883722
  20
 870.05399069610
  10
 1308.6625883722
  20
 870.05399069610
  10
 1308.6625883722
  20
 1004.0539906961
  10
 1284.6625883722
  20
 1004.0539906961
  10
 1284.6625883722
  20
 982.05399069610
  10
 1281.6625883722
  20
 982.05399069610
  10
 1281.6625883722
  20
 1007.0539906961
   0
MTEXT
   5
2F4
 100
AcDbEntity
   8
LEVEL001
 370
9
  62
1
 100
AcDbMText
  10
 371.46031086575
  20
 1000.0000000000
  30
0.0
  40
 12.000000000000
  41
0.0
  71
7
  72
1
   1
\T1.000000;４４５×３４０×６２０
   7
GMM001
  44
 0.79999984000003
   0
MTEXT
   5
2F6
 100
AcDbEntity
   8
LEVEL001
 370
30
  62
7
 100
AcDbMText
  10
 1622.8183461667
  20
 30.000000000000
  30
0.0
  40
 12.000000000000
  41
0.0
  71
7
  72
1
   1
\T1.000000;27
   7
GMM004
  44
 0.79999984000003
   0
MTEXT
   5
2F8
 100
AcDbEntity
   8
LEVEL001
 370
30
  62
7
 100
AcDbMText
  10
 1641.8281748713
  20
 30.000000000000
  30
0.0
  40
 12.000000000000
  41
0.0
  71
7
  72
1
   1
\T1.000000; 3
   7
GMM004
  44
 0.79999984000003
   0
MTEXT
   5
2FA
 100
AcDbEntity
   8
LEVEL001
 370
30
  62
7
 100
AcDbMText
  10
 1660.3743492173
  20
 30.000000000000
  30
0.0
  40
 12.000000000000
  41
0.0
  71
7
  72
1
   1
\T1.000000; 5
   7
GMM004
  44
 0.79999984000003
   0
POINT
   5
2FB
 100
AcDbEntity
   8
LEVEL001
 100
AcDbPoint
  62
7
  10
 920.66258837218
  20
 468.85399069610
  30
0.0
   0
POINT
   5
2FC
 100
AcDbEntity
   8
LEVEL001
 100
AcDbPoint
  62
7
  10
 920.66258837218
  20
 380.85399069610
  30
0.0
   0
LWPOLYLINE
   5
2FD
 100
AcDbEntity
   8
LEVEL001
 370
30
   6
CONTINUOUS
  62
7
 100
AcDbPolyline
  90
4
  70
1
  10
 947.66258837218
  20
 374.85399069610
  10
 893.66258837218
  20
 374.85399069610
  10
 893.66258837218
  20
 474.85399069610
  10
 947.66258837218
  20
 474.85399069610
   0
LWPOLYLINE
   5
2FE
 100
AcDbEntity
   8
LEVEL001
 370
30
   6
CONTINUOUS
  62
7
 100
AcDbPolyline
  90
4
  70
1
  10
 929.16258837218
  20
 396.85399069610
  10
 912.16258837218
  20
 396.85399069610
  10
 912.16258837218
  20
 413.85399069610
  10
 929.16258837218
  20
 413.85399069610
   0
LWPOLYLINE
   5
2FF
 100
AcDbEntity
   8
LEVEL001
 370
30
   6
CONTINUOUS
  62
7
 100
AcDbPolyline
  90
4
  70
1
  10
 929.16258837218
  20
 419.85399069610
  10
 912.16258837218
  20
 419.85399069610
  10
 912.16258837218
  20
 436.85399069610
  10
 929.16258837218
  20
 436.85399069610
   0
LWPOLYLINE
   5
300
 100
AcDbEntity
   8
LEVEL001
 370
30
   6
CONTINUOUS
  62
7
 100
AcDbPolyline
  90
6
  70
1
  10
 920.66258837218
  20
 449.35399069610
  10
 935.66258837218
  20
 444.35399069610
  10
 935.66258837218
  20
 389.35399069610
  10
 920.66258837218
  20
 384.35399069610
  10
 905.66258837218
  20
 389.35399069610
  10
 905.66258837218
  20
 444.35399069610
   0
LWPOLYLINE
   5
301
 100
AcDbEntity
   8
LEVEL001
 370
30
   6
CONTINUOUS
  62
7
 100
AcDbPolyline
  90
6
  70
1
  10
 920.66258837218
  20
 445.85399069610
  10
 932.16258837218
  20
 441.85399069610
  10
 932.16258837218
  20
 391.85399069610
  10
 920.66258837218
  20
 387.85399069610
  10
 909.16258837218
  20
 391.85399069610
  10
 909.16258837218
  20
 441.85399069610
   0
LWPOLYLINE
   5
302
 100
AcDbEntity
   8
LEVEL001
 370
30
   6
CONTINUOUS
  62
7
 100
AcDbPolyline
  90
4
  70
1
  10
 934.16258837218
  20
 454.85399069610
  10
 907.16258837218
  20
 454.85399069610
  10
 907.16258837218
  20
 466.85399069610
  10
 934.16258837218
  20
 466.85399069610
   0
LWPOLYLINE
   5
303
 100
AcDbEntity
   8
LEVEL001
 370
30
   6
CONTINUOUS
  62
7
 100
AcDbPolyline
  90
4
  70
0
  10
 556.66258837218
  20
 143.85399069610
  10
 556.66258837218
  20
 124.05399069610
  10
 236.66258837218
  20
 124.05399069610
  10
 236.66258837218
  20
 143.85399069610
   0
LINE
   5
304
 100
AcDbEntity
   8
LEVEL001
 370
30
 100
AcDbLine
   6
CONTINUOUS
  62
7
  10
 235.16258837218
  20
 143.85399069610
  30
0.0
  11
 558.16258837218
  21
 143.85399069610
  31
0.0
   0
DIMENSION
   5
305
 100
AcDbEntity
   8
LEVEL001
 370
30
   6
CONTINUOUS
  62
7
 100
AcDbDimension
   2
*D1
  10
 825.66258837218
  20
 526.05399069629
  30
0.0
  11
 822.66258837218
  21
 290.05399069629
  31
0.0
  70
128
   3
GMM001
 100
AcDbAlignedDimension
  13
 964.86258837218
  23
 54.053990696286
  33
0.0
  14
 864.66258837218
  24
 526.05399069629
  34
0.0
  50
 90.000000000000
 100
AcDbRotatedDimension
   0
DIMENSION
   5
306
 100
AcDbEntity
   8
LEVEL001
 370
30
   6
CONTINUOUS
  62
7
 100
AcDbDimension
   2
*D2
  10
 866.66258842055
  20
 719.05399069610
  30
0.0
  11
 1089.1625884205
  21
 722.05399069610
  31
0.0
  70
128
   3
GMM001
 100
AcDbAlignedDimension
  13
 1311.6625884205
  23
 509.33942758930
  33
0.0
  14
 866.66258842055
  24
 530.85399069610
  34
0.0
  50
 180.00000000000
 100
AcDbRotatedDimension
   0
DIMENSION
   5
307
 100
AcDbEntity
   8
LEVEL001
 370
30
   6
CONTINUOUS
  62
7
 100
AcDbDimension
   2
*D3
  10
 802.57562772012
  20
 674.05399069610
  30
0.0
  11
 802.57562772012
  21
 364.05399069619
  31
0.0
  70
0
   3
GMM002
 100
AcDbAlignedDimension
  13
 960.66258836876
  23
 54.053990696286
  33
0.0
  14
 946.22490131222
  24
 674.05399069610
  34
0.0
  50
 90.000000000000
 100
AcDbRotatedDimension
   0
DIMENSION
   5
308
 100
AcDbEntity
   8
LEVEL001
 370
30
   6
CONTINUOUS
  62
7
 100
AcDbDimension
   2
*D4
  10
 233.16258837218
  20
 719.05399069610
  30
0.0
  11
 403.16258837218
  21
 722.05399069610
  31
0.0
  70
128
   3
GMM001
 100
AcDbAlignedDimension
  13
 573.16258837218
  23
 436.85399069610
  33
0.0
  14
 233.16258837218
  24
 530.85399069610
  34
0.0
  50
 180.00000000000
 100
AcDbRotatedDimension
   0
DIMENSION
   5
309
 100
AcDbEntity
   8
LEVEL001
 370
30
   6
CONTINUOUS
  62
7
 100
AcDbDimension
   2
*D5
  10
 558.16258837218
  20
 694.48543689320
  30
0.0
  11
 596.66258837218
  21
 697.48543689320
  31
0.0
  70
128
   3
GMM003
 100
AcDbAlignedDimension
  13
 573.16258837218
  23
 436.85399069610
  33
0.0
  14
 558.16258837218
  24
 504.85399069610
  34
0.0
  50
 180.00000000000
 100
AcDbRotatedDimension
   0
DIMENSION
   5
30A
 100
AcDbEntity
   8
LEVEL001
 370
30
   6
CONTINUOUS
  62
7
 100
AcDbDimension
   2
*D6
  10
 233.16258837218
  20
 694.48543689320
  30
0.0
  11
 395.66258837218
  21
 697.48543689320
  31
0.0
  70
128
   3
GMM001
 100
AcDbAlignedDimension
  13
 558.16258837218
  23
 504.85399069610
  33
0.0
  14
 233.16258837218
  24
 530.85399069610
  34
0.0
  50
 180.00000000000
 100
AcDbRotatedDimension
   0
LWPOLYLINE
   5
30B
 100
AcDbEntity
   8
LEVEL001
 370
30
   6
CONTINUOUS
  62
7
 100
AcDbPolyline
  90
12
  70
1
  10
 1187.6625883722
  20
 336.73569377920
  10
 1016.6625883722
  20
 336.73569377920
  10
 1016.6625883722
  20
 351.35399069610
  10
 1015.6625883722
  20
 351.35399069610
  10
 1015.6625883722
  20
 495.85399069610
  10
 1016.6625883722
  20
 495.85399069610
  10
 1016.6625883722
  20
 496.35399069610
  10
 1187.6625883722
  20
 496.35399069610
  10
 1187.6625883722
  20
 495.85399069610
  10
 1188.6625883722
  20
 495.85399069610
  10
 1188.6625883722
  20
 351.35399069610
  10
 1187.6625883722
  20
 351.35399069610
   0
LWPOLYLINE
   5
30C
 100
AcDbEntity
   8
LEVEL001
 370
30
   6
CONTINUOUS
  62
7
 100
AcDbPolyline
  90
4
  70
0
  10
 947.66258837218
  20
 775.55399069610
  10
 947.66258837218
  20
 767.55399069610
  10
 893.66258837218
  20
 767.55399069610
  10
 893.66258837218
  20
 775.55399069610
   0
LWPOLYLINE
   5
30D
 100
AcDbEntity
   8
LEVEL001
 370
30
   6
CONTINUOUS
  62
7
 100
AcDbPolyline
  90
4
  70
0
  10
 929.16258837218
  20
 767.55399069610
  10
 929.16258837218
  20
 765.55399069610
  10
 912.16258837218
  20
 765.55399069610
  10
 912.16258837218
  20
 767.55399069610
   0
LWPOLYLINE
   5
30E
 100
AcDbEntity
   8
LEVEL001
 370
30
   6
CONTINUOUS
  62
7
 100
AcDbPolyline
  90
6
  70
0
  10
 1015.6625883722
  20
 1073.5539906961
  10
 1015.6625883722
  20
 1098.5539906961
  10
 866.66258837218
  20
 1098.5539906961
  10
 866.66258837218
  20
 775.55399069610
  10
 1015.6625883722
  20
 775.55399069610
  10
 1015.6625883722
  20
 933.55399069610
   0
INSERT
   5
30F
 100
AcDbEntity
   8
0
 100
AcDbBlockReference
   2
GMM001
  10
 1737.8183461667
  20
0.0
  30
0.0
  41
 3.0000000000000
  42
 3.0000000000000
   0
MTEXT
   5
311
 100
AcDbEntity
   8
LEVEL001
 370
9
  62
1
 100
AcDbMText
  10
 371.46031086575
  20
 952.00000000000
  30
0.0
  40
 12.000000000000
  41
0.0
  71
7
  72
1
   1
\T1.000000;単相１００Ｖ　５０／６０Ｈｚ
   7
GMM001
  44
 0.79999984000003
   0
MTEXT
   5
313
 100
AcDbEntity
   8
LEVEL001
 370
30
  62
7
 100
AcDbMText
  10
 1185.8275862069
  20
 10.482758620690
  30
0.0
  40
 12.000000000000
  41
0.0
  71
7
  72
1
   1
\W0.500000;\T1.000000;'22.03.17\W1.000000;\T1.000000;　変更　\W0.500000;\T1.000000;H.M
   7
GMM001
  44
 0.79999984000003
   0
MTEXT
   5
315
 100
AcDbEntity
   8
LEVEL001
 370
30
  62
7
 100
AcDbMText
  10
 1428.8183461667
  20
 84.000000000000
  30
0.0
  40
 12.000000000000
  41
0.0
  71
7
  72
1
   1
\T1.000000;RP-1P
   7
GMM004
  44
 0.79999984000003
   0
MTEXT
   5
317
 100
AcDbEntity
   8
LEVEL001
 370
30
  62
7
 100
AcDbMText
  10
 1629.8183461667
  20
 84.000000000000
  30
0.0
  40
 12.000000000000
  41
0.0
  71
7
  72
1
   1
\T1.000000;RP1P-C
   7
GMM004
  44
 0.79999984000003
   0
ENDSEC
  0
SECTION
  2
OBJECTS
  0
DICTIONARY
  5
C
100
AcDbDictionary
  3
ACAD_GROUP
350
D
  3
ACAD_MLINESTYLE
350
1B
  3
DWGPROPS
350
1C
  0
DICTIONARY
  5
D
102
{ACAD_REACTORS
330
C
102
}
100
AcDbDictionary
  0
DICTIONARY
  5
1B
102
{ACAD_REACTORS
330
C
102
}
100
AcDbDictionary
  3
STANDARD
350
1D
  0
MLINESTYLE
  5
1D
102
{ACAD_REACTORS
330
1B
102
}
100
AcDbMlineStyle
  2
STANDARD
 70
     0
  3

 62
   256
 51
90.0
 52
90.0
 71
     2
 49
0.5
 62
   256
  6
BYLAYER
 49
-0.5
 62
   256
  6
BYLAYER
   0
XRECORD
   5
1C
 102
{ACAD_REACTORS
 330
C
 102
}
 330
C
 100
AcDbXrecord
 280
1
   1
DWGPROPS COOKIE
   2
RP-1P
   3
 
   4
 
   6
 
   7
RP1P-C
   8
 
   9

 300
 = 
 301
 = 
 302
 = 
 303
 = 
 304
 = 
 305
 = 
 306
 = 
 307
 = 
 308
 = 
 309
 = 
  40
0.0
  41
 2454426.5000000
  42
 2459656.5000000
   1

  90
10
   0
ENDSEC
   0
EOF
