  0
SECTION
  2
HEADER
  9
$ACADVER
  1
AC1015
  9
$ACADMAINTVER
 70
    20
  9
$DWGCODEPAGE
  3
ANSI_932
  9
$INSBASE
 10
0.0
 20
0.0
 30
0.0
  9
$EXTMIN
 10
0.0000000000000853
 20
0.0
 30
0.0
  9
$EXTMAX
 10
3264.0
 20
2268.0
 30
0.0
  9
$LIMMIN
 10
0.0
 20
0.0
  9
$LIMMAX
 10
3564.0
 20
2520.0
  9
$ORTHOMODE
 70
     0
  9
$REGENMODE
 70
     1
  9
$FILLMODE
 70
     1
  9
$QTEXTMODE
 70
     0
  9
$MIRRTEXT
 70
     1
  9
$LTSCALE
 40
71.28
  9
$ATTMODE
 70
     1
  9
$TEXTSIZE
 40
0.2
  9
$TRACEWID
 40
0.05
  9
$TEXTSTYLE
  7
STANDARD
  9
$CLAYER
  8
0
  9
$CELTYPE
  6
CONTINUOUS
  9
$CECOLOR
 62
   256
  9
$CELTSCALE
 40
1.0
  9
$DISPSILH
 70
     0
  9
$DIMSCALE
 40
1.0
  9
$DIMASZ
 40
0.18
  9
$DIMEXO
 40
0.0625
  9
$DIMDLI
 40
0.38
  9
$DIMRND
 40
0.0
  9
$DIMDLE
 40
0.0
  9
$DIMEXE
 40
0.18
  9
$DIMTP
 40
0.0
  9
$DIMTM
 40
0.0
  9
$DIMTXT
 40
0.18
  9
$DIMCEN
 40
0.09
  9
$DIMTSZ
 40
0.0
  9
$DIMTOL
 70
     0
  9
$DIMLIM
 70
     0
  9
$DIMTIH
 70
     1
  9
$DIMTOH
 70
     1
  9
$DIMSE1
 70
     0
  9
$DIMSE2
 70
     0
  9
$DIMTAD
 70
     0
  9
$DIMZIN
 70
     0
  9
$DIMBLK
  1

  9
$DIMASO
 70
     1
  9
$DIMSHO
 70
     1
  9
$DIMPOST
  1

  9
$DIMAPOST
  1

  9
$DIMALT
 70
     0
  9
$DIMALTD
 70
     2
  9
$DIMALTF
 40
25.4
  9
$DIMLFAC
 40
1.0
  9
$DIMTOFL
 70
     0
  9
$DIMTVP
 40
0.0
  9
$DIMTIX
 70
     0
  9
$DIMSOXD
 70
     0
  9
$DIMSAH
 70
     0
  9
$DIMBLK1
  1

  9
$DIMBLK2
  1

  9
$DIMSTYLE
  2
STANDARD
  9
$DIMCLRD
 70
     0
  9
$DIMCLRE
 70
     0
  9
$DIMCLRT
 70
     0
  9
$DIMTFAC
 40
1.0
  9
$DIMGAP
 40
0.09
  9
$DIMJUST
 70
     0
  9
$DIMSD1
 70
     0
  9
$DIMSD2
 70
     0
  9
$DIMTOLJ
 70
     1
  9
$DIMTZIN
 70
     0
  9
$DIMALTZ
 70
     0
  9
$DIMALTTZ
 70
     0
  9
$DIMUPT
 70
     0
  9
$DIMDEC
 70
     4
  9
$DIMTDEC
 70
     4
  9
$DIMALTU
 70
     2
  9
$DIMALTTD
 70
     2
  9
$DIMTXSTY
  7
STANDARD
  9
$DIMAUNIT
 70
     0
  9
$DIMADEC
 70
     0
  9
$DIMALTRND
 40
0.0
  9
$DIMAZIN
 70
     0
  9
$DIMDSEP
 70
    46
  9
$DIMATFIT
 70
     3
  9
$DIMFRAC
 70
     0
  9
$DIMLDRBLK
  1

  9
$DIMLUNIT
 70
     2
  9
$DIMLWD
 70
    -2
  9
$DIMLWE
 70
    -2
  9
$DIMTMOVE
 70
     0
  9
$LUNITS
 70
     2
  9
$LUPREC
 70
     4
  9
$SKETCHINC
 40
0.1
  9
$FILLETRAD
 40
0.0
  9
$AUNITS
 70
     0
  9
$AUPREC
 70
     0
  9
$MENU
  1
.
  9
$ELEVATION
 40
0.0
  9
$PELEVATION
 40
0.0
  9
$THICKNESS
 40
0.0
  9
$LIMCHECK
 70
     0
  9
$CHAMFERA
 40
0.0
  9
$CHAMFERB
 40
0.0
  9
$CHAMFERC
 40
0.0
  9
$CHAMFERD
 40
0.0
  9
$SKPOLY
 70
     0
  9
$TDCREATE
 40
2451212.682759178
  9
$TDUCREATE
 40
2451212.307759178
  9
$TDUPDATE
 40
2455485.672924803
  9
$TDUUPDATE
 40
2455485.297924803
  9
$TDINDWG
 40
0.0002557870
  9
$TDUSRTIMER
 40
0.0002557870
  9
$USRTIMER
 70
     1
  9
$ANGBASE
 50
0.0
  9
$ANGDIR
 70
     0
  9
$PDMODE
 70
     0
  9
$PDSIZE
 40
0.0
  9
$PLINEWID
 40
0.0
  9
$SPLFRAME
 70
     0
  9
$SPLINETYPE
 70
     6
  9
$SPLINESEGS
 70
     8
  9
$HANDSEED
  5
2FC
  9
$SURFTAB1
 70
     6
  9
$SURFTAB2
 70
     6
  9
$SURFTYPE
 70
     6
  9
$SURFU
 70
     6
  9
$SURFV
 70
     6
  9
$UCSBASE
  2

  9
$UCSNAME
  2

  9
$UCSORG
 10
0.0
 20
0.0
 30
0.0
  9
$UCSXDIR
 10
1.0
 20
0.0
 30
0.0
  9
$UCSYDIR
 10
0.0
 20
1.0
 30
0.0
  9
$UCSORTHOREF
  2

  9
$UCSORTHOVIEW
 70
     0
  9
$UCSORGTOP
 10
0.0
 20
0.0
 30
0.0
  9
$UCSORGBOTTOM
 10
0.0
 20
0.0
 30
0.0
  9
$UCSORGLEFT
 10
0.0
 20
0.0
 30
0.0
  9
$UCSORGRIGHT
 10
0.0
 20
0.0
 30
0.0
  9
$UCSORGFRONT
 10
0.0
 20
0.0
 30
0.0
  9
$UCSORGBACK
 10
0.0
 20
0.0
 30
0.0
  9
$PUCSBASE
  2

  9
$PUCSNAME
  2

  9
$PUCSORG
 10
0.0
 20
0.0
 30
0.0
  9
$PUCSXDIR
 10
1.0
 20
0.0
 30
0.0
  9
$PUCSYDIR
 10
0.0
 20
1.0
 30
0.0
  9
$PUCSORTHOREF
  2

  9
$PUCSORTHOVIEW
 70
     0
  9
$PUCSORGTOP
 10
0.0
 20
0.0
 30
0.0
  9
$PUCSORGBOTTOM
 10
0.0
 20
0.0
 30
0.0
  9
$PUCSORGLEFT
 10
0.0
 20
0.0
 30
0.0
  9
$PUCSORGRIGHT
 10
0.0
 20
0.0
 30
0.0
  9
$PUCSORGFRONT
 10
0.0
 20
0.0
 30
0.0
  9
$PUCSORGBACK
 10
0.0
 20
0.0
 30
0.0
  9
$USERI1
 70
     0
  9
$USERI2
 70
     0
  9
$USERI3
 70
     0
  9
$USERI4
 70
     0
  9
$USERI5
 70
     0
  9
$USERR1
 40
0.0
  9
$USERR2
 40
0.0
  9
$USERR3
 40
0.0
  9
$USERR4
 40
0.0
  9
$USERR5
 40
0.0
  9
$WORLDVIEW
 70
     1
  9
$SHADEDGE
 70
     3
  9
$SHADEDIF
 70
    70
  9
$TILEMODE
 70
     1
  9
$MAXACTVP
 70
    16
  9
$PINSBASE
 10
0.0
 20
0.0
 30
0.0
  9
$PLIMCHECK
 70
     0
  9
$PEXTMIN
 10
1.000000000000000E+20
 20
1.000000000000000E+20
 30
1.000000000000000E+20
  9
$PEXTMAX
 10
-1.000000000000000E+20
 20
-1.000000000000000E+20
 30
-1.000000000000000E+20
  9
$PLIMMIN
 10
0.0
 20
0.0
  9
$PLIMMAX
 10
12.0
 20
9.0
  9
$UNITMODE
 70
     0
  9
$VISRETAIN
 70
     1
  9
$PLINEGEN
 70
     0
  9
$PSLTSCALE
 70
     1
  9
$TREEDEPTH
 70
  3020
  9
$CMLSTYLE
  2
STANDARD
  9
$CMLJUST
 70
     0
  9
$CMLSCALE
 40
1.0
  9
$PROXYGRAPHICS
 70
     1
  9
$MEASUREMENT
 70
     0
  9
$CELWEIGHT
370
    -1
  9
$ENDCAPS
280
     0
  9
$JOINSTYLE
280
     0
  9
$LWDISPLAY
290
     0
  9
$INSUNITS
 70
     0
  9
$HYPERLINKBASE
  1

  9
$STYLESHEET
  1

  9
$XEDIT
290
     1
  9
$CEPSNTYPE
380
     0
  9
$PSTYLEMODE
290
     1
  9
$FINGERPRINTGUID
  2
{19B9534A-EADA-4910-8886-FF5A906F491E}
  9
$VERSIONGUID
  2
{274101D7-8385-4FC7-B1E6-E40A1FD9C971}
  9
$EXTNAMES
290
     1
  9
$PSVPSCALE
 40
0.0
  9
$OLESTARTUP
290
     0
  0
ENDSEC
  0
SECTION
  2
CLASSES
  0
CLASS
  1
ACDBDICTIONARYWDFLT
  2
AcDbDictionaryWithDefault
  3
ObjectDBX Classes
 90
        0
280
     0
281
     0
  0
CLASS
  1
TABLESTYLE
  2
AcDbTableStyle
  3
ObjectDBX Classes
 90
     2047
280
     0
281
     0
  0
CLASS
  1
DICTIONARYVAR
  2
AcDbDictionaryVar
  3
ObjectDBX Classes
 90
        0
280
     0
281
     0
  0
CLASS
  1
ACDBPLACEHOLDER
  2
AcDbPlaceHolder
  3
ObjectDBX Classes
 90
        0
280
     0
281
     0
  0
CLASS
  1
LAYOUT
  2
AcDbLayout
  3
ObjectDBX Classes
 90
        0
280
     0
281
     0
  0
ENDSEC
  0
SECTION
  2
TABLES
  0
TABLE
  2
VPORT
  5
1
330
0
100
AcDbSymbolTable
 70
     2
  0
VPORT
  5
2F6
330
1
100
AcDbSymbolTableRecord
100
AcDbViewportTableRecord
  2
*Active
 70
     0
 10
0.0
 20
0.0
 11
1.0
 21
1.0
 12
2987.428158844728
 22
1260.0
 13
0.0
 23
0.0
 14
1.0
 24
1.0
 15
0.0
 25
0.0
 16
0.0
 26
0.0
 36
1.0
 17
0.0
 27
0.0
 37
0.0
 40
3564.0
 41
2.155234657039711
 42
50.0
 43
0.0
 44
0.0
 50
0.0
 51
0.0
 71
     0
 72
   100
 73
     1
 74
     1
 75
     0
 76
     0
 77
     0
 78
     0
281
     0
 65
     1
110
0.0
120
0.0
130
0.0
111
1.0
121
0.0
131
0.0
112
0.0
122
1.0
132
0.0
 79
     0
146
0.0
  0
ENDTAB
  0
TABLE
  2
LTYPE
  5
A2
330
0
100
AcDbSymbolTable
 70
    25
  0
LTYPE
  5
2E
330
A2
100
AcDbSymbolTableRecord
100
AcDbLinetypeTableRecord
  2
BYBLOCK
 70
     0
  3

 72
    65
 73
     0
 40
0.0
  0
LTYPE
  5
2F
330
A2
100
AcDbSymbolTableRecord
100
AcDbLinetypeTableRecord
  2
BYLAYER
 70
     0
  3

 72
    65
 73
     0
 40
0.0
  0
LTYPE
  5
30
330
A2
100
AcDbSymbolTableRecord
100
AcDbLinetypeTableRecord
  2
CONTINUOUS
 70
     0
  3
Solid line
 72
    65
 73
     0
 40
0.0
  0
LTYPE
  5
31
330
A2
100
AcDbSymbolTableRecord
100
AcDbLinetypeTableRecord
  2
BORDER
 70
     0
  3
__ __ . __ __ . __ __ . __ __ . __ __ . __ __ .
 72
    65
 73
     6
 40
1.75
 49
0.5
 74
     0
 49
-0.25
 74
     0
 49
0.5
 74
     0
 49
-0.25
 74
     0
 49
0.0
 74
     0
 49
-0.25
 74
     0
  0
LTYPE
  5
32
330
A2
100
AcDbSymbolTableRecord
100
AcDbLinetypeTableRecord
  2
BORDER2
 70
     0
  3
__.__.__.__.__.__.__.__.__.__.__.__.__.__.__.__
 72
    65
 73
     6
 40
0.875
 49
0.25
 74
     0
 49
-0.125
 74
     0
 49
0.25
 74
     0
 49
-0.125
 74
     0
 49
0.0
 74
     0
 49
-0.125
 74
     0
  0
LTYPE
  5
33
330
A2
100
AcDbSymbolTableRecord
100
AcDbLinetypeTableRecord
  2
BORDERX2
 70
     0
  3
____  ____  .  ____  ____  .  ____  ____  .  __
 72
    65
 73
     6
 40
3.5
 49
1.0
 74
     0
 49
-0.5
 74
     0
 49
1.0
 74
     0
 49
-0.5
 74
     0
 49
0.0
 74
     0
 49
-0.5
 74
     0
  0
LTYPE
  5
34
330
A2
100
AcDbSymbolTableRecord
100
AcDbLinetypeTableRecord
  2
CENTER
 70
     0
  3
____ _ ____ _ ____ _ ____ _ ____ _ ____ _ ____ 
 72
    65
 73
     4
 40
2.0
 49
1.25
 74
     0
 49
-0.25
 74
     0
 49
0.25
 74
     0
 49
-0.25
 74
     0
  0
LTYPE
  5
35
330
A2
100
AcDbSymbolTableRecord
100
AcDbLinetypeTableRecord
  2
CENTER2
 70
     0
  3
___ _ ___ _ ___ _ ___ _ ___ _ ___ _ ___ _ ___ _
 72
    65
 73
     4
 40
1.125
 49
0.75
 74
     0
 49
-0.125
 74
     0
 49
0.125
 74
     0
 49
-0.125
 74
     0
  0
LTYPE
  5
36
330
A2
100
AcDbSymbolTableRecord
100
AcDbLinetypeTableRecord
  2
CENTERX2
 70
     0
  3
________  __  ________  __  ________  __  _____
 72
    65
 73
     4
 40
4.0
 49
2.5
 74
     0
 49
-0.5
 74
     0
 49
0.5
 74
     0
 49
-0.5
 74
     0
  0
LTYPE
  5
37
330
A2
100
AcDbSymbolTableRecord
100
AcDbLinetypeTableRecord
  2
DASHDOT
 70
     0
  3
__ . __ . __ . __ . __ . __ . __ . __ . __ . __
 72
    65
 73
     4
 40
1.0
 49
0.5
 74
     0
 49
-0.25
 74
     0
 49
0.0
 74
     0
 49
-0.25
 74
     0
  0
LTYPE
  5
38
330
A2
100
AcDbSymbolTableRecord
100
AcDbLinetypeTableRecord
  2
DASHDOT2
 70
     0
  3
_._._._._._._._._._._._._._._._._._._._._._._._
 72
    65
 73
     4
 40
0.5
 49
0.25
 74
     0
 49
-0.125
 74
     0
 49
0.0
 74
     0
 49
-0.125
 74
     0
  0
LTYPE
  5
39
330
A2
100
AcDbSymbolTableRecord
100
AcDbLinetypeTableRecord
  2
DASHDOTX2
 70
     0
  3
____  .  ____  .  ____  .  ____  .  ____  .  __
 72
    65
 73
     4
 40
2.0
 49
1.0
 74
     0
 49
-0.5
 74
     0
 49
0.0
 74
     0
 49
-0.5
 74
     0
  0
LTYPE
  5
3A
330
A2
100
AcDbSymbolTableRecord
100
AcDbLinetypeTableRecord
  2
DASHED
 70
     0
  3
__ __ __ __ __ __ __ __ __ __ __ __ __ __ __ __
 72
    65
 73
     2
 40
0.75
 49
0.5
 74
     0
 49
-0.25
 74
     0
  0
LTYPE
  5
3B
330
A2
100
AcDbSymbolTableRecord
100
AcDbLinetypeTableRecord
  2
DASHED2
 70
     0
  3
_ _ _ _ _ _ _ _ _ _ _ _ _ _ _ _ _ _ _ _ _ _ _ _
 72
    65
 73
     2
 40
0.375
 49
0.25
 74
     0
 49
-0.125
 74
     0
  0
LTYPE
  5
3C
330
A2
100
AcDbSymbolTableRecord
100
AcDbLinetypeTableRecord
  2
DASHEDX2
 70
     0
  3
____  ____  ____  ____  ____  ____  ____  ____ 
 72
    65
 73
     2
 40
1.5
 49
1.0
 74
     0
 49
-0.5
 74
     0
  0
LTYPE
  5
3D
330
A2
100
AcDbSymbolTableRecord
100
AcDbLinetypeTableRecord
  2
DIVIDE
 70
     0
  3
____ . . ____ . . ____ . . ____ . . ____ . . __
 72
    65
 73
     6
 40
1.25
 49
0.5
 74
     0
 49
-0.25
 74
     0
 49
0.0
 74
     0
 49
-0.25
 74
     0
 49
0.0
 74
     0
 49
-0.25
 74
     0
  0
LTYPE
  5
3E
330
A2
100
AcDbSymbolTableRecord
100
AcDbLinetypeTableRecord
  2
DIVIDE2
 70
     0
  3
__..__..__..__..__..__..__..__..__..__..__..__.
 72
    65
 73
     6
 40
0.625
 49
0.25
 74
     0
 49
-0.125
 74
     0
 49
0.0
 74
     0
 49
-0.125
 74
     0
 49
0.0
 74
     0
 49
-0.125
 74
     0
  0
LTYPE
  5
3F
330
A2
100
AcDbSymbolTableRecord
100
AcDbLinetypeTableRecord
  2
DIVIDEX2
 70
     0
  3
________  .  .  ________  .  .  ________  .  . 
 72
    65
 73
     6
 40
2.5
 49
1.0
 74
     0
 49
-0.5
 74
     0
 49
0.0
 74
     0
 49
-0.5
 74
     0
 49
0.0
 74
     0
 49
-0.5
 74
     0
  0
LTYPE
  5
40
330
A2
100
AcDbSymbolTableRecord
100
AcDbLinetypeTableRecord
  2
DOT
 70
     0
  3
. . . . . . . . . . . . . . . . . . . . . . . .
 72
    65
 73
     2
 40
0.25
 49
0.0
 74
     0
 49
-0.25
 74
     0
  0
LTYPE
  5
41
330
A2
100
AcDbSymbolTableRecord
100
AcDbLinetypeTableRecord
  2
DOT2
 70
     0
  3
...............................................
 72
    65
 73
     2
 40
0.125
 49
0.0
 74
     0
 49
-0.125
 74
     0
  0
LTYPE
  5
42
330
A2
100
AcDbSymbolTableRecord
100
AcDbLinetypeTableRecord
  2
DOTX2
 70
     0
  3
.  .  .  .  .  .  .  .  .  .  .  .  .  .  .  . 
 72
    65
 73
     2
 40
0.5
 49
0.0
 74
     0
 49
-0.5
 74
     0
  0
LTYPE
  5
43
330
A2
100
AcDbSymbolTableRecord
100
AcDbLinetypeTableRecord
  2
HIDDEN
 70
     0
  3
__ __ __ __ __ __ __ __ __ __ __ __ __ __ __ __
 72
    65
 73
     2
 40
0.375
 49
0.25
 74
     0
 49
-0.125
 74
     0
  0
LTYPE
  5
44
330
A2
100
AcDbSymbolTableRecord
100
AcDbLinetypeTableRecord
  2
HIDDEN2
 70
     0
  3
_ _ _ _ _ _ _ _ _ _ _ _ _ _ _ _ _ _ _ _ _ _ _ _
 72
    65
 73
     2
 40
0.1875
 49
0.125
 74
     0
 49
-0.0625
 74
     0
  0
LTYPE
  5
45
330
A2
100
AcDbSymbolTableRecord
100
AcDbLinetypeTableRecord
  2
HIDDENX2
 70
     0
  3
____ ____ ____ ____ ____ ____ ____ ____ ____ __
 72
    65
 73
     2
 40
0.75
 49
0.5
 74
     0
 49
-0.25
 74
     0
  0
LTYPE
  5
46
330
A2
100
AcDbSymbolTableRecord
100
AcDbLinetypeTableRecord
  2
PHANTOM
 70
     0
  3
______  __  __  ______  __  __  ______  __  __ 
 72
    65
 73
     6
 40
2.5
 49
1.25
 74
     0
 49
-0.25
 74
     0
 49
0.25
 74
     0
 49
-0.25
 74
     0
 49
0.25
 74
     0
 49
-0.25
 74
     0
  0
LTYPE
  5
47
330
A2
100
AcDbSymbolTableRecord
100
AcDbLinetypeTableRecord
  2
PHANTOM2
 70
     0
  3
___ _ _ ___ _ _ ___ _ _ ___ _ _ ___ _ _ ___ _ _
 72
    65
 73
     6
 40
1.25
 49
0.625
 74
     0
 49
-0.125
 74
     0
 49
0.125
 74
     0
 49
-0.125
 74
     0
 49
0.125
 74
     0
 49
-0.125
 74
     0
  0
LTYPE
  5
48
330
A2
100
AcDbSymbolTableRecord
100
AcDbLinetypeTableRecord
  2
PHANTOMX2
 70
     0
  3
____________    ____    ____    ____________   
 72
    65
 73
     6
 40
5.0
 49
2.5
 74
     0
 49
-0.5
 74
     0
 49
0.5
 74
     0
 49
-0.5
 74
     0
 49
0.5
 74
     0
 49
-0.5
 74
     0
  0
ENDTAB
  0
TABLE
  2
LAYER
  5
A1
330
0
100
AcDbSymbolTable
 70
     5
  0
LAYER
  5
49
330
A1
100
AcDbSymbolTableRecord
100
AcDbLayerTableRecord
  2
0
 70
     0
 62
     7
  6
CONTINUOUS
370
    -3
390
2E6
  0
LAYER
  5
4A
330
A1
100
AcDbSymbolTableRecord
100
AcDbLayerTableRecord
  2
LEVEL001
 70
     0
 62
     7
  6
CONTINUOUS
370
    -3
390
2E6
  0
LAYER
  5
4B
330
A1
100
AcDbSymbolTableRecord
100
AcDbLayerTableRecord
  2
内図枠(作図領域)
 70
     0
 62
     7
  6
CONTINUOUS
370
    -3
390
2E6
  0
LAYER
  5
4C
330
A1
100
AcDbSymbolTableRecord
100
AcDbLayerTableRecord
  2
外図枠(出力紙領域)
 70
     0
 62
     7
  6
CONTINUOUS
370
    -3
390
2E6
  0
LAYER
  5
4D
330
A1
100
AcDbSymbolTableRecord
100
AcDbLayerTableRecord
  2
部品表金額表示用
 70
     0
 62
     7
  6
CONTINUOUS
370
    -3
390
2E6
  0
ENDTAB
  0
TABLE
  2
STYLE
  5
6
330
0
100
AcDbSymbolTable
 70
     3
  0
STYLE
  5
7
330
6
100
AcDbSymbolTableRecord
100
AcDbTextStyleTableRecord
  2
STANDARD
 70
     0
 40
0.0
 41
1.0
 50
0.0
 71
     0
 42
0.2
  3
TXT
  4
BIGFONT
  0
STYLE
  5
8
330
6
100
AcDbSymbolTableRecord
100
AcDbTextStyleTableRecord
  2
STANDARD1
 70
     4
 40
0.0
 41
1.0
 50
0.0
 71
     0
 42
0.2
  3
TXT
  4
BIGFONT
  0
STYLE
  5
9
330
6
100
AcDbSymbolTableRecord
100
AcDbTextStyleTableRecord
  2
GMM001
 70
     0
 40
0.0
 41
1.0
 50
0.0
 71
     0
 42
1.0
  3
txt.shx
  4
bigfont.shx
  0
ENDTAB
  0
TABLE
  2
VIEW
  5
2
330
0
100
AcDbSymbolTable
 70
     0
  0
ENDTAB
  0
TABLE
  2
UCS
  5
3
330
0
100
AcDbSymbolTable
 70
     0
  0
ENDTAB
  0
TABLE
  2
APPID
  5
4
330
0
100
AcDbSymbolTable
 70
     1
  0
APPID
  5
5
330
4
100
AcDbSymbolTableRecord
100
AcDbRegAppTableRecord
  2
ACAD
 70
     0
  0
ENDTAB
  0
TABLE
  2
DIMSTYLE
  5
A0
330
0
100
AcDbSymbolTable
 70
     8
100
AcDbDimStyleTable
 71
     0
  0
DIMSTYLE
105
4E
330
A0
100
AcDbSymbolTableRecord
100
AcDbDimStyleTableRecord
  2
STANDARD
 70
     0
340
7
  0
DIMSTYLE
105
4F
102
{ACAD_REACTORS
330
1B0
102
}
330
A0
100
AcDbSymbolTableRecord
100
AcDbDimStyleTableRecord
  2
GMM001
 70
     0
  3
R<>
 41
18.0
 42
0.0
 43
48.0
 44
12.0
 46
22.5
 73
     0
 74
     0
 75
     1
 76
     1
 77
     1
 78
     8
140
36.0
141
6.0
143
0.0394
146
0.625
147
15.428571428571
172
     1
173
     1
176
     1
177
     1
178
     7
271
     6
272
     0
340
9
341
25
343
25
344
1D
  0
DIMSTYLE
105
50
102
{ACAD_REACTORS
330
1B1
102
}
330
A0
100
AcDbSymbolTableRecord
100
AcDbDimStyleTableRecord
  2
GMM002
 70
     0
 41
18.0
 42
0.0
 43
48.0
 44
12.0
 46
22.5
 73
     0
 74
     0
 76
     1
 77
     1
 78
     8
140
36.0
141
6.0
143
0.0394
146
0.625
147
15.428571428571
172
     1
173
     1
176
     1
177
     1
178
     7
271
     6
272
     0
340
9
341
1D
343
1D
344
1D
  0
DIMSTYLE
105
51
102
{ACAD_REACTORS
330
1B2
330
2C2
330
2C3
330
2C8
102
}
330
A0
100
AcDbSymbolTableRecord
100
AcDbDimStyleTableRecord
  2
GMM003
 70
     0
 41
18.0
 42
0.0
 43
48.0
 44
12.0
 46
22.5
 73
     0
 74
     0
 77
     1
 78
     8
140
36.0
141
6.0
143
0.0394
146
0.625
147
15.428571428571
172
     1
173
     1
176
     1
177
     1
178
     7
271
     6
272
     0
340
9
341
1D
343
1D
344
1D
  0
DIMSTYLE
105
52
102
{ACAD_REACTORS
330
2C4
102
}
330
A0
100
AcDbSymbolTableRecord
100
AcDbDimStyleTableRecord
  2
GMM004
 70
     0
 41
18.0
 42
0.0
 43
48.0
 44
12.0
 46
22.5
 73
     0
 74
     0
 77
     1
 78
     8
140
36.0
141
6.0
143
0.0394
146
0.625
147
10.285714285714
172
     1
173
     1
176
     1
177
     1
178
     7
271
     6
272
     0
288
     1
340
9
341
1D
343
1D
344
1D
  0
DIMSTYLE
105
53
102
{ACAD_REACTORS
330
2C5
102
}
330
A0
100
AcDbSymbolTableRecord
100
AcDbDimStyleTableRecord
  2
GMM005
 70
     0
 41
18.0
 42
0.0
 43
48.0
 44
12.0
 46
22.5
 73
     0
 74
     0
 77
     1
 78
     8
140
36.0
141
6.0
143
0.0394
146
0.625
147
15.428571428571
172
     1
173
     1
176
     1
177
     1
178
     7
271
     6
272
     0
288
     1
340
9
341
1D
343
1D
344
1D
  0
DIMSTYLE
105
54
102
{ACAD_REACTORS
330
2C6
102
}
330
A0
100
AcDbSymbolTableRecord
100
AcDbDimStyleTableRecord
  2
GMM006
 70
     0
 41
18.0
 42
0.0
 43
48.0
 44
12.0
 46
22.5
 73
     0
 74
     0
 77
     1
 78
     8
140
36.0
141
6.0
143
0.0394
146
0.625
147
15.428571428571
172
     1
173
     1
176
     1
177
     1
178
     7
271
     6
272
     0
288
     1
340
9
341
1D
343
1D
344
1D
  0
DIMSTYLE
105
55
102
{ACAD_REACTORS
330
2C7
102
}
330
A0
100
AcDbSymbolTableRecord
100
AcDbDimStyleTableRecord
  2
GMM007
 70
     0
 41
18.0
 42
0.0
 43
48.0
 44
12.0
 46
22.5
 73
     0
 74
     0
 77
     1
 78
     8
140
36.0
141
6.0
143
0.0394
146
0.625
147
15.428571428571
172
     1
173
     1
176
     1
177
     1
178
     7
271
     6
272
     0
288
     1
340
9
341
1D
343
1D
344
1D
  0
ENDTAB
  0
TABLE
  2
BLOCK_RECORD
  5
A
330
0
100
AcDbSymbolTable
 70
    33
  0
BLOCK_RECORD
  5
B
330
A
100
AcDbSymbolTableRecord
100
AcDbBlockTableRecord
  2
*MODEL_SPACE
340
2ED
  0
BLOCK_RECORD
  5
C
330
A
100
AcDbSymbolTableRecord
100
AcDbBlockTableRecord
  2
*PAPER_SPACE
340
2EE
  0
BLOCK_RECORD
  5
D
330
A
100
AcDbSymbolTableRecord
100
AcDbBlockTableRecord
  2
*D0
340
0
  0
BLOCK_RECORD
  5
E
330
A
100
AcDbSymbolTableRecord
100
AcDbBlockTableRecord
  2
*D1
340
0
  0
BLOCK_RECORD
  5
F
330
A
100
AcDbSymbolTableRecord
100
AcDbBlockTableRecord
  2
*D2
340
0
  0
BLOCK_RECORD
  5
10
330
A
100
AcDbSymbolTableRecord
100
AcDbBlockTableRecord
  2
*D3
340
0
  0
BLOCK_RECORD
  5
11
330
A
100
AcDbSymbolTableRecord
100
AcDbBlockTableRecord
  2
*D4
340
0
  0
BLOCK_RECORD
  5
12
330
A
100
AcDbSymbolTableRecord
100
AcDbBlockTableRecord
  2
*D5
340
0
  0
BLOCK_RECORD
  5
13
330
A
100
AcDbSymbolTableRecord
100
AcDbBlockTableRecord
  2
*D6
340
0
  0
BLOCK_RECORD
  5
14
330
A
100
AcDbSymbolTableRecord
100
AcDbBlockTableRecord
  2
*D7
340
0
  0
BLOCK_RECORD
  5
15
330
A
100
AcDbSymbolTableRecord
100
AcDbBlockTableRecord
  2
*D8
340
0
  0
BLOCK_RECORD
  5
16
330
A
100
AcDbSymbolTableRecord
100
AcDbBlockTableRecord
  2
*D9
340
0
  0
BLOCK_RECORD
  5
17
330
A
100
AcDbSymbolTableRecord
100
AcDbBlockTableRecord
  2
_ARCHTICK
340
0
  0
BLOCK_RECORD
  5
18
330
A
100
AcDbSymbolTableRecord
100
AcDbBlockTableRecord
  2
_OBLIQUE
340
0
  0
BLOCK_RECORD
  5
19
330
A
100
AcDbSymbolTableRecord
100
AcDbBlockTableRecord
  2
_BOXBLANK
340
0
  0
BLOCK_RECORD
  5
1A
330
A
100
AcDbSymbolTableRecord
100
AcDbBlockTableRecord
  2
_BOXFILLED
340
0
  0
BLOCK_RECORD
  5
1B
330
A
100
AcDbSymbolTableRecord
100
AcDbBlockTableRecord
  2
_CLOSED
340
0
  0
BLOCK_RECORD
  5
1C
330
A
100
AcDbSymbolTableRecord
100
AcDbBlockTableRecord
  2
_OPEN
340
0
  0
BLOCK_RECORD
  5
1D
330
A
100
AcDbSymbolTableRecord
100
AcDbBlockTableRecord
  2
_OPEN30
340
0
102
{BLKREFS
331
B0
331
B5
331
B6
331
BB
331
BC
331
C1
331
C2
331
C7
331
C8
331
CE
331
CF
331
D6
331
D7
331
DC
331
DD
331
E2
331
E3
331
E8
331
E9
102
}
  0
BLOCK_RECORD
  5
1E
330
A
100
AcDbSymbolTableRecord
100
AcDbBlockTableRecord
  2
_OPEN90
340
0
  0
BLOCK_RECORD
  5
1F
330
A
100
AcDbSymbolTableRecord
100
AcDbBlockTableRecord
  2
_CLOSEDBLANK
340
0
  0
BLOCK_RECORD
  5
20
330
A
100
AcDbSymbolTableRecord
100
AcDbBlockTableRecord
  2
_DOT
340
0
  0
BLOCK_RECORD
  5
21
330
A
100
AcDbSymbolTableRecord
100
AcDbBlockTableRecord
  2
_DOTSMALL
340
0
  0
BLOCK_RECORD
  5
22
330
A
100
AcDbSymbolTableRecord
100
AcDbBlockTableRecord
  2
_DATUMBLANK
340
0
  0
BLOCK_RECORD
  5
23
330
A
100
AcDbSymbolTableRecord
100
AcDbBlockTableRecord
  2
_DATUMFILLED
340
0
  0
BLOCK_RECORD
  5
24
330
A
100
AcDbSymbolTableRecord
100
AcDbBlockTableRecord
  2
_ORIGIN
340
0
  0
BLOCK_RECORD
  5
25
330
A
100
AcDbSymbolTableRecord
100
AcDbBlockTableRecord
  2
_NONE
340
0
  0
BLOCK_RECORD
  5
26
330
A
100
AcDbSymbolTableRecord
100
AcDbBlockTableRecord
  2
_DOTBLANK
340
0
  0
BLOCK_RECORD
  5
27
330
A
100
AcDbSymbolTableRecord
100
AcDbBlockTableRecord
  2
_INTEGRAL
340
0
  0
BLOCK_RECORD
  5
28
330
A
100
AcDbSymbolTableRecord
100
AcDbBlockTableRecord
  2
A2
340
0
102
{BLKREFS
331
148
102
}
  0
BLOCK_RECORD
  5
29
330
A
100
AcDbSymbolTableRecord
100
AcDbBlockTableRecord
  2
BLOCK001
340
0
102
{BLKREFS
331
149
102
}
  0
BLOCK_RECORD
  5
2A
330
A
100
AcDbSymbolTableRecord
100
AcDbBlockTableRecord
  2
BLOCK002
340
0
102
{BLKREFS
331
14A
102
}
  0
BLOCK_RECORD
  5
2B
330
A
100
AcDbSymbolTableRecord
100
AcDbBlockTableRecord
  2
BLOCK003
340
0
102
{BLKREFS
331
14B
102
}
  0
BLOCK_RECORD
  5
2C
330
A
100
AcDbSymbolTableRecord
100
AcDbBlockTableRecord
  2
EGF11M16
340
0
102
{BLKREFS
331
16B
331
16F
331
25B
331
2A1
102
}
  0
BLOCK_RECORD
  5
2D
330
A
100
AcDbSymbolTableRecord
100
AcDbBlockTableRecord
  2
EGF13M16
340
0
102
{BLKREFS
331
16C
331
170
331
25C
331
2A2
102
}
  0
ENDTAB
  0
ENDSEC
  0
SECTION
  2
BLOCKS
  0
BLOCK
  5
5A
330
B
100
AcDbEntity
  8
0
100
AcDbBlockBegin
  2
*MODEL_SPACE
 70
     0
 10
0.0
 20
0.0
 30
0.0
  3
*MODEL_SPACE
  1

  0
ENDBLK
  5
7D
330
B
100
AcDbEntity
  8
0
100
AcDbBlockEnd
  0
BLOCK
  5
5B
330
C
100
AcDbEntity
 67
     1
  8
0
100
AcDbBlockBegin
  2
*PAPER_SPACE
 70
     0
 10
0.0
 20
0.0
 30
0.0
  3
*PAPER_SPACE
  1

  0
ENDBLK
  5
7E
330
C
100
AcDbEntity
 67
     1
  8
0
100
AcDbBlockEnd
  0
BLOCK
  5
5C
330
D
100
AcDbEntity
  8
0
100
AcDbBlockBegin
  2
*D0
 70
     1
 10
0.0
 20
0.0
 30
0.0
  3
*D0
  1

  0
LINE
  5
AF
330
D
100
AcDbEntity
  8
LEVEL001
  6
Continuous
 62
     1
100
AcDbLine
 10
2026.0
 20
908.9
 30
0.0
 11
2142.9340979338
 21
772.05550160712
 31
0.0
  0
INSERT
  5
B0
330
D
100
AcDbEntity
  8
LEVEL001
  6
Continuous
 62
     1
100
AcDbBlockReference
  2
_OPEN30
 10
2142.9340979338
 20
772.05550160712
 30
0.0
 41
18.0
 42
18.0
 43
18.0
 50
310.51400348494
  0
MTEXT
  5
B1
330
D
100
AcDbEntity
  8
LEVEL001
  6
ByBlock
 62
     7
100
AcDbMText
 10
2096.1965774006
 20
850.5006734836099
 30
0.0
 40
36.0
 41
0.0
 71
     8
 72
     1
  1
\A1;R180
  7
GMM001
 11
0.64963387741025
 21
-0.7602472132937601
 31
0.0
 73
     1
 44
1.0
1001
ACAD
1000
MTEXTBEGIN
1070
    73
1070
     1
1070
    44
1040
1.0
1070
    74
1070
     0
1000
MTEXTEND
  0
ENDBLK
  5
85
330
D
100
AcDbEntity
  8
0
100
AcDbBlockEnd
  0
BLOCK
  5
5D
330
E
100
AcDbEntity
  8
0
100
AcDbBlockBegin
  2
*D1
 70
     1
 10
0.0
 20
0.0
 30
0.0
  3
*D1
  1

  0
LINE
  5
B2
330
E
100
AcDbEntity
  8
LEVEL001
  6
Continuous
 62
     1
100
AcDbLine
 10
2396.0
 20
250.0
 30
0.0
 11
2396.0
 21
119.0
 31
0.0
  0
LINE
  5
B3
330
E
100
AcDbEntity
  8
LEVEL001
  6
Continuous
 62
     1
100
AcDbLine
 10
1796.0
 20
250.0
 30
0.0
 11
1796.0
 21
119.0
 31
0.0
  0
LINE
  5
B4
330
E
100
AcDbEntity
  8
LEVEL001
  6
Continuous
 62
     1
100
AcDbLine
 10
2396.0
 20
131.0
 30
0.0
 11
1796.0
 21
131.0
 31
0.0
  0
INSERT
  5
B5
330
E
100
AcDbEntity
  8
LEVEL001
  6
Continuous
 62
     1
100
AcDbBlockReference
  2
_OPEN30
 10
2396.0
 20
131.0
 30
0.0
 41
18.0
 42
18.0
 43
18.0
  0
INSERT
  5
B6
330
E
100
AcDbEntity
  8
LEVEL001
  6
Continuous
 62
     1
100
AcDbBlockReference
  2
_OPEN30
 10
1796.0
 20
131.0
 30
0.0
 41
18.0
 42
18.0
 43
18.0
 50
180.0
  0
MTEXT
  5
B7
330
E
100
AcDbEntity
  8
LEVEL001
  6
ByBlock
 62
     7
100
AcDbMText
 10
2096.0
 20
146.42857142857
 30
0.0
 40
36.0
 41
0.0
 71
     8
 72
     1
  1
\A1;600
  7
GMM001
 73
     1
 44
1.0
1001
ACAD
1000
MTEXTBEGIN
1070
    73
1070
     1
1070
    44
1040
1.0
1070
    74
1070
     0
1000
MTEXTEND
  0
ENDBLK
  5
86
330
E
100
AcDbEntity
  8
0
100
AcDbBlockEnd
  0
BLOCK
  5
5E
330
F
100
AcDbEntity
  8
0
100
AcDbBlockBegin
  2
*D2
 70
     1
 10
0.0
 20
0.0
 30
0.0
  3
*D2
  1

  0
LINE
  5
B8
330
F
100
AcDbEntity
  8
LEVEL001
  6
Continuous
 62
     1
100
AcDbLine
 10
1796.0
 20
250.0
 30
0.0
 11
1796.0
 21
119.0
 31
0.0
  0
LINE
  5
B9
330
F
100
AcDbEntity
  8
LEVEL001
  6
Continuous
 62
     1
100
AcDbLine
 10
1614.0
 20
926.3999999999999
 30
0.0
 11
1614.0
 21
119.0
 31
0.0
  0
LINE
  5
BA
330
F
100
AcDbEntity
  8
LEVEL001
  6
Continuous
 62
     1
100
AcDbLine
 10
1796.0
 20
131.0
 30
0.0
 11
1614.0
 21
131.0
 31
0.0
  0
INSERT
  5
BB
330
F
100
AcDbEntity
  8
LEVEL001
  6
Continuous
 62
     1
100
AcDbBlockReference
  2
_OPEN30
 10
1796.0
 20
131.0
 30
0.0
 41
18.0
 42
18.0
 43
18.0
  0
INSERT
  5
BC
330
F
100
AcDbEntity
  8
LEVEL001
  6
Continuous
 62
     1
100
AcDbBlockReference
  2
_OPEN30
 10
1614.0
 20
131.0
 30
0.0
 41
18.0
 42
18.0
 43
18.0
 50
180.0
  0
MTEXT
  5
BD
330
F
100
AcDbEntity
  8
LEVEL001
  6
ByBlock
 62
     7
100
AcDbMText
 10
1705.0
 20
146.42857142857
 30
0.0
 40
36.0
 41
0.0
 71
     8
 72
     1
  1
\A1;182
  7
GMM001
 73
     1
 44
1.0
1001
ACAD
1000
MTEXTBEGIN
1070
    73
1070
     1
1070
    44
1040
1.0
1070
    74
1070
     0
1000
MTEXTEND
  0
ENDBLK
  5
87
330
F
100
AcDbEntity
  8
0
100
AcDbBlockEnd
  0
BLOCK
  5
5F
330
10
100
AcDbEntity
  8
0
100
AcDbBlockBegin
  2
*D3
 70
     1
 10
0.0
 20
0.0
 30
0.0
  3
*D3
  1

  0
LINE
  5
BE
330
10
100
AcDbEntity
  8
LEVEL001
  6
Continuous
 62
     1
100
AcDbLine
 10
309.0
 20
252.0
 30
0.0
 11
252.0
 21
252.0
 31
0.0
  0
LINE
  5
BF
330
10
100
AcDbEntity
  8
LEVEL001
  6
Continuous
 62
     1
100
AcDbLine
 10
309.0
 20
1132.0
 30
0.0
 11
252.0
 21
1132.0
 31
0.0
  0
LINE
  5
C0
330
10
100
AcDbEntity
  8
LEVEL001
  6
Continuous
 62
     1
100
AcDbLine
 10
264.0
 20
252.0
 30
0.0
 11
264.0
 21
1132.0
 31
0.0
  0
INSERT
  5
C1
330
10
100
AcDbEntity
  8
LEVEL001
  6
Continuous
 62
     1
100
AcDbBlockReference
  2
_OPEN30
 10
264.0
 20
252.0
 30
0.0
 41
18.0
 42
18.0
 43
18.0
 50
270.0
  0
INSERT
  5
C2
330
10
100
AcDbEntity
  8
LEVEL001
  6
Continuous
 62
     1
100
AcDbBlockReference
  2
_OPEN30
 10
264.0
 20
1132.0
 30
0.0
 41
18.0
 42
18.0
 43
18.0
 50
90.0
  0
MTEXT
  5
C3
330
10
100
AcDbEntity
  8
LEVEL001
  6
ByBlock
 62
     7
100
AcDbMText
 10
248.57142857143
 20
692.0
 30
0.0
 40
36.0
 41
0.0
 71
     8
 72
     1
  1
\A1;880
  7
GMM001
 11
0.0
 21
1.0
 31
0.0
 73
     1
 44
1.0
1001
ACAD
1000
MTEXTBEGIN
1070
    73
1070
     1
1070
    44
1040
1.0
1070
    74
1070
     0
1000
MTEXTEND
  0
ENDBLK
  5
88
330
10
100
AcDbEntity
  8
0
100
AcDbBlockEnd
  0
BLOCK
  5
60
330
11
100
AcDbEntity
  8
0
100
AcDbBlockBegin
  2
*D4
 70
     1
 10
0.0
 20
0.0
 30
0.0
  3
*D4
  1

  0
LINE
  5
C4
330
11
100
AcDbEntity
  8
LEVEL001
  6
Continuous
 62
     1
100
AcDbLine
 10
309.0
 20
252.0
 30
0.0
 11
309.0
 21
51.0
 31
0.0
  0
LINE
  5
C5
330
11
100
AcDbEntity
  8
LEVEL001
  6
Continuous
 62
     1
100
AcDbLine
 10
1439.0
 20
252.0
 30
0.0
 11
1439.0
 21
51.0
 31
0.0
  0
LINE
  5
C6
330
11
100
AcDbEntity
  8
LEVEL001
  6
Continuous
 62
     1
100
AcDbLine
 10
309.0
 20
63.0
 30
0.0
 11
1439.0
 21
63.0
 31
0.0
  0
INSERT
  5
C7
330
11
100
AcDbEntity
  8
LEVEL001
  6
Continuous
 62
     1
100
AcDbBlockReference
  2
_OPEN30
 10
309.0
 20
63.0
 30
0.0
 41
18.0
 42
18.0
 43
18.0
 50
180.0
  0
INSERT
  5
C8
330
11
100
AcDbEntity
  8
LEVEL001
  6
Continuous
 62
     1
100
AcDbBlockReference
  2
_OPEN30
 10
1439.0
 20
63.0
 30
0.0
 41
18.0
 42
18.0
 43
18.0
  0
MTEXT
  5
C9
330
11
100
AcDbEntity
  8
LEVEL001
  6
ByBlock
 62
     7
100
AcDbMText
 10
874.0
 20
78.428571428571
 30
0.0
 40
36.0
 41
0.0
 71
     8
 72
     1
  1
\A1;1130
  7
GMM001
 73
     1
 44
1.0
1001
ACAD
1000
MTEXTBEGIN
1070
    73
1070
     1
1070
    44
1040
1.0
1070
    74
1070
     0
1000
MTEXTEND
  0
ENDBLK
  5
89
330
11
100
AcDbEntity
  8
0
100
AcDbBlockEnd
  0
BLOCK
  5
61
330
12
100
AcDbEntity
  8
0
100
AcDbBlockBegin
  2
*D5
 70
     1
 10
0.0
 20
0.0
 30
0.0
  3
*D5
  1

  0
LINE
  5
CA
330
12
100
AcDbEntity
  8
LEVEL001
  6
Continuous
 62
     1
100
AcDbLine
 10
321.01892681076
 20
225.0
 30
0.0
 11
252.0
 21
225.0
 31
0.0
  0
LINE
  5
CB
330
12
100
AcDbEntity
  8
LEVEL001
  6
Continuous
 62
     1
100
AcDbLine
 10
309.0
 20
252.0
 30
0.0
 11
252.0
 21
252.0
 31
0.0
  0
LINE
  5
CC
330
12
100
AcDbEntity
  8
LEVEL001
  6
Continuous
 62
     1
100
AcDbLine
 10
264.0
 20
225.0
 30
0.0
 11
264.0
 21
252.0
 31
0.0
  0
LINE
  5
CD
330
12
100
AcDbEntity
  8
LEVEL001
  6
Continuous
 62
     1
100
AcDbLine
 10
264.0
 20
225.0
 30
0.0
 11
264.0
 21
140.5
 31
0.0
  0
INSERT
  5
CE
330
12
100
AcDbEntity
  8
LEVEL001
  6
Continuous
 62
     1
100
AcDbBlockReference
  2
_OPEN30
 10
264.0
 20
225.0
 30
0.0
 41
18.0
 42
18.0
 43
18.0
 50
90.0
  0
INSERT
  5
CF
330
12
100
AcDbEntity
  8
LEVEL001
  6
Continuous
 62
     1
100
AcDbBlockReference
  2
_OPEN30
 10
264.0
 20
252.0
 30
0.0
 41
18.0
 42
18.0
 43
18.0
 50
270.0
  0
LINE
  5
D0
330
12
100
AcDbEntity
  8
LEVEL001
  6
Continuous
 62
     1
100
AcDbLine
 10
264.0
 20
225.0
 30
0.0
 11
264.0
 21
140.5
 31
0.0
  0
LINE
  5
D1
330
12
100
AcDbEntity
  8
LEVEL001
  6
Continuous
 62
     1
100
AcDbLine
 10
264.0
 20
252.0
 30
0.0
 11
264.0
 21
274.5
 31
0.0
  0
MTEXT
  5
D2
330
12
100
AcDbEntity
  8
LEVEL001
  6
ByBlock
 62
     7
100
AcDbMText
 10
253.71428571429
 20
176.5
 30
0.0
 40
36.0
 41
0.0
 71
     8
 72
     1
  1
\A1;27
  7
GMM001
 11
0.0
 21
1.0
 31
0.0
 73
     1
 44
1.0
1001
ACAD
1000
MTEXTBEGIN
1070
    73
1070
     1
1070
    44
1040
1.0
1070
    74
1070
     0
1000
MTEXTEND
  0
ENDBLK
  5
8A
330
12
100
AcDbEntity
  8
0
100
AcDbBlockEnd
  0
BLOCK
  5
62
330
13
100
AcDbEntity
  8
0
100
AcDbBlockBegin
  2
*D6
 70
     1
 10
0.0
 20
0.0
 30
0.0
  3
*D6
  1

  0
LINE
  5
D3
330
13
100
AcDbEntity
  8
LEVEL001
  6
Continuous
 62
     1
100
AcDbLine
 10
309.0
 20
1132.0
 30
0.0
 11
184.0
 21
1132.0
 31
0.0
  0
LINE
  5
D4
330
13
100
AcDbEntity
  8
LEVEL001
  6
Continuous
 62
     1
100
AcDbLine
 10
458.6076951546299
 20
225.0
 30
0.0
 11
184.0
 21
225.0
 31
0.0
  0
LINE
  5
D5
330
13
100
AcDbEntity
  8
LEVEL001
  6
Continuous
 62
     1
100
AcDbLine
 10
196.0
 20
1132.0
 30
0.0
 11
196.0
 21
225.0
 31
0.0
  0
INSERT
  5
D6
330
13
100
AcDbEntity
  8
LEVEL001
  6
Continuous
 62
     1
100
AcDbBlockReference
  2
_OPEN30
 10
196.0
 20
1132.0
 30
0.0
 41
18.0
 42
18.0
 43
18.0
 50
90.0
  0
INSERT
  5
D7
330
13
100
AcDbEntity
  8
LEVEL001
  6
Continuous
 62
     1
100
AcDbBlockReference
  2
_OPEN30
 10
196.0
 20
225.0
 30
0.0
 41
18.0
 42
18.0
 43
18.0
 50
270.0
  0
MTEXT
  5
D8
330
13
100
AcDbEntity
  8
LEVEL001
  6
ByBlock
 62
     7
100
AcDbMText
 10
180.57142857143
 20
688.4999999999999
 30
0.0
 40
36.0
 41
0.0
 71
     8
 72
     1
  1
\A1;907
  7
GMM001
 11
0.0
 21
1.0
 31
0.0
 73
     1
 44
1.0
1001
ACAD
1000
MTEXTBEGIN
1070
    73
1070
     1
1070
    44
1040
1.0
1070
    74
1070
     0
1000
MTEXTEND
  0
ENDBLK
  5
8B
330
13
100
AcDbEntity
  8
0
100
AcDbBlockEnd
  0
BLOCK
  5
63
330
14
100
AcDbEntity
  8
0
100
AcDbBlockBegin
  2
*D7
 70
     1
 10
0.0
 20
0.0
 30
0.0
  3
*D7
  1

  0
LINE
  5
D9
330
14
100
AcDbEntity
  8
LEVEL001
  6
Continuous
 62
     1
100
AcDbLine
 10
321.01892681076
 20
225.0
 30
0.0
 11
115.0
 21
225.0
 31
0.0
  0
LINE
  5
DA
330
14
100
AcDbEntity
  8
LEVEL001
  6
Continuous
 62
     1
100
AcDbLine
 10
670.0
 20
1316.0
 30
0.0
 11
115.0
 21
1316.0
 31
0.0
  0
LINE
  5
DB
330
14
100
AcDbEntity
  8
LEVEL001
  6
Continuous
 62
     1
100
AcDbLine
 10
127.0
 20
225.0
 30
0.0
 11
127.0
 21
1316.0
 31
0.0
  0
INSERT
  5
DC
330
14
100
AcDbEntity
  8
LEVEL001
  6
Continuous
 62
     1
100
AcDbBlockReference
  2
_OPEN30
 10
127.0
 20
225.0
 30
0.0
 41
18.0
 42
18.0
 43
18.0
 50
270.0
  0
INSERT
  5
DD
330
14
100
AcDbEntity
  8
LEVEL001
  6
Continuous
 62
     1
100
AcDbBlockReference
  2
_OPEN30
 10
127.0
 20
1316.0
 30
0.0
 41
18.0
 42
18.0
 43
18.0
 50
90.0
  0
MTEXT
  5
DE
330
14
100
AcDbEntity
  8
LEVEL001
  6
ByBlock
 62
     7
100
AcDbMText
 10
111.57142857143
 20
672.5
 30
0.0
 40
36.0
 41
0.0
 71
     8
 72
     1
  1
\A1;1091
  7
GMM001
 11
0.0
 21
1.0
 31
0.0
 73
     1
 44
1.0
1001
ACAD
1000
MTEXTBEGIN
1070
    73
1070
     1
1070
    44
1040
1.0
1070
    74
1070
     0
1000
MTEXTEND
  0
ENDBLK
  5
8C
330
14
100
AcDbEntity
  8
0
100
AcDbBlockEnd
  0
BLOCK
  5
64
330
15
100
AcDbEntity
  8
0
100
AcDbBlockBegin
  2
*D8
 70
     1
 10
0.0
 20
0.0
 30
0.0
  3
*D8
  1

  0
LINE
  5
DF
330
15
100
AcDbEntity
  8
LEVEL001
  6
Continuous
 62
     1
100
AcDbLine
 10
2396.0
 20
250.0
 30
0.0
 11
2396.0
 21
51.0
 31
0.0
  0
LINE
  5
E0
330
15
100
AcDbEntity
  8
LEVEL001
  6
Continuous
 62
     1
100
AcDbLine
 10
1614.0
 20
926.3999999999999
 30
0.0
 11
1614.0
 21
51.0
 31
0.0
  0
LINE
  5
E1
330
15
100
AcDbEntity
  8
LEVEL001
  6
Continuous
 62
     1
100
AcDbLine
 10
2396.0
 20
63.0
 30
0.0
 11
1614.0
 21
63.0
 31
0.0
  0
INSERT
  5
E2
330
15
100
AcDbEntity
  8
LEVEL001
  6
Continuous
 62
     1
100
AcDbBlockReference
  2
_OPEN30
 10
2396.0
 20
63.0
 30
0.0
 41
18.0
 42
18.0
 43
18.0
  0
INSERT
  5
E3
330
15
100
AcDbEntity
  8
LEVEL001
  6
Continuous
 62
     1
100
AcDbBlockReference
  2
_OPEN30
 10
1614.0
 20
63.0
 30
0.0
 41
18.0
 42
18.0
 43
18.0
 50
180.0
  0
MTEXT
  5
E4
330
15
100
AcDbEntity
  8
LEVEL001
  6
ByBlock
 62
     7
100
AcDbMText
 10
2093.0
 20
78.428571428571
 30
0.0
 40
36.0
 41
0.0
 71
     8
 72
     1
  1
\A1;782
  7
GMM001
 73
     1
 44
1.0
1001
ACAD
1000
MTEXTBEGIN
1070
    73
1070
     1
1070
    44
1040
1.0
1070
    74
1070
     0
1000
MTEXTEND
  0
ENDBLK
  5
8D
330
15
100
AcDbEntity
  8
0
100
AcDbBlockEnd
  0
BLOCK
  5
65
330
16
100
AcDbEntity
  8
0
100
AcDbBlockBegin
  2
*D9
 70
     1
 10
0.0
 20
0.0
 30
0.0
  3
*D9
  1

  0
LINE
  5
E5
330
16
100
AcDbEntity
  8
LEVEL001
  6
Continuous
 62
     1
100
AcDbLine
 10
625.0
 20
728.8999999999999
 30
0.0
 11
625.0
 21
600.0
 31
0.0
  0
LINE
  5
E6
330
16
100
AcDbEntity
  8
LEVEL001
  6
Continuous
 62
     1
100
AcDbLine
 10
1123.0
 20
728.8999999999999
 30
0.0
 11
1123.0
 21
600.0
 31
0.0
  0
LINE
  5
E7
330
16
100
AcDbEntity
  8
LEVEL001
  6
Continuous
 62
     1
100
AcDbLine
 10
625.0
 20
612.0
 30
0.0
 11
1123.0
 21
612.0
 31
0.0
  0
INSERT
  5
E8
330
16
100
AcDbEntity
  8
LEVEL001
  6
Continuous
 62
     1
100
AcDbBlockReference
  2
_OPEN30
 10
625.0
 20
612.0
 30
0.0
 41
18.0
 42
18.0
 43
18.0
 50
180.0
  0
INSERT
  5
E9
330
16
100
AcDbEntity
  8
LEVEL001
  6
Continuous
 62
     1
100
AcDbBlockReference
  2
_OPEN30
 10
1123.0
 20
612.0
 30
0.0
 41
18.0
 42
18.0
 43
18.0
  0
MTEXT
  5
EA
330
16
100
AcDbEntity
  8
LEVEL001
  6
ByBlock
 62
     7
100
AcDbMText
 10
874.0
 20
627.4285714285699
 30
0.0
 40
36.0
 41
0.0
 71
     8
 72
     1
  1
\A1;498
  7
GMM001
 73
     1
 44
1.0
1001
ACAD
1000
MTEXTBEGIN
1070
    73
1070
     1
1070
    44
1040
1.0
1070
    74
1070
     0
1000
MTEXTEND
  0
ENDBLK
  5
8E
330
16
100
AcDbEntity
  8
0
100
AcDbBlockEnd
  0
BLOCK
  5
66
330
17
100
AcDbEntity
  8
0
100
AcDbBlockBegin
  2
_ARCHTICK
 70
     0
 10
0.0
 20
0.0
 30
0.0
  3
_ARCHTICK
  1

  0
LWPOLYLINE
  5
EB
330
17
100
AcDbEntity
  8
0
  6
ByBlock
 62
     0
100
AcDbPolyline
 90
        2
 70
     1
 43
0.15
 10
-0.5
 20
-0.5
 10
0.5
 20
0.5
  0
ENDBLK
  5
8F
330
17
100
AcDbEntity
  8
0
100
AcDbBlockEnd
  0
BLOCK
  5
67
330
18
100
AcDbEntity
  8
0
100
AcDbBlockBegin
  2
_OBLIQUE
 70
     0
 10
0.0
 20
0.0
 30
0.0
  3
_OBLIQUE
  1

  0
LINE
  5
EF
330
18
100
AcDbEntity
  8
0
  6
ByBlock
 62
     0
100
AcDbLine
 10
-0.5
 20
-0.5
 30
0.0
 11
0.5
 21
0.5
 31
0.0
  0
ENDBLK
  5
9B
330
18
100
AcDbEntity
  8
0
100
AcDbBlockEnd
  0
BLOCK
  5
68
330
19
100
AcDbEntity
  8
0
100
AcDbBlockBegin
  2
_BOXBLANK
 70
     0
 10
0.0
 20
0.0
 30
0.0
  3
_BOXBLANK
  1

  0
LINE
  5
F0
330
19
100
AcDbEntity
  8
0
  6
ByBlock
 62
     0
100
AcDbLine
 10
-0.5
 20
-0.5
 30
0.0
 11
0.5
 21
-0.5
 31
0.0
  0
LINE
  5
F1
330
19
100
AcDbEntity
  8
0
  6
ByBlock
 62
     0
100
AcDbLine
 10
0.5
 20
-0.5
 30
0.0
 11
0.5
 21
0.5
 31
0.0
  0
LINE
  5
F2
330
19
100
AcDbEntity
  8
0
  6
ByBlock
 62
     0
100
AcDbLine
 10
0.5
 20
0.5
 30
0.0
 11
-0.5
 21
0.5
 31
0.0
  0
LINE
  5
F3
330
19
100
AcDbEntity
  8
0
  6
ByBlock
 62
     0
100
AcDbLine
 10
-0.5
 20
0.5
 30
0.0
 11
-0.5
 21
-0.5
 31
0.0
  0
LINE
  5
F4
330
19
100
AcDbEntity
  8
0
  6
ByBlock
 62
     0
100
AcDbLine
 10
-0.5
 20
0.0
 30
0.0
 11
-1.0
 21
0.0
 31
0.0
  0
ENDBLK
  5
90
330
19
100
AcDbEntity
  8
0
100
AcDbBlockEnd
  0
BLOCK
  5
69
330
1A
100
AcDbEntity
  8
0
100
AcDbBlockBegin
  2
_BOXFILLED
 70
     0
 10
0.0
 20
0.0
 30
0.0
  3
_BOXFILLED
  1

  0
SOLID
  5
F5
330
1A
100
AcDbEntity
  8
0
  6
ByBlock
 62
     0
100
AcDbTrace
 10
-0.5
 20
0.5
 30
0.0
 11
0.5
 21
0.5
 31
0.0
 12
-0.5
 22
-0.5
 32
0.0
 13
0.5
 23
-0.5
 33
0.0
  0
LINE
  5
F6
330
1A
100
AcDbEntity
  8
0
  6
ByBlock
 62
     0
100
AcDbLine
 10
-0.5
 20
0.0
 30
0.0
 11
-1.0
 21
0.0
 31
0.0
  0
ENDBLK
  5
91
330
1A
100
AcDbEntity
  8
0
100
AcDbBlockEnd
  0
BLOCK
  5
6A
330
1B
100
AcDbEntity
  8
0
100
AcDbBlockBegin
  2
_CLOSED
 70
     0
 10
0.0
 20
0.0
 30
0.0
  3
_CLOSED
  1

  0
LINE
  5
F7
330
1B
100
AcDbEntity
  8
0
  6
ByBlock
 62
     0
100
AcDbLine
 10
-1.0
 20
0.16666666666667
 30
0.0
 11
0.0
 21
0.0
 31
0.0
  0
LINE
  5
F8
330
1B
100
AcDbEntity
  8
0
  6
ByBlock
 62
     0
100
AcDbLine
 10
0.0
 20
0.0
 30
0.0
 11
-1.0
 21
-0.16666666666667
 31
0.0
  0
LINE
  5
F9
330
1B
100
AcDbEntity
  8
0
  6
ByBlock
 62
     0
100
AcDbLine
 10
-1.0
 20
0.16666666666667
 30
0.0
 11
-1.0
 21
-0.16666666666667
 31
0.0
  0
LINE
  5
FA
330
1B
100
AcDbEntity
  8
0
  6
ByBlock
 62
     0
100
AcDbLine
 10
0.0
 20
0.0
 30
0.0
 11
-1.0
 21
0.0
 31
0.0
  0
ENDBLK
  5
92
330
1B
100
AcDbEntity
  8
0
100
AcDbBlockEnd
  0
BLOCK
  5
6B
330
1C
100
AcDbEntity
  8
0
100
AcDbBlockBegin
  2
_OPEN
 70
     0
 10
0.0
 20
0.0
 30
0.0
  3
_OPEN
  1

  0
LINE
  5
FB
330
1C
100
AcDbEntity
  8
0
  6
ByBlock
 62
     0
100
AcDbLine
 10
-1.0
 20
0.16666666666667
 30
0.0
 11
0.0
 21
0.0
 31
0.0
  0
LINE
  5
FC
330
1C
100
AcDbEntity
  8
0
  6
ByBlock
 62
     0
100
AcDbLine
 10
0.0
 20
0.0
 30
0.0
 11
-1.0
 21
-0.16666666666667
 31
0.0
  0
LINE
  5
FD
330
1C
100
AcDbEntity
  8
0
  6
ByBlock
 62
     0
100
AcDbLine
 10
0.0
 20
0.0
 30
0.0
 11
-1.0
 21
0.0
 31
0.0
  0
ENDBLK
  5
9C
330
1C
100
AcDbEntity
  8
0
100
AcDbBlockEnd
  0
BLOCK
  5
6C
330
1D
100
AcDbEntity
  8
0
100
AcDbBlockBegin
  2
_OPEN30
 70
     0
 10
0.0
 20
0.0
 30
0.0
  3
_OPEN30
  1

  0
LINE
  5
FE
330
1D
100
AcDbEntity
  8
0
  6
ByBlock
 62
     0
100
AcDbLine
 10
-1.0
 20
0.2679491924311
 30
0.0
 11
0.0
 21
0.0
 31
0.0
  0
LINE
  5
FF
330
1D
100
AcDbEntity
  8
0
  6
ByBlock
 62
     0
100
AcDbLine
 10
0.0
 20
0.0
 30
0.0
 11
-1.0
 21
-0.2679491924311
 31
0.0
  0
LINE
  5
100
330
1D
100
AcDbEntity
  8
0
  6
ByBlock
 62
     0
100
AcDbLine
 10
0.0
 20
0.0
 30
0.0
 11
-1.0
 21
0.0
 31
0.0
  0
ENDBLK
  5
9D
330
1D
100
AcDbEntity
  8
0
100
AcDbBlockEnd
  0
BLOCK
  5
6D
330
1E
100
AcDbEntity
  8
0
100
AcDbBlockBegin
  2
_OPEN90
 70
     0
 10
0.0
 20
0.0
 30
0.0
  3
_OPEN90
  1

  0
LINE
  5
101
330
1E
100
AcDbEntity
  8
0
  6
ByBlock
 62
     0
100
AcDbLine
 10
-0.5
 20
0.5
 30
0.0
 11
0.0
 21
0.0
 31
0.0
  0
LINE
  5
102
330
1E
100
AcDbEntity
  8
0
  6
ByBlock
 62
     0
100
AcDbLine
 10
0.0
 20
0.0
 30
0.0
 11
-0.5
 21
-0.5
 31
0.0
  0
LINE
  5
103
330
1E
100
AcDbEntity
  8
0
  6
ByBlock
 62
     0
100
AcDbLine
 10
0.0
 20
0.0
 30
0.0
 11
-1.0
 21
0.0
 31
0.0
  0
ENDBLK
  5
9E
330
1E
100
AcDbEntity
  8
0
100
AcDbBlockEnd
  0
BLOCK
  5
6E
330
1F
100
AcDbEntity
  8
0
100
AcDbBlockBegin
  2
_CLOSEDBLANK
 70
     0
 10
0.0
 20
0.0
 30
0.0
  3
_CLOSEDBLANK
  1

  0
LINE
  5
104
330
1F
100
AcDbEntity
  8
0
  6
ByBlock
 62
     0
100
AcDbLine
 10
-1.0
 20
0.16666666666667
 30
0.0
 11
0.0
 21
0.0
 31
0.0
  0
LINE
  5
105
330
1F
100
AcDbEntity
  8
0
  6
ByBlock
 62
     0
100
AcDbLine
 10
0.0
 20
0.0
 30
0.0
 11
-1.0
 21
-0.16666666666667
 31
0.0
  0
LINE
  5
106
330
1F
100
AcDbEntity
  8
0
  6
ByBlock
 62
     0
100
AcDbLine
 10
-1.0
 20
0.16666666666667
 30
0.0
 11
-1.0
 21
-0.16666666666667
 31
0.0
  0
ENDBLK
  5
93
330
1F
100
AcDbEntity
  8
0
100
AcDbBlockEnd
  0
BLOCK
  5
6F
330
20
100
AcDbEntity
  8
0
100
AcDbBlockBegin
  2
_DOT
 70
     0
 10
0.0
 20
0.0
 30
0.0
  3
_DOT
  1

  0
LWPOLYLINE
  5
107
330
20
100
AcDbEntity
  8
0
  6
ByBlock
 62
     0
100
AcDbPolyline
 90
        2
 70
     1
 43
0.5
 10
-0.25
 20
0.0
 42
1.0
 10
0.25
 20
0.0
 42
1.0
  0
LINE
  5
10B
330
20
100
AcDbEntity
  8
0
  6
ByBlock
 62
     0
100
AcDbLine
 10
-0.5
 20
0.0
 30
0.0
 11
-1.0
 21
0.0
 31
0.0
  0
ENDBLK
  5
96
330
20
100
AcDbEntity
  8
0
100
AcDbBlockEnd
  0
BLOCK
  5
70
330
21
100
AcDbEntity
  8
0
100
AcDbBlockBegin
  2
_DOTSMALL
 70
     0
 10
0.0
 20
0.0
 30
0.0
  3
_DOTSMALL
  1

  0
LWPOLYLINE
  5
10C
330
21
100
AcDbEntity
  8
0
  6
ByBlock
 62
     0
100
AcDbPolyline
 90
        2
 70
     1
 43
0.5
 10
-0.0625
 20
0.0
 42
1.0
 10
0.0625
 20
0.0
 42
1.0
  0
ENDBLK
  5
98
330
21
100
AcDbEntity
  8
0
100
AcDbBlockEnd
  0
BLOCK
  5
71
330
22
100
AcDbEntity
  8
0
100
AcDbBlockBegin
  2
_DATUMBLANK
 70
     0
 10
0.0
 20
0.0
 30
0.0
  3
_DATUMBLANK
  1

  0
LINE
  5
110
330
22
100
AcDbEntity
  8
0
  6
ByBlock
 62
     0
100
AcDbLine
 10
0.0
 20
0.5773502700000001
 30
0.0
 11
-1.0
 21
0.0
 31
0.0
  0
LINE
  5
111
330
22
100
AcDbEntity
  8
0
  6
ByBlock
 62
     0
100
AcDbLine
 10
-1.0
 20
0.0
 30
0.0
 11
0.0
 21
-0.5773502700000001
 31
0.0
  0
LINE
  5
112
330
22
100
AcDbEntity
  8
0
  6
ByBlock
 62
     0
100
AcDbLine
 10
0.0
 20
-0.5773502700000001
 30
0.0
 11
0.0
 21
0.5773502700000001
 31
0.0
  0
ENDBLK
  5
94
330
22
100
AcDbEntity
  8
0
100
AcDbBlockEnd
  0
BLOCK
  5
72
330
23
100
AcDbEntity
  8
0
100
AcDbBlockBegin
  2
_DATUMFILLED
 70
     0
 10
0.0
 20
0.0
 30
0.0
  3
_DATUMFILLED
  1

  0
SOLID
  5
113
330
23
100
AcDbEntity
  8
0
  6
ByBlock
 62
     0
100
AcDbTrace
 10
0.0
 20
0.5773502700000001
 30
0.0
 11
-1.0
 21
0.0
 31
0.0
 12
0.0
 22
-0.5773502700000001
 32
0.0
 13
0.0
 23
-0.5773502700000001
 33
0.0
  0
ENDBLK
  5
95
330
23
100
AcDbEntity
  8
0
100
AcDbBlockEnd
  0
BLOCK
  5
73
330
24
100
AcDbEntity
  8
0
100
AcDbBlockBegin
  2
_ORIGIN
 70
     0
 10
0.0
 20
0.0
 30
0.0
  3
_ORIGIN
  1

  0
CIRCLE
  5
114
330
24
100
AcDbEntity
  8
0
  6
ByBlock
 62
     0
100
AcDbCircle
 10
0.0
 20
0.0
 30
0.0
 40
0.5
  0
LINE
  5
115
330
24
100
AcDbEntity
  8
0
  6
ByBlock
 62
     0
100
AcDbLine
 10
0.0
 20
0.0
 30
0.0
 11
-1.0
 21
0.0
 31
0.0
  0
ENDBLK
  5
9F
330
24
100
AcDbEntity
  8
0
100
AcDbBlockEnd
  0
BLOCK
  5
74
330
25
100
AcDbEntity
  8
0
100
AcDbBlockBegin
  2
_NONE
 70
     0
 10
0.0
 20
0.0
 30
0.0
  3
_NONE
  1

  0
CIRCLE
  5
116
330
25
100
AcDbEntity
  8
0
  6
ByBlock
 62
     0
100
AcDbCircle
 10
0.0
 20
0.0
 30
0.0
 40
0.25
  0
ENDBLK
  5
9A
330
25
100
AcDbEntity
  8
0
100
AcDbBlockEnd
  0
BLOCK
  5
75
330
26
100
AcDbEntity
  8
0
100
AcDbBlockBegin
  2
_DOTBLANK
 70
     0
 10
0.0
 20
0.0
 30
0.0
  3
_DOTBLANK
  1

  0
CIRCLE
  5
117
330
26
100
AcDbEntity
  8
0
  6
ByBlock
 62
     0
100
AcDbCircle
 10
0.0
 20
0.0
 30
0.0
 40
0.5
  0
LINE
  5
118
330
26
100
AcDbEntity
  8
0
  6
ByBlock
 62
     0
100
AcDbLine
 10
-0.5
 20
0.0
 30
0.0
 11
-1.0
 21
0.0
 31
0.0
  0
ENDBLK
  5
97
330
26
100
AcDbEntity
  8
0
100
AcDbBlockEnd
  0
BLOCK
  5
76
330
27
100
AcDbEntity
  8
0
100
AcDbBlockBegin
  2
_INTEGRAL
 70
     0
 10
0.0
 20
0.0
 30
0.0
  3
_INTEGRAL
  1

  0
ARC
  5
119
330
27
100
AcDbEntity
  8
0
  6
ByBlock
 62
     0
100
AcDbCircle
 10
0.444888
 20
-0.091335
 30
0.0
 40
0.454167
100
AcDbArc
 50
102.0
 51
168.0
  0
ARC
  5
11A
330
27
100
AcDbEntity
  8
0
  6
ByBlock
 62
     0
100
AcDbCircle
 10
-0.444888
 20
0.091335
 30
0.0
 40
0.454167
100
AcDbArc
 50
282.0
 51
348.0
  0
ENDBLK
  5
99
330
27
100
AcDbEntity
  8
0
100
AcDbBlockEnd
  0
BLOCK
  5
77
330
28
100
AcDbEntity
  8
0
100
AcDbBlockBegin
  2
A2
 70
     0
 10
0.0
 20
0.0
 30
0.0
  3
A2
  1

  0
LWPOLYLINE
  5
11B
330
28
100
AcDbEntity
  8
内図枠(作図領域)
  6
Continuous
 62
     7
100
AcDbPolyline
 90
        4
 70
     1
 43
0.0
 10
0.0000000000000142
 20
0.0
 10
544.0
 20
0.0
 10
544.0
 20
378.0
 10
0.0000000000000142
 20
378.0
  0
ENDBLK
  5
7F
330
28
100
AcDbEntity
  8
0
100
AcDbBlockEnd
  0
BLOCK
  5
78
330
29
100
AcDbEntity
  8
0
100
AcDbBlockBegin
  2
BLOCK001
 70
     0
 10
0.0
 20
0.0
 30
0.0
  3
BLOCK001
  1

  0
LINE
  5
11C
330
29
100
AcDbEntity
  8
LEVEL001
  6
Continuous
 62
     7
100
AcDbLine
 10
2448.0
 20
216.0
 30
0.0
 11
3264.0
 21
216.0
 31
0.0
  0
LINE
  5
11D
330
29
100
AcDbEntity
  8
LEVEL001
  6
Continuous
 62
     7
100
AcDbLine
 10
2448.0
 20
144.0
 30
0.0
 11
3264.0
 21
144.0
 31
0.0
  0
LINE
  5
11E
330
29
100
AcDbEntity
  8
LEVEL001
  6
Continuous
 62
     7
100
AcDbLine
 10
2448.0
 20
216.0
 30
0.0
 11
2448.0
 21
144.0
 31
0.0
  0
LINE
  5
11F
330
29
100
AcDbEntity
  8
LEVEL001
  6
Continuous
 62
     7
100
AcDbLine
 10
2496.0
 20
216.0
 30
0.0
 11
2496.0
 21
144.0
 31
0.0
  0
LINE
  5
120
330
29
100
AcDbEntity
  8
LEVEL001
  6
Continuous
 62
     7
100
AcDbLine
 10
2856.0
 20
216.0
 30
0.0
 11
2856.0
 21
144.0
 31
0.0
  0
LINE
  5
121
330
29
100
AcDbEntity
  8
LEVEL001
  6
Continuous
 62
     7
100
AcDbLine
 10
2904.0
 20
216.0
 30
0.0
 11
2904.0
 21
144.0
 31
0.0
  0
LINE
  5
122
330
29
100
AcDbEntity
  8
LEVEL001
  6
Continuous
 62
     7
100
AcDbLine
 10
3264.0
 20
216.0
 30
0.0
 11
3264.0
 21
144.0
 31
0.0
  0
ENDBLK
  5
80
330
29
100
AcDbEntity
  8
0
100
AcDbBlockEnd
  0
BLOCK
  5
79
330
2A
100
AcDbEntity
  8
0
100
AcDbBlockBegin
  2
BLOCK002
 70
     0
 10
0.0
 20
0.0
 30
0.0
  3
BLOCK002
  1

  0
LINE
  5
123
330
2A
100
AcDbEntity
  8
LEVEL001
  6
Continuous
 62
     7
100
AcDbLine
 10
2448.0
 20
144.0
 30
0.0
 11
3264.0
 21
144.0
 31
0.0
  0
LINE
  5
124
330
2A
100
AcDbEntity
  8
LEVEL001
  6
Continuous
 62
     7
100
AcDbLine
 10
2676.0
 20
96.0
 30
0.0
 11
3264.0
 21
96.0
 31
0.0
  0
LINE
  5
125
330
2A
100
AcDbEntity
  8
LEVEL001
  6
Continuous
 62
     7
100
AcDbLine
 10
2448.0
 20
48.0
 30
0.0
 11
3264.0
 21
48.0
 31
0.0
  0
LINE
  5
126
330
2A
100
AcDbEntity
  8
LEVEL001
  6
Continuous
 62
     7
100
AcDbLine
 10
2448.0
 20
0.0
 30
0.0
 11
3264.0
 21
0.0
 31
0.0
  0
LINE
  5
127
330
2A
100
AcDbEntity
  8
LEVEL001
  6
Continuous
 62
     7
100
AcDbLine
 10
2448.0
 20
144.0
 30
0.0
 11
2448.0
 21
0.0
 31
0.0
  0
LINE
  5
128
330
2A
100
AcDbEntity
  8
LEVEL001
  6
Continuous
 62
     7
100
AcDbLine
 10
2496.0
 20
144.0
 30
0.0
 11
2496.0
 21
48.0
 31
0.0
  0
LINE
  5
129
330
2A
100
AcDbEntity
  8
LEVEL001
  6
Continuous
 62
     7
100
AcDbLine
 10
2676.0
 20
144.0
 30
0.0
 11
2676.0
 21
48.0
 31
0.0
  0
LINE
  5
12A
330
2A
100
AcDbEntity
  8
LEVEL001
  6
Continuous
 62
     7
100
AcDbLine
 10
2856.0
 20
144.0
 30
0.0
 11
2856.0
 21
48.0
 31
0.0
  0
LINE
  5
12B
330
2A
100
AcDbEntity
  8
LEVEL001
  6
Continuous
 62
     7
100
AcDbLine
 10
2904.0
 20
144.0
 30
0.0
 11
2904.0
 21
48.0
 31
0.0
  0
LINE
  5
12C
330
2A
100
AcDbEntity
  8
LEVEL001
  6
Continuous
 62
     7
100
AcDbLine
 10
3024.0
 20
144.0
 30
0.0
 11
3024.0
 21
48.0
 31
0.0
  0
LINE
  5
12D
330
2A
100
AcDbEntity
  8
LEVEL001
  6
Continuous
 62
     7
100
AcDbLine
 10
3066.0
 20
144.0
 30
0.0
 11
3066.0
 21
96.0
 31
0.0
  0
LINE
  5
12E
330
2A
100
AcDbEntity
  8
LEVEL001
  6
Continuous
 62
     7
100
AcDbLine
 10
3102.0
 20
144.0
 30
0.0
 11
3102.0
 21
96.0
 31
0.0
  0
LINE
  5
12F
330
2A
100
AcDbEntity
  8
LEVEL001
  6
Continuous
 62
     7
100
AcDbLine
 10
3144.0
 20
144.0
 30
0.0
 11
3144.0
 21
48.0
 31
0.0
  0
LINE
  5
130
330
2A
100
AcDbEntity
  8
LEVEL001
  6
Continuous
 62
     7
100
AcDbLine
 10
3264.0
 20
144.0
 30
0.0
 11
3264.0
 21
0.0
 31
0.0
  0
ENDBLK
  5
81
330
2A
100
AcDbEntity
  8
0
100
AcDbBlockEnd
  0
BLOCK
  5
7A
330
2B
100
AcDbEntity
  8
0
100
AcDbBlockBegin
  2
BLOCK003
 70
     0
 10
0.0
 20
0.0
 30
0.0
  3
BLOCK003
  1

  0
TEXT
  5
131
330
2B
100
AcDbEntity
  8
LEVEL001
  6
ByBlock
 62
     7
100
AcDbText
 10
2671.2000274658
 20
12.0
 30
0.0
 40
24.0
  1
さぬき麺機株式会社
100
AcDbText
  0
TEXT
  5
132
330
2B
100
AcDbEntity
  8
LEVEL001
  6
ByBlock
 62
     7
100
AcDbText
 10
2472.0
 20
210.66664123535
 30
0.0
 40
24.0
  1
名称
  7
STANDARD1
100
AcDbText
  0
TEXT
  5
133
330
2B
100
AcDbEntity
  8
LEVEL001
  6
ByBlock
 62
     7
100
AcDbText
 10
2880.0
 20
210.66659545898
 30
0.0
 40
24.0
  1
図番
  7
STANDARD1
100
AcDbText
  0
TEXT
  5
134
330
2B
100
AcDbEntity
  8
LEVEL001
  6
ByBlock
 62
     7
100
AcDbText
 10
2472.0
 20
130.66666698456
 30
0.0
 40
24.0
  1
画法
  7
STANDARD1
100
AcDbText
  0
TEXT
  5
135
330
2B
100
AcDbEntity
  8
LEVEL001
  6
ByBlock
 62
     7
100
AcDbText
 10
2512.8000004292
 20
84.0
 30
0.0
 40
24.0
  1
第三角法
100
AcDbText
  0
TEXT
  5
136
330
2B
100
AcDbEntity
  8
LEVEL001
  6
ByBlock
 62
     7
100
AcDbText
 10
2692.8000004292
 20
108.0
 30
0.0
 40
24.0
  1
共通機種
100
AcDbText
  0
TEXT
  5
137
330
2B
100
AcDbEntity
  8
LEVEL001
  6
ByBlock
 62
     7
100
AcDbText
 10
2860.7999997168
 20
108.0
 30
0.0
 40
24.0
  1
個数
 41
0.80000001192093
100
AcDbText
  0
TEXT
  5
138
330
2B
100
AcDbEntity
  8
LEVEL001
  6
ByBlock
 62
     7
100
AcDbText
 10
2928.0
 20
108.0
 30
0.0
 40
24.0
  1
尺度
100
AcDbText
  0
TEXT
  5
139
330
2B
100
AcDbEntity
  8
LEVEL001
  6
ByBlock
 62
     7
100
AcDbText
 10
3036.0
 20
108.0
 30
0.0
 40
24.0
  1
年月日
100
AcDbText
  0
TEXT
  5
13A
330
2B
100
AcDbEntity
  8
LEVEL001
  6
ByBlock
 62
     7
100
AcDbText
 10
3168.0
 20
108.0
 30
0.0
 40
24.0
  1
製図
100
AcDbText
  0
POINT
  5
13B
330
2B
100
AcDbEntity
  8
LEVEL001
  6
ByBlock
 62
     7
100
AcDbPoint
 10
3024.0
 20
60.0
 30
0.0
  0
ENDBLK
  5
82
330
2B
100
AcDbEntity
  8
0
100
AcDbBlockEnd
  0
BLOCK
  5
7B
330
2C
100
AcDbEntity
  8
0
100
AcDbBlockBegin
  2
EGF11M16
 70
     0
 10
0.0
 20
0.0
 30
0.0
  3
EGF11M16
  1

  0
ARC
  5
13C
330
2C
100
AcDbEntity
  8
LEVEL001
  6
Continuous
 62
     7
100
AcDbCircle
 10
-5.3211735734948
 20
0.0
 30
0.0
 40
18.321173573495
100
AcDbArc
 50
337.78068982934
 51
22.21931017066
  0
ARC
  5
13D
330
2C
100
AcDbEntity
  8
LEVEL001
  6
Continuous
 62
     7
100
AcDbCircle
 10
7.9095296424089
 20
10.392304845375
 30
0.0
 40
5.090470357591099
100
AcDbArc
 50
317.11671159511
 51
0.0
  0
LWPOLYLINE
  5
13E
330
2C
100
AcDbEntity
  8
LEVEL001
  6
Continuous
 62
     7
100
AcDbPolyline
 90
        6
 70
     1
 43
0.0
 10
0.0
 20
-13.856406460525
 10
0.0
 20
13.856406460525
 10
11.639528095683
 20
13.856406460525
 10
13.0
 20
11.5
 10
13.0
 20
-11.5
 10
11.639528095683
 20
-13.856406460525
  0
LINE
  5
13F
330
2C
100
AcDbEntity
  8
LEVEL001
  6
Continuous
 62
     7
100
AcDbLine
 10
0.0
 20
6.928203230223999
 30
0.0
 11
11.639528095683
 21
6.928203230223999
 31
0.0
  0
ARC
  5
140
330
2C
100
AcDbEntity
  8
LEVEL001
  6
Continuous
 62
     7
100
AcDbCircle
 10
7.9095296424089
 20
-10.392304845375
 30
0.0
 40
5.0904703575912
100
AcDbArc
 50
0.0
 51
42.88328840488699
  0
LINE
  5
141
330
2C
100
AcDbEntity
  8
LEVEL001
  6
Continuous
 62
     7
100
AcDbLine
 10
0.0
 20
-6.928203230223999
 30
0.0
 11
11.639528095683
 21
-6.928203230223999
 31
0.0
  0
ENDBLK
  5
83
330
2C
100
AcDbEntity
  8
0
100
AcDbBlockEnd
  0
BLOCK
  5
7C
330
2D
100
AcDbEntity
  8
0
100
AcDbBlockBegin
  2
EGF13M16
 70
     0
 10
0.0
 20
0.0
 30
0.0
  3
EGF13M16
  1

  0
ARC
  5
142
330
2D
100
AcDbEntity
  8
LEVEL001
  6
Continuous
 62
     7
100
AcDbCircle
 10
8.321173573494
 20
0.0
 30
0.0
 40
18.321173573494
100
AcDbArc
 50
157.78068982934
 51
202.21931017066
  0
ARC
  5
143
330
2D
100
AcDbEntity
  8
LEVEL001
  6
Continuous
 62
     7
100
AcDbCircle
 10
-4.909529642408999
 20
-10.392304845375
 30
0.0
 40
5.090470357591
100
AcDbArc
 50
137.11671159511
 51
180.0
  0
LWPOLYLINE
  5
144
330
2D
100
AcDbEntity
  8
LEVEL001
  6
Continuous
 62
     7
100
AcDbPolyline
 90
        6
 70
     1
 43
0.0
 10
0.0
 20
-13.856406460525
 10
0.0
 20
13.856406460525
 10
-8.639528095682599
 20
13.856406460525
 10
-10.0
 20
11.5
 10
-10.0
 20
-11.5
 10
-8.639528095682599
 20
-13.856406460525
  0
LINE
  5
145
330
2D
100
AcDbEntity
  8
LEVEL001
  6
Continuous
 62
     7
100
AcDbLine
 10
0.0
 20
-6.928203230223999
 30
0.0
 11
-8.639528095682599
 21
-6.928203230223999
 31
0.0
  0
ARC
  5
146
330
2D
100
AcDbEntity
  8
LEVEL001
  6
Continuous
 62
     7
100
AcDbCircle
 10
-4.909529642408999
 20
10.392304845375
 30
0.0
 40
5.090470357591
100
AcDbArc
 50
180.0
 51
222.88328840489
  0
LINE
  5
147
330
2D
100
AcDbEntity
  8
LEVEL001
  6
Continuous
 62
     7
100
AcDbLine
 10
0.0
 20
6.928203230223999
 30
0.0
 11
-8.639528095682599
 21
6.928203230223999
 31
0.0
  0
ENDBLK
  5
84
330
2D
100
AcDbEntity
  8
0
100
AcDbBlockEnd
  0
ENDSEC
  0
SECTION
  2
ENTITIES
  0
INSERT
  5
148
330
B
100
AcDbEntity
  8
0
100
AcDbBlockReference
  2
A2
 10
0.0
 20
0.0
 30
0.0
 41
6.0
 42
6.0
  0
INSERT
  5
149
330
B
100
AcDbEntity
  8
LEVEL001
100
AcDbBlockReference
  2
BLOCK001
 10
0.0
 20
0.0
 30
0.0
  0
INSERT
  5
14A
330
B
100
AcDbEntity
  8
LEVEL001
100
AcDbBlockReference
  2
BLOCK002
 10
0.0
 20
0.0
 30
0.0
  0
INSERT
  5
14B
330
B
100
AcDbEntity
  8
0
100
AcDbBlockReference
  2
BLOCK003
 10
0.0
 20
0.0
 30
0.0
  0
TEXT
  5
14C
330
B
100
AcDbEntity
  8
LEVEL001
 62
     7
100
AcDbText
 10
3180.0
 20
60.0
 30
0.0
 40
24.0
  1
井上
100
AcDbText
  0
TEXT
  5
14D
330
B
100
AcDbEntity
  8
LEVEL001
 62
     7
100
AcDbText
 10
2592.0
 20
168.0
 30
0.0
 40
24.0
  1
PN-25 承認図
100
AcDbText
  0
TEXT
  5
14E
330
B
100
AcDbEntity
  8
LEVEL001
 62
     7
100
AcDbText
 10
3012.0
 20
168.0
 30
0.0
 40
24.0
  1
PN-25
 41
0.5
100
AcDbText
  0
TEXT
  5
14F
330
B
100
AcDbEntity
  8
LEVEL001
 62
     7
100
AcDbText
 10
3035.0
 20
60.0
 30
0.0
 40
24.0
  1
14. 2.18
 41
0.5
100
AcDbText
  0
LINE
  5
150
330
B
100
AcDbEntity
  8
LEVEL001
  6
Continuous
 62
     7
100
AcDbLine
 10
2019.0
 20
1685.0
 30
0.0
 11
2019.0
 21
1829.0
 31
0.0
  0
LINE
  5
151
330
B
100
AcDbEntity
  8
LEVEL001
  6
Continuous
 62
     7
100
AcDbLine
 10
1971.0
 20
1541.0
 30
0.0
 11
1971.0
 21
2117.0
 31
0.0
  0
LINE
  5
152
330
B
100
AcDbEntity
  8
LEVEL001
  6
Continuous
 62
     7
100
AcDbLine
 10
2281.5
 20
2117.0
 30
0.0
 11
2281.5
 21
1541.0
 31
0.0
  0
LINE
  5
153
330
B
100
AcDbEntity
  8
LEVEL001
  6
Continuous
 62
     7
100
AcDbLine
 10
2941.5
 20
1589.0
 30
0.0
 11
1971.0
 21
1589.0
 31
0.0
  0
LINE
  5
154
330
B
100
AcDbEntity
  8
LEVEL001
  6
Continuous
 62
     7
100
AcDbLine
 10
2941.5
 20
2117.0
 30
0.0
 11
1971.0
 21
2117.0
 31
0.0
  0
LINE
  5
155
330
B
100
AcDbEntity
  8
LEVEL001
  6
Continuous
 62
     7
100
AcDbLine
 10
1971.0
 20
2069.0
 30
0.0
 11
2941.5
 21
2069.0
 31
0.0
  0
LINE
  5
156
330
B
100
AcDbEntity
  8
LEVEL001
  6
Continuous
 62
     7
100
AcDbLine
 10
1971.0
 20
2021.0
 30
0.0
 11
2941.5
 21
2021.0
 31
0.0
  0
LINE
  5
157
330
B
100
AcDbEntity
  8
LEVEL001
  6
Continuous
 62
     7
100
AcDbLine
 10
1971.0
 20
1973.0
 30
0.0
 11
2941.5
 21
1973.0
 31
0.0
  0
LINE
  5
158
330
B
100
AcDbEntity
  8
LEVEL001
  6
Continuous
 62
     7
100
AcDbLine
 10
1971.0
 20
1925.0
 30
0.0
 11
2941.5
 21
1925.0
 31
0.0
  0
LINE
  5
159
330
B
100
AcDbEntity
  8
LEVEL001
  6
Continuous
 62
     7
100
AcDbLine
 10
1971.0
 20
1877.0
 30
0.0
 11
2941.5
 21
1877.0
 31
0.0
  0
LINE
  5
15A
330
B
100
AcDbEntity
  8
LEVEL001
  6
Continuous
 62
     7
100
AcDbLine
 10
1971.0
 20
1829.0
 30
0.0
 11
2941.5
 21
1829.0
 31
0.0
  0
LINE
  5
15B
330
B
100
AcDbEntity
  8
LEVEL001
  6
Continuous
 62
     7
100
AcDbLine
 10
2019.0
 20
1781.0
 30
0.0
 11
2941.5
 21
1781.0
 31
0.0
  0
LINE
  5
15C
330
B
100
AcDbEntity
  8
LEVEL001
  6
Continuous
 62
     7
100
AcDbLine
 10
2019.0
 20
1733.0
 30
0.0
 11
2941.5
 21
1733.0
 31
0.0
  0
LINE
  5
15D
330
B
100
AcDbEntity
  8
LEVEL001
  6
Continuous
 62
     7
100
AcDbLine
 10
1971.0
 20
1685.0
 30
0.0
 11
2941.5
 21
1685.0
 31
0.0
  0
LINE
  5
15E
330
B
100
AcDbEntity
  8
LEVEL001
  6
Continuous
 62
     7
100
AcDbLine
 10
1971.0
 20
1637.0
 30
0.0
 11
2941.5
 21
1637.0
 31
0.0
  0
LINE
  5
15F
330
B
100
AcDbEntity
  8
LEVEL001
  6
Continuous
 62
     7
100
AcDbLine
 10
2941.5
 20
2117.0
 30
0.0
 11
2941.5
 21
1541.0
 31
0.0
  0
LINE
  5
160
330
B
100
AcDbEntity
  8
LEVEL001
  6
Continuous
 62
     7
100
AcDbLine
 10
1971.0
 20
1541.0
 30
0.0
 11
2941.5
 21
1541.0
 31
0.0
  0
TEXT
  5
161
330
B
100
AcDbEntity
  8
LEVEL001
 62
     7
100
AcDbText
 10
2915.0
 20
60.0
 30
0.0
 40
24.0
  1
(A2) 1/6
 41
0.5
100
AcDbText
  0
LINE
  5
162
330
B
100
AcDbEntity
  8
LEVEL001
  6
DASHDOT
 62
     1
100
AcDbLine
 10
1805.0
 20
908.9
 30
0.0
 11
2247.0
 21
908.9
 31
0.0
  0
CIRCLE
  5
163
330
B
100
AcDbEntity
  8
LEVEL001
  6
HIDDEN
 62
     1
100
AcDbCircle
 10
2026.0
 20
908.9
 30
0.0
 40
106.5
  0
LWPOLYLINE
  5
164
330
B
100
AcDbEntity
  8
LEVEL001
  6
Continuous
 62
     7
100
AcDbPolyline
 90
        4
 70
     0
 43
0.0
 10
1796.0
 20
1056.4
 10
1781.0
 20
1056.4
 10
1781.0
 20
1026.4
 10
1796.0
 20
1026.4
  0
LINE
  5
165
330
B
100
AcDbEntity
  8
LEVEL001
  6
HIDDEN
 62
     1
100
AcDbLine
 10
2176.0
 20
1056.4
 30
0.0
 11
2176.0
 21
1026.4
 31
0.0
  0
LWPOLYLINE
  5
166
330
B
100
AcDbEntity
  8
LEVEL001
  6
HIDDEN
 62
     1
100
AcDbPolyline
 90
        4
 70
     1
 43
0.0
 10
1981.0
 20
1006.4
 10
2071.0
 20
1006.4
 10
2071.0
 20
1076.4
 10
1981.0
 20
1076.4
  0
LINE
  5
167
330
B
100
AcDbEntity
  8
LEVEL001
  6
HIDDEN
 62
     1
100
AcDbLine
 10
1796.0
 20
1026.4
 30
0.0
 11
1981.0
 21
1026.4
 31
0.0
  0
LINE
  5
168
330
B
100
AcDbEntity
  8
LEVEL001
  6
HIDDEN
 62
     1
100
AcDbLine
 10
2071.0
 20
1026.4
 30
0.0
 11
2176.0
 21
1026.4
 31
0.0
  0
LINE
  5
169
330
B
100
AcDbEntity
  8
LEVEL001
  6
HIDDEN
 62
     1
100
AcDbLine
 10
2176.0
 20
1056.4
 30
0.0
 11
2071.0
 21
1056.4
 31
0.0
  0
LINE
  5
16A
330
B
100
AcDbEntity
  8
LEVEL001
  6
HIDDEN
 62
     1
100
AcDbLine
 10
1981.0
 20
1056.4
 30
0.0
 11
1796.0
 21
1056.4
 31
0.0
  0
INSERT
  5
16B
330
B
100
AcDbEntity
  8
0
100
AcDbBlockReference
  2
EGF11M16
 10
1821.0
 20
250.0
 30
0.0
 50
270.0
  0
INSERT
  5
16C
330
B
100
AcDbEntity
  8
0
100
AcDbBlockReference
  2
EGF13M16
 10
1821.0
 20
235.0
 30
0.0
 50
90.0
  0
LINE
  5
16D
330
B
100
AcDbEntity
  8
LEVEL001
  6
Continuous
 62
     7
100
AcDbLine
 10
1813.0
 20
237.0
 30
0.0
 11
1813.0
 21
235.0
 31
0.0
  0
LINE
  5
16E
330
B
100
AcDbEntity
  8
LEVEL001
  6
Continuous
 62
     7
100
AcDbLine
 10
1829.0
 20
235.0
 30
0.0
 11
1829.0
 21
237.0
 31
0.0
  0
INSERT
  5
16F
330
B
100
AcDbEntity
  8
0
100
AcDbBlockReference
  2
EGF11M16
 10
2371.0
 20
250.0
 30
0.0
 50
270.0
  0
INSERT
  5
170
330
B
100
AcDbEntity
  8
0
100
AcDbBlockReference
  2
EGF13M16
 10
2371.0
 20
235.0
 30
0.0
 50
90.0
  0
LINE
  5
171
330
B
100
AcDbEntity
  8
LEVEL001
  6
Continuous
 62
     7
100
AcDbLine
 10
2363.0
 20
237.0
 30
0.0
 11
2363.0
 21
235.0
 31
0.0
  0
LINE
  5
172
330
B
100
AcDbEntity
  8
LEVEL001
  6
Continuous
 62
     7
100
AcDbLine
 10
2379.0
 20
235.0
 30
0.0
 11
2379.0
 21
237.0
 31
0.0
  0
LINE
  5
173
330
B
100
AcDbEntity
  8
LEVEL001
  6
DASHDOT
 62
     1
100
AcDbLine
 10
1821.0
 20
266.0
 30
0.0
 11
1821.0
 21
210.0
 31
0.0
  0
LINE
  5
174
330
B
100
AcDbEntity
  8
LEVEL001
  6
DASHDOT
 62
     1
100
AcDbLine
 10
2371.0
 20
266.0
 30
0.0
 11
2371.0
 21
210.0
 31
0.0
  0
ARC
  5
175
330
B
100
AcDbEntity
  8
LEVEL001
  6
HIDDEN
 62
     1
100
AcDbCircle
 10
2026.0
 20
908.9
 30
0.0
 40
185.0
100
AcDbArc
 50
180.0
 51
0.0
  0
LWPOLYLINE
  5
176
330
B
100
AcDbEntity
  8
LEVEL001
  6
Continuous
 62
     7
100
AcDbPolyline
 90
        4
 70
     1
 43
0.0
 10
1796.0
 20
250.0
 10
2396.0
 20
250.0
 10
2396.0
 20
1132.0
 10
1796.0
 20
1132.0
  0
LWPOLYLINE
  5
177
330
B
100
AcDbEntity
  8
LEVEL001
  6
Continuous
 62
     7
100
AcDbPolyline
 90
        4
 70
     0
 43
0.0
 10
2246.0
 20
1132.0
 10
2246.0
 20
1191.0
 10
2396.0
 20
1191.0
 10
2396.0
 20
1132.0
  0
LINE
  5
178
330
B
100
AcDbEntity
  8
LEVEL001
  6
Continuous
 62
     7
100
AcDbLine
 10
2206.0
 20
1213.9
 30
0.0
 11
1846.0
 21
1213.9
 31
0.0
  0
LINE
  5
179
330
B
100
AcDbEntity
  8
LEVEL001
  6
DASHDOT
 62
     1
100
AcDbLine
 10
2026.0
 20
1234.9
 30
0.0
 11
2026.0
 21
656.8999999999999
 31
0.0
  0
POINT
  5
17A
330
B
100
AcDbEntity
  8
LEVEL001
 62
     7
100
AcDbPoint
 10
2271.0
 20
1265.9
 30
0.0
  0
CIRCLE
  5
17B
330
B
100
AcDbEntity
  8
LEVEL001
  6
Continuous
 62
     7
100
AcDbCircle
 10
2271.0
 20
1265.9
 30
0.0
 40
12.5
  0
LINE
  5
17C
330
B
100
AcDbEntity
  8
LEVEL001
  6
DASHDOT
 62
     1
100
AcDbLine
 10
2271.0
 20
1309.9
 30
0.0
 11
2271.0
 21
1221.9
 31
0.0
  0
LINE
  5
17D
330
B
100
AcDbEntity
  8
LEVEL001
  6
DASHDOT
 62
     1
100
AcDbLine
 10
2221.0
 20
1265.9
 30
0.0
 11
2321.0
 21
1265.9
 31
0.0
  0
LINE
  5
17E
330
B
100
AcDbEntity
  8
LEVEL001
  6
Continuous
 62
     7
100
AcDbLine
 10
2206.0
 20
1210.9
 30
0.0
 11
1846.0
 21
1210.9
 31
0.0
  0
ARC
  5
17F
330
B
100
AcDbEntity
  8
LEVEL001
  6
Continuous
 62
     7
100
AcDbCircle
 10
2271.0
 20
1265.9
 30
0.0
 40
35.0
100
AcDbArc
 50
90.0
 51
270.0
  0
LWPOLYLINE
  5
180
330
B
100
AcDbEntity
  8
LEVEL001
  6
Continuous
 62
     7
100
AcDbPolyline
 90
        4
 70
     0
 43
0.0
 10
2307.5
 20
1220.9
 10
2297.5
 20
1220.9
 10
2297.5
 20
1310.9
 10
2307.5
 20
1310.9
  0
LINE
  5
181
330
B
100
AcDbEntity
  8
LEVEL001
  6
Continuous
 62
     7
100
AcDbLine
 10
2297.5
 20
1300.9
 30
0.0
 11
2271.0
 21
1300.9
 31
0.0
  0
LINE
  5
182
330
B
100
AcDbEntity
  8
LEVEL001
  6
Continuous
 62
     7
100
AcDbLine
 10
2297.5
 20
1230.9
 30
0.0
 11
2271.0
 21
1230.9
 31
0.0
  0
LINE
  5
183
330
B
100
AcDbEntity
  8
LEVEL001
  6
DASHDOT
 62
     1
100
AcDbLine
 10
1869.0
 20
1253.0
 30
0.0
 11
1869.0
 21
1194.0
 31
0.0
  0
LWPOLYLINE
  5
184
330
B
100
AcDbEntity
  8
LEVEL001
  6
Continuous
 62
     7
100
AcDbPolyline
 90
        6
 70
     1
 43
0.0
 10
2307.5
 20
1191.0
 10
2307.5
 20
1316.0
 10
2347.5
 20
1316.0
 10
2347.5
 20
1231.0
 10
2395.5
 20
1231.0
 10
2395.5
 20
1191.0
  0
LWPOLYLINE
  5
185
330
B
100
AcDbEntity
  8
LEVEL001
  6
Continuous
 62
     7
100
AcDbPolyline
 90
        4
 70
     0
 43
0.0
 10
2347.5
 20
1290.9
 10
2371.0
 20
1290.9
 10
2371.0
 20
1240.9
 10
2347.5
 20
1240.9
  0
LINE
  5
186
330
B
100
AcDbEntity
  8
LEVEL001
  6
Continuous
 62
     7
100
AcDbLine
 10
2246.5051025722
 20
1240.9
 30
0.0
 11
2206.0
 21
1240.9
 31
0.0
  0
ARC
  5
187
330
B
100
AcDbEntity
  8
LEVEL001
  6
Continuous
 62
     7
100
AcDbCircle
 10
1836.0
 20
1255.9
 30
0.0
 40
15.0
100
AcDbArc
 50
180.0
 51
270.0
  0
ARC
  5
188
330
B
100
AcDbEntity
  8
LEVEL001
  6
Continuous
 62
     7
100
AcDbCircle
 10
1836.0
 20
1275.9
 30
0.0
 40
15.0
100
AcDbArc
 50
90.0
 51
180.0
  0
LINE
  5
189
330
B
100
AcDbEntity
  8
LEVEL001
  6
Continuous
 62
     7
100
AcDbLine
 10
1836.0
 20
1290.9
 30
0.0
 11
2246.5051025722
 21
1290.9
 31
0.0
  0
LINE
  5
18A
330
B
100
AcDbEntity
  8
LEVEL001
  6
Continuous
 62
     7
100
AcDbLine
 10
1846.0
 20
1240.9
 30
0.0
 11
1836.0
 21
1240.9
 31
0.0
  0
LINE
  5
18B
330
B
100
AcDbEntity
  8
LEVEL001
  6
Continuous
 62
     7
100
AcDbLine
 10
1821.0
 20
1255.9
 30
0.0
 11
1821.0
 21
1275.9
 31
0.0
  0
LWPOLYLINE
  5
18C
330
B
100
AcDbEntity
  8
LEVEL001
  6
Continuous
 62
     7
100
AcDbPolyline
 90
        4
 70
     1
 43
0.0
 10
1854.0
 20
1217.9
 10
1884.0
 20
1217.9
 10
1884.0
 20
1231.9
 10
1854.0
 20
1231.9
  0
LWPOLYLINE
  5
18D
330
B
100
AcDbEntity
  8
LEVEL001
  6
Continuous
 62
     7
100
AcDbPolyline
 90
        4
 70
     0
 43
0.0
 10
1859.0
 20
1213.9
 10
1859.0
 20
1217.9
 10
1879.0
 20
1217.9
 10
1879.0
 20
1213.9
  0
LINE
  5
18E
330
B
100
AcDbEntity
  8
LEVEL001
  6
Continuous
 62
     7
100
AcDbLine
 10
1799.0
 20
1229.9
 30
0.0
 11
1799.0
 21
1219.9
 31
0.0
  0
POINT
  5
18F
330
B
100
AcDbEntity
  8
LEVEL001
 62
     7
100
AcDbPoint
 10
1822.0
 20
1133.0
 30
0.0
  0
POINT
  5
190
330
B
100
AcDbEntity
  8
LEVEL001
 62
     7
100
AcDbPoint
 10
1850.0
 20
1133.0
 30
0.0
  0
LWPOLYLINE
  5
191
330
B
100
AcDbEntity
  8
LEVEL001
  6
Continuous
 62
     7
100
AcDbPolyline
 90
        4
 70
     0
 43
0.0
 10
1841.0
 20
1133.0
 10
1841.0
 20
1205.9
 10
1806.0
 20
1205.9
 10
1806.0
 20
1210.9
  0
LWPOLYLINE
  5
192
330
B
100
AcDbEntity
  8
LEVEL001
  6
Continuous
 62
     7
100
AcDbPolyline
 90
        4
 70
     0
 43
0.0
 10
2211.0
 20
1133.0
 10
2211.0
 20
1205.9
 10
2246.0
 20
1205.9
 10
2246.0
 20
1210.9
  0
LINE
  5
193
330
B
100
AcDbEntity
  8
LEVEL001
  6
HIDDEN
 62
     1
100
AcDbLine
 10
1841.0
 20
908.9
 30
0.0
 11
1841.0
 21
1133.0
 31
0.0
  0
LINE
  5
194
330
B
100
AcDbEntity
  8
LEVEL001
  6
HIDDEN
 62
     1
100
AcDbLine
 10
2211.0
 20
908.9
 30
0.0
 11
2211.0
 21
1133.0
 31
0.0
  0
POINT
  5
195
330
B
100
AcDbEntity
  8
LEVEL001
 62
     7
100
AcDbPoint
 10
1821.0
 20
1205.9
 30
0.0
  0
LWPOLYLINE
  5
196
330
B
100
AcDbEntity
  8
LEVEL001
  6
Continuous
 62
     7
100
AcDbPolyline
 90
        4
 70
     1
 43
0.0
 10
1802.0
 20
1196.9
 10
1834.0
 20
1196.9
 10
1834.0
 20
1205.9
 10
1802.0
 20
1205.9
  0
POINT
  5
197
330
B
100
AcDbEntity
  8
LEVEL001
 62
     7
100
AcDbPoint
 10
1821.0
 20
1205.9
 30
0.0
  0
LINE
  5
198
330
B
100
AcDbEntity
  8
LEVEL001
  6
Continuous
 62
     7
100
AcDbLine
 10
1854.0
 20
1229.9
 30
0.0
 11
1790.0
 21
1229.9
 31
0.0
  0
LINE
  5
199
330
B
100
AcDbEntity
  8
LEVEL001
  6
Continuous
 62
     7
100
AcDbLine
 10
1790.0
 20
1219.9
 30
0.0
 11
1854.0
 21
1219.9
 31
0.0
  0
LWPOLYLINE
  5
19A
330
B
100
AcDbEntity
  8
LEVEL001
  6
Continuous
 62
     7
100
AcDbPolyline
 90
        4
 70
     1
 43
0.0
 10
1755.0
 20
1194.9
 10
1772.7
 20
1194.9
 10
1772.7
 20
1254.9
 10
1755.0
 20
1254.9
  0
LWPOLYLINE
  5
19B
330
B
100
AcDbEntity
  8
LEVEL001
  6
Continuous
 62
     7
100
AcDbPolyline
 90
        4
 70
     0
 43
0.0
 10
1772.7
 20
1231.9
 10
1790.0
 20
1231.9
 10
1790.0
 20
1217.9
 10
1772.7
 20
1217.9
  0
LINE
  5
19C
330
B
100
AcDbEntity
  8
LEVEL001
  6
Continuous
 62
     7
100
AcDbLine
 10
1789.7
 20
1231.9
 30
0.0
 11
1789.7
 21
1217.9
 31
0.0
  0
LINE
  5
19D
330
B
100
AcDbEntity
  8
LEVEL001
  6
Continuous
 62
     7
100
AcDbLine
 10
1734.0
 20
225.0
 30
0.0
 11
2432.0
 21
225.0
 31
0.0
  0
LINE
  5
19E
330
B
100
AcDbEntity
  8
LEVEL001
  6
Continuous
 62
     7
100
AcDbLine
 10
1719.0
 20
1153.4
 30
0.0
 11
1719.0
 21
929.4
 31
0.0
  0
LINE
  5
19F
330
B
100
AcDbEntity
  8
LEVEL001
  6
Continuous
 62
     7
100
AcDbLine
 10
1745.0
 20
929.4
 30
0.0
 11
1745.0
 21
1153.4
 31
0.0
  0
LWPOLYLINE
  5
1A0
330
B
100
AcDbEntity
  8
LEVEL001
  6
Continuous
 62
     7
100
AcDbPolyline
 90
        4
 70
     0
 43
0.0
 10
1719.0
 20
954.4
 10
1614.0
 20
954.4
 10
1614.0
 20
926.3999999999999
 10
1719.0
 20
926.3999999999999
  0
ARC
  5
1A1
330
B
100
AcDbEntity
  8
LEVEL001
  6
Continuous
 62
     7
100
AcDbCircle
 10
1732.0
 20
929.4
 30
0.0
 40
13.0
100
AcDbArc
 50
180.0
 51
0.0
  0
ARC
  5
1A2
330
B
100
AcDbEntity
  8
LEVEL001
  6
Continuous
 62
     7
100
AcDbCircle
 10
1732.0
 20
1153.4
 30
0.0
 40
13.0
100
AcDbArc
 50
0.0
 51
180.0
  0
LWPOLYLINE
  5
1A3
330
B
100
AcDbEntity
  8
LEVEL001
  6
Continuous
 62
     7
100
AcDbPolyline
 90
        4
 70
     0
 43
0.0
 10
1763.0
 20
1019.4
 10
1763.0
 20
1016.4
 10
1758.0
 20
1016.4
 10
1745.0
 20
972.8999999999999
  0
LWPOLYLINE
  5
1A4
330
B
100
AcDbEntity
  8
LEVEL001
  6
Continuous
 62
     7
100
AcDbPolyline
 90
        4
 70
     0
 43
0.0
 10
1763.0
 20
1063.4
 10
1763.0
 20
1066.4
 10
1758.0
 20
1066.4
 10
1745.0
 20
1109.9
  0
LWPOLYLINE
  5
1A5
330
B
100
AcDbEntity
  8
LEVEL001
  6
Continuous
 62
     7
100
AcDbPolyline
 90
        4
 70
     1
 43
0.0
 10
1763.0
 20
1019.4
 10
1781.0
 20
1019.4
 10
1781.0
 20
1063.4
 10
1763.0
 20
1063.4
  0
LWPOLYLINE
  5
1A6
330
B
100
AcDbEntity
  8
LEVEL001
  6
Continuous
 62
     7
100
AcDbPolyline
 90
       10
 70
     0
 43
0.0
 10
1846.0
 20
1219.9
 10
1846.0
 20
1213.9
 10
1806.0
 20
1213.9
 10
1806.0
 20
1210.9
 10
2246.0
 20
1210.9
 10
2246.0
 20
1213.9
 10
2206.0
 20
1213.9
 10
2206.0
 20
1240.9
 10
1846.0
 20
1240.9
 10
1846.0
 20
1229.9
  0
LINE
  5
1A7
330
B
100
AcDbEntity
  8
LEVEL001
  6
Continuous
 62
     7
100
AcDbLine
 10
1802.0
 20
1219.9
 30
0.0
 11
1802.0
 21
1205.9
 31
0.0
  0
LWPOLYLINE
  5
1A8
330
B
100
AcDbEntity
  8
LEVEL001
  6
Continuous
 62
     7
100
AcDbPolyline
 90
        3
 70
     0
 43
0.0
 10
1802.0
 20
1196.9
 10
1790.0
 20
1196.9
 10
1790.0
 20
1219.9
  0
LWPOLYLINE
  5
1A9
330
B
100
AcDbEntity
  8
LEVEL001
  6
Continuous
 62
     7
100
AcDbPolyline
 90
        4
 70
     0
 43
0.0
 10
1790.0
 20
1229.9
 10
1790.0
 20
1236.9
 10
1802.0
 20
1236.9
 10
1802.0
 20
1229.9
  0
ARC
  5
1AA
330
B
100
AcDbEntity
  8
LEVEL001
  6
HIDDEN
 62
     1
100
AcDbCircle
 10
2026.0
 20
908.9
 30
0.0
 40
180.0
100
AcDbArc
 50
180.0
 51
0.0
  0
LINE
  5
1AB
330
B
100
AcDbEntity
  8
LEVEL001
  6
HIDDEN
 62
     1
100
AcDbLine
 10
1846.0
 20
908.9
 30
0.0
 11
1846.0
 21
1132.0
 31
0.0
  0
LINE
  5
1AC
330
B
100
AcDbEntity
  8
LEVEL001
  6
HIDDEN
 62
     1
100
AcDbLine
 10
2206.0
 20
908.9
 30
0.0
 11
2206.0
 21
1132.0
 31
0.0
  0
LINE
  5
1AD
330
B
100
AcDbEntity
  8
LEVEL001
  6
Continuous
 62
     7
100
AcDbLine
 10
1846.0
 20
1132.0
 30
0.0
 11
1846.0
 21
1210.9
 31
0.0
  0
LINE
  5
1AE
330
B
100
AcDbEntity
  8
LEVEL001
  6
Continuous
 62
     7
100
AcDbLine
 10
2206.0
 20
1132.0
 30
0.0
 11
2206.0
 21
1210.9
 31
0.0
  0
LINE
  5
1AF
330
B
100
AcDbEntity
  8
LEVEL001
  6
DASHDOT
 62
     1
100
AcDbLine
 10
2286.0
 20
1041.4
 30
0.0
 11
1675.0
 21
1041.4
 31
0.0
  0
DIMENSION
  5
1B0
330
B
100
AcDbEntity
  8
LEVEL001
  6
Continuous
 62
     1
100
AcDbDimension
  2
*D0
 10
2026.0
 20
908.9
 30
0.0
 11
2096.1965774006
 21
850.5006734836099
 31
0.0
 70
     4
 71
     5
 42
-1.0
  3
GMM001
100
AcDbRadialDimension
 15
2142.9340979338
 25
772.05550160712
 35
0.0
 40
0.0
  0
DIMENSION
  5
1B1
330
B
100
AcDbEntity
  8
LEVEL001
  6
Continuous
 62
     1
100
AcDbDimension
  2
*D1
 10
1796.0
 20
131.0
 30
0.0
 11
2096.0
 21
131.0
 31
0.0
 71
     5
 42
-1.0
  3
GMM002
100
AcDbAlignedDimension
 13
2396.0
 23
250.0
 33
0.0
 14
1796.0
 24
250.0
 34
0.0
 50
180.0
100
AcDbRotatedDimension
  0
DIMENSION
  5
1B2
330
B
100
AcDbEntity
  8
LEVEL001
  6
Continuous
 62
     1
100
AcDbDimension
  2
*D2
 10
1614.0
 20
131.0
 30
0.0
 11
1705.0
 21
131.0
 31
0.0
 71
     5
 42
-1.0
  3
GMM003
100
AcDbAlignedDimension
 13
1796.0
 23
250.0
 33
0.0
 14
1614.0
 24
926.3999999999999
 34
0.0
 50
180.0
100
AcDbRotatedDimension
  0
LINE
  5
1B3
330
B
100
AcDbEntity
  8
LEVEL001
  6
Continuous
 62
     7
100
AcDbLine
 10
1207.0
 20
2017.0
 30
0.0
 11
1098.0
 21
2017.0
 31
0.0
  0
LINE
  5
1B4
330
B
100
AcDbEntity
  8
LEVEL001
  6
Continuous
 62
     7
100
AcDbLine
 10
650.0
 20
2017.0
 30
0.0
 11
541.0
 21
2017.0
 31
0.0
  0
LINE
  5
1B5
330
B
100
AcDbEntity
  8
LEVEL001
  6
Continuous
 62
     7
100
AcDbLine
 10
541.0
 20
1517.0
 30
0.0
 11
541.0
 21
2117.0
 31
0.0
  0
LINE
  5
1B6
330
B
100
AcDbEntity
  8
LEVEL001
  6
Continuous
 62
     7
100
AcDbLine
 10
541.0
 20
2067.0
 30
0.0
 11
650.0
 21
2067.0
 31
0.0
  0
LINE
  5
1B7
330
B
100
AcDbEntity
  8
LEVEL001
  6
Continuous
 62
     7
100
AcDbLine
 10
1098.0
 20
2067.0
 30
0.0
 11
1207.0
 21
2067.0
 31
0.0
  0
LINE
  5
1B8
330
B
100
AcDbEntity
  8
LEVEL001
  6
DASHDOT
 62
     1
100
AcDbLine
 10
1454.0
 20
1747.0
 30
0.0
 11
294.0
 21
1747.0
 31
0.0
  0
LINE
  5
1B9
330
B
100
AcDbEntity
  8
LEVEL001
  6
Continuous
 62
     7
100
AcDbLine
 10
734.0
 20
2007.0
 30
0.0
 11
1014.0
 21
2007.0
 31
0.0
  0
LINE
  5
1BA
330
B
100
AcDbEntity
  8
LEVEL001
  6
Continuous
 62
     7
100
AcDbLine
 10
1014.0
 20
1977.0
 30
0.0
 11
734.0
 21
1977.0
 31
0.0
  0
LINE
  5
1BB
330
B
100
AcDbEntity
  8
LEVEL001
  6
Continuous
 62
     7
100
AcDbLine
 10
734.0
 20
1967.0
 30
0.0
 11
1014.0
 21
1967.0
 31
0.0
  0
LINE
  5
1BC
330
B
100
AcDbEntity
  8
LEVEL001
  6
Continuous
 62
     7
100
AcDbLine
 10
734.0
 20
1927.0
 30
0.0
 11
1014.0
 21
1927.0
 31
0.0
  0
LINE
  5
1BD
330
B
100
AcDbEntity
  8
LEVEL001
  6
DASHDOT
 62
     1
100
AcDbLine
 10
608.0
 20
1992.0
 30
0.0
 11
1140.0
 21
1992.0
 31
0.0
  0
POINT
  5
1BE
330
B
100
AcDbEntity
  8
LEVEL001
 62
     7
100
AcDbPoint
 10
1148.0
 20
1590.0
 30
0.0
  0
POINT
  5
1BF
330
B
100
AcDbEntity
  8
LEVEL001
 62
     7
100
AcDbPoint
 10
600.0
 20
1590.0
 30
0.0
  0
LINE
  5
1C0
330
B
100
AcDbEntity
  8
LEVEL001
  6
HIDDEN
 62
     1
100
AcDbLine
 10
1322.0
 20
1585.0
 30
0.0
 11
1322.0
 21
1597.0
 31
0.0
  0
LINE
  5
1C1
330
B
100
AcDbEntity
  8
LEVEL001
  6
DASHDOT
 62
     1
100
AcDbLine
 10
1322.0
 20
1453.0
 30
0.0
 11
1322.0
 21
2041.0
 31
0.0
  0
LINE
  5
1C2
330
B
100
AcDbEntity
  8
LEVEL001
  6
Continuous
 62
     7
100
AcDbLine
 10
541.0
 20
1567.0
 30
0.0
 11
580.0
 21
1567.0
 31
0.0
  0
LWPOLYLINE
  5
1C3
330
B
100
AcDbEntity
  8
LEVEL001
  6
Continuous
 62
     7
100
AcDbPolyline
 90
        4
 70
     0
 43
0.0
 10
670.0
 20
2028.5
 10
670.0
 20
1957.0
 10
710.0
 20
1957.0
 10
710.0
 20
2028.5
  0
LWPOLYLINE
  5
1C4
330
B
100
AcDbEntity
  8
LEVEL001
  6
Continuous
 62
     7
100
AcDbPolyline
 90
        4
 70
     0
 43
0.0
 10
1038.0
 20
2028.5
 10
1038.0
 20
1957.0
 10
1078.0
 20
1957.0
 10
1078.0
 20
2028.5
  0
LINE
  5
1C5
330
B
100
AcDbEntity
  8
LEVEL001
  6
Continuous
 62
     7
100
AcDbLine
 10
1033.0
 20
2017.0
 30
0.0
 11
1023.0
 21
2017.0
 31
0.0
  0
LINE
  5
1C6
330
B
100
AcDbEntity
  8
LEVEL001
  6
Continuous
 62
     7
100
AcDbLine
 10
1023.0
 20
2004.5
 30
0.0
 11
1038.0
 21
2004.5
 31
0.0
  0
LWPOLYLINE
  5
1C7
330
B
100
AcDbEntity
  8
LEVEL001
  6
Continuous
 62
     7
100
AcDbPolyline
 90
        4
 70
     0
 43
0.0
 10
1078.0
 20
2004.5
 10
1108.0
 20
2004.5
 10
1108.0
 20
1979.5
 10
1078.0
 20
1979.5
  0
LINE
  5
1C8
330
B
100
AcDbEntity
  8
LEVEL001
  6
Continuous
 62
     7
100
AcDbLine
 10
1038.0
 20
1979.5
 30
0.0
 11
1023.0
 21
1979.5
 31
0.0
  0
LINE
  5
1C9
330
B
100
AcDbEntity
  8
LEVEL001
  6
Continuous
 62
     7
100
AcDbLine
 10
1033.0
 20
1967.0
 30
0.0
 11
1033.0
 21
1979.5
 31
0.0
  0
LINE
  5
1CA
330
B
100
AcDbEntity
  8
LEVEL001
  6
Continuous
 62
     7
100
AcDbLine
 10
1033.0
 20
2004.5
 30
0.0
 11
1033.0
 21
2028.5
 31
0.0
  0
LINE
  5
1CB
330
B
100
AcDbEntity
  8
LEVEL001
  6
Continuous
 62
     7
100
AcDbLine
 10
1098.0
 20
1967.0
 30
0.0
 11
1098.0
 21
1979.5
 31
0.0
  0
LINE
  5
1CC
330
B
100
AcDbEntity
  8
LEVEL001
  6
Continuous
 62
     7
100
AcDbLine
 10
1098.0
 20
2004.5
 30
0.0
 11
1098.0
 21
2117.0
 31
0.0
  0
LINE
  5
1CD
330
B
100
AcDbEntity
  8
LEVEL001
  6
Continuous
 62
     7
100
AcDbLine
 10
650.0
 20
1967.0
 30
0.0
 11
650.0
 21
1979.5
 31
0.0
  0
LINE
  5
1CE
330
B
100
AcDbEntity
  8
LEVEL001
  6
Continuous
 62
     7
100
AcDbLine
 10
650.0
 20
2004.5
 30
0.0
 11
650.0
 21
2117.0
 31
0.0
  0
LINE
  5
1CF
330
B
100
AcDbEntity
  8
LEVEL001
  6
Continuous
 62
     7
100
AcDbLine
 10
715.0
 20
1967.0
 30
0.0
 11
715.0
 21
1979.5
 31
0.0
  0
LINE
  5
1D0
330
B
100
AcDbEntity
  8
LEVEL001
  6
Continuous
 62
     7
100
AcDbLine
 10
715.0
 20
2004.5
 30
0.0
 11
715.0
 21
2028.5
 31
0.0
  0
LINE
  5
1D1
330
B
100
AcDbEntity
  8
LEVEL001
  6
Continuous
 62
     7
100
AcDbLine
 10
725.0
 20
2004.5
 30
0.0
 11
710.0
 21
2004.5
 31
0.0
  0
LWPOLYLINE
  5
1D2
330
B
100
AcDbEntity
  8
LEVEL001
  6
Continuous
 62
     7
100
AcDbPolyline
 90
        4
 70
     0
 43
0.0
 10
670.0
 20
2004.5
 10
640.0
 20
2004.5
 10
640.0
 20
1979.5
 10
670.0
 20
1979.5
  0
LINE
  5
1D3
330
B
100
AcDbEntity
  8
LEVEL001
  6
Continuous
 62
     7
100
AcDbLine
 10
710.0
 20
1979.5
 30
0.0
 11
725.0
 21
1979.5
 31
0.0
  0
LINE
  5
1D4
330
B
100
AcDbEntity
  8
LEVEL001
  6
Continuous
 62
     7
100
AcDbLine
 10
541.0
 20
1967.0
 30
0.0
 11
670.0
 21
1967.0
 31
0.0
  0
LINE
  5
1D5
330
B
100
AcDbEntity
  8
LEVEL001
  6
Continuous
 62
     7
100
AcDbLine
 10
710.0
 20
1967.0
 30
0.0
 11
1014.0
 21
1967.0
 31
0.0
  0
LINE
  5
1D6
330
B
100
AcDbEntity
  8
LEVEL001
  6
Continuous
 62
     7
100
AcDbLine
 10
1014.0
 20
2017.0
 30
0.0
 11
734.0
 21
2017.0
 31
0.0
  0
LINE
  5
1D7
330
B
100
AcDbEntity
  8
LEVEL001
  6
Continuous
 62
     7
100
AcDbLine
 10
725.0
 20
2017.0
 30
0.0
 11
715.0
 21
2017.0
 31
0.0
  0
LWPOLYLINE
  5
1D8
330
B
100
AcDbEntity
  8
LEVEL001
  6
Continuous
 62
     7
100
AcDbPolyline
 90
        4
 70
     0
 43
0.0
 10
734.0
 20
2028.5
 10
734.0
 20
1542.0
 10
725.0
 20
1542.0
 10
725.0
 20
2028.5
  0
LWPOLYLINE
  5
1D9
330
B
100
AcDbEntity
  8
LEVEL001
  6
Continuous
 62
     7
100
AcDbPolyline
 90
        4
 70
     0
 43
0.0
 10
725.0
 20
1567.0
 10
620.0
 20
1567.0
 10
620.0
 20
1927.0
 10
725.0
 20
1927.0
  0
LWPOLYLINE
  5
1DA
330
B
100
AcDbEntity
  8
LEVEL001
  6
Continuous
 62
     7
100
AcDbPolyline
 90
        4
 70
     0
 43
0.0
 10
1023.0
 20
1927.0
 10
1128.0
 20
1927.0
 10
1128.0
 20
1567.0
 10
1023.0
 20
1567.0
  0
POINT
  5
1DB
330
B
100
AcDbEntity
  8
LEVEL001
 62
     7
100
AcDbPoint
 10
734.0
 20
1557.0
 30
0.0
  0
POINT
  5
1DC
330
B
100
AcDbEntity
  8
LEVEL001
 62
     7
100
AcDbPoint
 10
1014.0
 20
1557.0
 30
0.0
  0
LINE
  5
1DD
330
B
100
AcDbEntity
  8
LEVEL001
  6
Continuous
 62
     7
100
AcDbLine
 10
734.0
 20
1570.6
 30
0.0
 11
1014.0
 21
1570.6
 31
0.0
  0
LINE
  5
1DE
330
B
100
AcDbEntity
  8
LEVEL001
  6
Continuous
 62
     7
100
AcDbLine
 10
734.0
 20
1543.4
 30
0.0
 11
1014.0
 21
1543.4
 31
0.0
  0
LINE
  5
1DF
330
B
100
AcDbEntity
  8
LEVEL001
  6
HIDDEN
 62
     1
100
AcDbLine
 10
1307.0
 20
1897.0
 30
0.0
 11
1337.0
 21
1897.0
 31
0.0
  0
LWPOLYLINE
  5
1E0
330
B
100
AcDbEntity
  8
LEVEL001
  6
HIDDEN
 62
     1
100
AcDbPolyline
 90
        4
 70
     1
 43
0.0
 10
1304.5
 20
1853.5
 10
1304.5
 20
1640.5
 10
1339.5
 20
1640.5
 10
1339.5
 20
1853.5
  0
LINE
  5
1E1
330
B
100
AcDbEntity
  8
LEVEL001
  6
Continuous
 62
     7
100
AcDbLine
 10
1207.0
 20
1517.0
 30
0.0
 11
1207.0
 21
1801.0
 31
0.0
  0
LINE
  5
1E2
330
B
100
AcDbEntity
  8
LEVEL001
  6
Continuous
 62
     7
100
AcDbLine
 10
1207.0
 20
1863.0
 30
0.0
 11
1207.0
 21
2117.0
 31
0.0
  0
LWPOLYLINE
  5
1E3
330
B
100
AcDbEntity
  8
LEVEL001
  6
HIDDEN
 62
     1
100
AcDbPolyline
 90
        4
 70
     1
 43
0.0
 10
1287.0
 20
1792.0
 10
1287.0
 20
1702.0
 10
1357.0
 20
1702.0
 10
1357.0
 20
1792.0
  0
LINE
  5
1E4
330
B
100
AcDbEntity
  8
LEVEL001
  6
HIDDEN
 62
     1
100
AcDbLine
 10
1307.0
 20
1792.0
 30
0.0
 11
1307.0
 21
1897.0
 31
0.0
  0
LINE
  5
1E5
330
B
100
AcDbEntity
  8
LEVEL001
  6
HIDDEN
 62
     1
100
AcDbLine
 10
1337.0
 20
1897.0
 30
0.0
 11
1337.0
 21
1792.0
 31
0.0
  0
LINE
  5
1E6
330
B
100
AcDbEntity
  8
LEVEL001
  6
Continuous
 62
     7
100
AcDbLine
 10
1210.0
 20
1436.0
 30
0.0
 11
1434.0
 21
1436.0
 31
0.0
  0
LINE
  5
1E7
330
B
100
AcDbEntity
  8
LEVEL001
  6
Continuous
 62
     7
100
AcDbLine
 10
1434.0
 20
1462.0
 30
0.0
 11
1210.0
 21
1462.0
 31
0.0
  0
LWPOLYLINE
  5
1E8
330
B
100
AcDbEntity
  8
LEVEL001
  6
Continuous
 62
     7
100
AcDbPolyline
 90
        4
 70
     0
 43
0.0
 10
1344.0
 20
1484.0
 10
1347.0
 20
1484.0
 10
1347.0
 20
1475.0
 10
1390.5
 20
1462.0
  0
ARC
  5
1E9
330
B
100
AcDbEntity
  8
LEVEL001
  6
Continuous
 62
     7
100
AcDbCircle
 10
1434.0
 20
1449.0
 30
0.0
 40
13.0
100
AcDbArc
 50
270.0
 51
90.0
  0
LWPOLYLINE
  5
1EA
330
B
100
AcDbEntity
  8
LEVEL001
  6
Continuous
 62
     7
100
AcDbPolyline
 90
        4
 70
     0
 43
0.0
 10
1300.0
 20
1484.0
 10
1297.0
 20
1484.0
 10
1297.0
 20
1475.0
 10
1253.5
 20
1462.0
  0
ARC
  5
1EB
330
B
100
AcDbEntity
  8
LEVEL001
  6
Continuous
 62
     7
100
AcDbCircle
 10
1210.0
 20
1449.0
 30
0.0
 40
13.0
100
AcDbArc
 50
90.0
 51
270.0
  0
LWPOLYLINE
  5
1EC
330
B
100
AcDbEntity
  8
LEVEL001
  6
Continuous
 62
     7
100
AcDbPolyline
 90
        4
 70
     1
 43
0.0
 10
1344.0
 20
1484.0
 10
1344.0
 20
1502.0
 10
1300.0
 20
1502.0
 10
1300.0
 20
1484.0
  0
LWPOLYLINE
  5
1ED
330
B
100
AcDbEntity
  8
LEVEL001
  6
Continuous
 62
     7
100
AcDbPolyline
 90
        4
 70
     0
 43
0.0
 10
1308.0
 20
1436.0
 10
1308.0
 20
1335.0
 10
1336.0
 20
1335.0
 10
1336.0
 20
1436.0
  0
CIRCLE
  5
1EE
330
B
100
AcDbEntity
  8
LEVEL001
  6
Continuous
 62
     7
100
AcDbCircle
 10
1148.0
 20
1590.0
 30
0.0
 40
15.0
  0
CIRCLE
  5
1EF
330
B
100
AcDbEntity
  8
LEVEL001
  6
Continuous
 62
     7
100
AcDbCircle
 10
600.0
 20
1590.0
 30
0.0
 40
15.0
  0
LWPOLYLINE
  5
1F0
330
B
100
AcDbEntity
  8
LEVEL001
  6
Continuous
 62
     7
100
AcDbPolyline
 90
        4
 70
     1
 43
0.0
 10
1207.0
 20
2117.0
 10
1437.0
 20
2117.0
 10
1437.0
 20
1515.0
 10
1207.0
 20
1515.0
  0
LWPOLYLINE
  5
1F1
330
B
100
AcDbEntity
  8
LEVEL001
  6
Continuous
 62
     7
100
AcDbPolyline
 90
        4
 70
     1
 43
0.0
 10
311.0
 20
1515.0
 10
541.0
 20
1515.0
 10
541.0
 20
2117.0
 10
311.0
 20
2117.0
  0
POINT
  5
1F2
330
B
100
AcDbEntity
  8
LEVEL001
 62
     7
100
AcDbPoint
 10
366.0
 20
1745.0
 30
0.0
  0
POINT
  5
1F3
330
B
100
AcDbEntity
  8
LEVEL001
 62
     7
100
AcDbPoint
 10
474.0
 20
1745.0
 30
0.0
  0
POINT
  5
1F4
330
B
100
AcDbEntity
  8
LEVEL001
 62
     7
100
AcDbPoint
 10
1274.0
 20
1745.0
 30
0.0
  0
POINT
  5
1F5
330
B
100
AcDbEntity
  8
LEVEL001
 62
     7
100
AcDbPoint
 10
1382.0
 20
1745.0
 30
0.0
  0
LWPOLYLINE
  5
1F6
330
B
100
AcDbEntity
  8
LEVEL001
  6
Continuous
 62
     7
100
AcDbPolyline
 90
        4
 70
     0
 43
0.0
 10
1307.0
 20
1515.0
 10
1307.0
 20
1502.0
 10
1337.0
 20
1502.0
 10
1337.0
 20
1515.0
  0
LINE
  5
1F7
330
B
100
AcDbEntity
  8
LEVEL001
  6
HIDDEN
 62
     1
100
AcDbLine
 10
1337.0
 20
1702.0
 30
0.0
 11
1337.0
 21
1515.0
 31
0.0
  0
LINE
  5
1F8
330
B
100
AcDbEntity
  8
LEVEL001
  6
HIDDEN
 62
     1
100
AcDbLine
 10
1307.0
 20
1515.0
 30
0.0
 11
1307.0
 21
1702.0
 31
0.0
  0
LINE
  5
1F9
330
B
100
AcDbEntity
  8
LEVEL001
  6
Continuous
 62
     7
100
AcDbLine
 10
1257.0
 20
2117.0
 30
0.0
 11
491.0
 21
2117.0
 31
0.0
  0
LWPOLYLINE
  5
1FA
330
B
100
AcDbEntity
  8
LEVEL001
  6
Continuous
 62
     7
100
AcDbPolyline
 90
        5
 70
     0
 43
0.0
 10
1207.0
 20
1516.0
 10
1206.0
 20
1516.0
 10
1206.0
 20
2118.0
 10
1257.0
 20
2118.0
 10
1257.0
 20
2117.0
  0
LWPOLYLINE
  5
1FB
330
B
100
AcDbEntity
  8
LEVEL001
  6
Continuous
 62
     7
100
AcDbPolyline
 90
        4
 70
     1
 43
0.0
 10
322.0
 20
1515.0
 10
322.0
 20
1513.5
 10
502.0
 20
1513.5
 10
502.0
 20
1515.0
  0
LWPOLYLINE
  5
1FC
330
B
100
AcDbEntity
  8
LEVEL001
  6
Continuous
 62
     7
100
AcDbPolyline
 90
        8
 70
     0
 43
0.0
 10
332.75
 20
1513.5
 10
332.75
 20
1503.5
 10
336.5
 20
1503.5
 10
336.5
 20
1497.5
 10
361.5
 20
1497.5
 10
361.5
 20
1503.5
 10
365.25
 20
1503.5
 10
365.25
 20
1513.5
  0
LINE
  5
1FD
330
B
100
AcDbEntity
  8
LEVEL001
  6
Continuous
 62
     7
100
AcDbLine
 10
336.5
 20
1503.5
 30
0.0
 11
361.5
 21
1503.5
 31
0.0
  0
LWPOLYLINE
  5
1FE
330
B
100
AcDbEntity
  8
LEVEL001
  6
Continuous
 62
     7
100
AcDbPolyline
 90
        8
 70
     0
 43
0.0
 10
372.75
 20
1513.5
 10
372.75
 20
1503.5
 10
376.5
 20
1503.5
 10
376.5
 20
1497.5
 10
401.4999999999999
 20
1497.5
 10
401.4999999999999
 20
1503.5
 10
405.25
 20
1503.5
 10
405.25
 20
1513.5
  0
LINE
  5
1FF
330
B
100
AcDbEntity
  8
LEVEL001
  6
Continuous
 62
     7
100
AcDbLine
 10
376.5
 20
1503.5
 30
0.0
 11
401.4999999999999
 21
1503.5
 31
0.0
  0
LWPOLYLINE
  5
200
330
B
100
AcDbEntity
  8
LEVEL001
  6
Continuous
 62
     7
100
AcDbPolyline
 90
        4
 70
     0
 43
0.0
 10
449.75
 20
1509.5
 10
449.75
 20
1510.0
 10
458.25
 20
1510.0
 10
458.25
 20
1509.5
  0
LINE
  5
201
330
B
100
AcDbEntity
  8
LEVEL001
  6
Continuous
 62
     7
100
AcDbLine
 10
450.9896013552999
 20
1510.0
 30
0.0
 11
450.9896013552999
 21
1506.5
 31
0.0
  0
LINE
  5
202
330
B
100
AcDbEntity
  8
LEVEL001
  6
Continuous
 62
     7
100
AcDbLine
 10
457.0103986447
 20
1510.0
 30
0.0
 11
457.0103986447
 21
1506.5
 31
0.0
  0
LINE
  5
203
330
B
100
AcDbEntity
  8
LEVEL001
  6
Continuous
 62
     7
100
AcDbLine
 10
450.9896013552999
 20
1509.5
 30
0.0
 11
425.4999999999999
 21
1509.5
 31
0.0
  0
LINE
  5
204
330
B
100
AcDbEntity
  8
LEVEL001
  6
Continuous
 62
     7
100
AcDbLine
 10
482.5
 20
1509.5
 30
0.0
 11
457.0103986447
 21
1509.5
 31
0.0
  0
LWPOLYLINE
  5
205
330
B
100
AcDbEntity
  8
LEVEL001
  6
Continuous
 62
     7
100
AcDbPolyline
 90
        8
 70
     1
 43
0.0
 10
422.4999999999999
 20
1513.5
 10
422.4999999999999
 20
1509.5
 10
425.4999999999999
 20
1509.5
 10
425.4999999999999
 20
1506.5
 10
482.5
 20
1506.5
 10
482.5
 20
1509.5
 10
485.5
 20
1509.5
 10
485.5
 20
1513.5
  0
LINE
  5
206
330
B
100
AcDbEntity
  8
LEVEL001
  6
Continuous
 62
     7
100
AcDbLine
 10
441.0
 20
1505.5
 30
0.0
 11
442.4999999999999
 21
1504.0
 31
0.0
  0
LINE
  5
207
330
B
100
AcDbEntity
  8
LEVEL001
  6
Continuous
 62
     7
100
AcDbLine
 10
465.5
 20
1504.0
 30
0.0
 11
467.0
 21
1505.5
 31
0.0
  0
LWPOLYLINE
  5
208
330
B
100
AcDbEntity
  8
LEVEL001
  6
Continuous
 62
     7
100
AcDbPolyline
 90
        4
 70
     0
 43
0.0
 10
442.4999999999999
 20
1494.0
 10
446.0
 20
1493.5
 10
462.0
 20
1493.5
 10
465.5
 20
1494.0
  0
LWPOLYLINE
  5
209
330
B
100
AcDbEntity
  8
LEVEL001
  6
Continuous
 62
     7
100
AcDbPolyline
 90
        4
 70
     0
 43
0.0
 10
451.4999999999999
 20
1506.5
 10
451.4999999999999
 20
1495.5
 10
456.5
 20
1495.5
 10
456.5
 20
1506.5
  0
LWPOLYLINE
  5
20A
330
B
100
AcDbEntity
  8
LEVEL001
  6
Continuous
 62
     7
100
AcDbPolyline
 90
        4
 70
     0
 43
0.0
 10
452.0
 20
1506.5
 10
452.0
 20
1496.5
 10
456.0
 20
1496.5
 10
456.0
 20
1506.5
  0
LINE
  5
20B
330
B
100
AcDbEntity
  8
LEVEL001
  6
Continuous
 62
     7
100
AcDbLine
 10
453.5
 20
1506.5
 30
0.0
 11
453.5
 21
1495.5
 31
0.0
  0
LINE
  5
20C
330
B
100
AcDbEntity
  8
LEVEL001
  6
Continuous
 62
     7
100
AcDbLine
 10
454.4999999999999
 20
1495.5
 30
0.0
 11
454.4999999999999
 21
1506.5
 31
0.0
  0
LINE
  5
20D
330
B
100
AcDbEntity
  8
LEVEL001
  6
Continuous
 62
     7
100
AcDbLine
 10
452.0
 20
1496.5
 30
0.0
 11
451.4999999999999
 21
1495.5
 31
0.0
  0
LINE
  5
20E
330
B
100
AcDbEntity
  8
LEVEL001
  6
Continuous
 62
     7
100
AcDbLine
 10
456.0
 20
1496.5
 30
0.0
 11
456.5
 21
1495.5
 31
0.0
  0
LWPOLYLINE
  5
20F
330
B
100
AcDbEntity
  8
LEVEL001
  6
Continuous
 62
     7
100
AcDbPolyline
 90
        3
 70
     0
 43
0.0
 10
441.0
 20
1506.5
 10
441.0
 20
1505.5
 10
451.4999999999999
 20
1505.5
  0
LWPOLYLINE
  5
210
330
B
100
AcDbEntity
  8
LEVEL001
  6
Continuous
 62
     7
100
AcDbPolyline
 90
        3
 70
     0
 43
0.0
 10
456.5
 20
1505.5
 10
467.0
 20
1505.5
 10
467.0
 20
1506.5
  0
LWPOLYLINE
  5
211
330
B
100
AcDbEntity
  8
LEVEL001
  6
Continuous
 62
     7
100
AcDbPolyline
 90
        6
 70
     0
 43
0.0
 10
451.4999999999999
 20
1504.0
 10
442.4999999999999
 20
1504.0
 10
442.4999999999999
 20
1494.0
 10
465.5
 20
1494.0
 10
465.5
 20
1504.0
 10
456.5
 20
1504.0
  0
POINT
  5
212
330
B
100
AcDbEntity
  8
LEVEL001
 62
     7
100
AcDbPoint
 10
600.0
 20
1542.0
 30
0.0
  0
POINT
  5
213
330
B
100
AcDbEntity
  8
LEVEL001
 62
     7
100
AcDbPoint
 10
620.0
 20
1542.0
 30
0.0
  0
POINT
  5
214
330
B
100
AcDbEntity
  8
LEVEL001
 62
     7
100
AcDbPoint
 10
600.0
 20
1542.0
 30
0.0
  0
POINT
  5
215
330
B
100
AcDbEntity
  8
LEVEL001
 62
     7
100
AcDbPoint
 10
620.0
 20
1542.0
 30
0.0
  0
LWPOLYLINE
  5
216
330
B
100
AcDbEntity
  8
LEVEL001
  6
Continuous
 62
     7
100
AcDbPolyline
 90
        4
 70
     1
 43
0.0
 10
630.0
 20
1476.0
 10
630.0
 20
1493.7
 10
570.0
 20
1493.7
 10
570.0
 20
1476.0
  0
LWPOLYLINE
  5
217
330
B
100
AcDbEntity
  8
LEVEL001
  6
Continuous
 62
     7
100
AcDbPolyline
 90
        4
 70
     0
 43
0.0
 10
593.0
 20
1493.7
 10
593.0
 20
1511.0
 10
607.0
 20
1511.0
 10
607.0
 20
1493.7
  0
LINE
  5
218
330
B
100
AcDbEntity
  8
LEVEL001
  6
Continuous
 62
     7
100
AcDbLine
 10
593.0
 20
1510.7
 30
0.0
 11
607.0
 21
1510.7
 31
0.0
  0
LWPOLYLINE
  5
219
330
B
100
AcDbEntity
  8
LEVEL001
  6
Continuous
 62
     7
100
AcDbPolyline
 90
        4
 70
     1
 43
0.0
 10
1178.0
 20
1476.0
 10
1178.0
 20
1493.7
 10
1118.0
 20
1493.7
 10
1118.0
 20
1476.0
  0
LWPOLYLINE
  5
21A
330
B
100
AcDbEntity
  8
LEVEL001
  6
Continuous
 62
     7
100
AcDbPolyline
 90
        4
 70
     0
 43
0.0
 10
1141.0
 20
1493.7
 10
1141.0
 20
1511.0
 10
1155.0
 20
1511.0
 10
1155.0
 20
1493.7
  0
LINE
  5
21B
330
B
100
AcDbEntity
  8
LEVEL001
  6
Continuous
 62
     7
100
AcDbLine
 10
1141.0
 20
1510.7
 30
0.0
 11
1155.0
 21
1510.7
 31
0.0
  0
LINE
  5
21C
330
B
100
AcDbEntity
  8
LEVEL001
  6
Continuous
 62
     7
100
AcDbLine
 10
1023.0
 20
1967.0
 30
0.0
 11
1038.0
 21
1967.0
 31
0.0
  0
LINE
  5
21D
330
B
100
AcDbEntity
  8
LEVEL001
  6
Continuous
 62
     7
100
AcDbLine
 10
1078.0
 20
1967.0
 30
0.0
 11
1168.0
 21
1967.0
 31
0.0
  0
LINE
  5
21E
330
B
100
AcDbEntity
  8
LEVEL001
  6
Continuous
 62
     7
100
AcDbLine
 10
710.0
 20
1967.0
 30
0.0
 11
725.0
 21
1967.0
 31
0.0
  0
LWPOLYLINE
  5
21F
330
B
100
AcDbEntity
  8
LEVEL001
  6
Continuous
 62
     7
100
AcDbPolyline
 90
        4
 70
     0
 43
0.0
 10
1023.0
 20
2028.5
 10
1023.0
 20
1542.0
 10
1014.0
 20
1542.0
 10
1014.0
 20
2028.5
  0
LINE
  5
220
330
B
100
AcDbEntity
  8
LEVEL001
  6
Continuous
 62
     7
100
AcDbLine
 10
1033.0
 20
2028.5
 30
0.0
 11
1033.0
 21
2117.0
 31
0.0
  0
LINE
  5
221
330
B
100
AcDbEntity
  8
LEVEL001
  6
Continuous
 62
     7
100
AcDbLine
 10
1014.0
 20
2028.5
 30
0.0
 11
1023.0
 21
2028.5
 31
0.0
  0
LWPOLYLINE
  5
222
330
B
100
AcDbEntity
  8
LEVEL001
  6
Continuous
 62
     7
100
AcDbPolyline
 90
        4
 70
     0
 43
0.0
 10
1078.0
 20
2028.5
 10
1078.0
 20
2116.5
 10
1038.0
 20
2116.5
 10
1038.0
 20
2028.5
  0
LINE
  5
223
330
B
100
AcDbEntity
  8
LEVEL001
  6
Continuous
 62
     7
100
AcDbLine
 10
1038.0
 20
2028.5
 30
0.0
 11
1078.0
 21
2028.5
 31
0.0
  0
LINE
  5
224
330
B
100
AcDbEntity
  8
LEVEL001
  6
Continuous
 62
     7
100
AcDbLine
 10
725.0
 20
2028.5
 30
0.0
 11
734.0
 21
2028.5
 31
0.0
  0
LWPOLYLINE
  5
225
330
B
100
AcDbEntity
  8
LEVEL001
  6
Continuous
 62
     7
100
AcDbPolyline
 90
        4
 70
     0
 43
0.0
 10
670.0
 20
2028.5
 10
670.0
 20
2116.5
 10
710.0
 20
2116.5
 10
710.0
 20
2028.5
  0
LINE
  5
226
330
B
100
AcDbEntity
  8
LEVEL001
  6
Continuous
 62
     7
100
AcDbLine
 10
715.0
 20
2028.5
 30
0.0
 11
715.0
 21
2117.0
 31
0.0
  0
LINE
  5
227
330
B
100
AcDbEntity
  8
LEVEL001
  6
Continuous
 62
     7
100
AcDbLine
 10
1033.0
 20
2067.0
 30
0.0
 11
715.0
 21
2067.0
 31
0.0
  0
LINE
  5
228
330
B
100
AcDbEntity
  8
LEVEL001
  6
Continuous
 62
     7
100
AcDbLine
 10
670.0
 20
2028.5
 30
0.0
 11
710.0
 21
2028.5
 31
0.0
  0
LINE
  5
229
330
B
100
AcDbEntity
  8
LEVEL001
  6
Continuous
 62
     7
100
AcDbLine
 10
1023.0
 20
1967.0
 30
0.0
 11
1038.0
 21
1967.0
 31
0.0
  0
LINE
  5
22A
330
B
100
AcDbEntity
  8
LEVEL001
  6
Continuous
 62
     7
100
AcDbLine
 10
1078.0
 20
1967.0
 30
0.0
 11
1207.0
 21
1967.0
 31
0.0
  0
LINE
  5
22B
330
B
100
AcDbEntity
  8
LEVEL001
  6
Continuous
 62
     7
100
AcDbLine
 10
541.0
 20
1517.0
 30
0.0
 11
580.0
 21
1517.0
 31
0.0
  0
LINE
  5
22C
330
B
100
AcDbEntity
  8
LEVEL001
  6
Continuous
 62
     7
100
AcDbLine
 10
1168.0
 20
1517.0
 30
0.0
 11
1207.0
 21
1517.0
 31
0.0
  0
LINE
  5
22D
330
B
100
AcDbEntity
  8
LEVEL001
  6
Continuous
 62
     7
100
AcDbLine
 10
1168.0
 20
1967.0
 30
0.0
 11
1168.0
 21
1527.0
 31
0.0
  0
LWPOLYLINE
  5
22E
330
B
100
AcDbEntity
  8
LEVEL001
  6
Continuous
 62
     7
100
AcDbPolyline
 90
        3
 70
     0
 43
0.0
 10
580.0
 20
1527.0
 10
580.0
 20
1967.0
 10
670.0
 20
1967.0
  0
LINE
  5
22F
330
B
100
AcDbEntity
  8
LEVEL001
  6
Continuous
 62
     7
100
AcDbLine
 10
1143.0
 20
1575.8578643763
 30
0.0
 11
1143.0
 21
1523.0
 31
0.0
  0
LINE
  5
230
330
B
100
AcDbEntity
  8
LEVEL001
  6
Continuous
 62
     7
100
AcDbLine
 10
1153.0
 20
1523.0
 30
0.0
 11
1153.0
 21
1575.8578643763
 31
0.0
  0
LWPOLYLINE
  5
231
330
B
100
AcDbEntity
  8
LEVEL001
  6
Continuous
 62
     7
100
AcDbPolyline
 90
        3
 70
     0
 43
0.0
 10
1168.0
 20
1527.0
 10
1168.0
 20
1511.0
 10
1153.0
 20
1511.0
  0
LINE
  5
232
330
B
100
AcDbEntity
  8
LEVEL001
  6
Continuous
 62
     7
100
AcDbLine
 10
1168.0
 20
1527.0
 30
0.0
 11
1153.0
 21
1527.0
 31
0.0
  0
LINE
  5
233
330
B
100
AcDbEntity
  8
LEVEL001
  6
Continuous
 62
     7
100
AcDbLine
 10
595.0
 20
1575.8578643763
 30
0.0
 11
595.0
 21
1523.0
 31
0.0
  0
LINE
  5
234
330
B
100
AcDbEntity
  8
LEVEL001
  6
Continuous
 62
     7
100
AcDbLine
 10
605.0
 20
1523.0
 30
0.0
 11
605.0
 21
1575.8578643763
 31
0.0
  0
LINE
  5
235
330
B
100
AcDbEntity
  8
LEVEL001
  6
Continuous
 62
     7
100
AcDbLine
 10
1143.0
 20
1527.0
 30
0.0
 11
605.0
 21
1527.0
 31
0.0
  0
LINE
  5
236
330
B
100
AcDbEntity
  8
LEVEL001
  6
Continuous
 62
     7
100
AcDbLine
 10
595.0
 20
1527.0
 30
0.0
 11
580.0
 21
1527.0
 31
0.0
  0
LWPOLYLINE
  5
237
330
B
100
AcDbEntity
  8
LEVEL001
  6
Continuous
 62
     7
100
AcDbPolyline
 90
        3
 70
     0
 43
0.0
 10
580.0
 20
1527.0
 10
580.0
 20
1511.0
 10
595.0
 20
1511.0
  0
LINE
  5
238
330
B
100
AcDbEntity
  8
LEVEL001
  6
DASHDOT
 62
     1
100
AcDbLine
 10
874.0
 20
2174.0
 30
0.0
 11
874.0
 21
1477.0
 31
0.0
  0
LINE
  5
239
330
B
100
AcDbEntity
  8
LEVEL001
  6
Continuous
 62
     7
100
AcDbLine
 10
580.0
 20
1523.0
 30
0.0
 11
625.0
 21
1523.0
 31
0.0
  0
LWPOLYLINE
  5
23A
330
B
100
AcDbEntity
  8
LEVEL001
  6
Continuous
 62
     7
100
AcDbPolyline
 90
        3
 70
     0
 43
0.0
 10
605.0
 20
1511.0
 10
625.0
 20
1511.0
 10
625.0
 20
1527.0
  0
LINE
  5
23B
330
B
100
AcDbEntity
  8
LEVEL001
  6
Continuous
 62
     7
100
AcDbLine
 10
1168.0
 20
1523.0
 30
0.0
 11
1123.0
 21
1523.0
 31
0.0
  0
LWPOLYLINE
  5
23C
330
B
100
AcDbEntity
  8
LEVEL001
  6
Continuous
 62
     7
100
AcDbPolyline
 90
        3
 70
     0
 43
0.0
 10
1143.0
 20
1511.0
 10
1123.0
 20
1511.0
 10
1123.0
 20
1527.0
  0
LINE
  5
23D
330
B
100
AcDbEntity
  8
LEVEL001
  6
Continuous
 62
     7
100
AcDbLine
 10
625.0
 20
1517.0
 30
0.0
 11
1123.0
 21
1517.0
 31
0.0
  0
LWPOLYLINE
  5
23E
330
B
100
AcDbEntity
  8
LEVEL001
  6
Continuous
 62
     7
100
AcDbPolyline
 90
        4
 70
     1
 43
0.0
 10
1023.0
 20
1240.9
 10
1014.0
 20
1240.9
 10
1014.0
 20
1290.9
 10
1023.0
 20
1290.9
  0
LWPOLYLINE
  5
23F
330
B
100
AcDbEntity
  8
LEVEL001
  6
Continuous
 62
     7
100
AcDbPolyline
 90
        4
 70
     1
 43
0.0
 10
725.0
 20
1240.9
 10
734.0
 20
1240.9
 10
734.0
 20
1290.9
 10
725.0
 20
1290.9
  0
LINE
  5
240
330
B
100
AcDbEntity
  8
LEVEL001
  6
Continuous
 62
     7
100
AcDbLine
 10
734.0
 20
1250.9
 30
0.0
 11
1014.0
 21
1250.9
 31
0.0
  0
LINE
  5
241
330
B
100
AcDbEntity
  8
LEVEL001
  6
Continuous
 62
     7
100
AcDbLine
 10
670.0
 20
1310.9
 30
0.0
 11
710.0
 21
1310.9
 31
0.0
  0
LINE
  5
242
330
B
100
AcDbEntity
  8
LEVEL001
  6
Continuous
 62
     7
100
AcDbLine
 10
1038.0
 20
1310.9
 30
0.0
 11
1078.0
 21
1310.9
 31
0.0
  0
LINE
  5
243
330
B
100
AcDbEntity
  8
LEVEL001
  6
Continuous
 62
     7
100
AcDbLine
 10
725.0
 20
1278.4
 30
0.0
 11
710.0
 21
1278.4
 31
0.0
  0
LWPOLYLINE
  5
244
330
B
100
AcDbEntity
  8
LEVEL001
  6
Continuous
 62
     7
100
AcDbPolyline
 90
        4
 70
     0
 43
0.0
 10
670.0
 20
1278.4
 10
640.0
 20
1278.4
 10
640.0
 20
1253.4
 10
670.0
 20
1253.4
  0
LINE
  5
245
330
B
100
AcDbEntity
  8
LEVEL001
  6
Continuous
 62
     7
100
AcDbLine
 10
710.0
 20
1253.4
 30
0.0
 11
725.0
 21
1253.4
 31
0.0
  0
LINE
  5
246
330
B
100
AcDbEntity
  8
LEVEL001
  6
Continuous
 62
     7
100
AcDbLine
 10
1023.0
 20
1278.4
 30
0.0
 11
1038.0
 21
1278.4
 31
0.0
  0
LWPOLYLINE
  5
247
330
B
100
AcDbEntity
  8
LEVEL001
  6
Continuous
 62
     7
100
AcDbPolyline
 90
        4
 70
     0
 43
0.0
 10
1078.0
 20
1278.4
 10
1108.0
 20
1278.4
 10
1108.0
 20
1253.4
 10
1078.0
 20
1253.4
  0
LINE
  5
248
330
B
100
AcDbEntity
  8
LEVEL001
  6
Continuous
 62
     7
100
AcDbLine
 10
1038.0
 20
1253.4
 30
0.0
 11
1023.0
 21
1253.4
 31
0.0
  0
LINE
  5
249
330
B
100
AcDbEntity
  8
LEVEL001
  6
Continuous
 62
     7
100
AcDbLine
 10
734.0
 20
1262.3
 30
0.0
 11
1014.0
 21
1262.3
 31
0.0
  0
LINE
  5
24A
330
B
100
AcDbEntity
  8
LEVEL001
  6
Continuous
 62
     7
100
AcDbLine
 10
734.0
 20
1289.5
 30
0.0
 11
1014.0
 21
1289.5
 31
0.0
  0
CIRCLE
  5
24B
330
B
100
AcDbEntity
  8
LEVEL001
  6
Continuous
 62
     7
100
AcDbCircle
 10
1148.0
 20
1224.9
 30
0.0
 40
30.0
  0
CIRCLE
  5
24C
330
B
100
AcDbEntity
  8
LEVEL001
  6
Continuous
 62
     7
100
AcDbCircle
 10
1148.0
 20
1224.9
 30
0.0
 40
12.5
  0
CIRCLE
  5
24D
330
B
100
AcDbEntity
  8
LEVEL001
  6
Continuous
 62
     7
100
AcDbCircle
 10
600.0
 20
1224.9
 30
0.0
 40
30.0
  0
CIRCLE
  5
24E
330
B
100
AcDbEntity
  8
LEVEL001
  6
Continuous
 62
     7
100
AcDbCircle
 10
600.0
 20
1224.9
 30
0.0
 40
12.5
  0
LWPOLYLINE
  5
24F
330
B
100
AcDbEntity
  8
LEVEL001
  6
Continuous
 62
     7
100
AcDbPolyline
 90
        4
 70
     0
 43
0.0
 10
710.0
 20
1240.9
 10
710.0
 20
1316.0
 10
670.0
 20
1316.0
 10
670.0
 20
1240.9
  0
LWPOLYLINE
  5
250
330
B
100
AcDbEntity
  8
LEVEL001
  6
Continuous
 62
     7
100
AcDbPolyline
 90
        4
 70
     0
 43
0.0
 10
1038.0
 20
1240.9
 10
1038.0
 20
1316.0
 10
1078.0
 20
1316.0
 10
1078.0
 20
1240.9
  0
POINT
  5
251
330
B
100
AcDbEntity
  8
LEVEL001
 62
     7
100
AcDbPoint
 10
500.0
 20
820.0
 30
0.0
  0
LINE
  5
252
330
B
100
AcDbEntity
  8
LEVEL001
  6
Continuous
 62
     7
100
AcDbLine
 10
539.0
 20
820.0
 30
0.0
 11
580.0
 21
820.0
 31
0.0
  0
LWPOLYLINE
  5
253
330
B
100
AcDbEntity
  8
LEVEL001
  6
Continuous
 62
     7
100
AcDbPolyline
 90
        4
 70
     1
 43
0.0
 10
309.0
 20
252.0
 10
539.0
 20
252.0
 10
539.0
 20
1132.0
 10
309.0
 20
1132.0
  0
POINT
  5
254
330
B
100
AcDbEntity
  8
LEVEL001
 62
     7
100
AcDbPoint
 10
325.0
 20
1116.0
 30
0.0
  0
POINT
  5
255
330
B
100
AcDbEntity
  8
LEVEL001
 62
     7
100
AcDbPoint
 10
495.0
 20
1116.0
 30
0.0
  0
POINT
  5
256
330
B
100
AcDbEntity
  8
LEVEL001
 62
     7
100
AcDbPoint
 10
495.0
 20
976.0
 30
0.0
  0
POINT
  5
257
330
B
100
AcDbEntity
  8
LEVEL001
 62
     7
100
AcDbPoint
 10
325.0
 20
976.0
 30
0.0
  0
LWPOLYLINE
  5
258
330
B
100
AcDbEntity
  8
LEVEL001
  6
Continuous
 62
     7
100
AcDbPolyline
 90
        4
 70
     0
 43
0.0
 10
489.0
 20
252.0
 10
489.0
 20
250.0
 10
539.0
 20
250.0
 10
539.0
 20
813.0
  0
LINE
  5
259
330
B
100
AcDbEntity
  8
LEVEL001
  6
Continuous
 62
     7
100
AcDbLine
 10
539.0
 20
813.0
 30
0.0
 11
539.0
 21
820.0
 31
0.0
  0
LWPOLYLINE
  5
25A
330
B
100
AcDbEntity
  8
LEVEL001
  6
Continuous
 62
     7
100
AcDbPolyline
 90
        3
 70
     0
 43
0.0
 10
489.0
 20
250.0
 10
449.0
 20
250.0
 10
449.0
 20
252.0
  0
INSERT
  5
25B
330
B
100
AcDbEntity
  8
0
100
AcDbBlockReference
  2
EGF11M16
 10
469.0
 20
250.0
 30
0.0
 50
270.0
  0
INSERT
  5
25C
330
B
100
AcDbEntity
  8
0
100
AcDbBlockReference
  2
EGF13M16
 10
469.0
 20
235.0
 30
0.0
 50
90.0
  0
LINE
  5
25D
330
B
100
AcDbEntity
  8
LEVEL001
  6
Continuous
 62
     7
100
AcDbLine
 10
461.0
 20
237.0
 30
0.0
 11
461.0
 21
235.0
 31
0.0
  0
LINE
  5
25E
330
B
100
AcDbEntity
  8
LEVEL001
  6
Continuous
 62
     7
100
AcDbLine
 10
477.0
 20
235.0
 30
0.0
 11
477.0
 21
237.0
 31
0.0
  0
LINE
  5
25F
330
B
100
AcDbEntity
  8
LEVEL001
  6
DASHDOT
 62
     1
100
AcDbLine
 10
469.0
 20
269.0
 30
0.0
 11
469.0
 21
210.0
 31
0.0
  0
CIRCLE
  5
260
330
B
100
AcDbEntity
  8
LEVEL001
  6
Continuous
 62
     7
100
AcDbCircle
 10
495.0
 20
976.0
 30
0.0
 40
2.75
  0
POINT
  5
261
330
B
100
AcDbEntity
  8
LEVEL001
 62
     7
100
AcDbPoint
 10
452.0
 20
988.0
 30
0.0
  0
POINT
  5
262
330
B
100
AcDbEntity
  8
LEVEL001
 62
     7
100
AcDbPoint
 10
452.0
 20
1062.0
 30
0.0
  0
CIRCLE
  5
263
330
B
100
AcDbEntity
  8
LEVEL001
  6
Continuous
 62
     7
100
AcDbCircle
 10
325.0
 20
976.0
 30
0.0
 40
2.75
  0
POINT
  5
264
330
B
100
AcDbEntity
  8
LEVEL001
 62
     7
100
AcDbPoint
 10
347.0
 20
1046.0
 30
0.0
  0
POINT
  5
265
330
B
100
AcDbEntity
  8
LEVEL001
 62
     7
100
AcDbPoint
 10
387.0
 20
1046.0
 30
0.0
  0
CIRCLE
  5
266
330
B
100
AcDbEntity
  8
LEVEL001
  6
Continuous
 62
     7
100
AcDbCircle
 10
495.0
 20
1116.0
 30
0.0
 40
2.75
  0
LWPOLYLINE
  5
267
330
B
100
AcDbEntity
  8
LEVEL001
  6
Continuous
 62
     7
100
AcDbPolyline
 90
        4
 70
     1
 43
0.0
 10
320.0
 20
1121.0
 10
320.0
 20
971.0
 10
500.0
 20
971.0
 10
500.0
 20
1121.0
  0
CIRCLE
  5
268
330
B
100
AcDbEntity
  8
LEVEL001
  6
Continuous
 62
     7
100
AcDbCircle
 10
325.0
 20
1116.0
 30
0.0
 40
2.75
  0
CIRCLE
  5
269
330
B
100
AcDbEntity
  8
LEVEL001
  6
Continuous
 62
     7
100
AcDbCircle
 10
387.0
 20
1046.0
 30
0.0
 40
16.25
  0
CIRCLE
  5
26A
330
B
100
AcDbEntity
  8
LEVEL001
  6
Continuous
 62
     7
100
AcDbCircle
 10
347.0
 20
1046.0
 30
0.0
 40
16.25
  0
CIRCLE
  5
26B
330
B
100
AcDbEntity
  8
LEVEL001
  6
Continuous
 62
     7
100
AcDbCircle
 10
387.0
 20
1046.0
 30
0.0
 40
12.5
  0
CIRCLE
  5
26C
330
B
100
AcDbEntity
  8
LEVEL001
  6
Continuous
 62
     7
100
AcDbCircle
 10
347.0
 20
1046.0
 30
0.0
 40
12.5
  0
LWPOLYLINE
  5
26D
330
B
100
AcDbEntity
  8
LEVEL001
  6
Continuous
 62
     7
100
AcDbPolyline
 90
        4
 70
     1
 43
0.0
 10
420.5
 20
983.0
 10
483.4999999999999
 20
983.0
 10
483.4999999999999
 20
1067.0
 10
420.5
 20
1067.0
  0
LWPOLYLINE
  5
26E
330
B
100
AcDbEntity
  8
LEVEL001
  6
Continuous
 62
     7
100
AcDbPolyline
 90
        4
 70
     1
 43
0.0
 10
426.0
 20
993.5
 10
478.0
 20
993.5
 10
478.0
 20
1056.5
 10
426.0
 20
1056.5
  0
CIRCLE
  5
26F
330
B
100
AcDbEntity
  8
LEVEL001
  6
Continuous
 62
     7
100
AcDbCircle
 10
452.0
 20
1062.0
 30
0.0
 40
2.25
  0
CIRCLE
  5
270
330
B
100
AcDbEntity
  8
LEVEL001
  6
Continuous
 62
     7
100
AcDbCircle
 10
452.0
 20
988.0
 30
0.0
 40
2.25
  0
ARC
  5
271
330
B
100
AcDbEntity
  8
LEVEL001
  6
Continuous
 62
     7
100
AcDbCircle
 10
452.0
 20
1062.0
 30
0.0
 40
4.25
100
AcDbArc
 50
180.0
 51
0.0
  0
LINE
  5
272
330
B
100
AcDbEntity
  8
LEVEL001
  6
Continuous
 62
     7
100
AcDbLine
 10
447.75
 20
1062.0
 30
0.0
 11
447.75
 21
1067.0
 31
0.0
  0
LINE
  5
273
330
B
100
AcDbEntity
  8
LEVEL001
  6
Continuous
 62
     7
100
AcDbLine
 10
456.25
 20
1062.0
 30
0.0
 11
456.25
 21
1067.0
 31
0.0
  0
ARC
  5
274
330
B
100
AcDbEntity
  8
LEVEL001
  6
Continuous
 62
     7
100
AcDbCircle
 10
452.0
 20
988.0
 30
0.0
 40
4.25
100
AcDbArc
 50
0.0
 51
180.0
  0
LINE
  5
275
330
B
100
AcDbEntity
  8
LEVEL001
  6
Continuous
 62
     7
100
AcDbLine
 10
447.75
 20
988.0
 30
0.0
 11
447.75
 21
983.0
 31
0.0
  0
LINE
  5
276
330
B
100
AcDbEntity
  8
LEVEL001
  6
Continuous
 62
     7
100
AcDbLine
 10
456.25
 20
988.0
 30
0.0
 11
456.25
 21
983.0
 31
0.0
  0
POINT
  5
277
330
B
100
AcDbEntity
  8
LEVEL001
 62
     7
100
AcDbPoint
 10
452.0
 20
1030.2
 30
0.0
  0
LWPOLYLINE
  5
278
330
B
100
AcDbEntity
  8
LEVEL001
  6
Continuous
 62
     7
100
AcDbPolyline
 90
        4
 70
     0
 43
0.0
 10
449.5
 20
1041.4249721603
 10
450.0
 20
1046.45
 10
454.0
 20
1046.45
 10
454.4999999999999
 20
1041.4249721603
  0
LWPOLYLINE
  5
279
330
B
100
AcDbEntity
  8
LEVEL001
  6
Continuous
 62
     7
100
AcDbPolyline
 90
        4
 70
     0
 43
0.0
 10
449.5
 20
1018.9750278397
 10
450.0
 20
1013.95
 10
454.0
 20
1013.95
 10
454.4999999999999
 20
1018.9750278397
  0
LINE
  5
27A
330
B
100
AcDbEntity
  8
LEVEL001
  6
Continuous
 62
     7
100
AcDbLine
 10
451.4999999999999
 20
1046.45
 30
0.0
 11
451.4999999999999
 21
1041.6891252931
 31
0.0
  0
LINE
  5
27B
330
B
100
AcDbEntity
  8
LEVEL001
  6
Continuous
 62
     7
100
AcDbLine
 10
452.5
 20
1046.45
 30
0.0
 11
452.5
 21
1041.6891252931
 31
0.0
  0
CIRCLE
  5
27C
330
B
100
AcDbEntity
  8
LEVEL001
  6
Continuous
 62
     7
100
AcDbCircle
 10
452.0
 20
1030.2
 30
0.0
 40
8.0
  0
ARC
  5
27D
330
B
100
AcDbEntity
  8
LEVEL001
  6
Continuous
 62
     7
100
AcDbCircle
 10
452.00000000056
 20
1014.7434194268
 30
0.0
 40
4.9565805731756
100
AcDbArc
 50
58.91685076577401
 51
121.08314923851
  0
ARC
  5
27E
330
B
100
AcDbEntity
  8
LEVEL001
  6
Continuous
 62
     7
100
AcDbCircle
 10
464.0844413039699
 20
1020.562979641
 30
0.0
 40
4.9565805731756
100
AcDbArc
 50
110.34542219425
 51
172.51172066688
  0
ARC
  5
27F
330
B
100
AcDbEntity
  8
LEVEL001
  6
Continuous
 62
     7
100
AcDbCircle
 10
467.06905182825
 20
1033.6394127449
 30
0.0
 40
4.9565805731756
100
AcDbArc
 50
161.7739936229
 51
223.94029209563
  0
ARC
  5
280
330
B
100
AcDbEntity
  8
LEVEL001
  6
Continuous
 62
     7
100
AcDbCircle
 10
458.70635897365
 20
1044.1258979007
 30
0.0
 40
4.9565805731756
100
AcDbArc
 50
213.20256505145
 51
275.36886352415
  0
ARC
  5
281
330
B
100
AcDbEntity
  8
LEVEL001
  6
Continuous
 62
     7
100
AcDbCircle
 10
445.2936410275399
 20
1044.1258979007
 30
0.0
 40
4.9565805731756
100
AcDbArc
 50
264.63113647994
 51
326.7974349525601
  0
ARC
  5
282
330
B
100
AcDbEntity
  8
LEVEL001
  6
Continuous
 62
     7
100
AcDbCircle
 10
436.9309481729
 20
1033.639412745
 30
0.0
 40
4.9565805731756
100
AcDbArc
 50
316.05970790854
 51
18.226006381169
  0
ARC
  5
283
330
B
100
AcDbEntity
  8
LEVEL001
  6
Continuous
 62
     7
100
AcDbCircle
 10
439.91555869715
 20
1020.562979641
 30
0.0
 40
4.9565805731756
100
AcDbArc
 50
7.4882793371341
 51
69.65457780979701
  0
ARC
  5
284
330
B
100
AcDbEntity
  8
LEVEL001
  6
Continuous
 62
     7
100
AcDbCircle
 10
451.99999999999
 20
1030.2
 30
0.0
 40
11.5
100
AcDbArc
 50
231.42857143251
 51
257.14285714498
  0
ARC
  5
285
330
B
100
AcDbEntity
  8
LEVEL001
  6
Continuous
 62
     7
100
AcDbCircle
 10
452.0
 20
1030.2
 30
0.0
 40
11.5
100
AcDbArc
 50
282.85714285912
 51
308.5714285755
  0
ARC
  5
286
330
B
100
AcDbEntity
  8
LEVEL001
  6
Continuous
 62
     7
100
AcDbCircle
 10
452.0
 20
1030.2
 30
0.0
 40
11.5
100
AcDbArc
 50
334.28571428424
 51
0.0
  0
ARC
  5
287
330
B
100
AcDbEntity
  8
LEVEL001
  6
Continuous
 62
     7
100
AcDbCircle
 10
452.0
 20
1030.2
 30
0.0
 40
11.5
100
AcDbArc
 50
180.00000000273
 51
205.71428571279
  0
ARC
  5
288
330
B
100
AcDbEntity
  8
LEVEL001
  6
Continuous
 62
     7
100
AcDbCircle
 10
452.0000000000099
 20
1030.2
 30
0.0
 40
11.5
100
AcDbArc
 50
128.57142857085
 51
154.28571428184
  0
ARC
  5
289
330
B
100
AcDbEntity
  8
LEVEL001
  6
Continuous
 62
     7
100
AcDbCircle
 10
452.0
 20
1030.2
 30
0.0
 40
11.5
100
AcDbArc
 50
25.714285710169
 51
51.428571428222
  0
ARC
  5
28A
330
B
100
AcDbEntity
  8
LEVEL001
  6
Continuous
 62
     7
100
AcDbCircle
 10
452.00000000002
 20
1030.2
 30
0.0
 40
11.5
100
AcDbArc
 50
77.14285713927499
 51
102.85714285383
  0
ARC
  5
28B
330
B
100
AcDbEntity
  8
LEVEL001
  6
Continuous
 62
     7
100
AcDbCircle
 10
452.0
 20
1030.2
 30
0.0
 40
13.0
100
AcDbArc
 50
100.39033808312
 51
259.60966191688
  0
ARC
  5
28C
330
B
100
AcDbEntity
  8
LEVEL001
  6
Continuous
 62
     7
100
AcDbCircle
 10
452.0
 20
1030.2
 30
0.0
 40
13.0
100
AcDbArc
 50
280.39033808314
 51
79.609661916867
  0
LWPOLYLINE
  5
28D
330
B
100
AcDbEntity
  8
LEVEL001
  6
Continuous
 62
     7
100
AcDbPolyline
 90
        4
 70
     0
 43
0.0
 10
455.0103986446999
 20
991.0
 10
480.4999999999999
 20
991.0
 10
480.4999999999999
 20
1059.0
 10
455.0103986446999
 20
1059.0
  0
LWPOLYLINE
  5
28E
330
B
100
AcDbEntity
  8
LEVEL001
  6
Continuous
 62
     7
100
AcDbPolyline
 90
        4
 70
     0
 43
0.0
 10
448.9896013553
 20
1059.0
 10
423.5
 20
1059.0
 10
423.5
 20
991.0
 10
448.9896013553
 20
991.0
  0
ARC
  5
28F
330
B
100
AcDbEntity
  8
LEVEL001
  6
Continuous
 62
     7
100
AcDbCircle
 10
452.0
 20
1030.2
 30
0.0
 40
20.0
100
AcDbArc
 50
299.99999999981
 51
240.0000000002
  0
CIRCLE
  5
290
330
B
100
AcDbEntity
  8
LEVEL001
  6
Continuous
 62
     7
100
AcDbCircle
 10
352.0
 20
812.0
 30
0.0
 40
16.25
  0
CIRCLE
  5
291
330
B
100
AcDbEntity
  8
LEVEL001
  6
Continuous
 62
     7
100
AcDbCircle
 10
352.0
 20
812.0
 30
0.0
 40
12.5
  0
POINT
  5
292
330
B
100
AcDbEntity
  8
LEVEL001
 62
     7
100
AcDbPoint
 10
1248.0
 20
820.0
 30
0.0
  0
LINE
  5
293
330
B
100
AcDbEntity
  8
LEVEL001
  6
DASHDOT
 62
     1
100
AcDbLine
 10
1273.0
 20
909.0
 30
0.0
 11
1245.0
 21
909.0
 31
0.0
  0
LINE
  5
294
330
B
100
AcDbEntity
  8
LEVEL001
  6
DASHDOT
 62
     1
100
AcDbLine
 10
1404.0
 20
1041.4
 30
0.0
 11
1244.0
 21
1041.4
 31
0.0
  0
LINE
  5
295
330
B
100
AcDbEntity
  8
LEVEL001
  6
DASHDOT
 62
     1
100
AcDbLine
 10
1324.0
 20
1140.0
 30
0.0
 11
1324.0
 21
775.0
 31
0.0
  0
CIRCLE
  5
296
330
B
100
AcDbEntity
  8
LEVEL001
  6
Continuous
 62
     7
100
AcDbCircle
 10
1324.0
 20
1041.4
 30
0.0
 40
12.5
  0
LWPOLYLINE
  5
297
330
B
100
AcDbEntity
  8
LEVEL001
  6
HIDDEN
 62
     1
100
AcDbPolyline
 90
        4
 70
     1
 43
0.0
 10
1306.5
 20
1015.4
 10
1306.5
 20
802.3999999999999
 10
1341.5
 20
802.3999999999999
 10
1341.5
 20
1015.4
  0
LINE
  5
298
330
B
100
AcDbEntity
  8
LEVEL001
  6
Continuous
 62
     7
100
AcDbLine
 10
1168.0
 20
820.0
 30
0.0
 11
1209.0
 21
820.0
 31
0.0
  0
CIRCLE
  5
299
330
B
100
AcDbEntity
  8
LEVEL001
  6
HIDDEN
 62
     1
100
AcDbCircle
 10
1324.0
 20
1041.4
 30
0.0
 40
35.0
  0
CIRCLE
  5
29A
330
B
100
AcDbEntity
  8
LEVEL001
  6
Continuous
 62
     7
100
AcDbCircle
 10
1324.0
 20
940.3999999999999
 30
0.0
 40
14.0
  0
CIRCLE
  5
29B
330
B
100
AcDbEntity
  8
LEVEL001
  6
Continuous
 62
     7
100
AcDbCircle
 10
1324.0
 20
1041.4
 30
0.0
 40
125.0
  0
CIRCLE
  5
29C
330
B
100
AcDbEntity
  8
LEVEL001
  6
Continuous
 62
     7
100
AcDbCircle
 10
1324.0
 20
1041.4
 30
0.0
 40
20.0
  0
CIRCLE
  5
29D
330
B
100
AcDbEntity
  8
LEVEL001
  6
Continuous
 62
     7
100
AcDbCircle
 10
1324.0
 20
1041.4
 30
0.0
 40
33.6
  0
CIRCLE
  5
29E
330
B
100
AcDbEntity
  8
LEVEL001
  6
Continuous
 62
     7
100
AcDbCircle
 10
1324.0
 20
1041.4
 30
0.0
 40
87.0
  0
LWPOLYLINE
  5
29F
330
B
100
AcDbEntity
  8
LEVEL001
  6
Continuous
 62
     7
100
AcDbPolyline
 90
        4
 70
     0
 43
0.0
 10
1209.0
 20
252.0
 10
1209.0
 20
250.0
 10
1259.0
 20
250.0
 10
1259.0
 20
252.0
  0
LWPOLYLINE
  5
2A0
330
B
100
AcDbEntity
  8
LEVEL001
  6
Continuous
 62
     7
100
AcDbPolyline
 90
        3
 70
     0
 43
0.0
 10
1259.0
 20
250.0
 10
1299.0
 20
250.0
 10
1299.0
 20
252.0
  0
INSERT
  5
2A1
330
B
100
AcDbEntity
  8
0
100
AcDbBlockReference
  2
EGF11M16
 10
1279.0
 20
250.0
 30
0.0
 50
270.0
  0
INSERT
  5
2A2
330
B
100
AcDbEntity
  8
0
100
AcDbBlockReference
  2
EGF13M16
 10
1279.0
 20
235.0
 30
0.0
 50
90.0
  0
LINE
  5
2A3
330
B
100
AcDbEntity
  8
LEVEL001
  6
Continuous
 62
     7
100
AcDbLine
 10
1271.0
 20
237.0
 30
0.0
 11
1271.0
 21
235.0
 31
0.0
  0
LINE
  5
2A4
330
B
100
AcDbEntity
  8
LEVEL001
  6
Continuous
 62
     7
100
AcDbLine
 10
1287.0
 20
235.0
 30
0.0
 11
1287.0
 21
237.0
 31
0.0
  0
LINE
  5
2A5
330
B
100
AcDbEntity
  8
LEVEL001
  6
DASHDOT
 62
     1
100
AcDbLine
 10
1279.0
 20
269.0
 30
0.0
 11
1279.0
 21
210.0
 31
0.0
  0
LWPOLYLINE
  5
2A6
330
B
100
AcDbEntity
  8
LEVEL001
  6
Continuous
 62
     7
100
AcDbPolyline
 90
        3
 70
     0
 43
0.0
 10
1439.0
 20
1090.3897948557
 10
1439.0
 20
1132.0
 10
1410.1199163957
 20
1132.0
  0
LWPOLYLINE
  5
2A7
330
B
100
AcDbEntity
  8
LEVEL001
  6
Continuous
 62
     7
100
AcDbPolyline
 90
        3
 70
     0
 43
0.0
 10
1237.8800836043
 20
1132.0
 10
1209.0
 20
1132.0
 10
1209.0
 20
1090.3897948557
  0
LWPOLYLINE
  5
2A8
330
B
100
AcDbEntity
  8
LEVEL001
  6
Continuous
 62
     7
100
AcDbPolyline
 90
        4
 70
     0
 43
0.0
 10
1209.0
 20
992.41020514434
 10
1209.0
 20
252.0
 10
1439.0
 20
252.0
 10
1439.0
 20
992.41020514434
  0
LINE
  5
2A9
330
B
100
AcDbEntity
  8
LEVEL001
  6
Continuous
 62
     7
100
AcDbLine
 10
1208.0
 20
820.0
 30
0.0
 11
1208.0
 21
994.82747591122
 31
0.0
  0
LWPOLYLINE
  5
2AA
330
B
100
AcDbEntity
  8
LEVEL001
  6
Continuous
 62
     7
100
AcDbPolyline
 90
        3
 70
     0
 43
0.0
 10
1208.0
 20
1087.9725240888
 10
1208.0
 20
1131.0
 10
1209.0
 20
1131.0
  0
LINE
  5
2AB
330
B
100
AcDbEntity
  8
LEVEL001
  6
Continuous
 62
     7
100
AcDbLine
 10
539.0
 20
250.0
 30
0.0
 11
1209.0
 21
250.0
 31
0.0
  0
LINE
  5
2AC
330
B
100
AcDbEntity
  8
LEVEL001
  6
Continuous
 62
     7
100
AcDbLine
 10
539.0
 20
300.0
 30
0.0
 11
1209.0
 21
300.0
 31
0.0
  0
LINE
  5
2AD
330
B
100
AcDbEntity
  8
LEVEL001
  6
DASHDOT
 62
     1
100
AcDbLine
 10
1430.0
 20
908.9
 30
0.0
 11
318.0
 21
908.9
 31
0.0
  0
LWPOLYLINE
  5
2AE
330
B
100
AcDbEntity
  8
LEVEL001
  6
Continuous
 62
     7
100
AcDbPolyline
 90
        4
 70
     0
 43
0.0
 10
540.0
 20
820.0
 10
540.0
 20
301.0
 10
1208.0
 20
301.0
 10
1208.0
 20
820.0
  0
LINE
  5
2AF
330
B
100
AcDbEntity
  8
LEVEL001
  6
Continuous
 62
     7
100
AcDbLine
 10
309.0
 20
225.0
 30
0.0
 11
1510.0
 21
225.0
 31
0.0
  0
LWPOLYLINE
  5
2B0
330
B
100
AcDbEntity
  8
LEVEL001
  6
Continuous
 62
     7
100
AcDbPolyline
 90
        3
 70
     0
 43
0.0
 10
580.0
 20
1202.539320225
 10
580.0
 20
1196.9
 10
589.2296703857299
 20
1196.9
  0
LINE
  5
2B1
330
B
100
AcDbEntity
  8
LEVEL001
  6
Continuous
 62
     7
100
AcDbLine
 10
625.3771550809
 20
1240.9
 30
0.0
 11
1122.6228449191
 21
1240.9
 31
0.0
  0
LWPOLYLINE
  5
2B2
330
B
100
AcDbEntity
  8
LEVEL001
  6
Continuous
 62
     7
100
AcDbPolyline
 90
        4
 70
     0
 43
0.0
 10
580.0
 20
1202.539320225
 10
580.0
 20
723.8999999999999
 10
1168.0
 20
723.8999999999999
 10
1168.0
 20
1202.539320225
  0
LWPOLYLINE
  5
2B3
330
B
100
AcDbEntity
  8
LEVEL001
  6
Continuous
 62
     7
100
AcDbPolyline
 90
        3
 70
     0
 43
0.0
 10
1168.0
 20
1202.539320225
 10
1168.0
 20
1196.9
 10
1158.7703296143
 20
1196.9
  0
LINE
  5
2B4
330
B
100
AcDbEntity
  8
LEVEL001
  6
Continuous
 62
     7
100
AcDbLine
 10
1168.0
 20
992.9
 30
0.0
 11
1208.0
 21
992.9
 31
0.0
  0
LINE
  5
2B5
330
B
100
AcDbEntity
  8
LEVEL001
  6
Continuous
 62
     7
100
AcDbLine
 10
580.0
 20
992.9
 30
0.0
 11
539.0
 21
992.9
 31
0.0
  0
LINE
  5
2B6
330
B
100
AcDbEntity
  8
LEVEL001
  6
DASHDOT
 62
     1
100
AcDbLine
 10
874.0
 20
1336.0
 30
0.0
 11
874.0
 21
185.0
 31
0.0
  0
LINE
  5
2B7
330
B
100
AcDbEntity
  8
LEVEL001
  6
DASHDOT
 62
     1
100
AcDbLine
 10
584.0
 20
1265.9
 30
0.0
 11
1132.0
 21
1265.9
 31
0.0
  0
LWPOLYLINE
  5
2B8
330
B
100
AcDbEntity
  8
LEVEL001
  6
HIDDEN
 62
     1
100
AcDbPolyline
 90
       16
 70
     0
 43
0.0
 10
1093.0
 20
873.9
 10
1093.0
 20
998.9
 10
1088.0
 20
1003.9
 10
1046.0
 20
1014.9
 10
988.0
 20
1018.9
 10
940.0
 20
1011.9
 10
903.0
 20
998.9
 10
898.0
 20
1003.9
 10
898.0
 20
1013.9
 10
903.0
 20
1018.9
 10
930.0
 20
1040.9
 10
970.0
 20
1057.9
 10
1016.0
 20
1063.9
 10
1113.0
 20
1063.9
 10
1118.0
 20
1058.9
 10
1118.0
 20
873.9
  0
LINE
  5
2B9
330
B
100
AcDbEntity
  8
LEVEL001
  6
HIDDEN
 62
     1
100
AcDbLine
 10
1093.0
 20
873.9
 30
0.0
 11
1118.0
 21
873.9
 31
0.0
  0
LWPOLYLINE
  5
2BA
330
B
100
AcDbEntity
  8
LEVEL001
  6
HIDDEN
 62
     1
100
AcDbPolyline
 90
       16
 70
     0
 43
0.0
 10
655.0
 20
943.9
 10
655.0
 20
818.9
 10
660.0
 20
813.8999999999999
 10
702.0
 20
802.8999999999999
 10
760.0
 20
798.8999999999999
 10
808.0
 20
805.8999999999999
 10
845.0
 20
818.9
 10
850.0
 20
813.8999999999999
 10
850.0
 20
803.8999999999999
 10
845.0
 20
798.8999999999999
 10
818.0
 20
776.9
 10
778.0
 20
759.9
 10
732.0
 20
753.8999999999999
 10
635.0
 20
753.8999999999999
 10
630.0
 20
758.8999999999999
 10
630.0
 20
943.9
  0
LINE
  5
2BB
330
B
100
AcDbEntity
  8
LEVEL001
  6
HIDDEN
 62
     1
100
AcDbLine
 10
630.0
 20
943.9
 30
0.0
 11
655.0
 21
943.9
 31
0.0
  0
LWPOLYLINE
  5
2BC
330
B
100
AcDbEntity
  8
LEVEL001
  6
HIDDEN
 62
     1
100
AcDbPolyline
 90
        4
 70
     0
 43
0.0
 10
625.0
 20
1196.9
 10
625.0
 20
728.8999999999999
 10
1123.0
 20
728.8999999999999
 10
1123.0
 20
1196.9
  0
LWPOLYLINE
  5
2BD
330
B
100
AcDbEntity
  8
LEVEL001
  6
Continuous
 62
     7
100
AcDbPolyline
 90
        3
 70
     0
 43
0.0
 10
1137.2296703857
 20
1196.9
 10
1123.0
 20
1196.9
 10
1123.0
 20
1208.3168760482
  0
LINE
  5
2BE
330
B
100
AcDbEntity
  8
LEVEL001
  6
Continuous
 62
     7
100
AcDbLine
 10
1123.0
 20
1205.9
 30
0.0
 11
625.0
 21
1205.9
 31
0.0
  0
LWPOLYLINE
  5
2BF
330
B
100
AcDbEntity
  8
LEVEL001
  6
Continuous
 62
     7
100
AcDbPolyline
 90
        3
 70
     0
 43
0.0
 10
610.77032961427
 20
1196.9
 10
625.0
 20
1196.9
 10
625.0
 20
1208.3168760482
  0
LINE
  5
2C0
330
B
100
AcDbEntity
  8
LEVEL001
  6
Continuous
 62
     7
100
AcDbLine
 10
1120.0894285261
 20
1213.9
 30
0.0
 11
627.9105714739099
 21
1213.9
 31
0.0
  0
LINE
  5
2C1
330
B
100
AcDbEntity
  8
LEVEL001
  6
Continuous
 62
     7
100
AcDbLine
 10
1121.4670016772
 20
1210.9
 30
0.0
 11
626.5329983228399
 21
1210.9
 31
0.0
  0
DIMENSION
  5
2C2
330
B
100
AcDbEntity
  8
LEVEL001
  6
Continuous
 62
     1
100
AcDbDimension
  2
*D3
 10
264.0
 20
1132.0
 30
0.0
 11
264.0
 21
692.0
 31
0.0
 71
     5
 42
-1.0
  3
GMM003
100
AcDbAlignedDimension
 13
309.0
 23
252.0
 33
0.0
 14
309.0
 24
1132.0
 34
0.0
 50
90.0
100
AcDbRotatedDimension
  0
DIMENSION
  5
2C3
330
B
100
AcDbEntity
  8
LEVEL001
  6
Continuous
 62
     1
100
AcDbDimension
  2
*D4
 10
1439.0
 20
63.0
 30
0.0
 11
874.0
 21
63.0
 31
0.0
 71
     5
 42
-1.0
  3
GMM003
100
AcDbAlignedDimension
 13
309.0
 23
252.0
 33
0.0
 14
1439.0
 24
252.0
 34
0.0
100
AcDbRotatedDimension
  0
DIMENSION
  5
2C4
330
B
100
AcDbEntity
  8
LEVEL001
  6
Continuous
 62
     1
100
AcDbDimension
  2
*D5
 10
264.0
 20
252.0
 30
0.0
 11
264.0
 21
176.5
 31
0.0
 70
   128
 71
     5
 42
-1.0
  3
GMM004
100
AcDbAlignedDimension
 13
321.01892681076
 23
225.0
 33
0.0
 14
309.0
 24
252.0
 34
0.0
 50
90.0
100
AcDbRotatedDimension
  0
DIMENSION
  5
2C5
330
B
100
AcDbEntity
  8
LEVEL001
  6
Continuous
 62
     1
100
AcDbDimension
  2
*D6
 10
196.0
 20
225.0
 30
0.0
 11
196.0
 21
688.4999999999999
 31
0.0
 70
   128
 71
     5
 42
-1.0
  3
GMM005
100
AcDbAlignedDimension
 13
309.0
 23
1132.0
 33
0.0
 14
458.6076951546299
 24
225.0
 34
0.0
 50
270.0
100
AcDbRotatedDimension
  0
DIMENSION
  5
2C6
330
B
100
AcDbEntity
  8
LEVEL001
  6
Continuous
 62
     1
100
AcDbDimension
  2
*D7
 10
127.0
 20
1316.0
 30
0.0
 11
127.0
 21
672.5
 31
0.0
 70
   128
 71
     5
 42
-1.0
  3
GMM006
100
AcDbAlignedDimension
 13
321.01892681076
 23
225.0
 33
0.0
 14
670.0
 24
1316.0
 34
0.0
 50
90.0
100
AcDbRotatedDimension
  0
DIMENSION
  5
2C7
330
B
100
AcDbEntity
  8
LEVEL001
  6
Continuous
 62
     1
100
AcDbDimension
  2
*D8
 10
1614.0
 20
63.0
 30
0.0
 11
2093.0
 21
63.0
 31
0.0
 70
   128
 71
     5
 42
-1.0
  3
GMM007
100
AcDbAlignedDimension
 13
2396.0
 23
250.0
 33
0.0
 14
1614.0
 24
926.3999999999999
 34
0.0
 50
180.0
100
AcDbRotatedDimension
  0
DIMENSION
  5
2C8
330
B
100
AcDbEntity
  8
LEVEL001
  6
Continuous
 62
     1
100
AcDbDimension
  2
*D9
 10
1123.0
 20
612.0
 30
0.0
 11
874.0
 21
612.0
 31
0.0
 71
     5
 42
-1.0
  3
GMM003
100
AcDbAlignedDimension
 13
625.0
 23
728.8999999999999
 33
0.0
 14
1123.0
 24
728.8999999999999
 34
0.0
100
AcDbRotatedDimension
  0
TEXT
  5
2C9
330
B
100
AcDbEntity
  8
LEVEL001
 62
     1
100
AcDbText
 10
2025.0
 20
1691.0
 30
0.0
 40
24.0
  1
安全カバ－
100
AcDbText
  0
TEXT
  5
2CA
330
B
100
AcDbEntity
  8
LEVEL001
 62
     1
100
AcDbText
 10
2025.0
 20
1979.0
 30
0.0
 40
24.0
  1
寸法（Ｗ×Ｄ×Ｈ）
100
AcDbText
  0
TEXT
  5
2CB
330
B
100
AcDbEntity
  8
LEVEL001
 62
     1
100
AcDbText
 10
1981.5
 20
1773.5
 30
0.0
 40
24.0
  1
材
100
AcDbText
  0
TEXT
  5
2CC
330
B
100
AcDbEntity
  8
LEVEL001
 62
     1
100
AcDbText
 10
1981.5
 20
1709.5
 30
0.0
 40
24.0
  1
質
100
AcDbText
  0
TEXT
  5
2CD
330
B
100
AcDbEntity
  8
LEVEL001
 62
     1
100
AcDbText
 10
2025.0
 20
1835.0
 30
0.0
 40
24.0
  1
消  費  電  力
100
AcDbText
  0
TEXT
  5
2CE
330
B
100
AcDbEntity
  8
LEVEL001
 62
     1
100
AcDbText
 10
2025.0
 20
1883.0
 30
0.0
 40
24.0
  1
電          源
100
AcDbText
  0
TEXT
  5
2CF
330
B
100
AcDbEntity
  8
LEVEL001
 62
     1
100
AcDbText
 10
2025.0
 20
1931.0
 30
0.0
 40
24.0
  1
能          力
100
AcDbText
  0
TEXT
  5
2D0
330
B
100
AcDbEntity
  8
LEVEL001
 62
     1
100
AcDbText
 10
2025.0
 20
2027.0
 30
0.0
 40
24.0
  1
型          式
100
AcDbText
  0
TEXT
  5
2D1
330
B
100
AcDbEntity
  8
LEVEL001
 62
     1
100
AcDbText
 10
2025.0
 20
2075.0
 30
0.0
 40
24.0
  1
製　  品  　名
100
AcDbText
  0
TEXT
  5
2D2
330
B
100
AcDbEntity
  8
LEVEL001
 62
     1
100
AcDbText
 10
2025.0
 20
1595.0
 30
0.0
 40
24.0
  1
電源プラグ
100
AcDbText
  0
TEXT
  5
2D3
330
B
100
AcDbEntity
  8
LEVEL001
 62
     1
100
AcDbText
 10
2025.0
 20
1547.0
 30
0.0
 40
24.0
  1
製品重量
100
AcDbText
  0
TEXT
  5
2D4
330
B
100
AcDbEntity
  8
LEVEL001
 62
     1
100
AcDbText
 10
2025.0
 20
1643.0
 30
0.0
 40
24.0
  1
コ－ド長さ
100
AcDbText
  0
TEXT
  5
2D5
330
B
100
AcDbEntity
  8
LEVEL001
 62
     1
100
AcDbText
 10
2289.0
 20
1643.0
 30
0.0
 40
24.0
  1
３．０ｍ
100
AcDbText
  0
TEXT
  5
2D6
330
B
100
AcDbEntity
  8
LEVEL001
 62
     1
100
AcDbText
 10
2289.0
 20
2075.0
 30
0.0
 40
24.0
  1
手打麺専用ネリ機
100
AcDbText
  0
TEXT
  5
2D7
330
B
100
AcDbEntity
  8
LEVEL001
 62
     1
100
AcDbText
 10
2025.0
 20
1787.0
 30
0.0
 40
24.0
  1
ドラム
100
AcDbText
  0
TEXT
  5
2D8
330
B
100
AcDbEntity
  8
LEVEL001
 62
     1
100
AcDbText
 10
2025.0
 20
1739.0
 30
0.0
 40
24.0
  1
羽根
100
AcDbText
  0
TEXT
  5
2D9
330
B
100
AcDbEntity
  8
LEVEL001
 62
     1
100
AcDbText
 10
2289.0
 20
1787.0
 30
0.0
 40
24.0
  1
ＳＵＳ３０４
100
AcDbText
  0
TEXT
  5
2DA
330
B
100
AcDbEntity
  8
LEVEL001
 62
     1
100
AcDbText
 10
2289.0
 20
1691.0
 30
0.0
 40
24.0
  1
ＳＵＳ３０４
100
AcDbText
  0
TEXT
  5
2DB
330
B
100
AcDbEntity
  8
LEVEL001
 62
     1
100
AcDbText
 10
2289.0
 20
2027.0
 30
0.0
 40
24.0
  1
プレスニ－ダ－　ＰＮ－２５型
100
AcDbText
  0
TEXT
  5
2DC
330
B
100
AcDbEntity
  8
LEVEL001
 62
     1
100
AcDbText
 10
2289.0
 20
1979.0
 30
0.0
 40
24.0
  1
１，１３０×７８２×１，０９１
100
AcDbText
  0
TEXT
  5
2DD
330
B
100
AcDbEntity
  8
LEVEL001
 62
     1
100
AcDbText
 10
2289.0
 20
1931.0
 30
0.0
 40
24.0
  1
１５ｋｇ～２５ｋｇ／回
100
AcDbText
  0
TEXT
  5
2DE
330
B
100
AcDbEntity
  8
LEVEL001
 62
     1
100
AcDbText
 10
2289.0
 20
1835.0
 30
0.0
 40
24.0
  1
１．５ｋＷ
100
AcDbText
  0
TEXT
  5
2DF
330
B
100
AcDbEntity
  8
LEVEL001
 62
     1
100
AcDbText
 10
2289.0
 20
1739.0
 30
0.0
 40
24.0
  1
ＳＵＳ３０４
100
AcDbText
  0
TEXT
  5
2E0
330
B
100
AcDbEntity
  8
LEVEL001
 62
     1
100
AcDbText
 10
2289.0
 20
1547.0
 30
0.0
 40
24.0
  1
４７０ｋｇ
100
AcDbText
  0
TEXT
  5
2E1
330
B
100
AcDbEntity
  8
LEVEL001
 62
     1
100
AcDbText
 10
2289.0
 20
1883.0
 30
0.0
 40
24.0
  1
３相２００Ｖ　５０／６０Ｈｚ
100
AcDbText
  0
TEXT
  5
2E2
330
B
100
AcDbEntity
  8
LEVEL001
 62
     1
100
AcDbText
 10
2289.0
 20
1595.0
 30
0.0
 40
24.0
  1
４Ｐ２０Ａ
100
AcDbText
  0
ENDSEC
  0
SECTION
  2
OBJECTS
  0
DICTIONARY
  5
56
330
0
100
AcDbDictionary
281
     1
  3
ACAD_COLOR
350
2E8
  3
ACAD_GROUP
350
57
  3
ACAD_LAYOUT
350
2EB
  3
ACAD_MATERIAL
350
2E7
  3
ACAD_MLINESTYLE
350
58
  3
ACAD_PLOTSETTINGS
350
2EC
  3
ACAD_PLOTSTYLENAME
350
2E5
  3
ACAD_TABLESTYLE
350
2E9
  3
ACDBHEADERROUNDTRIPXREC
350
2F7
  3
AcDbVariableDictionary
350
2F2
  0
DICTIONARY
  5
2E8
102
{ACAD_REACTORS
330
56
102
}
330
56
100
AcDbDictionary
281
     1
  0
DICTIONARY
  5
57
102
{ACAD_REACTORS
330
56
102
}
330
0
100
AcDbDictionary
281
     1
  0
DICTIONARY
  5
2EB
102
{ACAD_REACTORS
330
56
102
}
330
56
100
AcDbDictionary
281
     1
  3
Model
350
2ED
  3
レイアウト1
350
2EE
  0
DICTIONARY
  5
2E7
102
{ACAD_REACTORS
330
56
102
}
330
56
100
AcDbDictionary
281
     1
  0
DICTIONARY
  5
58
102
{ACAD_REACTORS
330
56
102
}
330
0
100
AcDbDictionary
281
     1
  3
STANDARD
350
59
  0
DICTIONARY
  5
2EC
102
{ACAD_REACTORS
330
56
102
}
330
56
100
AcDbDictionary
281
     1
  0
ACDBDICTIONARYWDFLT
  5
2E5
102
{ACAD_REACTORS
330
56
102
}
330
56
100
AcDbDictionary
281
     1
  3
Normal
350
2E6
100
AcDbDictionaryWithDefault
340
2E6
  0
DICTIONARY
  5
2E9
102
{ACAD_REACTORS
330
56
102
}
330
56
100
AcDbDictionary
281
     1
  3
Standard
350
2EA
  0
DICTIONARY
  5
2F7
102
{ACAD_REACTORS
330
56
102
}
330
56
100
AcDbDictionary
281
     1
  0
DICTIONARY
  5
2F2
102
{ACAD_REACTORS
330
56
102
}
330
56
100
AcDbDictionary
281
     1
  3
CTABLESTYLE
350
2F3
  3
DIMASSOC
350
2F4
  3
PROJECTNAME
350
2F5
  0
LAYOUT
  5
2ED
102
{ACAD_XDICTIONARY
360
2F8
102
}
102
{ACAD_REACTORS
330
2EB
102
}
330
2EB
100
AcDbPlotSettings
  1

  2
Microsoft XPS Document Writer
  4

  6

 40
0.0
 41
0.0
 42
0.0
 43
0.0
 44
0.0
 45
0.0
 46
0.0
 47
0.0
 48
0.0
 49
0.0
140
0.0
141
0.0
142
1.0
143
1.0
 70
  1712
 72
     0
 73
     0
 74
     0
  7

 75
     0
147
1.0
148
0.0
149
0.0
100
AcDbLayout
  1
Model
 70
     1
 71
     0
 10
0.0
 20
0.0
 11
12.0
 21
9.0
 12
0.0
 22
0.0
 32
0.0
 14
0.0
 24
0.0
 34
0.0
 15
0.0
 25
0.0
 35
0.0
146
0.0
 13
0.0
 23
0.0
 33
0.0
 16
1.0
 26
0.0
 36
0.0
 17
0.0
 27
1.0
 37
0.0
 76
     0
330
B
  0
LAYOUT
  5
2EE
102
{ACAD_XDICTIONARY
360
2FA
102
}
102
{ACAD_REACTORS
330
2EB
102
}
330
2EB
100
AcDbPlotSettings
  1

  2
Microsoft XPS Document Writer
  4

  6

 40
0.0
 41
0.0
 42
0.0
 43
0.0
 44
0.0
 45
0.0
 46
0.0
 47
0.0
 48
0.0
 49
0.0
140
0.0
141
0.0
142
1.0
143
1.0
 70
   688
 72
     0
 73
     0
 74
     5
  7

 75
    16
147
1.0
148
0.0
149
0.0
100
AcDbLayout
  1
レイアウト1
 70
     1
 71
     1
 10
0.0
 20
0.0
 11
12.0
 21
9.0
 12
0.0
 22
0.0
 32
0.0
 14
1.000000000000000E+20
 24
1.000000000000000E+20
 34
1.000000000000000E+20
 15
-1.000000000000000E+20
 25
-1.000000000000000E+20
 35
-1.000000000000000E+20
146
0.0
 13
0.0
 23
0.0
 33
0.0
 16
1.0
 26
0.0
 36
0.0
 17
0.0
 27
1.0
 37
0.0
 76
     0
330
C
  0
MLINESTYLE
  5
59
102
{ACAD_REACTORS
330
58
102
}
330
0
100
AcDbMlineStyle
  2
STANDARD
 70
     0
  3

 62
   256
 51
90.0
 52
90.0
 71
     2
 49
0.5
 62
   256
  6
BYLAYER
 49
-0.5
 62
   256
  6
BYLAYER
  0
ACDBPLACEHOLDER
  5
2E6
102
{ACAD_REACTORS
330
2E5
102
}
330
2E5
  0
TABLESTYLE
  5
2EA
102
{ACAD_REACTORS
330
2E9
102
}
330
2E9
100
AcDbTableStyle
  3
Standard
 70
     0
 71
     0
 40
0.06
 41
0.06
280
     0
281
     0
  7
STANDARD
140
0.18
170
     2
 62
     0
 63
     7
283
     0
274
    -2
284
     1
 64
     0
275
    -2
285
     1
 65
     0
276
    -2
286
     1
 66
     0
277
    -2
287
     1
 67
     0
278
    -2
288
     1
 68
     0
279
    -2
289
     1
 69
     0
  7
STANDARD
140
0.25
170
     5
 62
     0
 63
     7
283
     0
274
    -2
284
     1
 64
     0
275
    -2
285
     1
 65
     0
276
    -2
286
     1
 66
     0
277
    -2
287
     1
 67
     0
278
    -2
288
     1
 68
     0
279
    -2
289
     1
 69
     0
  7
STANDARD
140
0.18
170
     5
 62
     0
 63
     7
283
     0
274
    -2
284
     1
 64
     0
275
    -2
285
     1
 65
     0
276
    -2
286
     1
 66
     0
277
    -2
287
     1
 67
     0
278
    -2
288
     1
 68
     0
279
    -2
289
     1
 69
     0
  0
DICTIONARYVAR
  5
2F3
102
{ACAD_REACTORS
330
2F2
102
}
330
2F2
100
DictionaryVariables
280
     0
  1
STANDARD
  0
DICTIONARYVAR
  5
2F4
102
{ACAD_REACTORS
330
2F2
102
}
330
2F2
100
DictionaryVariables
280
     0
  1
1
  0
DICTIONARYVAR
  5
2F5
102
{ACAD_REACTORS
330
2F2
102
}
330
2F2
100
DictionaryVariables
280
     0
  1

  0
DICTIONARY
  5
2F8
330
2ED
100
AcDbDictionary
280
     1
281
     1
  3
ACAD_XREC_ROUNDTRIP
360
2F9
  0
DICTIONARY
  5
2FA
330
2EE
100
AcDbDictionary
280
     1
281
     1
  3
ACAD_XREC_ROUNDTRIP
360
2FB
  0
XRECORD
  5
2F9
102
{ACAD_REACTORS
330
2F8
102
}
330
2F8
100
AcDbXrecord
280
     1
102
SHADEPLOT
 70
     0
102
SHADEPLOTRESLEVEL
 70
     2
102
SHADEPLOTCUSTOMDPI
 70
   300
  0
XRECORD
  5
2FB
102
{ACAD_REACTORS
330
2FA
102
}
330
2FA
100
AcDbXrecord
280
     1
102
SHADEPLOT
 70
     0
102
SHADEPLOTRESLEVEL
 70
     2
102
SHADEPLOTCUSTOMDPI
 70
   300
  0
ENDSEC
  0
EOF
