   0
SECTION
   2
HEADER
   9
$ACADVER
   1
AC1015
   9
$DWGCODEPAGE
   3
ANSI_932
   9
$LIMMIN
  10
0.0
  20
0.0
   9
$LIMMAX
  10
 4752.0000000000
  20
 3360.0000000000
   9
$EXTMIN
  10
0.0
  20
0.0
  30
0.0
   9
$EXTMAX
  10
 4752.0000000000
  20
 3360.0000000000
  30
0.0
   9
$LTSCALE
  40
 95.040000000000
   9
$HANDSEED
   5
3E4
   0
ENDSEC
   0
SECTION
   2
TABLES
  0
TABLE
  2
VPORT
  5
8
100
AcDbSymbolTable
 70
     1
  0
VPORT
  5
3E3
100
AcDbSymbolTableRecord
100
AcDbViewportTableRecord
  2
*ACTIVE
 70
     0
 10
0.0
 20
0.0
 11
1.0
 21
1.0
  12
 2376.0000000000
  22
 1680.0000000000
 13
0.0
 23
0.0
 14
1.0
 24
1.0
 15
0.0
 25
0.0
 16
0.0
 26
0.0
 36
1.0
 17
0.0
 27
0.0
 37
0.0
  40
 4752.0000000000
  41
 1.4787878787879
 42
50.0
 43
0.0
 44
0.0
 50
0.0
 51
0.0
 71
     0
 72
   100
 73
     1
 74
     1
 75
     0
 76
     0
 77
     0
 78
     0
  0
ENDTAB
  0
TABLE
  2
LTYPE
  5
5
100
AcDbSymbolTable
 70
    25
  0
LTYPE
  5
12
100
AcDbSymbolTableRecord
100
AcDbLinetypeTableRecord
  2
BYBLOCK
 70
     0
  3

 72
    65
 73
     0
 40
0.0
  0
LTYPE
  5
13
100
AcDbSymbolTableRecord
100
AcDbLinetypeTableRecord
  2
BYLAYER
 70
     0
  3

 72
    65
 73
     0
 40
0.0
  0
LTYPE
  5
14
100
AcDbSymbolTableRecord
100
AcDbLinetypeTableRecord
  2
CONTINUOUS
 70
     0
  3
Solid line
 72
    65
 73
     0
 40
0.0
  0
LTYPE
  5
20
100
AcDbSymbolTableRecord
100
AcDbLinetypeTableRecord
  2
BORDER
 70
     0
  3
__ __ . __ __ . __ __ . __ __ . __ __ . __ __ .
 72
    65
 73
     6
 40
1.75
 49
0.5
 74
     0
 49
-0.25
 74
     0
 49
0.5
 74
     0
 49
-0.25
 74
     0
 49
0.0
 74
     0
 49
-0.25
 74
     0
  0
LTYPE
  5
21
100
AcDbSymbolTableRecord
100
AcDbLinetypeTableRecord
  2
BORDER2
 70
     0
  3
__.__.__.__.__.__.__.__.__.__.__.__.__.__.__.__
 72
    65
 73
     6
 40
0.875
 49
0.25
 74
     0
 49
-0.125
 74
     0
 49
0.25
 74
     0
 49
-0.125
 74
     0
 49
0.0
 74
     0
 49
-0.125
 74
     0
  0
LTYPE
  5
22
100
AcDbSymbolTableRecord
100
AcDbLinetypeTableRecord
  2
BORDERX2
 70
     0
  3
____  ____  .  ____  ____  .  ____  ____  .  __
 72
    65
 73
     6
 40
3.5
 49
1.0
 74
     0
 49
-0.5
 74
     0
 49
1.0
 74
     0
 49
-0.5
 74
     0
 49
0.0
 74
     0
 49
-0.5
 74
     0
  0
LTYPE
  5
23
100
AcDbSymbolTableRecord
100
AcDbLinetypeTableRecord
  2
CENTER
 70
     0
  3
____ _ ____ _ ____ _ ____ _ ____ _ ____ _ ____ 
 72
    65
 73
     4
 40
2.0
 49
1.25
 74
     0
 49
-0.25
 74
     0
 49
0.25
 74
     0
 49
-0.25
 74
     0
  0
LTYPE
  5
24
100
AcDbSymbolTableRecord
100
AcDbLinetypeTableRecord
  2
CENTER2
 70
     0
  3
___ _ ___ _ ___ _ ___ _ ___ _ ___ _ ___ _ ___ _
 72
    65
 73
     4
 40
1.125
 49
0.75
 74
     0
 49
-0.125
 74
     0
 49
0.125
 74
     0
 49
-0.125
 74
     0
  0
LTYPE
  5
25
100
AcDbSymbolTableRecord
100
AcDbLinetypeTableRecord
  2
CENTERX2
 70
     0
  3
________  __  ________  __  ________  __  _____
 72
    65
 73
     4
 40
4.0
 49
2.5
 74
     0
 49
-0.5
 74
     0
 49
0.5
 74
     0
 49
-0.5
 74
     0
  0
LTYPE
  5
26
100
AcDbSymbolTableRecord
100
AcDbLinetypeTableRecord
  2
DASHDOT
 70
     0
  3
__ . __ . __ . __ . __ . __ . __ . __ . __ . __
 72
    65
 73
     4
 40
1.0
 49
0.5
 74
     0
 49
-0.25
 74
     0
 49
0.0
 74
     0
 49
-0.25
 74
     0
  0
LTYPE
  5
27
100
AcDbSymbolTableRecord
100
AcDbLinetypeTableRecord
  2
DASHDOT2
 70
     0
  3
_._._._._._._._._._._._._._._._._._._._._._._._
 72
    65
 73
     4
 40
0.5
 49
0.25
 74
     0
 49
-0.125
 74
     0
 49
0.0
 74
     0
 49
-0.125
 74
     0
  0
LTYPE
  5
28
100
AcDbSymbolTableRecord
100
AcDbLinetypeTableRecord
  2
DASHDOTX2
 70
     0
  3
____  .  ____  .  ____  .  ____  .  ____  .  __
 72
    65
 73
     4
 40
2.0
 49
1.0
 74
     0
 49
-0.5
 74
     0
 49
0.0
 74
     0
 49
-0.5
 74
     0
  0
LTYPE
  5
29
100
AcDbSymbolTableRecord
100
AcDbLinetypeTableRecord
  2
DASHED
 70
     0
  3
__ __ __ __ __ __ __ __ __ __ __ __ __ __ __ __
 72
    65
 73
     2
 40
0.75
 49
0.5
 74
     0
 49
-0.25
 74
     0
  0
LTYPE
  5
2A
100
AcDbSymbolTableRecord
100
AcDbLinetypeTableRecord
  2
DASHED2
 70
     0
  3
_ _ _ _ _ _ _ _ _ _ _ _ _ _ _ _ _ _ _ _ _ _ _ _
 72
    65
 73
     2
 40
0.375
 49
0.25
 74
     0
 49
-0.125
 74
     0
  0
LTYPE
  5
2B
100
AcDbSymbolTableRecord
100
AcDbLinetypeTableRecord
  2
DASHEDX2
 70
     0
  3
____  ____  ____  ____  ____  ____  ____  ____ 
 72
    65
 73
     2
 40
1.5
 49
1.0
 74
     0
 49
-0.5
 74
     0
  0
LTYPE
  5
2C
100
AcDbSymbolTableRecord
100
AcDbLinetypeTableRecord
  2
DIVIDE
 70
     0
  3
____ . . ____ . . ____ . . ____ . . ____ . . __
 72
    65
 73
     6
 40
1.25
 49
0.5
 74
     0
 49
-0.25
 74
     0
 49
0.0
 74
     0
 49
-0.25
 74
     0
 49
0.0
 74
     0
 49
-0.25
 74
     0
  0
LTYPE
  5
2D
100
AcDbSymbolTableRecord
100
AcDbLinetypeTableRecord
  2
DIVIDE2
 70
     0
  3
__..__..__..__..__..__..__..__..__..__..__..__.
 72
    65
 73
     6
 40
0.625
 49
0.25
 74
     0
 49
-0.125
 74
     0
 49
0.0
 74
     0
 49
-0.125
 74
     0
 49
0.0
 74
     0
 49
-0.125
 74
     0
  0
LTYPE
  5
2E
100
AcDbSymbolTableRecord
100
AcDbLinetypeTableRecord
  2
DIVIDEX2
 70
     0
  3
________  .  .  ________  .  .  ________  .  . 
 72
    65
 73
     6
 40
2.5
 49
1.0
 74
     0
 49
-0.5
 74
     0
 49
0.0
 74
     0
 49
-0.5
 74
     0
 49
0.0
 74
     0
 49
-0.5
 74
     0
  0
LTYPE
  5
2F
100
AcDbSymbolTableRecord
100
AcDbLinetypeTableRecord
  2
DOT
 70
     0
  3
. . . . . . . . . . . . . . . . . . . . . . . .
 72
    65
 73
     2
 40
0.25
 49
0.0
 74
     0
 49
-0.25
 74
     0
  0
LTYPE
  5
30
100
AcDbSymbolTableRecord
100
AcDbLinetypeTableRecord
  2
DOT2
 70
     0
  3
...............................................
 72
    65
 73
     2
 40
0.125
 49
0.0
 74
     0
 49
-0.125
 74
     0
  0
LTYPE
  5
31
100
AcDbSymbolTableRecord
100
AcDbLinetypeTableRecord
  2
DOTX2
 70
     0
  3
.  .  .  .  .  .  .  .  .  .  .  .  .  .  .  . 
 72
    65
 73
     2
 40
0.5
 49
0.0
 74
     0
 49
-0.5
 74
     0
  0
LTYPE
  5
32
100
AcDbSymbolTableRecord
100
AcDbLinetypeTableRecord
  2
HIDDEN
 70
     0
  3
__ __ __ __ __ __ __ __ __ __ __ __ __ __ __ __
 72
    65
 73
     2
 40
0.375
 49
0.25
 74
     0
 49
-0.125
 74
     0
  0
LTYPE
  5
33
100
AcDbSymbolTableRecord
100
AcDbLinetypeTableRecord
  2
HIDDEN2
 70
     0
  3
_ _ _ _ _ _ _ _ _ _ _ _ _ _ _ _ _ _ _ _ _ _ _ _
 72
    65
 73
     2
 40
0.1875
 49
0.125
 74
     0
 49
-0.0625
 74
     0
  0
LTYPE
  5
34
100
AcDbSymbolTableRecord
100
AcDbLinetypeTableRecord
  2
HIDDENX2
 70
     0
  3
____ ____ ____ ____ ____ ____ ____ ____ ____ __
 72
    65
 73
     2
 40
0.75
 49
0.5
 74
     0
 49
-0.25
 74
     0
  0
LTYPE
  5
35
100
AcDbSymbolTableRecord
100
AcDbLinetypeTableRecord
  2
PHANTOM
 70
     0
  3
______  __  __  ______  __  __  ______  __  __ 
 72
    65
 73
     6
 40
2.5
 49
1.25
 74
     0
 49
-0.25
 74
     0
 49
0.25
 74
     0
 49
-0.25
 74
     0
 49
0.25
 74
     0
 49
-0.25
 74
     0
  0
LTYPE
  5
36
100
AcDbSymbolTableRecord
100
AcDbLinetypeTableRecord
  2
PHANTOM2
 70
     0
  3
___ _ _ ___ _ _ ___ _ _ ___ _ _ ___ _ _ ___ _ _
 72
    65
 73
     6
 40
1.25
 49
0.625
 74
     0
 49
-0.125
 74
     0
 49
0.125
 74
     0
 49
-0.125
 74
     0
 49
0.125
 74
     0
 49
-0.125
 74
     0
  0
LTYPE
  5
37
100
AcDbSymbolTableRecord
100
AcDbLinetypeTableRecord
  2
PHANTOMX2
 70
     0
  3
____________    ____    ____    ____________   
 72
    65
 73
     6
 40
5.0
 49
2.5
 74
     0
 49
-0.5
 74
     0
 49
0.5
 74
     0
 49
-0.5
 74
     0
 49
0.5
 74
     0
 49
-0.5
 74
     0
  0
ENDTAB
   0
TABLE
   2
LAYER
   5
2
 100
AcDbSymbolTable
  70
5
   0
LAYER
   5
E
 100
AcDbSymbolTableRecord
 100
AcDbLayerTableRecord
   2
0
  70
0
  62
7
   6
CONTINUOUS
 390
30
   0
LAYER
   5
39
 100
AcDbSymbolTableRecord
 100
AcDbLayerTableRecord
   2
LEVEL001
  70
0
  62
7
   6
CONTINUOUS
 390
30
   0
LAYER
   5
3A
 100
AcDbSymbolTableRecord
 100
AcDbLayerTableRecord
   2
内図枠(作図領域)
  70
0
  62
7
   6
CONTINUOUS
 390
30
   0
LAYER
   5
3B
 100
AcDbSymbolTableRecord
 100
AcDbLayerTableRecord
   2
外図枠(出力紙領域)
  70
0
  62
7
   6
CONTINUOUS
 390
30
   0
LAYER
   5
3C
 100
AcDbSymbolTableRecord
 100
AcDbLayerTableRecord
   2
部品表金額表示用
  70
0
  62
7
   6
CONTINUOUS
 390
30
   0
ENDTAB
  0
TABLE
  2
STYLE
  5
3
100
AcDbSymbolTable
  70
6
  0
STYLE
  5
F
100
AcDbSymbolTableRecord
100
AcDbTextStyleTableRecord
  2
STANDARD
 70
     0
 40
0.0
 41
1.0
 50
0.0
 71
     0
 42
0.2
  3
TXT
  4
BIGFONT
  0
STYLE
  5
38
100
AcDbSymbolTableRecord
100
AcDbTextStyleTableRecord
  2
STANDARD1
 70
     4
 40
0.0
 41
1.0
 50
0.0
 71
     0
 42
0.2
  3
TXT
  4
BIGFONT
   0
STYLE
   5
3D
 100
AcDbSymbolTableRecord
 100
AcDbTextStyleTableRecord
   2
GMM001
  70
0
  40
0.0
  41
 1.0000000000000
  50
0.0
  71
     0
  42
1.0
   3
txt.shx
   4
bigfont.shx
   0
STYLE
   5
3E
 100
AcDbSymbolTableRecord
 100
AcDbTextStyleTableRecord
   2
GMM002
  70
4
  40
0.0
  41
 1.0000000000000
  50
0.0
  71
     0
  42
1.0
   3
txt.shx
   4
bigfont.shx
   0
STYLE
   5
3F
 100
AcDbSymbolTableRecord
 100
AcDbTextStyleTableRecord
   2
GMM003
  70
0
  40
0.0
  41
 0.80000001192093
  50
0.0
  71
     0
  42
1.0
   3
txt.shx
   4
bigfont.shx
   0
STYLE
   5
40
 100
AcDbSymbolTableRecord
 100
AcDbTextStyleTableRecord
   2
GMM004
  70
0
  40
0.0
  41
 0.50000000000000
  50
0.0
  71
     0
  42
1.0
   3
txt.shx
   4
bigfont.shx
   0
ENDTAB
  0
TABLE
  2
VIEW
  5
6
100
AcDbSymbolTable
 70
     0
  0
ENDTAB
  0
TABLE
  2
UCS
  5
7
100
AcDbSymbolTable
 70
     0
  0
ENDTAB
  0
TABLE
  2
APPID
  5
9
100
AcDbSymbolTable
 70
     1
  0
APPID
  5
10
100
AcDbSymbolTableRecord
100
AcDbRegAppTableRecord
  2
ACAD
 70
     0
  0
ENDTAB
   0
TABLE
   2
DIMSTYLE
   5
A
 100
AcDbSymbolTable
  70
5
 100
AcDbDimStyleTable
  0
DIMSTYLE
105
1D
100
AcDbSymbolTableRecord
100
AcDbDimStyleTableRecord
  2
STANDARD
 70
     0
  3

  4

  5

  6

  7

 40
1.0
 41
0.18
 42
0.0625
 43
0.38
 44
0.18
 45
0.0
 46
0.0
 47
0.0
 48
0.0
140
0.18
141
0.09
142
0.0
143
25.4
144
1.0
145
0.0
146
1.0
147
0.09
 71
     0
 72
     0
 73
     1
 74
     1
 75
     0
 76
     0
 77
     0
 78
     0
170
     0
171
     2
172
     0
173
     0
174
     0
175
     0
176
     0
177
     0
178
     0
270
     2
271
     4
272
     4
273
     2
274
     2
340
F
275
     0
280
     0
281
     0
282
     0
283
     1
284
     0
285
     0
286
     0
287
     3
288
     0
   0
DIMSTYLE
 105
41
 100
AcDbSymbolTableRecord
 100
AcDbDimStyleTableRecord
   2
GMM001
  70
0
   3

   4

   5

   6
_OPEN30
   7
_OPEN30
  40
 1.0000000000000
  41
 24.000000000000
  42
0.0
  43
 64.000000000000
  44
 16.000000000000
  45
0.0
  46
0.0
  47
0.0
  48
0.0
 140
 32.000000000000
 141
 8.0000000000000
 142
0.0
 143
 0.39400000000000E-1
 144
 1.0000000000000
 145
0.0
 146
 0.62500000000000
 147
 13.714285714286
  71
0
  72
0
  73
0
  74
0
  75
0
  76
0
  77
3
  78
8
 170
0
 171
2
 172
1
 173
1
 174
0
 175
0
 176
1
 177
1
 178
7
 270
2
 271
6
 272
0
 273
2
 274
2
 340
3D
 275
0
 280
0
 281
0
 282
0
 283
1
 284
0
 285
0
 286
0
 287
5
 288
1
   0
DIMSTYLE
 105
42
 100
AcDbSymbolTableRecord
 100
AcDbDimStyleTableRecord
   2
GMM002
  70
0
   3

   4

   5

   6
_OPEN30
   7
_OPEN30
  40
 1.0000000000000
  41
 24.000000000000
  42
0.0
  43
 64.000000000000
  44
 16.000000000000
  45
0.0
  46
0.0
  47
0.0
  48
0.0
 140
 32.000000000000
 141
 8.0000000000000
 142
0.0
 143
 0.39400000000000E-1
 144
 1.0000000000000
 145
0.0
 146
 0.62500000000000
 147
 8.0000000000000
  71
0
  72
0
  73
0
  74
0
  75
0
  76
0
  77
3
  78
8
 170
0
 171
2
 172
1
 173
1
 174
0
 175
0
 176
1
 177
1
 178
7
 270
2
 271
6
 272
0
 273
2
 274
2
 340
3D
 275
0
 280
0
 281
0
 282
0
 283
1
 284
0
 285
0
 286
0
 287
5
 288
1
   0
DIMSTYLE
 105
43
 100
AcDbSymbolTableRecord
 100
AcDbDimStyleTableRecord
   2
GMM003
  70
0
   3

   4

   5

   6
_OPEN30
   7
_OPEN30
  40
 1.0000000000000
  41
 24.000000000000
  42
0.0
  43
 64.000000000000
  44
 16.000000000000
  45
0.0
  46
0.0
  47
0.0
  48
0.0
 140
 32.000000000000
 141
 8.0000000000000
 142
0.0
 143
 0.39400000000000E-1
 144
 1.0000000000000
 145
0.0
 146
 0.62500000000000
 147
 8.0000000000000
  71
0
  72
0
  73
0
  74
0
  75
0
  76
0
  77
3
  78
8
 170
0
 171
2
 172
1
 173
1
 174
0
 175
0
 176
1
 177
1
 178
7
 270
2
 271
6
 272
0
 273
2
 274
2
 340
3D
 275
1
 280
0
 281
0
 282
0
 283
1
 284
0
 285
0
 286
0
 287
3
 288
0
   0
ENDTAB
  0
TABLE
  2
BLOCK_RECORD
  5
1
100
AcDbSymbolTable
 70
     0
  0
BLOCK_RECORD
  5
18
100
AcDbSymbolTableRecord
100
AcDbBlockTableRecord
  2
*MODEL_SPACE
  0
BLOCK_RECORD
  5
15
100
AcDbSymbolTableRecord
100
AcDbBlockTableRecord
  2
*PAPER_SPACE
   0
BLOCK_RECORD
   5
44
 100
AcDbSymbolTableRecord
 100
AcDbBlockTableRecord
   2
BLOCK001
   0
BLOCK_RECORD
   5
45
 100
AcDbSymbolTableRecord
 100
AcDbBlockTableRecord
   2
BLOCK002
   0
BLOCK_RECORD
   5
46
 100
AcDbSymbolTableRecord
 100
AcDbBlockTableRecord
   2
BLOCK003
   0
BLOCK_RECORD
   5
47
 100
AcDbSymbolTableRecord
 100
AcDbBlockTableRecord
   2
GMM001
   0
BLOCK_RECORD
   5
48
 100
AcDbSymbolTableRecord
 100
AcDbBlockTableRecord
   2
BLOCK004
   0
BLOCK_RECORD
   5
49
 100
AcDbSymbolTableRecord
 100
AcDbBlockTableRecord
   2
*D1
   0
BLOCK_RECORD
   5
4A
 100
AcDbSymbolTableRecord
 100
AcDbBlockTableRecord
   2
BLOCK005
   0
BLOCK_RECORD
   5
4B
 100
AcDbSymbolTableRecord
 100
AcDbBlockTableRecord
   2
BLOCK006
   0
BLOCK_RECORD
   5
4C
 100
AcDbSymbolTableRecord
 100
AcDbBlockTableRecord
   2
BLOCK007
   0
BLOCK_RECORD
   5
4D
 100
AcDbSymbolTableRecord
 100
AcDbBlockTableRecord
   2
*D2
   0
BLOCK_RECORD
   5
4E
 100
AcDbSymbolTableRecord
 100
AcDbBlockTableRecord
   2
*D3
   0
BLOCK_RECORD
   5
4F
 100
AcDbSymbolTableRecord
 100
AcDbBlockTableRecord
   2
BLOCK008
   0
BLOCK_RECORD
   5
50
 100
AcDbSymbolTableRecord
 100
AcDbBlockTableRecord
   2
*D4
   0
BLOCK_RECORD
   5
51
 100
AcDbSymbolTableRecord
 100
AcDbBlockTableRecord
   2
*D5
   0
BLOCK_RECORD
   5
52
 100
AcDbSymbolTableRecord
 100
AcDbBlockTableRecord
   2
*D6
   0
BLOCK_RECORD
   5
53
 100
AcDbSymbolTableRecord
 100
AcDbBlockTableRecord
   2
*D7
   0
BLOCK_RECORD
   5
54
 100
AcDbSymbolTableRecord
 100
AcDbBlockTableRecord
   2
*D8
   0
BLOCK_RECORD
   5
55
 100
AcDbSymbolTableRecord
 100
AcDbBlockTableRecord
   2
_ARCHTICK
   0
BLOCK_RECORD
   5
56
 100
AcDbSymbolTableRecord
 100
AcDbBlockTableRecord
   2
_BOXBLANK
   0
BLOCK_RECORD
   5
57
 100
AcDbSymbolTableRecord
 100
AcDbBlockTableRecord
   2
_BOXFILLED
   0
BLOCK_RECORD
   5
58
 100
AcDbSymbolTableRecord
 100
AcDbBlockTableRecord
   2
_CLOSED
   0
BLOCK_RECORD
   5
59
 100
AcDbSymbolTableRecord
 100
AcDbBlockTableRecord
   2
_CLOSEDBLANK
   0
BLOCK_RECORD
   5
5A
 100
AcDbSymbolTableRecord
 100
AcDbBlockTableRecord
   2
_DATUMBLANK
   0
BLOCK_RECORD
   5
5B
 100
AcDbSymbolTableRecord
 100
AcDbBlockTableRecord
   2
_DATUMFILLED
   0
BLOCK_RECORD
   5
5C
 100
AcDbSymbolTableRecord
 100
AcDbBlockTableRecord
   2
_DOT
   0
BLOCK_RECORD
   5
5D
 100
AcDbSymbolTableRecord
 100
AcDbBlockTableRecord
   2
_DOTBLANK
   0
BLOCK_RECORD
   5
5E
 100
AcDbSymbolTableRecord
 100
AcDbBlockTableRecord
   2
_DOTSMALL
   0
BLOCK_RECORD
   5
5F
 100
AcDbSymbolTableRecord
 100
AcDbBlockTableRecord
   2
_INTEGRAL
   0
BLOCK_RECORD
   5
60
 100
AcDbSymbolTableRecord
 100
AcDbBlockTableRecord
   2
_NONE
   0
BLOCK_RECORD
   5
61
 100
AcDbSymbolTableRecord
 100
AcDbBlockTableRecord
   2
_OBLIQUE
   0
BLOCK_RECORD
   5
62
 100
AcDbSymbolTableRecord
 100
AcDbBlockTableRecord
   2
_OPEN
   0
BLOCK_RECORD
   5
63
 100
AcDbSymbolTableRecord
 100
AcDbBlockTableRecord
   2
_OPEN30
   0
BLOCK_RECORD
   5
64
 100
AcDbSymbolTableRecord
 100
AcDbBlockTableRecord
   2
_OPEN90
   0
BLOCK_RECORD
   5
65
 100
AcDbSymbolTableRecord
 100
AcDbBlockTableRecord
   2
_ORIGIN
   0
ENDTAB
   0
ENDSEC
  0
SECTION
  2
BLOCKS
  0
BLOCK
  5
19
100
AcDbEntity
  8
0
100
AcDbBlockBegin
  2
*MODEL_SPACE
 70
     0
 10
0.0
 20
0.0
 30
0.0
  3
*MODEL_SPACE
  1

  0
ENDBLK
  5
1A
100
AcDbEntity
  8
0
100
AcDbBlockEnd
  0
BLOCK
  5
16
100
AcDbEntity
 67
     1
  8
0
100
AcDbBlockBegin
  2
*PAPER_SPACE
 70
     0
 10
0.0
 20
0.0
 30
0.0
  3
*PAPER_SPACE
  1

  0
ENDBLK
  5
17
100
AcDbEntity
 67
     1
  8
0
100
AcDbBlockEnd
   0
BLOCK
   5
66
 100
AcDbEntity
   8
0
 100
AcDbBlockBegin
   2
_ARCHTICK
  70
0
  10
0.0
  20
0.0
  30
0.0
   3
_ARCHTICK
   0
POLYLINE
   5
67
 100
AcDbEntity
   8
0
 370
-2
   6
BYBLOCK
  62
0
 100
AcDb2dPolyline
  66
1
  10
0.0
  20
0.0
  30
0.0
  70
1
  40
 0.15000000000000
  41
 0.15000000000000
   0
VERTEX
   5
68
 100
AcDbEntity
   8
0
   6
BYBLOCK
  62
0
 100
AcDbVertex
 100
AcDb2dVertex
  10
-0.50000000000000
  20
-0.50000000000000
  30
0.0
  40
 0.15000000000000
  41
 0.15000000000000
   0
VERTEX
   5
69
 100
AcDbEntity
   8
0
   6
BYBLOCK
  62
0
 100
AcDbVertex
 100
AcDb2dVertex
  10
 0.50000000000000
  20
 0.50000000000000
  30
0.0
  40
 0.15000000000000
  41
 0.15000000000000
   0
SEQEND
   5
6A
 100
AcDbEntity
   8
0
   6
BYBLOCK
  62
0
   0
ENDBLK
   5
6B
 100
AcDbEntity
   8
0
 100
AcDbBlockEnd
   0
BLOCK
   5
6C
 100
AcDbEntity
   8
0
 100
AcDbBlockBegin
   2
_OBLIQUE
  70
0
  10
0.0
  20
0.0
  30
0.0
   3
_OBLIQUE
   0
LINE
   5
6D
 100
AcDbEntity
   8
0
 370
-2
 100
AcDbLine
   6
BYBLOCK
  62
0
  10
-0.50000000000000
  20
-0.50000000000000
  30
0.0
  11
 0.50000000000000
  21
 0.50000000000000
  31
0.0
   0
ENDBLK
   5
6E
 100
AcDbEntity
   8
0
 100
AcDbBlockEnd
   0
BLOCK
   5
6F
 100
AcDbEntity
   8
0
 100
AcDbBlockBegin
   2
_BOXBLANK
  70
0
  10
0.0
  20
0.0
  30
0.0
   3
_BOXBLANK
   0
LINE
   5
70
 100
AcDbEntity
   8
0
 370
-2
 100
AcDbLine
   6
BYBLOCK
  62
0
  10
-0.50000000000000
  20
-0.50000000000000
  30
0.0
  11
 0.50000000000000
  21
-0.50000000000000
  31
0.0
   0
LINE
   5
71
 100
AcDbEntity
   8
0
 370
-2
 100
AcDbLine
   6
BYBLOCK
  62
0
  10
 0.50000000000000
  20
-0.50000000000000
  30
0.0
  11
 0.50000000000000
  21
 0.50000000000000
  31
0.0
   0
LINE
   5
72
 100
AcDbEntity
   8
0
 370
-2
 100
AcDbLine
   6
BYBLOCK
  62
0
  10
 0.50000000000000
  20
 0.50000000000000
  30
0.0
  11
-0.50000000000000
  21
 0.50000000000000
  31
0.0
   0
LINE
   5
73
 100
AcDbEntity
   8
0
 370
-2
 100
AcDbLine
   6
BYBLOCK
  62
0
  10
-0.50000000000000
  20
 0.50000000000000
  30
0.0
  11
-0.50000000000000
  21
-0.50000000000000
  31
0.0
   0
LINE
   5
74
 100
AcDbEntity
   8
0
 370
-2
 100
AcDbLine
   6
BYBLOCK
  62
0
  10
-0.50000000000000
  20
0.0
  30
0.0
  11
-1.0000000000000
  21
0.0
  31
0.0
   0
ENDBLK
   5
75
 100
AcDbEntity
   8
0
 100
AcDbBlockEnd
   0
BLOCK
   5
76
 100
AcDbEntity
   8
0
 100
AcDbBlockBegin
   2
_BOXFILLED
  70
0
  10
0.0
  20
0.0
  30
0.0
   3
_BOXFILLED
   0
SOLID
   5
77
 100
AcDbEntity
   8
0
 100
AcDbTrace
   6
BYBLOCK
  62
0
  10
-0.50000000000000
  20
 0.50000000000000
  30
0.0
  11
 0.50000000000000
  21
 0.50000000000000
  31
0.0
  12
-0.50000000000000
  22
-0.50000000000000
  32
0.0
  13
 0.50000000000000
  23
-0.50000000000000
  33
0.0
   0
LINE
   5
78
 100
AcDbEntity
   8
0
 370
-2
 100
AcDbLine
   6
BYBLOCK
  62
0
  10
-0.50000000000000
  20
0.0
  30
0.0
  11
-1.0000000000000
  21
0.0
  31
0.0
   0
ENDBLK
   5
79
 100
AcDbEntity
   8
0
 100
AcDbBlockEnd
   0
BLOCK
   5
7A
 100
AcDbEntity
   8
0
 100
AcDbBlockBegin
   2
_CLOSED
  70
0
  10
0.0
  20
0.0
  30
0.0
   3
_CLOSED
   0
LINE
   5
7B
 100
AcDbEntity
   8
0
 370
-2
 100
AcDbLine
   6
BYBLOCK
  62
0
  10
-1.0000000000000
  20
 0.16666666666667
  30
0.0
  11
0.0
  21
0.0
  31
0.0
   0
LINE
   5
7C
 100
AcDbEntity
   8
0
 370
-2
 100
AcDbLine
   6
BYBLOCK
  62
0
  10
0.0
  20
0.0
  30
0.0
  11
-1.0000000000000
  21
-0.16666666666667
  31
0.0
   0
LINE
   5
7D
 100
AcDbEntity
   8
0
 370
-2
 100
AcDbLine
   6
BYBLOCK
  62
0
  10
-1.0000000000000
  20
 0.16666666666667
  30
0.0
  11
-1.0000000000000
  21
-0.16666666666667
  31
0.0
   0
LINE
   5
7E
 100
AcDbEntity
   8
0
 370
-2
 100
AcDbLine
   6
BYBLOCK
  62
0
  10
0.0
  20
0.0
  30
0.0
  11
-1.0000000000000
  21
0.0
  31
0.0
   0
ENDBLK
   5
7F
 100
AcDbEntity
   8
0
 100
AcDbBlockEnd
   0
BLOCK
   5
80
 100
AcDbEntity
   8
0
 100
AcDbBlockBegin
   2
_OPEN
  70
0
  10
0.0
  20
0.0
  30
0.0
   3
_OPEN
   0
LINE
   5
81
 100
AcDbEntity
   8
0
 370
-2
 100
AcDbLine
   6
BYBLOCK
  62
0
  10
-1.0000000000000
  20
 0.16666666666667
  30
0.0
  11
0.0
  21
0.0
  31
0.0
   0
LINE
   5
82
 100
AcDbEntity
   8
0
 370
-2
 100
AcDbLine
   6
BYBLOCK
  62
0
  10
0.0
  20
0.0
  30
0.0
  11
-1.0000000000000
  21
-0.16666666666667
  31
0.0
   0
LINE
   5
83
 100
AcDbEntity
   8
0
 370
-2
 100
AcDbLine
   6
BYBLOCK
  62
0
  10
0.0
  20
0.0
  30
0.0
  11
-1.0000000000000
  21
0.0
  31
0.0
   0
ENDBLK
   5
84
 100
AcDbEntity
   8
0
 100
AcDbBlockEnd
   0
BLOCK
   5
85
 100
AcDbEntity
   8
0
 100
AcDbBlockBegin
   2
_OPEN30
  70
0
  10
0.0
  20
0.0
  30
0.0
   3
_OPEN30
   0
LINE
   5
86
 100
AcDbEntity
   8
0
 370
-2
 100
AcDbLine
   6
BYBLOCK
  62
0
  10
-1.0000000000000
  20
 0.26794919243110
  30
0.0
  11
0.0
  21
0.0
  31
0.0
   0
LINE
   5
87
 100
AcDbEntity
   8
0
 370
-2
 100
AcDbLine
   6
BYBLOCK
  62
0
  10
0.0
  20
0.0
  30
0.0
  11
-1.0000000000000
  21
-0.26794919243110
  31
0.0
   0
LINE
   5
88
 100
AcDbEntity
   8
0
 370
-2
 100
AcDbLine
   6
BYBLOCK
  62
0
  10
0.0
  20
0.0
  30
0.0
  11
-1.0000000000000
  21
0.0
  31
0.0
   0
ENDBLK
   5
89
 100
AcDbEntity
   8
0
 100
AcDbBlockEnd
   0
BLOCK
   5
8A
 100
AcDbEntity
   8
0
 100
AcDbBlockBegin
   2
_OPEN90
  70
0
  10
0.0
  20
0.0
  30
0.0
   3
_OPEN90
   0
LINE
   5
8B
 100
AcDbEntity
   8
0
 370
-2
 100
AcDbLine
   6
BYBLOCK
  62
0
  10
-0.50000000000000
  20
 0.50000000000000
  30
0.0
  11
0.0
  21
0.0
  31
0.0
   0
LINE
   5
8C
 100
AcDbEntity
   8
0
 370
-2
 100
AcDbLine
   6
BYBLOCK
  62
0
  10
0.0
  20
0.0
  30
0.0
  11
-0.50000000000000
  21
-0.50000000000000
  31
0.0
   0
LINE
   5
8D
 100
AcDbEntity
   8
0
 370
-2
 100
AcDbLine
   6
BYBLOCK
  62
0
  10
0.0
  20
0.0
  30
0.0
  11
-1.0000000000000
  21
0.0
  31
0.0
   0
ENDBLK
   5
8E
 100
AcDbEntity
   8
0
 100
AcDbBlockEnd
   0
BLOCK
   5
8F
 100
AcDbEntity
   8
0
 100
AcDbBlockBegin
   2
_CLOSEDBLANK
  70
0
  10
0.0
  20
0.0
  30
0.0
   3
_CLOSEDBLANK
   0
LINE
   5
90
 100
AcDbEntity
   8
0
 370
-2
 100
AcDbLine
   6
BYBLOCK
  62
0
  10
-1.0000000000000
  20
 0.16666666666667
  30
0.0
  11
0.0
  21
0.0
  31
0.0
   0
LINE
   5
91
 100
AcDbEntity
   8
0
 370
-2
 100
AcDbLine
   6
BYBLOCK
  62
0
  10
0.0
  20
0.0
  30
0.0
  11
-1.0000000000000
  21
-0.16666666666667
  31
0.0
   0
LINE
   5
92
 100
AcDbEntity
   8
0
 370
-2
 100
AcDbLine
   6
BYBLOCK
  62
0
  10
-1.0000000000000
  20
 0.16666666666667
  30
0.0
  11
-1.0000000000000
  21
-0.16666666666667
  31
0.0
   0
ENDBLK
   5
93
 100
AcDbEntity
   8
0
 100
AcDbBlockEnd
   0
BLOCK
   5
94
 100
AcDbEntity
   8
0
 100
AcDbBlockBegin
   2
_DOT
  70
0
  10
0.0
  20
0.0
  30
0.0
   3
_DOT
   0
POLYLINE
   5
95
 100
AcDbEntity
   8
0
 370
-2
   6
BYBLOCK
  62
0
 100
AcDb2dPolyline
  66
1
  10
0.0
  20
0.0
  30
0.0
  70
1
  40
 0.50000000000000
  41
 0.50000000000000
   0
VERTEX
   5
96
 100
AcDbEntity
   8
0
   6
BYBLOCK
  62
0
 100
AcDbVertex
 100
AcDb2dVertex
  10
-0.25000000000000
  20
0.0
  30
0.0
  42
 1.0000000000000
  40
 0.50000000000000
  41
 0.50000000000000
   0
VERTEX
   5
97
 100
AcDbEntity
   8
0
   6
BYBLOCK
  62
0
 100
AcDbVertex
 100
AcDb2dVertex
  10
 0.25000000000000
  20
0.0
  30
0.0
  42
 1.0000000000000
  40
 0.50000000000000
  41
 0.50000000000000
   0
SEQEND
   5
98
 100
AcDbEntity
   8
0
   6
BYBLOCK
  62
0
   0
LINE
   5
99
 100
AcDbEntity
   8
0
 370
-2
 100
AcDbLine
   6
BYBLOCK
  62
0
  10
-0.50000000000000
  20
0.0
  30
0.0
  11
-1.0000000000000
  21
0.0
  31
0.0
   0
ENDBLK
   5
9A
 100
AcDbEntity
   8
0
 100
AcDbBlockEnd
   0
BLOCK
   5
9B
 100
AcDbEntity
   8
0
 100
AcDbBlockBegin
   2
_DOTSMALL
  70
0
  10
0.0
  20
0.0
  30
0.0
   3
_DOTSMALL
   0
POLYLINE
   5
9C
 100
AcDbEntity
   8
0
 370
-2
   6
BYBLOCK
  62
0
 100
AcDb2dPolyline
  66
1
  10
0.0
  20
0.0
  30
0.0
  70
1
  40
 0.50000000000000
  41
 0.50000000000000
   0
VERTEX
   5
9D
 100
AcDbEntity
   8
0
   6
BYBLOCK
  62
0
 100
AcDbVertex
 100
AcDb2dVertex
  10
-0.62500000000000E-1
  20
0.0
  30
0.0
  42
 1.0000000000000
  40
 0.50000000000000
  41
 0.50000000000000
   0
VERTEX
   5
9E
 100
AcDbEntity
   8
0
   6
BYBLOCK
  62
0
 100
AcDbVertex
 100
AcDb2dVertex
  10
 0.62500000000000E-1
  20
0.0
  30
0.0
  42
 1.0000000000000
  40
 0.50000000000000
  41
 0.50000000000000
   0
SEQEND
   5
9F
 100
AcDbEntity
   8
0
   6
BYBLOCK
  62
0
   0
ENDBLK
   5
A0
 100
AcDbEntity
   8
0
 100
AcDbBlockEnd
   0
BLOCK
   5
A1
 100
AcDbEntity
   8
0
 100
AcDbBlockBegin
   2
_DATUMBLANK
  70
0
  10
0.0
  20
0.0
  30
0.0
   3
_DATUMBLANK
   0
LINE
   5
A2
 100
AcDbEntity
   8
0
 370
-2
 100
AcDbLine
   6
BYBLOCK
  62
0
  10
0.0
  20
 0.57735027000000
  30
0.0
  11
-1.0000000000000
  21
0.0
  31
0.0
   0
LINE
   5
A3
 100
AcDbEntity
   8
0
 370
-2
 100
AcDbLine
   6
BYBLOCK
  62
0
  10
-1.0000000000000
  20
0.0
  30
0.0
  11
0.0
  21
-0.57735027000000
  31
0.0
   0
LINE
   5
A4
 100
AcDbEntity
   8
0
 370
-2
 100
AcDbLine
   6
BYBLOCK
  62
0
  10
0.0
  20
-0.57735027000000
  30
0.0
  11
0.0
  21
 0.57735027000000
  31
0.0
   0
ENDBLK
   5
A5
 100
AcDbEntity
   8
0
 100
AcDbBlockEnd
   0
BLOCK
   5
A6
 100
AcDbEntity
   8
0
 100
AcDbBlockBegin
   2
_DATUMFILLED
  70
0
  10
0.0
  20
0.0
  30
0.0
   3
_DATUMFILLED
   0
SOLID
   5
A7
 100
AcDbEntity
   8
0
 100
AcDbTrace
   6
BYBLOCK
  62
0
  10
0.0
  20
 0.57735027000000
  30
0.0
  11
-1.0000000000000
  21
0.0
  31
0.0
  12
0.0
  22
-0.57735027000000
  32
0.0
  13
0.0
  23
-0.57735027000000
  33
0.0
   0
ENDBLK
   5
A8
 100
AcDbEntity
   8
0
 100
AcDbBlockEnd
   0
BLOCK
   5
A9
 100
AcDbEntity
   8
0
 100
AcDbBlockBegin
   2
_ORIGIN
  70
0
  10
0.0
  20
0.0
  30
0.0
   3
_ORIGIN
   0
CIRCLE
   5
AA
 100
AcDbEntity
   8
0
 370
-2
 100
AcDbCircle
   6
BYBLOCK
  62
0
  10
0.0
  20
0.0
  30
0.0
  40
 0.50000000000000
   0
LINE
   5
AB
 100
AcDbEntity
   8
0
 370
-2
 100
AcDbLine
   6
BYBLOCK
  62
0
  10
0.0
  20
0.0
  30
0.0
  11
-1.0000000000000
  21
0.0
  31
0.0
   0
ENDBLK
   5
AC
 100
AcDbEntity
   8
0
 100
AcDbBlockEnd
   0
BLOCK
   5
AD
 100
AcDbEntity
   8
0
 100
AcDbBlockBegin
   2
_NONE
  70
0
  10
0.0
  20
0.0
  30
0.0
   3
_NONE
   0
CIRCLE
   5
AE
 100
AcDbEntity
   8
0
 370
-2
 100
AcDbCircle
   6
BYBLOCK
  62
0
  10
0.0
  20
0.0
  30
0.0
  40
 0.25000000000000
   0
ENDBLK
   5
AF
 100
AcDbEntity
   8
0
 100
AcDbBlockEnd
   0
BLOCK
   5
B0
 100
AcDbEntity
   8
0
 100
AcDbBlockBegin
   2
_DOTBLANK
  70
0
  10
0.0
  20
0.0
  30
0.0
   3
_DOTBLANK
   0
CIRCLE
   5
B1
 100
AcDbEntity
   8
0
 370
-2
 100
AcDbCircle
   6
BYBLOCK
  62
0
  10
0.0
  20
0.0
  30
0.0
  40
 0.50000000000000
   0
LINE
   5
B2
 100
AcDbEntity
   8
0
 370
-2
 100
AcDbLine
   6
BYBLOCK
  62
0
  10
-0.50000000000000
  20
0.0
  30
0.0
  11
-1.0000000000000
  21
0.0
  31
0.0
   0
ENDBLK
   5
B3
 100
AcDbEntity
   8
0
 100
AcDbBlockEnd
   0
BLOCK
   5
B4
 100
AcDbEntity
   8
0
 100
AcDbBlockBegin
   2
_INTEGRAL
  70
0
  10
0.0
  20
0.0
  30
0.0
   3
_INTEGRAL
   0
ARC
   5
B5
 100
AcDbEntity
   8
0
 370
-2
   6
BYBLOCK
  62
0
 100
AcDbCircle
  10
 0.44488800000000
  20
-0.91335000000000E-1
  30
0.0
  40
 0.45416700000000
 100
AcDbArc
  50
 102.00000000000
  51
 168.00000000000
   0
ARC
   5
B6
 100
AcDbEntity
   8
0
 370
-2
   6
BYBLOCK
  62
0
 100
AcDbCircle
  10
-0.44488800000000
  20
 0.91335000000000E-1
  30
0.0
  40
 0.45416700000000
 100
AcDbArc
  50
 282.00000000000
  51
 348.00000000000
   0
ENDBLK
   5
B7
 100
AcDbEntity
   8
0
 100
AcDbBlockEnd
   0
BLOCK
   5
B8
 100
AcDbEntity
   8
0
 100
AcDbBlockBegin
   2
BLOCK001
  70
64
  10
0.0
  20
0.0
  30
0.0
   3
BLOCK001
   0
LINE
   5
B9
 100
AcDbEntity
   8
LEVEL001
 370
30
 100
AcDbLine
   6
CONTINUOUS
  62
7
  10
 3566.6206896552
  20
 288.00000000000
  30
0.0
  11
 4654.6206896552
  21
 288.00000000000
  31
0.0
   0
LINE
   5
BA
 100
AcDbEntity
   8
LEVEL001
 370
30
 100
AcDbLine
   6
CONTINUOUS
  62
7
  10
 3566.6206896552
  20
 192.00000000000
  30
0.0
  11
 4654.6206896552
  21
 192.00000000000
  31
0.0
   0
LINE
   5
BB
 100
AcDbEntity
   8
LEVEL001
 370
30
 100
AcDbLine
   6
CONTINUOUS
  62
7
  10
 3566.6206896552
  20
 288.00000000000
  30
0.0
  11
 3566.6206896552
  21
 192.00000000000
  31
0.0
   0
LINE
   5
BC
 100
AcDbEntity
   8
LEVEL001
 370
30
 100
AcDbLine
   6
CONTINUOUS
  62
7
  10
 3630.6206896552
  20
 288.00000000000
  30
0.0
  11
 3630.6206896552
  21
 192.00000000000
  31
0.0
   0
LINE
   5
BD
 100
AcDbEntity
   8
LEVEL001
 370
30
 100
AcDbLine
   6
CONTINUOUS
  62
7
  10
 4110.6206896552
  20
 288.00000000000
  30
0.0
  11
 4110.6206896552
  21
 192.00000000000
  31
0.0
   0
LINE
   5
BE
 100
AcDbEntity
   8
LEVEL001
 370
30
 100
AcDbLine
   6
CONTINUOUS
  62
7
  10
 4174.6206896552
  20
 288.00000000000
  30
0.0
  11
 4174.6206896552
  21
 192.00000000000
  31
0.0
   0
LINE
   5
BF
 100
AcDbEntity
   8
LEVEL001
 370
30
 100
AcDbLine
   6
CONTINUOUS
  62
7
  10
 4654.6206896552
  20
 288.00000000000
  30
0.0
  11
 4654.6206896552
  21
 192.00000000000
  31
0.0
   0
ENDBLK
   5
C0
 100
AcDbEntity
   8
0
 100
AcDbBlockEnd
   0
BLOCK
   5
C1
 100
AcDbEntity
   8
0
 100
AcDbBlockBegin
   2
BLOCK002
  70
64
  10
0.0
  20
0.0
  30
0.0
   3
BLOCK002
   0
LINE
   5
C2
 100
AcDbEntity
   8
LEVEL001
 370
30
 100
AcDbLine
   6
CONTINUOUS
  62
7
  10
 3566.6206896552
  20
 192.00000000000
  30
0.0
  11
 4654.6206896552
  21
 192.00000000000
  31
0.0
   0
LINE
   5
C3
 100
AcDbEntity
   8
LEVEL001
 370
30
 100
AcDbLine
   6
CONTINUOUS
  62
7
  10
 3870.6206896552
  20
 128.00000000000
  30
0.0
  11
 4654.6206896552
  21
 128.00000000000
  31
0.0
   0
LINE
   5
C4
 100
AcDbEntity
   8
LEVEL001
 370
30
 100
AcDbLine
   6
CONTINUOUS
  62
7
  10
 3566.6206896552
  20
 64.000000000000
  30
0.0
  11
 4654.6206896552
  21
 64.000000000000
  31
0.0
   0
LINE
   5
C5
 100
AcDbEntity
   8
LEVEL001
 370
30
 100
AcDbLine
   6
CONTINUOUS
  62
7
  10
 3566.6206896552
  20
0.0
  30
0.0
  11
 4654.6206896552
  21
0.0
  31
0.0
   0
LINE
   5
C6
 100
AcDbEntity
   8
LEVEL001
 370
30
 100
AcDbLine
   6
CONTINUOUS
  62
7
  10
 3566.6206896552
  20
 192.00000000000
  30
0.0
  11
 3566.6206896552
  21
0.0
  31
0.0
   0
LINE
   5
C7
 100
AcDbEntity
   8
LEVEL001
 370
30
 100
AcDbLine
   6
CONTINUOUS
  62
7
  10
 3630.6206896552
  20
 192.00000000000
  30
0.0
  11
 3630.6206896552
  21
 64.000000000000
  31
0.0
   0
LINE
   5
C8
 100
AcDbEntity
   8
LEVEL001
 370
30
 100
AcDbLine
   6
CONTINUOUS
  62
7
  10
 3870.6206896552
  20
 192.00000000000
  30
0.0
  11
 3870.6206896552
  21
 64.000000000000
  31
0.0
   0
LINE
   5
C9
 100
AcDbEntity
   8
LEVEL001
 370
30
 100
AcDbLine
   6
CONTINUOUS
  62
7
  10
 4110.6206896552
  20
 192.00000000000
  30
0.0
  11
 4110.6206896552
  21
 64.000000000000
  31
0.0
   0
LINE
   5
CA
 100
AcDbEntity
   8
LEVEL001
 370
30
 100
AcDbLine
   6
CONTINUOUS
  62
7
  10
 4174.6206896552
  20
 192.00000000000
  30
0.0
  11
 4174.6206896552
  21
 64.000000000000
  31
0.0
   0
LINE
   5
CB
 100
AcDbEntity
   8
LEVEL001
 370
30
 100
AcDbLine
   6
CONTINUOUS
  62
7
  10
 4334.6206896552
  20
 192.00000000000
  30
0.0
  11
 4334.6206896552
  21
 64.000000000000
  31
0.0
   0
LINE
   5
CC
 100
AcDbEntity
   8
LEVEL001
 370
30
 100
AcDbLine
   6
CONTINUOUS
  62
7
  10
 4390.6206896552
  20
 192.00000000000
  30
0.0
  11
 4390.6206896552
  21
 64.000000000000
  31
0.0
   0
LINE
   5
CD
 100
AcDbEntity
   8
LEVEL001
 370
30
 100
AcDbLine
   6
CONTINUOUS
  62
7
  10
 4438.6206896552
  20
 192.00000000000
  30
0.0
  11
 4438.6206896552
  21
 64.000000000000
  31
0.0
   0
LINE
   5
CE
 100
AcDbEntity
   8
LEVEL001
 370
30
 100
AcDbLine
   6
CONTINUOUS
  62
7
  10
 4494.6206896552
  20
 192.00000000000
  30
0.0
  11
 4494.6206896552
  21
 64.000000000000
  31
0.0
   0
LINE
   5
CF
 100
AcDbEntity
   8
LEVEL001
 370
30
 100
AcDbLine
   6
CONTINUOUS
  62
7
  10
 4654.6206896552
  20
 192.00000000000
  30
0.0
  11
 4654.6206896552
  21
0.0
  31
0.0
   0
ENDBLK
   5
D0
 100
AcDbEntity
   8
0
 100
AcDbBlockEnd
   0
BLOCK
   5
D1
 100
AcDbEntity
   8
0
 100
AcDbBlockBegin
   2
BLOCK003
  70
64
  10
0.0
  20
0.0
  30
0.0
   3
BLOCK003
   0
MTEXT
   5
D3
 100
AcDbEntity
   8
LEVEL001
 370
30
  62
7
 100
AcDbMText
  10
 3864.2207262763
  20
 16.000000000000
  30
0.0
  40
 32.000000000000
  41
0.0
  71
7
  72
1
   1
\T1.800000;さぬき麺機株式会社
   7
GMM001
  44
 0.79999984000003
   0
TEXT
   5
D4
 100
AcDbEntity
   8
LEVEL001
 370
30
  62
7
 100
AcDbText
  10
 3584.6206896552
  20
 280.88885498047
  30
0.0
  40
 4.0000000000000
   1
名称
   7
STANDARD1
 100
AcDbText
   0
TEXT
   5
D5
 100
AcDbEntity
   8
LEVEL001
 370
30
  62
7
 100
AcDbText
  10
 4128.6206896552
  20
 280.88879394531
  30
0.0
  40
 4.0000000000000
   1
図番
   7
STANDARD1
 100
AcDbText
   0
TEXT
   5
D6
 100
AcDbEntity
   8
LEVEL001
 370
30
  62
7
 100
AcDbText
  10
 3584.6206896552
  20
 174.22222264608
  30
0.0
  40
 4.0000000000000
   1
画法
   7
STANDARD1
 100
AcDbText
   0
MTEXT
   5
D8
 100
AcDbEntity
   8
LEVEL001
 370
30
  62
7
 100
AcDbMText
  10
 3653.0206902274
  20
 112.00000000000
  30
0.0
  40
 32.000000000000
  41
0.0
  71
7
  72
1
   1
\T1.700000;第三角法
   7
GMM001
  44
 0.79999984000003
   0
MTEXT
   5
DA
 100
AcDbEntity
   8
LEVEL001
 370
30
  62
7
 100
AcDbMText
  10
 3893.0206902274
  20
 144.00000000000
  30
0.0
  40
 32.000000000000
  41
0.0
  71
7
  72
1
   1
\T1.700000;共通機種
   7
GMM001
  44
 0.79999984000003
   0
MTEXT
   5
DC
 100
AcDbEntity
   8
LEVEL001
 370
30
  62
7
 100
AcDbMText
  10
 4117.0206892776
  20
 144.00000000000
  30
0.0
  40
 32.000000000000
  41
0.0
  71
7
  72
1
   1
\T1.000000;個数
   7
GMM003
  44
 0.79999984000003
   0
MTEXT
   5
DE
 100
AcDbEntity
   8
LEVEL001
 370
30
  62
7
 100
AcDbMText
  10
 4206.6206896552
  20
 144.00000000000
  30
0.0
  40
 32.000000000000
  41
0.0
  71
7
  72
1
   1
\T2.000000;尺度
   7
GMM001
  44
 0.79999984000003
   0
MTEXT
   5
E0
 100
AcDbEntity
   8
LEVEL001
 370
30
  62
7
 100
AcDbMText
  10
 4350.6206896552
  20
 144.00000000000
  30
0.0
  40
 32.000000000000
  41
0.0
  71
7
  72
1
   1
\T1.500000;年月日
   7
GMM001
  44
 0.79999984000003
   0
MTEXT
   5
E2
 100
AcDbEntity
   8
LEVEL001
 370
30
  62
7
 100
AcDbMText
  10
 4526.6206896552
  20
 144.00000000000
  30
0.0
  40
 32.000000000000
  41
0.0
  71
7
  72
1
   1
\T2.000000;製図
   7
GMM001
  44
 0.79999984000003
   0
ENDBLK
   5
E3
 100
AcDbEntity
   8
0
 100
AcDbBlockEnd
   0
BLOCK
   5
E4
 100
AcDbEntity
   8
0
 100
AcDbBlockBegin
   2
GMM001
  70
64
  10
0.0
  20
0.0
  30
0.0
   3
GMM001
   0
LWPOLYLINE
   5
E5
 100
AcDbEntity
   8
LEVEL001
 370
30
   6
CONTINUOUS
  62
7
 100
AcDbPolyline
  90
4
  70
1
  10
-568.00000000000
  20
 394.00000000000
  10
-568.00000000000
  20
0.0
  10
0.0
  20
0.0
  10
0.0
  20
 394.00000000000
   0
ENDBLK
   5
E6
 100
AcDbEntity
   8
0
 100
AcDbBlockEnd
   0
BLOCK
   5
E7
 100
AcDbEntity
   8
0
 100
AcDbBlockBegin
   2
BLOCK004
  70
64
  10
0.0
  20
0.0
  30
0.0
   3
BLOCK004
   0
LINE
   5
E8
 100
AcDbEntity
   8
LEVEL001
 370
30
 100
AcDbLine
   6
CONTINUOUS
  62
7
  10
 2741.7241379310
  20
 936.56036624701
  30
0.0
  11
 2740.7241379310
  21
 936.56036624701
  31
0.0
   0
ARC
   5
E9
 100
AcDbEntity
   8
LEVEL001
 370
30
   6
CONTINUOUS
  62
7
 100
AcDbCircle
  10
 2762.7241379310
  20
 939.56036624701
  30
0.0
  40
 1.0000000000000
 100
AcDbArc
  50
0.0
  51
 90.000000000000
   0
LINE
   5
EA
 100
AcDbEntity
   8
LEVEL001
 370
30
 100
AcDbLine
   6
CONTINUOUS
  62
7
  10
 2762.7241379310
  20
 940.56036624701
  30
0.0
  11
 2742.7241379310
  21
 940.56036624701
  31
0.0
   0
ARC
   5
EB
 100
AcDbEntity
   8
LEVEL001
 370
30
   6
CONTINUOUS
  62
7
 100
AcDbCircle
  10
 2742.7241379310
  20
 939.56036624701
  30
0.0
  40
 1.0000000000000
 100
AcDbArc
  50
 90.000000000000
  51
 180.00000000000
   0
LINE
   5
EC
 100
AcDbEntity
   8
LEVEL001
 370
30
 100
AcDbLine
   6
CONTINUOUS
  62
7
  10
 2741.7241379310
  20
 939.56036624701
  30
0.0
  11
 2741.7241379310
  21
 936.56036624701
  31
0.0
   0
LINE
   5
ED
 100
AcDbEntity
   8
LEVEL001
 370
30
 100
AcDbLine
   6
CONTINUOUS
  62
7
  10
 2740.7241379310
  20
 936.56036624701
  30
0.0
  11
 2740.7241379310
  21
 939.56036624701
  31
0.0
   0
ARC
   5
EE
 100
AcDbEntity
   8
LEVEL001
 370
30
   6
CONTINUOUS
  62
7
 100
AcDbCircle
  10
 2742.7241379310
  20
 939.56036624701
  30
0.0
  40
 2.0000000000000
 100
AcDbArc
  50
 90.000000000000
  51
 180.00000000000
   0
LINE
   5
EF
 100
AcDbEntity
   8
LEVEL001
 370
30
 100
AcDbLine
   6
CONTINUOUS
  62
7
  10
 2742.7241379310
  20
 941.56036624701
  30
0.0
  11
 2762.7241379310
  21
 941.56036624701
  31
0.0
   0
ARC
   5
F0
 100
AcDbEntity
   8
LEVEL001
 370
30
   6
CONTINUOUS
  62
7
 100
AcDbCircle
  10
 3073.7241379310
  20
 857.56036624701
  30
0.0
  40
 2.0000000000000
 100
AcDbArc
  50
 270.00000000001
  51
0.0
   0
LINE
   5
F1
 100
AcDbEntity
   8
LEVEL001
 370
30
 100
AcDbLine
   6
CONTINUOUS
  62
7
  10
 3075.7241379310
  20
 940.56036624701
  30
0.0
  11
 3075.7241379310
  21
 857.56036624701
  31
0.0
   0
ARC
   5
F2
 100
AcDbEntity
   8
LEVEL001
 370
30
   6
CONTINUOUS
  62
7
 100
AcDbCircle
  10
 2765.7241379310
  20
 857.56036624701
  30
0.0
  40
 2.0000000000000
 100
AcDbArc
  50
 180.00000000000
  51
 270.00000000000
   0
LINE
   5
F3
 100
AcDbEntity
   8
LEVEL001
 370
30
 100
AcDbLine
   6
CONTINUOUS
  62
7
  10
 2763.7241379310
  20
 857.56036624701
  30
0.0
  11
 2763.7241379310
  21
 939.56036624701
  31
0.0
   0
LINE
   5
F4
 100
AcDbEntity
   8
LEVEL001
 370
30
 100
AcDbLine
   6
CONTINUOUS
  62
7
  10
 3073.7241379310
  20
 855.56036624701
  30
0.0
  11
 2765.7241379310
  21
 855.56036624701
  31
0.0
   0
LINE
   5
F5
 100
AcDbEntity
   8
LEVEL001
 370
30
 100
AcDbLine
   6
CONTINUOUS
  62
7
  10
 2762.1818519070
  20
 940.56036624701
  30
0.0
  11
 3075.7241379310
  21
 940.56036624701
  31
0.0
   0
ARC
   5
F6
 100
AcDbEntity
   8
LEVEL001
 370
30
   6
CONTINUOUS
  62
7
 100
AcDbCircle
  10
 2762.7241379310
  20
 939.56036624701
  30
0.0
  40
 2.0000000000000
 100
AcDbArc
  50
 29.999999999939
  51
 90.000000000065
   0
ENDBLK
   5
F7
 100
AcDbEntity
   8
0
 100
AcDbBlockEnd
   0
BLOCK
   5
F8
 100
AcDbEntity
   8
0
 100
AcDbBlockBegin
   2
*D1
  70
65
  10
0.0
  20
0.0
  30
0.0
   3
*D1
   0
LINE
   5
F9
 100
AcDbEntity
   8
LEVEL001
 370
9
 100
AcDbLine
   6
CONTINUOUS
  62
1
  10
 3458.7241379310
  20
 879.56036624701
  30
0.0
  11
 3458.7241379310
  21
 1571.7430773572
  31
0.0
   0
LINE
   5
FA
 100
AcDbEntity
   8
LEVEL001
 370
9
 100
AcDbLine
   6
CONTINUOUS
  62
1
  10
 2733.7241379310
  20
 852.56036624697
  30
0.0
  11
 2733.7241379310
  21
 1571.7430773572
  31
0.0
   0
LINE
   5
FB
 100
AcDbEntity
   8
LEVEL001
 370
9
 100
AcDbLine
   6
CONTINUOUS
  62
1
  10
 3458.7241379310
  20
 1555.7430773572
  30
0.0
  11
 3096.2241379310
  21
 1555.7430773572
  31
0.0
   0
LINE
   5
FC
 100
AcDbEntity
   8
LEVEL001
 370
9
 100
AcDbLine
   6
CONTINUOUS
  62
1
  10
 2733.7241379310
  20
 1555.7430773572
  30
0.0
  11
 3096.2241379310
  21
 1555.7430773572
  31
0.0
   0
INSERT
   5
FD
 100
AcDbEntity
   8
LEVEL001
   6
CONTINUOUS
  62
1
 100
AcDbBlockReference
   2
_OPEN30
  10
 3458.7241379310
  20
 1555.7430773572
  30
0.0
  41
 24.000000000000
  42
 24.000000000000
  43
 24.000000000000
  50
0.0
   0
INSERT
   5
FE
 100
AcDbEntity
   8
LEVEL001
   6
CONTINUOUS
  62
1
 100
AcDbBlockReference
   2
_OPEN30
  10
 2733.7241379310
  20
 1555.7430773572
  30
0.0
  41
 24.000000000000
  42
 24.000000000000
  43
 24.000000000000
  50
 180.00000000000
   0
MTEXT
   5
FF
 100
AcDbEntity
   8
LEVEL001
 370
30
  62
7
 100
AcDbMText
  10
 3096.2241379310
  20
 1569.4573630715
  30
0.0
  40
 32.000000000000
  41
0.0
  71
8
  72
1
   1
\A1;725
   7
GMM001
   0
ENDBLK
   5
100
 100
AcDbEntity
   8
0
 100
AcDbBlockEnd
   0
BLOCK
   5
101
 100
AcDbEntity
   8
0
 100
AcDbBlockBegin
   2
BLOCK005
  70
64
  10
0.0
  20
0.0
  30
0.0
   3
BLOCK005
   0
LWPOLYLINE
   5
102
 100
AcDbEntity
   8
LEVEL001
 370
30
   6
CONTINUOUS
  62
7
 100
AcDbPolyline
  90
8
  70
1
  10
 837.70286717027
  20
 240.56036624701
  10
 837.70286717027
  20
 265.06036624701
  10
 1157.7028671703
  20
 265.06036624701
  10
 1157.7028671703
  20
 240.56036624701
  10
 1153.2028671703
  20
 240.56036624701
  10
 1153.2028671703
  20
 260.56036624701
  10
 842.20286717027
  20
 260.56036624701
  10
 842.20286717027
  20
 240.56036624701
   0
LWPOLYLINE
   5
103
 100
AcDbEntity
   8
LEVEL001
 370
30
   6
CONTINUOUS
  62
7
 100
AcDbPolyline
  90
4
  70
1
  10
 874.20286717027
  20
 195.56036624701
  10
 895.20286717027
  20
 195.56036624701
  10
 895.20286717027
  20
 245.56036624701
  10
 874.20286717027
  20
 245.56036624701
   0
ARC
   5
104
 100
AcDbEntity
   8
LEVEL001
 370
30
   6
CONTINUOUS
  62
7
 100
AcDbCircle
  10
 884.70286717027
  20
 245.56036624701
  30
0.0
  40
 12.000000000000
 100
AcDbArc
  50
0.0
  51
 180.00000000000
   0
LWPOLYLINE
   5
105
 100
AcDbEntity
   8
LEVEL001
 370
30
   6
CONTINUOUS
  62
7
 100
AcDbPolyline
  90
4
  70
1
  10
 1100.2028671703
  20
 195.56036624701
  10
 1121.2028671703
  20
 195.56036624701
  10
 1121.2028671703
  20
 245.56036624701
  10
 1100.2028671703
  20
 245.56036624701
   0
ARC
   5
106
 100
AcDbEntity
   8
LEVEL001
 370
30
   6
CONTINUOUS
  62
7
 100
AcDbCircle
  10
 1110.7028671703
  20
 245.56036624701
  30
0.0
  40
 12.000000000000
 100
AcDbArc
  50
0.0
  51
 180.00000000000
   0
LWPOLYLINE
   5
107
 100
AcDbEntity
   8
LEVEL001
 370
30
   6
CONTINUOUS
  62
7
 100
AcDbPolyline
  90
4
  70
1
  10
 927.70286717027
  20
 607.56036624701
  10
 1067.7028671703
  20
 607.56036624701
  10
 1067.7028671703
  20
 632.56036624701
  10
 927.70286717027
  20
 632.56036624701
   0
CIRCLE
   5
108
 100
AcDbEntity
   8
LEVEL001
 370
30
 100
AcDbCircle
   6
CONTINUOUS
  62
7
  10
 1126.6740103406
  20
 713.56036624697
  30
0.0
  40
 15.000000000000
   0
LINE
   5
109
 100
AcDbEntity
   8
LEVEL001
 370
30
 100
AcDbLine
   6
CONTINUOUS
  62
7
  10
 1085.2028671703
  20
 695.39049326593
  30
0.0
  11
 1111.9265616267
  21
 710.81942545404
  31
0.0
   0
LINE
   5
10A
 100
AcDbEntity
   8
LEVEL001
 370
30
 100
AcDbLine
   6
CONTINUOUS
  62
7
  10
 1090.2028671703
  20
 686.73023922808
  30
0.0
  11
 1116.9265616267
  21
 702.15917141619
  31
0.0
   0
ARC
   5
10B
 100
AcDbEntity
   8
LEVEL001
 370
30
   6
CONTINUOUS
  62
7
 100
AcDbCircle
  10
 1087.7028671703
  20
 691.06036624701
  30
0.0
  40
 5.0000000000000
 100
AcDbArc
  50
 119.99999999994
  51
 299.99999999994
   0
LWPOLYLINE
   5
10C
 100
AcDbEntity
   8
LEVEL001
 370
30
   6
CONTINUOUS
  62
7
 100
AcDbPolyline
  90
6
  70
0
  10
 872.70286717027
  20
 245.56036624701
  10
 872.70286717027
  20
 213.06036624701
  10
 870.70286717027
  20
 213.06036624701
  10
 870.70286717027
  20
 258.56036624701
  10
 855.20286717027
  20
 258.56036624701
  10
 855.20286717027
  20
 260.56036624701
   0
LWPOLYLINE
   5
10D
 100
AcDbEntity
   8
LEVEL001
 370
30
   6
CONTINUOUS
  62
7
 100
AcDbPolyline
  90
6
  70
0
  10
 914.20286717027
  20
 260.56036624701
  10
 914.20286717027
  20
 258.56036624701
  10
 898.70286717027
  20
 258.56036624701
  10
 898.70286717027
  20
 213.06036624701
  10
 896.70286717027
  20
 213.06036624701
  10
 896.70286717027
  20
 245.56036624701
   0
LWPOLYLINE
   5
10E
 100
AcDbEntity
   8
LEVEL001
 370
30
   6
CONTINUOUS
  62
7
 100
AcDbPolyline
  90
6
  70
0
  10
 1098.7028671703
  20
 245.56036624701
  10
 1098.7028671703
  20
 213.06036624701
  10
 1096.7028671703
  20
 213.06036624701
  10
 1096.7028671703
  20
 258.56036624701
  10
 1081.2028671703
  20
 258.56036624701
  10
 1081.2028671703
  20
 260.56036624701
   0
LWPOLYLINE
   5
10F
 100
AcDbEntity
   8
LEVEL001
 370
30
   6
CONTINUOUS
  62
7
 100
AcDbPolyline
  90
6
  70
0
  10
 1140.2028671703
  20
 260.56036624701
  10
 1140.2028671703
  20
 258.56036624701
  10
 1124.7028671703
  20
 258.56036624701
  10
 1124.7028671703
  20
 213.06036624701
  10
 1122.7028671703
  20
 213.06036624701
  10
 1122.7028671703
  20
 245.56036624701
   0
ARC
   5
110
 100
AcDbEntity
   8
LEVEL001
 370
30
   6
CONTINUOUS
  62
7
 100
AcDbCircle
  10
 1087.7028671703
  20
 691.06036624701
  30
0.0
  40
 10.000000000000
 100
AcDbArc
  50
 59.999999999943
  51
0.0
   0
LWPOLYLINE
   5
111
 100
AcDbEntity
   8
LEVEL001
 370
30
   6
CONTINUOUS
  62
7
 100
AcDbPolyline
  90
4
  70
0
  10
 1104.2028671703
  20
 776.06036624701
  10
 1104.2028671703
  20
 805.06036624701
  10
 1044.2028671703
  20
 805.06036624701
  10
 1044.2028671703
  20
 776.06036624701
   0
LINE
   5
112
 100
AcDbEntity
   8
LEVEL001
 370
30
 100
AcDbLine
   6
CONTINUOUS
  62
7
  10
 1094.2028671703
  20
 805.06036624701
  30
0.0
  11
 1094.2028671703
  21
 776.06036624701
  31
0.0
   0
LINE
   5
113
 100
AcDbEntity
   8
LEVEL001
 370
30
 100
AcDbLine
   6
CONTINUOUS
  62
7
  10
 1054.2028671703
  20
 805.06036624701
  30
0.0
  11
 1054.2028671703
  21
 776.06036624701
  31
0.0
   0
LWPOLYLINE
   5
114
 100
AcDbEntity
   8
LEVEL001
 370
30
   6
CONTINUOUS
  62
7
 100
AcDbPolyline
  90
4
  70
1
  10
 1159.2028671703
  20
 265.06036624701
  10
 836.20286717027
  20
 265.06036624701
  10
 836.20286717027
  20
 805.06036624701
  10
 1159.2028671703
  20
 805.06036624701
   0
LINE
   5
115
 100
AcDbEntity
   8
LEVEL001
 370
30
 100
AcDbLine
   6
CONTINUOUS
  62
7
  10
 836.20286717027
  20
 776.06036624701
  30
0.0
  11
 1159.2028671703
  21
 776.06036624701
  31
0.0
   0
LWPOLYLINE
   5
116
 100
AcDbEntity
   8
LEVEL001
 370
30
   6
CONTINUOUS
  62
7
 100
AcDbPolyline
  90
4
  70
0
  10
 1180.2028671703
  20
 733.26036624701
  10
 1180.7028671703
  20
 729.76036624701
  10
 1180.7028671703
  20
 713.76036624701
  10
 1180.2028671703
  20
 710.26036624701
   0
LWPOLYLINE
   5
117
 100
AcDbEntity
   8
LEVEL001
 370
30
   6
CONTINUOUS
  62
7
 100
AcDbPolyline
  90
3
  70
0
  10
 1178.7028671703
  20
 710.26036624701
  10
 1177.7028671703
  20
 705.51036624701
  10
 1167.7028671703
  20
 705.51036624701
   0
LINE
   5
118
 100
AcDbEntity
   8
LEVEL001
 370
30
 100
AcDbLine
   6
CONTINUOUS
  62
7
  10
 1170.2028671703
  20
 710.26036624701
  30
0.0
  11
 1168.7028671703
  21
 708.76036624701
  31
0.0
   0
LWPOLYLINE
   5
119
 100
AcDbEntity
   8
LEVEL001
 370
30
   6
CONTINUOUS
  62
7
 100
AcDbPolyline
  90
4
  70
0
  10
 1160.7028671703
  20
 660.81036624701
  10
 1172.2028671703
  20
 660.81036624701
  10
 1172.2028671703
  20
 628.31036624701
  10
 1160.7028671703
  20
 628.31036624701
   0
LWPOLYLINE
   5
11A
 100
AcDbEntity
   8
LEVEL001
 370
30
   6
CONTINUOUS
  62
7
 100
AcDbPolyline
  90
4
  70
0
  10
 1172.2028671703
  20
 657.06036624701
  10
 1178.2028671703
  20
 657.06036624701
  10
 1178.2028671703
  20
 632.06036624701
  10
 1172.2028671703
  20
 632.06036624701
   0
LWPOLYLINE
   5
11B
 100
AcDbEntity
   8
LEVEL001
 370
30
   6
CONTINUOUS
  62
7
 100
AcDbPolyline
  90
4
  70
0
  10
 1159.2028671703
  20
 766.56036624701
  10
 1161.7028671703
  20
 766.56036624701
  10
 1161.7028671703
  20
 721.56036624701
  10
 1159.2028671703
  20
 721.56036624701
   0
LWPOLYLINE
   5
11C
 100
AcDbEntity
   8
LEVEL001
 370
30
   6
CONTINUOUS
  62
7
 100
AcDbPolyline
  90
4
  70
0
  10
 1161.7028671703
  20
 755.31036624701
  10
 1173.2028671703
  20
 755.31036624701
  10
 1173.2028671703
  20
 722.81036624701
  10
 1161.7028671703
  20
 722.81036624701
   0
LWPOLYLINE
   5
11D
 100
AcDbEntity
   8
LEVEL001
 370
30
   6
CONTINUOUS
  62
7
 100
AcDbPolyline
  90
4
  70
0
  10
 1173.2028671703
  20
 751.56036624701
  10
 1179.2028671703
  20
 751.56036624701
  10
 1179.2028671703
  20
 726.56036624701
  10
 1173.2028671703
  20
 726.56036624701
   0
LWPOLYLINE
   5
11E
 100
AcDbEntity
   8
LEVEL001
 370
30
   6
CONTINUOUS
  62
7
 100
AcDbPolyline
  90
3
  70
0
  10
 1159.2028671703
  20
 800.56036624701
  10
 1160.7028671703
  20
 800.56036624701
  10
 1160.7028671703
  20
 766.56036624701
   0
LWPOLYLINE
   5
11F
 100
AcDbEntity
   8
LEVEL001
 370
30
   6
CONTINUOUS
  62
7
 100
AcDbPolyline
  90
3
  70
0
  10
 1160.7028671703
  20
 721.56036624701
  10
 1160.7028671703
  20
 594.56036624701
  10
 1159.2028671703
  20
 594.56036624701
   0
LWPOLYLINE
   5
120
 100
AcDbEntity
   8
LEVEL001
 370
30
   6
CONTINUOUS
  62
7
 100
AcDbPolyline
  90
3
  70
0
  10
 1161.7028671703
  20
 758.56036624701
  10
 1164.7028671703
  20
 758.56036624701
  10
 1164.7028671703
  20
 755.31036624701
   0
LWPOLYLINE
   5
121
 100
AcDbEntity
   8
LEVEL001
 370
30
   6
CONTINUOUS
  62
7
 100
AcDbPolyline
  90
4
  70
0
  10
 1164.7028671703
  20
 722.81036624701
  10
 1164.7028671703
  20
 674.56036624701
  10
 1160.7028671703
  20
 674.56036624701
  10
 1160.7028671703
  20
 721.56036624701
   0
LWPOLYLINE
   5
122
 100
AcDbEntity
   8
LEVEL001
 370
30
   6
CONTINUOUS
  62
7
 100
AcDbPolyline
  90
3
  70
0
  10
 1167.7028671703
  20
 722.81036624701
  10
 1167.7028671703
  20
 682.56036624701
  10
 1164.7028671703
  20
 682.56036624701
   0
LWPOLYLINE
   5
123
 100
AcDbEntity
   8
LEVEL001
 370
30
   6
CONTINUOUS
  62
7
 100
AcDbPolyline
  90
5
  70
0
  10
 1179.2028671703
  20
 733.26036624701
  10
 1180.2028671703
  20
 733.26036624701
  10
 1180.2028671703
  20
 710.26036624701
  10
 1170.2028671703
  20
 710.26036624701
  10
 1170.2028671703
  20
 722.81036624701
   0
LWPOLYLINE
   5
124
 100
AcDbEntity
   8
LEVEL001
 370
30
   6
CONTINUOUS
  62
7
 100
AcDbPolyline
  90
3
  70
0
  10
 1168.7028671703
  20
 722.81036624701
  10
 1168.7028671703
  20
 708.76036624701
  10
 1167.7028671703
  20
 708.76036624701
   0
ENDBLK
   5
125
 100
AcDbEntity
   8
0
 100
AcDbBlockEnd
   0
BLOCK
   5
126
 100
AcDbEntity
   8
0
 100
AcDbBlockBegin
   2
BLOCK006
  70
64
  10
0.0
  20
0.0
  30
0.0
   3
BLOCK006
   0
LWPOLYLINE
   5
127
 100
AcDbEntity
   8
LEVEL001
 370
30
   6
CONTINUOUS
  62
7
 100
AcDbPolyline
  90
4
  70
1
  10
 1501.4656615866
  20
 633.76036624701
  10
 1361.4656615866
  20
 633.76036624701
  10
 1361.4656615866
  20
 658.76036624701
  10
 1501.4656615866
  20
 658.76036624701
   0
LWPOLYLINE
   5
128
 100
AcDbEntity
   8
LEVEL001
 370
30
   6
CONTINUOUS
  62
7
 100
AcDbPolyline
  90
4
  70
1
  10
 1574.7028671703
  20
 260.56036624701
  10
 1264.7028671703
  20
 260.56036624701
  10
 1264.7028671703
  20
 265.06036624701
  10
 1574.7028671703
  20
 265.06036624701
   0
ARC
   5
129
 100
AcDbEntity
   8
LEVEL001
 370
30
   6
CONTINUOUS
  62
7
 100
AcDbCircle
  10
 1549.7028671703
  20
 245.56036624701
  30
0.0
  40
 12.000000000000
 100
AcDbArc
  50
0.0
  51
 180.00000000000
   0
LWPOLYLINE
   5
12A
 100
AcDbEntity
   8
LEVEL001
 370
30
   6
CONTINUOUS
  62
7
 100
AcDbPolyline
  90
4
  70
0
  10
 1561.7028671703
  20
 245.56036624701
  10
 1561.7028671703
  20
 213.06036624701
  10
 1563.7028671703
  20
 213.06036624701
  10
 1563.7028671703
  20
 260.56036624701
   0
LWPOLYLINE
   5
12B
 100
AcDbEntity
   8
LEVEL001
 370
30
   6
CONTINUOUS
  62
7
 100
AcDbPolyline
  90
4
  70
0
  10
 1535.7028671703
  20
 260.56036624701
  10
 1535.7028671703
  20
 213.06036624701
  10
 1537.7028671703
  20
 213.06036624701
  10
 1537.7028671703
  20
 245.56036624701
   0
ARC
   5
12C
 100
AcDbEntity
   8
LEVEL001
 370
30
   6
CONTINUOUS
  62
7
 100
AcDbCircle
  10
 1289.7028671703
  20
 245.56036624701
  30
0.0
  40
 12.000000000000
 100
AcDbArc
  50
0.0
  51
 180.00000000000
   0
LWPOLYLINE
   5
12D
 100
AcDbEntity
   8
LEVEL001
 370
30
   6
CONTINUOUS
  62
7
 100
AcDbPolyline
  90
4
  70
0
  10
 1301.7028671703
  20
 245.56036624701
  10
 1301.7028671703
  20
 213.06036624701
  10
 1303.7028671703
  20
 213.06036624701
  10
 1303.7028671703
  20
 260.56036624701
   0
LWPOLYLINE
   5
12E
 100
AcDbEntity
   8
LEVEL001
 370
30
   6
CONTINUOUS
  62
7
 100
AcDbPolyline
  90
4
  70
0
  10
 1275.7028671703
  20
 260.56036624701
  10
 1275.7028671703
  20
 213.06036624701
  10
 1277.7028671703
  20
 213.06036624701
  10
 1277.7028671703
  20
 245.56036624701
   0
LWPOLYLINE
   5
12F
 100
AcDbEntity
   8
LEVEL001
 370
30
   6
CONTINUOUS
  62
7
 100
AcDbPolyline
  90
4
  70
1
  10
 1560.2028671703
  20
 195.56036624701
  10
 1539.2028671703
  20
 195.56036624701
  10
 1539.2028671703
  20
 245.56036624701
  10
 1560.2028671703
  20
 245.56036624701
   0
LWPOLYLINE
   5
130
 100
AcDbEntity
   8
LEVEL001
 370
30
   6
CONTINUOUS
  62
7
 100
AcDbPolyline
  90
4
  70
1
  10
 1300.2028671703
  20
 195.56036624701
  10
 1279.2028671703
  20
 195.56036624701
  10
 1279.2028671703
  20
 245.56036624701
  10
 1300.2028671703
  20
 245.56036624701
   0
CIRCLE
   5
131
 100
AcDbEntity
   8
LEVEL001
 370
30
 100
AcDbCircle
   6
CONTINUOUS
  62
7
  10
 1464.6765341285
  20
 790.77472624670
  30
0.0
  40
 7.7000000000000
   0
LINE
   5
132
 100
AcDbEntity
   8
LEVEL001
 370
30
 100
AcDbLine
   6
CONTINUOUS
  62
7
  10
 1494.7055022177
  20
 775.17789722614
  30
0.0
  11
 1463.0550680355
  21
 779.89488949658
  31
0.0
   0
LINE
   5
133
 100
AcDbEntity
   8
LEVEL001
 370
30
 100
AcDbLine
   6
CONTINUOUS
  62
7
  10
 1493.6736601585
  20
 768.25436474879
  30
0.0
  11
 1462.0232259763
  21
 772.97135701922
  31
0.0
   0
ARC
   5
134
 100
AcDbEntity
   8
LEVEL001
 370
30
   6
CONTINUOUS
  62
7
 100
AcDbCircle
  10
 1491.7573820487
  20
 755.39637586228
  30
0.0
  40
 20.000000000000
 100
AcDbArc
  50
 351.52336925826
  51
 81.523369258261
   0
ARC
   5
135
 100
AcDbEntity
   8
LEVEL001
 370
30
   6
CONTINUOUS
  62
7
 100
AcDbCircle
  10
 1491.7573820487
  20
 755.39637586228
  30
0.0
  40
 13.000000000000
 100
AcDbArc
  50
 351.52336925826
  51
 81.523369258262
   0
ARC
   5
136
 100
AcDbEntity
   8
LEVEL001
 370
30
   6
CONTINUOUS
  62
7
 100
AcDbCircle
  10
 1464.6765341285
  20
 790.77472624670
  30
0.0
  40
 18.000000000000
 100
AcDbArc
  50
 81.523369258262
  51
 261.52336925826
   0
ARC
   5
137
 100
AcDbEntity
   8
LEVEL001
 370
30
   6
CONTINUOUS
  62
7
 100
AcDbCircle
  10
 1464.6765341285
  20
 790.77472624670
  30
0.0
  40
 11.000000000000
 100
AcDbArc
  50
 81.523369258263
  51
 261.52336925826
   0
LINE
   5
138
 100
AcDbEntity
   8
LEVEL001
 370
30
 100
AcDbLine
   6
CONTINUOUS
  62
7
  10
 1467.3298422806
  20
 808.57809547418
  30
0.0
  11
 1551.4013080770
  21
 796.04858475584
  31
0.0
   0
LINE
   5
139
 100
AcDbEntity
   8
LEVEL001
 370
30
 100
AcDbLine
   6
CONTINUOUS
  62
7
  10
 1466.2980002214
  20
 801.65456299683
  30
0.0
  11
 1550.3694660179
  21
 789.12505227849
  31
0.0
   0
ARC
   5
13A
 100
AcDbEntity
   8
LEVEL001
 370
30
   6
CONTINUOUS
  62
7
 100
AcDbCircle
  10
 1548.4531879080
  20
 776.26706339198
  30
0.0
  40
 20.000000000000
 100
AcDbArc
  50
 351.52336925826
  51
 81.523369258261
   0
ARC
   5
13B
 100
AcDbEntity
   8
LEVEL001
 370
30
   6
CONTINUOUS
  62
7
 100
AcDbCircle
  10
 1548.4531879080
  20
 776.26706339198
  30
0.0
  40
 13.000000000000
 100
AcDbArc
  50
 351.52336925826
  51
 81.523369258262
   0
LWPOLYLINE
   5
13C
 100
AcDbEntity
   8
LEVEL001
 370
30
   6
CONTINUOUS
  62
7
 100
AcDbPolyline
  90
4
  70
0
  10
 1250.2028671703
  20
 577.86036624701
  10
 1248.2028671703
  20
 577.86036624701
  10
 1248.2028671703
  20
 560.86036624701
  10
 1250.2028671703
  20
 560.86036624701
   0
LWPOLYLINE
   5
13D
 100
AcDbEntity
   8
LEVEL001
 370
30
   6
CONTINUOUS
  62
7
 100
AcDbPolyline
  90
4
  70
0
  10
 1250.2028671703
  20
 554.86036624701
  10
 1248.2028671703
  20
 554.86036624701
  10
 1248.2028671703
  20
 537.86036624701
  10
 1250.2028671703
  20
 537.86036624701
   0
LWPOLYLINE
   5
13E
 100
AcDbEntity
   8
LEVEL001
 370
30
   6
CONTINUOUS
  62
7
 100
AcDbPolyline
  90
4
  70
0
  10
 1258.2028671703
  20
 615.86036624701
  10
 1250.2028671703
  20
 615.86036624701
  10
 1250.2028671703
  20
 515.86036624701
  10
 1258.2028671703
  20
 515.86036624701
   0
CIRCLE
   5
13F
 100
AcDbEntity
   8
LEVEL001
 370
30
 100
AcDbCircle
   6
CONTINUOUS
  62
7
  10
 1464.6765341285
  20
 790.77472624670
  30
0.0
  40
 6.3000000000000
   0
LWPOLYLINE
   5
140
 100
AcDbEntity
   8
LEVEL001
 370
30
   6
CONTINUOUS
  62
7
 100
AcDbPolyline
  90
6
  70
1
  10
 1464.6765341285
  20
 798.28027974614
  10
 1458.1765341285
  20
 794.52750299638
  10
 1458.1765341285
  20
 787.02194949702
  10
 1464.6765341285
  20
 783.26917274726
  10
 1471.1765341285
  20
 787.02194949702
  10
 1471.1765341285
  20
 794.52750299638
   0
LWPOLYLINE
   5
141
 100
AcDbEntity
   8
LEVEL001
 370
30
   6
CONTINUOUS
  62
7
 100
AcDbPolyline
  90
3
  70
0
  10
 1496.2117109378
  20
 742.86036624701
  10
 1407.2028671703
  20
 742.86036624701
  10
 1407.2028671703
  20
 666.86036624701
   0
LWPOLYLINE
   5
142
 100
AcDbEntity
   8
LEVEL001
 370
30
   6
CONTINUOUS
  62
7
 100
AcDbPolyline
  90
3
  70
0
  10
 1569.2028671703
  20
 666.86036624701
  10
 1569.2028671703
  20
 742.86036624701
  10
 1496.2117109378
  20
 742.86036624701
   0
ARC
   5
143
 100
AcDbEntity
   8
LEVEL001
 370
30
   6
CONTINUOUS
  62
7
 100
AcDbCircle
  10
 1526.3277285246
  20
 695.64780981645
  30
0.0
  40
 56.000000000000
 100
AcDbArc
  50
 329.06525556234
  51
 40.037152615579
   0
LINE
   5
144
 100
AcDbEntity
   8
LEVEL001
 370
30
 100
AcDbLine
   6
CONTINUOUS
  62
7
  10
 1568.2347092719
  20
 773.31894322296
  30
0.0
  11
 1563.6953443034
  21
 742.86036624701
  31
0.0
   0
LINE
   5
145
 100
AcDbEntity
   8
LEVEL001
 370
30
 100
AcDbLine
   6
CONTINUOUS
  62
7
  10
 1561.3111767945
  20
 774.35078528212
  30
0.0
  11
 1556.6180322289
  21
 742.86036624701
  31
0.0
   0
LINE
   5
146
 100
AcDbEntity
   8
LEVEL001
 370
30
 100
AcDbLine
   6
CONTINUOUS
  62
7
  10
 1503.0326693793
  20
 742.86036624701
  30
0.0
  11
 1504.6153709352
  21
 753.48009775242
  31
0.0
   0
LINE
   5
147
 100
AcDbEntity
   8
LEVEL001
 370
30
 100
AcDbLine
   6
CONTINUOUS
  62
7
  10
 1510.1099814538
  20
 742.86036624701
  30
0.0
  11
 1511.5389034125
  21
 752.44825569326
  31
0.0
   0
ARC
   5
148
 100
AcDbEntity
   8
LEVEL001
 370
30
   6
CONTINUOUS
  62
7
 100
AcDbCircle
  10
 1526.3277285246
  20
 695.64780981646
  30
0.0
  40
 56.000000000000
 100
AcDbArc
  50
 113.91573474411
  51
 121.62285607261
   0
ARC
   5
149
 100
AcDbEntity
   8
LEVEL001
 370
30
   6
CONTINUOUS
  62
7
 100
AcDbCircle
  10
 1425.7028671703
  20
 619.86036624701
  30
0.0
  40
 57.500000000000
 100
AcDbArc
  50
 108.76813277386
  51
 125.17550049715
   0
LWPOLYLINE
   5
14A
 100
AcDbEntity
   8
LEVEL001
 370
30
   6
CONTINUOUS
  62
7
 100
AcDbPolyline
  90
3
  70
0
  10
 1579.7028671703
  20
 284.86036624701
  10
 1581.2028671703
  20
 284.86036624701
  10
 1581.2028671703
  20
 298.86036624701
   0
LWPOLYLINE
   5
14B
 100
AcDbEntity
   8
LEVEL001
 370
30
   6
CONTINUOUS
  62
7
 100
AcDbPolyline
  90
3
  70
0
  10
 1258.2028671703
  20
 298.86036624701
  10
 1258.2028671703
  20
 284.86036624701
  10
 1259.7028671703
  20
 284.86036624701
   0
LWPOLYLINE
   5
14C
 100
AcDbEntity
   8
LEVEL001
 370
30
   6
CONTINUOUS
  62
7
 100
AcDbPolyline
  90
3
  70
0
  10
 1581.2028671703
  20
 298.86036624701
  10
 1581.2028671703
  20
 666.86036624701
  10
 1258.2028671703
  20
 666.86036624701
   0
LINE
   5
14D
 100
AcDbEntity
   8
LEVEL001
 370
30
 100
AcDbLine
   6
CONTINUOUS
  62
7
  10
 1258.2028671703
  20
 666.86036624701
  30
0.0
  11
 1258.2028671703
  21
 298.86036624701
  31
0.0
   0
LWPOLYLINE
   5
14E
 100
AcDbEntity
   8
LEVEL001
 370
30
   6
CONTINUOUS
  62
7
 100
AcDbPolyline
  90
4
  70
0
  10
 1259.7028671703
  20
 284.86036624701
  10
 1259.7028671703
  20
 265.06036624701
  10
 1579.7028671703
  20
 265.06036624701
  10
 1579.7028671703
  20
 284.86036624701
   0
LINE
   5
14F
 100
AcDbEntity
   8
LEVEL001
 370
30
 100
AcDbLine
   6
CONTINUOUS
  62
7
  10
 1259.7028671703
  20
 284.86036624701
  30
0.0
  11
 1579.7028671703
  21
 284.86036624701
  31
0.0
   0
ENDBLK
   5
150
 100
AcDbEntity
   8
0
 100
AcDbBlockEnd
   0
BLOCK
   5
151
 100
AcDbEntity
   8
0
 100
AcDbBlockBegin
   2
BLOCK007
  70
64
  10
0.0
  20
0.0
  30
0.0
   3
BLOCK007
   0
ARC
   5
152
 100
AcDbEntity
   8
LEVEL001
 370
30
   6
CONTINUOUS
  62
7
 100
AcDbCircle
  10
 1488.2028671671
  20
 907.56036624683
  30
0.0
  40
 2.0000000000000
 100
AcDbArc
  50
 180.00000000000
  51
 270.00000000000
   0
ARC
   5
153
 100
AcDbEntity
   8
LEVEL001
 370
30
   6
CONTINUOUS
  62
7
 100
AcDbCircle
  10
 1488.2028671671
  20
 907.56036624683
  30
0.0
  40
 1.0000000000000
 100
AcDbArc
  50
 180.00000000000
  51
 270.00000000000
   0
ARC
   5
154
 100
AcDbEntity
   8
LEVEL001
 370
30
   6
CONTINUOUS
  62
7
 100
AcDbCircle
  10
 1634.2028671684
  20
 907.56036624683
  30
0.0
  40
 1.0000000000000
 100
AcDbArc
  50
 270.00000000000
  51
0.0
   0
ARC
   5
155
 100
AcDbEntity
   8
LEVEL001
 370
30
   6
CONTINUOUS
  62
7
 100
AcDbCircle
  10
 1634.2028671684
  20
 907.56036624683
  30
0.0
  40
 2.0000000000000
 100
AcDbArc
  50
 270.00000000000
  51
0.0
   0
LINE
   5
156
 100
AcDbEntity
   8
LEVEL001
 370
30
 100
AcDbLine
   6
CONTINUOUS
  62
7
  10
 1488.2028671671
  20
 905.56036624683
  30
0.0
  11
 1634.2028671684
  21
 905.56036624683
  31
0.0
   0
LINE
   5
157
 100
AcDbEntity
   8
LEVEL001
 370
30
 100
AcDbLine
   6
HIDDEN
  62
7
  10
 1488.2028671671
  20
 906.56036624683
  30
0.0
  11
 1634.2028671684
  21
 906.56036624683
  31
0.0
   0
LINE
   5
158
 100
AcDbEntity
   8
LEVEL001
 370
30
 100
AcDbLine
   6
CONTINUOUS
  62
7
  10
 1518.2028671671
  20
 962.56036624683
  30
0.0
  11
 1518.2028671671
  21
 966.56036624683
  31
0.0
   0
LINE
   5
159
 100
AcDbEntity
   8
LEVEL001
 370
30
 100
AcDbLine
   6
CONTINUOUS
  62
7
  10
 1518.2028671671
  20
 962.56036624683
  30
0.0
  11
 1519.2028671671
  21
 961.56036624683
  31
0.0
   0
LINE
   5
15A
 100
AcDbEntity
   8
LEVEL001
 370
30
 100
AcDbLine
   6
CONTINUOUS
  62
7
  10
 1486.2028671671
  20
 965.56036624683
  30
0.0
  11
 1518.2028671671
  21
 965.56036624683
  31
0.0
   0
LINE
   5
15B
 100
AcDbEntity
   8
LEVEL001
 370
30
 100
AcDbLine
   6
CONTINUOUS
  62
7
  10
 1486.2028671671
  20
 965.56036624683
  30
0.0
  11
 1486.2028671671
  21
 907.56036624683
  31
0.0
   0
LINE
   5
15C
 100
AcDbEntity
   8
LEVEL001
 370
30
 100
AcDbLine
   6
CONTINUOUS
  62
7
  10
 1496.2028671671
  20
 966.56036624683
  30
0.0
  11
 1496.2028671671
  21
 965.56036624683
  31
0.0
   0
LINE
   5
15D
 100
AcDbEntity
   8
LEVEL001
 370
30
 100
AcDbLine
   6
CONTINUOUS
  62
7
  10
 1487.2028671671
  20
 965.56036624683
  30
0.0
  11
 1487.2028671671
  21
 907.56036624683
  31
0.0
   0
LINE
   5
15E
 100
AcDbEntity
   8
LEVEL001
 370
30
 100
AcDbLine
   6
CONTINUOUS
  62
7
  10
 1603.2028671684
  20
 961.56036624683
  30
0.0
  11
 1604.2028671684
  21
 962.56036624683
  31
0.0
   0
LINE
   5
15F
 100
AcDbEntity
   8
LEVEL001
 370
30
 100
AcDbLine
   6
CONTINUOUS
  62
7
  10
 1604.2028671684
  20
 966.56036624683
  30
0.0
  11
 1604.2028671684
  21
 962.56036624683
  31
0.0
   0
LINE
   5
160
 100
AcDbEntity
   8
LEVEL001
 370
30
 100
AcDbLine
   6
CONTINUOUS
  62
7
  10
 1636.2028671684
  20
 907.56036624683
  30
0.0
  11
 1636.2028671684
  21
 965.56036624683
  31
0.0
   0
LINE
   5
161
 100
AcDbEntity
   8
LEVEL001
 370
30
 100
AcDbLine
   6
CONTINUOUS
  62
7
  10
 1636.2028671684
  20
 965.56036624683
  30
0.0
  11
 1604.2028671684
  21
 965.56036624683
  31
0.0
   0
LINE
   5
162
 100
AcDbEntity
   8
LEVEL001
 370
30
 100
AcDbLine
   6
CONTINUOUS
  62
7
  10
 1626.2028671684
  20
 966.56036624683
  30
0.0
  11
 1626.2028671684
  21
 965.56036624683
  31
0.0
   0
LINE
   5
163
 100
AcDbEntity
   8
LEVEL001
 370
30
 100
AcDbLine
   6
CONTINUOUS
  62
7
  10
 1635.2028671684
  20
 907.56036624683
  30
0.0
  11
 1635.2028671684
  21
 965.56036624683
  31
0.0
   0
LINE
   5
164
 100
AcDbEntity
   8
LEVEL001
 370
30
 100
AcDbLine
   6
CONTINUOUS
  62
7
  10
 1603.2028671684
  20
 961.56036624683
  30
0.0
  11
 1519.2028671671
  21
 961.56036624683
  31
0.0
   0
LINE
   5
165
 100
AcDbEntity
   8
LEVEL001
 370
30
 100
AcDbLine
   6
HIDDEN
  62
7
  10
 1604.2028671684
  20
 965.56036624683
  30
0.0
  11
 1518.2028671671
  21
 965.56036624683
  31
0.0
   0
LINE
   5
166
 100
AcDbEntity
   8
LEVEL001
 370
30
 100
AcDbLine
   6
CONTINUOUS
  62
7
  10
 1496.2028671671
  20
 966.56036624683
  30
0.0
  11
 1626.2028671684
  21
 966.56036624683
  31
0.0
   0
ENDBLK
   5
167
 100
AcDbEntity
   8
0
 100
AcDbBlockEnd
   0
BLOCK
   5
168
 100
AcDbEntity
   8
0
 100
AcDbBlockBegin
   2
*D2
  70
65
  10
0.0
  20
0.0
  30
0.0
   3
*D2
   0
LINE
   5
169
 100
AcDbEntity
   8
LEVEL001
 370
9
 100
AcDbLine
   6
CONTINUOUS
  62
1
  10
 766.70286717027
  20
 208.56036624701
  30
0.0
  11
 766.70286717027
  21
 32.132822477650
  31
0.0
   0
LINE
   5
16A
 100
AcDbEntity
   8
LEVEL001
 370
9
 100
AcDbLine
   6
CONTINUOUS
  62
1
  10
 1651.7028671703
  20
 208.56036624701
  30
0.0
  11
 1651.7028671703
  21
 32.132822477650
  31
0.0
   0
LINE
   5
16B
 100
AcDbEntity
   8
LEVEL001
 370
9
 100
AcDbLine
   6
CONTINUOUS
  62
1
  10
 766.70286717027
  20
 48.132822477650
  30
0.0
  11
 1209.2028671703
  21
 48.132822477650
  31
0.0
   0
LINE
   5
16C
 100
AcDbEntity
   8
LEVEL001
 370
9
 100
AcDbLine
   6
CONTINUOUS
  62
1
  10
 1651.7028671703
  20
 48.132822477650
  30
0.0
  11
 1209.2028671703
  21
 48.132822477650
  31
0.0
   0
INSERT
   5
16D
 100
AcDbEntity
   8
LEVEL001
   6
CONTINUOUS
  62
1
 100
AcDbBlockReference
   2
_OPEN30
  10
 766.70286717027
  20
 48.132822477650
  30
0.0
  41
 24.000000000000
  42
 24.000000000000
  43
 24.000000000000
  50
 180.00000000000
   0
INSERT
   5
16E
 100
AcDbEntity
   8
LEVEL001
   6
CONTINUOUS
  62
1
 100
AcDbBlockReference
   2
_OPEN30
  10
 1651.7028671703
  20
 48.132822477650
  30
0.0
  41
 24.000000000000
  42
 24.000000000000
  43
 24.000000000000
  50
0.0
   0
MTEXT
   5
16F
 100
AcDbEntity
   8
LEVEL001
 370
30
  62
7
 100
AcDbMText
  10
 1209.2028671703
  20
 56.132822477650
  30
0.0
  40
 32.000000000000
  41
0.0
  71
8
  72
1
   1
\A1;885
   7
GMM001
   0
ENDBLK
   5
170
 100
AcDbEntity
   8
0
 100
AcDbBlockEnd
   0
BLOCK
   5
171
 100
AcDbEntity
   8
0
 100
AcDbBlockBegin
   2
*D3
  70
65
  10
0.0
  20
0.0
  30
0.0
   3
*D3
   0
LINE
   5
172
 100
AcDbEntity
   8
LEVEL001
 370
9
 100
AcDbLine
   6
CONTINUOUS
  62
1
  10
 766.70286717027
  20
 1392.5473215722
  30
0.0
  11
 766.70286717027
  21
 1571.7430773572
  31
0.0
   0
LINE
   5
173
 100
AcDbEntity
   8
LEVEL001
 370
9
 100
AcDbLine
   6
CONTINUOUS
  62
1
  10
 1651.7028671703
  20
 1288.5603662470
  30
0.0
  11
 1651.7028671703
  21
 1571.7430773572
  31
0.0
   0
LINE
   5
174
 100
AcDbEntity
   8
LEVEL001
 370
9
 100
AcDbLine
   6
CONTINUOUS
  62
1
  10
 766.70286717027
  20
 1555.7430773572
  30
0.0
  11
 1209.2028671703
  21
 1555.7430773572
  31
0.0
   0
LINE
   5
175
 100
AcDbEntity
   8
LEVEL001
 370
9
 100
AcDbLine
   6
CONTINUOUS
  62
1
  10
 1651.7028671703
  20
 1555.7430773572
  30
0.0
  11
 1209.2028671703
  21
 1555.7430773572
  31
0.0
   0
INSERT
   5
176
 100
AcDbEntity
   8
LEVEL001
   6
CONTINUOUS
  62
1
 100
AcDbBlockReference
   2
_OPEN30
  10
 766.70286717027
  20
 1555.7430773572
  30
0.0
  41
 24.000000000000
  42
 24.000000000000
  43
 24.000000000000
  50
 180.00000000000
   0
INSERT
   5
177
 100
AcDbEntity
   8
LEVEL001
   6
CONTINUOUS
  62
1
 100
AcDbBlockReference
   2
_OPEN30
  10
 1651.7028671703
  20
 1555.7430773572
  30
0.0
  41
 24.000000000000
  42
 24.000000000000
  43
 24.000000000000
  50
0.0
   0
MTEXT
   5
178
 100
AcDbEntity
   8
LEVEL001
 370
30
  62
7
 100
AcDbMText
  10
 1209.2028671703
  20
 1563.7430773572
  30
0.0
  40
 32.000000000000
  41
0.0
  71
8
  72
1
   1
\A1;885
   7
GMM001
   0
ENDBLK
   5
179
 100
AcDbEntity
   8
0
 100
AcDbBlockEnd
   0
BLOCK
   5
17A
 100
AcDbEntity
   8
0
 100
AcDbBlockBegin
   2
BLOCK008
  70
64
  10
0.0
  20
0.0
  30
0.0
   3
BLOCK008
   0
ARC
   5
17B
 100
AcDbEntity
   8
LEVEL001
 370
30
   6
CONTINUOUS
  62
7
 100
AcDbCircle
  10
 798.20286717027
  20
 1354.9060373145
  30
0.0
  40
 4.0000000000000
 100
AcDbArc
  50
0.0
  51
 180.00000000000
   0
ARC
   5
17C
 100
AcDbEntity
   8
LEVEL001
 370
30
   6
CONTINUOUS
  62
7
 100
AcDbCircle
  10
 798.20286717027
  20
 1354.9060373145
  30
0.0
  40
 6.5000000000000
 100
AcDbArc
  50
 307.97987244485
  51
 232.02012755515
   0
LINE
   5
17D
 100
AcDbEntity
   8
LEVEL001
 370
30
 100
AcDbLine
   6
CONTINUOUS
  62
7
  10
 794.20286717027
  20
 1354.9060373145
  30
0.0
  11
 794.20286717027
  21
 1349.9060373145
  31
0.0
   0
ARC
   5
17E
 100
AcDbEntity
   8
LEVEL001
 370
30
   6
CONTINUOUS
  62
7
 100
AcDbCircle
  10
 798.20286717027
  20
 1349.9060373145
  30
0.0
  40
 4.0000000000000
 100
AcDbArc
  50
 180.00000000000
  51
0.0
   0
CIRCLE
   5
17F
 100
AcDbEntity
   8
LEVEL001
 370
30
 100
AcDbCircle
   6
CONTINUOUS
  62
7
  10
 798.20286717027
  20
 1354.9060373145
  30
0.0
  40
 9.0000000000000
   0
POINT
   5
180
 100
AcDbEntity
   8
LEVEL001
 100
AcDbPoint
  62
7
  10
 798.20286717027
  20
 1354.9060373145
  30
0.0
   0
LINE
   5
181
 100
AcDbEntity
   8
LEVEL001
 370
30
 100
AcDbLine
   6
CONTINUOUS
  62
7
  10
 802.20286717027
  20
 1354.9060373145
  30
0.0
  11
 802.20286717027
  21
 1349.9060373145
  31
0.0
   0
ENDBLK
   5
182
 100
AcDbEntity
   8
0
 100
AcDbBlockEnd
   0
BLOCK
   5
183
 100
AcDbEntity
   8
0
 100
AcDbBlockBegin
   2
*D4
  70
65
  10
0.0
  20
0.0
  30
0.0
   3
*D4
   0
LINE
   5
184
 100
AcDbEntity
   8
LEVEL001
 370
9
 100
AcDbLine
   6
CONTINUOUS
  62
1
  10
 731.70286717027
  20
 195.56036624701
  30
0.0
  11
 585.66538952746
  21
 195.56036624701
  31
0.0
   0
LINE
   5
185
 100
AcDbEntity
   8
LEVEL001
 370
9
 100
AcDbLine
   6
CONTINUOUS
  62
1
  10
 601.66538952746
  20
 195.56036624701
  30
0.0
  11
 601.66538952746
  21
 525.56036624701
  31
0.0
   0
LINE
   5
186
 100
AcDbEntity
   8
LEVEL001
 370
9
 100
AcDbLine
   6
CONTINUOUS
  62
1
  10
 601.66538952746
  20
 855.56036624701
  30
0.0
  11
 601.66538952746
  21
 525.56036624701
  31
0.0
   0
INSERT
   5
187
 100
AcDbEntity
   8
LEVEL001
   6
CONTINUOUS
  62
1
 100
AcDbBlockReference
   2
_OPEN30
  10
 601.66538952746
  20
 195.56036624701
  30
0.0
  41
 24.000000000000
  42
 24.000000000000
  43
 24.000000000000
  50
 270.00000000000
   0
INSERT
   5
188
 100
AcDbEntity
   8
LEVEL001
   6
CONTINUOUS
  62
1
 100
AcDbBlockReference
   2
_OPEN30
  10
 601.66538952746
  20
 855.56036624701
  30
0.0
  41
 24.000000000000
  42
 24.000000000000
  43
 24.000000000000
  50
 90.000000000000
   0
MTEXT
   5
189
 100
AcDbEntity
   8
LEVEL001
 370
30
  62
7
 100
AcDbMText
  10
 593.66538952746
  20
 525.56036624701
  30
0.0
  40
 32.000000000000
  41
0.0
  71
8
  72
1
   1
\A1;660
   7
GMM001
  11
0.0
  21
 1.0000000000000
  31
0.0
   0
ENDBLK
   5
18A
 100
AcDbEntity
   8
0
 100
AcDbBlockEnd
   0
BLOCK
   5
18B
 100
AcDbEntity
   8
0
 100
AcDbBlockBegin
   2
*D5
  70
65
  10
0.0
  20
0.0
  30
0.0
   3
*D5
   0
LINE
   5
18C
 100
AcDbEntity
   8
LEVEL001
 370
9
 100
AcDbLine
   6
CONTINUOUS
  62
1
  10
 761.89063439350
  20
 855.56036624701
  30
0.0
  11
 585.66538952746
  21
 855.56036624701
  31
0.0
   0
LINE
   5
18D
 100
AcDbEntity
   8
LEVEL001
 370
9
 100
AcDbLine
   6
CONTINUOUS
  62
1
  10
 766.70286717027
  20
 1440.5603662470
  30
0.0
  11
 585.66538952746
  21
 1440.5603662470
  31
0.0
   0
LINE
   5
18E
 100
AcDbEntity
   8
LEVEL001
 370
9
 100
AcDbLine
   6
CONTINUOUS
  62
1
  10
 601.66538952746
  20
 855.56036624701
  30
0.0
  11
 601.66538952746
  21
 1148.0603662470
  31
0.0
   0
LINE
   5
18F
 100
AcDbEntity
   8
LEVEL001
 370
9
 100
AcDbLine
   6
CONTINUOUS
  62
1
  10
 601.66538952746
  20
 1440.5603662470
  30
0.0
  11
 601.66538952746
  21
 1148.0603662470
  31
0.0
   0
INSERT
   5
190
 100
AcDbEntity
   8
LEVEL001
   6
CONTINUOUS
  62
1
 100
AcDbBlockReference
   2
_OPEN30
  10
 601.66538952746
  20
 855.56036624701
  30
0.0
  41
 24.000000000000
  42
 24.000000000000
  43
 24.000000000000
  50
 270.00000000000
   0
INSERT
   5
191
 100
AcDbEntity
   8
LEVEL001
   6
CONTINUOUS
  62
1
 100
AcDbBlockReference
   2
_OPEN30
  10
 601.66538952746
  20
 1440.5603662470
  30
0.0
  41
 24.000000000000
  42
 24.000000000000
  43
 24.000000000000
  50
 90.000000000000
   0
MTEXT
   5
192
 100
AcDbEntity
   8
LEVEL001
 370
30
  62
7
 100
AcDbMText
  10
 593.66538952746
  20
 1148.0603662470
  30
0.0
  40
 32.000000000000
  41
0.0
  71
8
  72
1
   1
\A1;585
   7
GMM001
  11
0.0
  21
 1.0000000000000
  31
0.0
   0
ENDBLK
   5
193
 100
AcDbEntity
   8
0
 100
AcDbBlockEnd
   0
BLOCK
   5
194
 100
AcDbEntity
   8
0
 100
AcDbBlockBegin
   2
*D6
  70
65
  10
0.0
  20
0.0
  30
0.0
   3
*D6
   0
LINE
   5
195
 100
AcDbEntity
   8
LEVEL001
 370
9
 100
AcDbLine
   6
CONTINUOUS
  62
1
  10
 766.70286717027
  20
 1440.5603662470
  30
0.0
  11
 512.28607918263
  21
 1440.5603662470
  31
0.0
   0
LINE
   5
196
 100
AcDbEntity
   8
LEVEL001
 370
9
 100
AcDbLine
   6
CONTINUOUS
  62
1
  10
 731.70286717027
  20
 195.56036624701
  30
0.0
  11
 512.28607918263
  21
 195.56036624701
  31
0.0
   0
LINE
   5
197
 100
AcDbEntity
   8
LEVEL001
 370
9
 100
AcDbLine
   6
CONTINUOUS
  62
1
  10
 528.28607918263
  20
 1440.5603662470
  30
0.0
  11
 528.28607918263
  21
 818.06036624701
  31
0.0
   0
LINE
   5
198
 100
AcDbEntity
   8
LEVEL001
 370
9
 100
AcDbLine
   6
CONTINUOUS
  62
1
  10
 528.28607918263
  20
 195.56036624701
  30
0.0
  11
 528.28607918263
  21
 818.06036624701
  31
0.0
   0
INSERT
   5
199
 100
AcDbEntity
   8
LEVEL001
   6
CONTINUOUS
  62
1
 100
AcDbBlockReference
   2
_OPEN30
  10
 528.28607918263
  20
 1440.5603662470
  30
0.0
  41
 24.000000000000
  42
 24.000000000000
  43
 24.000000000000
  50
 90.000000000000
   0
INSERT
   5
19A
 100
AcDbEntity
   8
LEVEL001
   6
CONTINUOUS
  62
1
 100
AcDbBlockReference
   2
_OPEN30
  10
 528.28607918263
  20
 195.56036624701
  30
0.0
  41
 24.000000000000
  42
 24.000000000000
  43
 24.000000000000
  50
 270.00000000000
   0
MTEXT
   5
19B
 100
AcDbEntity
   8
LEVEL001
 370
30
  62
7
 100
AcDbMText
  10
 520.28607918263
  20
 818.06036624701
  30
0.0
  40
 32.000000000000
  41
0.0
  71
8
  72
1
   1
\A1;1245
   7
GMM001
  11
0.0
  21
 1.0000000000000
  31
0.0
   0
ENDBLK
   5
19C
 100
AcDbEntity
   8
0
 100
AcDbBlockEnd
   0
BLOCK
   5
19D
 100
AcDbEntity
   8
0
 100
AcDbBlockBegin
   2
*D7
  70
65
  10
0.0
  20
0.0
  30
0.0
   3
*D7
   0
LINE
   5
19E
 100
AcDbEntity
   8
LEVEL001
 370
9
 100
AcDbLine
   6
CONTINUOUS
  62
1
  10
 2008.7241379310
  20
 195.56036624701
  30
0.0
  11
 2008.7241379310
  21
 32.132822477650
  31
0.0
   0
LINE
   5
19F
 100
AcDbEntity
   8
LEVEL001
 370
9
 100
AcDbLine
   6
CONTINUOUS
  62
1
  10
 3458.7241379310
  20
 195.56036624701
  30
0.0
  11
 3458.7241379310
  21
 32.132822477650
  31
0.0
   0
LINE
   5
1A0
 100
AcDbEntity
   8
LEVEL001
 370
9
 100
AcDbLine
   6
CONTINUOUS
  62
1
  10
 2008.7241379310
  20
 48.132822477650
  30
0.0
  11
 2733.7241379310
  21
 48.132822477650
  31
0.0
   0
LINE
   5
1A1
 100
AcDbEntity
   8
LEVEL001
 370
9
 100
AcDbLine
   6
CONTINUOUS
  62
1
  10
 3458.7241379310
  20
 48.132822477650
  30
0.0
  11
 2733.7241379310
  21
 48.132822477650
  31
0.0
   0
INSERT
   5
1A2
 100
AcDbEntity
   8
LEVEL001
   6
CONTINUOUS
  62
1
 100
AcDbBlockReference
   2
_OPEN30
  10
 2008.7241379310
  20
 48.132822477650
  30
0.0
  41
 24.000000000000
  42
 24.000000000000
  43
 24.000000000000
  50
 180.00000000000
   0
INSERT
   5
1A3
 100
AcDbEntity
   8
LEVEL001
   6
CONTINUOUS
  62
1
 100
AcDbBlockReference
   2
_OPEN30
  10
 3458.7241379310
  20
 48.132822477650
  30
0.0
  41
 24.000000000000
  42
 24.000000000000
  43
 24.000000000000
  50
0.0
   0
MTEXT
   5
1A4
 100
AcDbEntity
   8
LEVEL001
 370
30
  62
7
 100
AcDbMText
  10
 2733.7241379310
  20
 56.132822477650
  30
0.0
  40
 32.000000000000
  41
0.0
  71
8
  72
1
   1
\A1;1450
   7
GMM001
   0
ENDBLK
   5
1A5
 100
AcDbEntity
   8
0
 100
AcDbBlockEnd
   0
BLOCK
   5
1A6
 100
AcDbEntity
   8
0
 100
AcDbBlockBegin
   2
*D8
  70
65
  10
0.0
  20
0.0
  30
0.0
   3
*D8
   0
LINE
   5
1A7
 100
AcDbEntity
   8
LEVEL001
 370
9
 100
AcDbLine
   6
CONTINUOUS
  62
1
  10
 1651.7028671703
  20
 3083.7190293742
  30
0.0
  11
 1874.4827586207
  21
 3083.7190293742
  31
0.0
   0
LINE
   5
1A8
 100
AcDbEntity
   8
LEVEL001
 370
9
 100
AcDbLine
   6
CONTINUOUS
  62
1
  10
 1581.2028671703
  20
 1633.7190293742
  30
0.0
  11
 1874.4827586207
  21
 1633.7190293742
  31
0.0
   0
LINE
   5
1A9
 100
AcDbEntity
   8
LEVEL001
 370
9
 100
AcDbLine
   6
CONTINUOUS
  62
1
  10
 1858.4827586207
  20
 3083.7190293742
  30
0.0
  11
 1858.4827586207
  21
 2358.7190293742
  31
0.0
   0
LINE
   5
1AA
 100
AcDbEntity
   8
LEVEL001
 370
9
 100
AcDbLine
   6
CONTINUOUS
  62
1
  10
 1858.4827586207
  20
 1633.7190293742
  30
0.0
  11
 1858.4827586207
  21
 2358.7190293742
  31
0.0
   0
INSERT
   5
1AB
 100
AcDbEntity
   8
LEVEL001
   6
CONTINUOUS
  62
1
 100
AcDbBlockReference
   2
_OPEN30
  10
 1858.4827586207
  20
 3083.7190293742
  30
0.0
  41
 24.000000000000
  42
 24.000000000000
  43
 24.000000000000
  50
 90.000000000000
   0
INSERT
   5
1AC
 100
AcDbEntity
   8
LEVEL001
   6
CONTINUOUS
  62
1
 100
AcDbBlockReference
   2
_OPEN30
  10
 1858.4827586207
  20
 1633.7190293742
  30
0.0
  41
 24.000000000000
  42
 24.000000000000
  43
 24.000000000000
  50
 270.00000000000
   0
MTEXT
   5
1AD
 100
AcDbEntity
   8
LEVEL001
 370
30
  62
7
 100
AcDbMText
  10
 1850.4827586207
  20
 2358.7190293742
  30
0.0
  40
 32.000000000000
  41
0.0
  71
8
  72
1
   1
\A1;1450
   7
GMM001
  11
0.0
  21
 1.0000000000000
  31
0.0
   0
ENDBLK
   5
1AE
 100
AcDbEntity
   8
0
 100
AcDbBlockEnd
   0
ENDSEC
   0
SECTION
   2
ENTITIES
   0
MTEXT
   5
1B0
 100
AcDbEntity
   8
LEVEL001
 370
30
  62
7
 100
AcDbMText
  10
 4542.6206896552
  20
 80.000000000000
  30
0.0
  40
 32.000000000000
  41
0.0
  71
7
  72
1
   1
\T1.000000;井上
   7
GMM001
  44
 0.79999984000003
   0
INSERT
   5
1B1
 100
AcDbEntity
   8
LEVEL001
 100
AcDbBlockReference
   2
BLOCK001
  10
0.0
  20
0.0
  30
0.0
   0
INSERT
   5
1B2
 100
AcDbEntity
   8
LEVEL001
 100
AcDbBlockReference
   2
BLOCK002
  10
0.0
  20
0.0
  30
0.0
   0
INSERT
   5
1B3
 100
AcDbEntity
   8
0
 100
AcDbBlockReference
   2
BLOCK003
  10
0.0
  20
0.0
  30
0.0
   0
MTEXT
   5
1B5
 100
AcDbEntity
   8
LEVEL001
 370
30
  62
7
 100
AcDbMText
  10
 4350.6206896552
  20
 80.000000000000
  30
0.0
  40
 32.000000000000
  41
0.0
  71
7
  72
1
   1
\T1.000000;27
   7
GMM004
  44
 0.79999984000003
   0
MTEXT
   5
1B7
 100
AcDbEntity
   8
LEVEL001
 370
30
  62
7
 100
AcDbMText
  10
 4403.2311147659
  20
 80.000000000000
  30
0.0
  40
 32.000000000000
  41
0.0
  71
7
  72
1
   1
\T1.000000; 3
   7
GMM004
  44
 0.79999984000003
   0
MTEXT
   5
1B9
 100
AcDbEntity
   8
LEVEL001
 370
30
  62
7
 100
AcDbMText
  10
 4447.4716995182
  20
 80.000000000000
  30
0.0
  40
 32.000000000000
  41
0.0
  71
7
  72
1
   1
\T1.000000;26
   7
GMM004
  44
 0.79999984000003
   0
INSERT
   5
1BA
 100
AcDbEntity
   8
0
 100
AcDbBlockReference
   2
GMM001
  10
 4654.6206896552
  20
0.0
  30
0.0
  41
 8.0000000000000
  42
 8.0000000000000
   0
LINE
   5
1BB
 100
AcDbEntity
   8
LEVEL001
 370
30
 100
AcDbLine
   6
CONTINUOUS
  62
7
  10
 3338.6206896552
  20
 2692.8275862069
  30
0.0
  11
 4554.6206896552
  21
 2692.8275862069
  31
0.0
   0
LINE
   5
1BC
 100
AcDbEntity
   8
LEVEL001
 370
30
 100
AcDbLine
   6
CONTINUOUS
  62
7
  10
 3347.9540229885
  20
 2628.8275862069
  30
0.0
  11
 4554.6206896552
  21
 2628.8275862069
  31
0.0
   0
LINE
   5
1BD
 100
AcDbEntity
   8
LEVEL001
 370
30
 100
AcDbLine
   6
CONTINUOUS
  62
7
  10
 3338.6206896552
  20
 2564.8275862069
  30
0.0
  11
 4554.6206896552
  21
 2564.8275862069
  31
0.0
   0
LINE
   5
1BE
 100
AcDbEntity
   8
LEVEL001
 370
30
 100
AcDbLine
   6
CONTINUOUS
  62
7
  10
 3238.6206896552
  20
 2500.8275862069
  30
0.0
  11
 4554.6206896552
  21
 2500.8275862069
  31
0.0
   0
LINE
   5
1BF
 100
AcDbEntity
   8
LEVEL001
 370
30
 100
AcDbLine
   6
CONTINUOUS
  62
7
  10
 3238.6206896552
  20
 2500.8275862069
  30
0.0
  11
 3338.6206896552
  21
 2756.8275862069
  31
0.0
   0
LINE
   5
1C0
 100
AcDbEntity
   8
LEVEL001
 370
30
 100
AcDbLine
   6
CONTINUOUS
  62
7
  10
 3338.6206896552
  20
 2436.8275862069
  30
0.0
  11
 4554.6206896552
  21
 2436.8275862069
  31
0.0
   0
LINE
   5
1C1
 100
AcDbEntity
   8
LEVEL001
 370
30
 100
AcDbLine
   6
CONTINUOUS
  62
7
  10
 3338.6206896552
  20
 2372.8275862069
  30
0.0
  11
 4554.6206896552
  21
 2372.8275862069
  31
0.0
   0
LINE
   5
1C2
 100
AcDbEntity
   8
LEVEL001
 370
30
 100
AcDbLine
   6
CONTINUOUS
  62
7
  10
 3338.6206896552
  20
 2308.8275862069
  30
0.0
  11
 4554.6206896552
  21
 2308.8275862069
  31
0.0
   0
LINE
   5
1C3
 100
AcDbEntity
   8
LEVEL001
 370
30
 100
AcDbLine
   6
CONTINUOUS
  62
7
  10
 3338.6206896552
  20
 2244.8275862069
  30
0.0
  11
 4554.6206896552
  21
 2244.8275862069
  31
0.0
   0
LINE
   5
1C4
 100
AcDbEntity
   8
LEVEL001
 370
30
 100
AcDbLine
   6
CONTINUOUS
  62
7
  10
 3338.6206896552
  20
 2180.8275862069
  30
0.0
  11
 4554.6206896552
  21
 2180.8275862069
  31
0.0
   0
LINE
   5
1C5
 100
AcDbEntity
   8
LEVEL001
 370
30
 100
AcDbLine
   6
CONTINUOUS
  62
7
  10
 3238.6206896552
  20
 2820.8275862069
  30
0.0
  11
 4554.6206896552
  21
 2820.8275862069
  31
0.0
   0
LINE
   5
1C6
 100
AcDbEntity
   8
LEVEL001
 370
30
 100
AcDbLine
   6
CONTINUOUS
  62
7
  10
 3238.6206896552
  20
 2884.8275862069
  30
0.0
  11
 4554.6206896552
  21
 2884.8275862069
  31
0.0
   0
LINE
   5
1C7
 100
AcDbEntity
   8
LEVEL001
 370
30
 100
AcDbLine
   6
CONTINUOUS
  62
7
  10
 3238.6206896552
  20
 2948.8275862069
  30
0.0
  11
 4554.6206896552
  21
 2948.8275862069
  31
0.0
   0
LINE
   5
1C8
 100
AcDbEntity
   8
LEVEL001
 370
30
 100
AcDbLine
   6
CONTINUOUS
  62
7
  10
 3238.6206896552
  20
 3012.8275862069
  30
0.0
  11
 4554.6206896552
  21
 3012.8275862069
  31
0.0
   0
LINE
   5
1C9
 100
AcDbEntity
   8
LEVEL001
 370
30
 100
AcDbLine
   6
CONTINUOUS
  62
7
  10
 3238.6206896552
  20
 2756.8275862069
  30
0.0
  11
 4554.6206896552
  21
 2756.8275862069
  31
0.0
   0
LINE
   5
1CA
 100
AcDbEntity
   8
LEVEL001
 370
30
 100
AcDbLine
   6
CONTINUOUS
  62
7
  10
 3238.6206896552
  20
 2052.8275862069
  30
0.0
  11
 3238.6206896552
  21
 3012.8275862069
  31
0.0
   0
LINE
   5
1CB
 100
AcDbEntity
   8
LEVEL001
 370
30
 100
AcDbLine
   6
CONTINUOUS
  62
7
  10
 3338.6206896552
  20
 2756.8275862069
  30
0.0
  11
 3338.6206896552
  21
 2052.8275862069
  31
0.0
   0
LINE
   5
1CC
 100
AcDbEntity
   8
LEVEL001
 370
30
 100
AcDbLine
   6
CONTINUOUS
  62
7
  10
 3687.9540229885
  20
 3012.8275862069
  30
0.0
  11
 3687.9540229885
  21
 2052.8275862069
  31
0.0
   0
LINE
   5
1CD
 100
AcDbEntity
   8
LEVEL001
 370
30
 100
AcDbLine
   6
CONTINUOUS
  62
7
  10
 4554.6206896552
  20
 3012.8275862069
  30
0.0
  11
 4554.6206896552
  21
 2052.8275862069
  31
0.0
   0
MTEXT
   5
1CF
 100
AcDbEntity
   8
LEVEL001
 370
9
  62
1
 100
AcDbMText
  10
 3347.9540229885
  20
 2319.4942528736
  30
0.0
  40
 32.000000000000
  41
0.0
  71
7
  72
1
   1
\T1.000000;ベルトコンベア－
   7
GMM001
  44
 0.79999984000003
   0
MTEXT
   5
1D1
 100
AcDbEntity
   8
LEVEL001
 370
9
  62
1
 100
AcDbMText
  10
 3347.9540229885
  20
 2255.4942528736
  30
0.0
  40
 32.000000000000
  41
0.0
  71
7
  72
1
   1
\T1.000000;包丁刃
   7
GMM001
  44
 0.79999984000003
   0
MTEXT
   5
1D3
 100
AcDbEntity
   8
LEVEL001
 370
9
  62
1
 100
AcDbMText
  10
 3296.6206896552
  20
 2581.8275862069
  30
0.0
  40
 32.000000000000
  41
0.0
  71
4
  72
1
   1
{\T1.000000;能}\P{\T1.000000;力}
   7
GMM001
  44
 0.79999984000003
   0
MTEXT
   5
1D5
 100
AcDbEntity
   8
LEVEL001
 370
9
  62
1
 100
AcDbMText
  10
 3244.6206896552
  20
 2753.8275862069
  30
0.0
  40
 32.000000000000
  41
0.0
  71
1
  72
1
   1
{\T1.000000;消}\P{\T1.000000;費}\P{\T1.000000;電}\P{\T1.000000;力}
   7
GMM001
  44
 0.79999984000003
   0
MTEXT
   5
1D7
 100
AcDbEntity
   8
LEVEL001
 370
9
  62
1
 100
AcDbMText
  10
 3343.2432677438
  20
 2511.4942528736
  30
0.0
  40
 32.000000000000
  41
0.0
  71
7
  72
1
   1
\T1.000000;（合計）
   7
GMM001
  44
 0.79999984000003
   0
MTEXT
   5
1D9
 100
AcDbEntity
   8
LEVEL001
 370
9
  62
1
 100
AcDbMText
  10
 3695.9540229885
  20
 2702.1609195402
  30
0.0
  40
 32.000000000000
  41
0.0
  71
7
  72
1
   1
\T1.000000;　１００Ｗ　／　３～６ｋｇ／回（ミキシング）
   7
GMM001
  44
 0.79999984000003
   0
MTEXT
   5
1DB
 100
AcDbEntity
   8
LEVEL001
 370
9
  62
1
 100
AcDbMText
  10
 3347.9540229885
  20
 2447.4942528736
  30
0.0
  40
 32.000000000000
  41
0.0
  71
7
  72
1
   1
\T1.000000;凹凸ロ－ル、平ロ－ル
   7
GMM001
  44
 0.79999984000003
   0
MTEXT
   5
1DD
 100
AcDbEntity
   8
LEVEL001
 370
9
  62
1
 100
AcDbMText
  10
 3695.9540229885
  20
 2382.1609195402
  30
0.0
  40
 32.000000000000
  41
0.0
  71
7
  72
1
   1
\T1.000000;ＳＵＳ３０４
   7
GMM001
  44
 0.79999984000003
   0
MTEXT
   5
1DF
 100
AcDbEntity
   8
LEVEL001
 370
9
  62
1
 100
AcDbMText
  10
 3347.9540229885
  20
 2383.4942528736
  30
0.0
  40
 32.000000000000
  41
0.0
  71
7
  72
1
   1
\T1.000000;凹凸ロ－ル（プレス機）
   7
GMM001
  44
 0.79999984000003
   0
MTEXT
   5
1E1
 100
AcDbEntity
   8
LEVEL001
 370
9
  62
1
 100
AcDbMText
  10
 3347.9540229885
  20
 2127.4942528736
  30
0.0
  40
 32.000000000000
  41
0.0
  71
7
  72
1
   1
\T1.000000;安全カバ－類
   7
GMM001
  44
 0.79999984000003
   0
MTEXT
   5
1E3
 100
AcDbEntity
   8
LEVEL001
 370
9
  62
1
 100
AcDbMText
  10
 3347.9540229885
  20
 2063.4942528736
  30
0.0
  40
 32.000000000000
  41
0.0
  71
7
  72
1
   1
\T1.000000;下部台
   7
GMM001
  44
 0.79999984000003
   0
MTEXT
   5
1E5
 100
AcDbEntity
   8
LEVEL001
 370
9
  62
1
 100
AcDbMText
  10
 3347.9540229885
  20
 2191.4942528736
  30
0.0
  40
 32.000000000000
  41
0.0
  71
7
  72
1
   1
\T1.000000;羽根
   7
GMM001
  44
 0.79999984000003
   0
MTEXT
   5
1E7
 100
AcDbEntity
   8
LEVEL001
 370
9
  62
1
 100
AcDbMText
  10
 3276.6206896552
  20
 2418.8275862069
  30
0.0
  40
 32.000000000000
  41
0.0
  71
1
  72
1
   1
{\T1.000000;材}\P\P\P\P{\T1.000000;料}
   7
GMM001
  44
 0.79999984000003
   0
MTEXT
   5
1E9
 100
AcDbEntity
   8
LEVEL001
 370
9
  62
1
 100
AcDbMText
  10
 3695.9540229885
  20
 2062.1609195402
  30
0.0
  40
 32.000000000000
  41
0.0
  71
7
  72
1
   1
\T1.000000;ＳＵＳ４３０
   7
GMM001
  44
 0.79999984000003
   0
MTEXT
   5
1EB
 100
AcDbEntity
   8
LEVEL001
 370
9
  62
1
 100
AcDbMText
  10
 3695.9540229885
  20
 2958.1609195402
  30
0.0
  40
 32.000000000000
  41
0.0
  71
7
  72
1
   1
\T1.000000;手打麺機
   7
GMM001
  44
 0.79999984000003
   0
MTEXT
   5
1ED
 100
AcDbEntity
   8
LEVEL001
 370
9
  62
1
 100
AcDbMText
  10
 3346.6206896552
  20
 2958.1609195402
  30
0.0
  40
 32.000000000000
  41
0.0
  71
7
  72
1
   1
\T1.000000;製　　品　　名
   7
GMM001
  44
 0.79999984000003
   0
MTEXT
   5
1EF
 100
AcDbEntity
   8
LEVEL001
 370
9
  62
1
 100
AcDbMText
  10
 3346.6206896552
  20
 2894.1609195402
  30
0.0
  40
 32.000000000000
  41
0.0
  71
7
  72
1
   1
\T1.000000;型　　　　　式
   7
GMM001
  44
 0.79999984000003
   0
MTEXT
   5
1F1
 100
AcDbEntity
   8
LEVEL001
 370
9
  62
1
 100
AcDbMText
  10
 3346.6206896552
  20
 2830.1609195402
  30
0.0
  40
 32.000000000000
  41
0.0
  71
7
  72
1
   1
\W1.000000;\T1.000000;寸法\W0.500000;\T1.000000;(\W1.000000;\T1.000000;Ｗ×Ｄ×Ｈ）
   7
GMM001
  44
 0.79999984000003
   0
MTEXT
   5
1F3
 100
AcDbEntity
   8
LEVEL001
 370
9
  62
1
 100
AcDbMText
  10
 3346.6206896552
  20
 2766.1609195402
  30
0.0
  40
 32.000000000000
  41
0.0
  71
7
  72
1
   1
\T1.000000;電　　　　　源
   7
GMM001
  44
 0.79999984000003
   0
MTEXT
   5
1F5
 100
AcDbEntity
   8
LEVEL001
 370
9
  62
1
 100
AcDbMText
  10
 3695.9540229885
  20
 2638.1609195402
  30
0.0
  40
 32.000000000000
  41
0.0
  71
7
  72
1
   1
\T1.000000;　１００Ｗ　／　１ｋｇ／回（プレス）
   7
GMM001
  44
 0.79999984000003
   0
MTEXT
   5
1F7
 100
AcDbEntity
   8
LEVEL001
 370
9
  62
1
 100
AcDbMText
  10
 3695.9540229885
  20
 2190.1609195402
  30
0.0
  40
 32.000000000000
  41
0.0
  71
7
  72
1
   1
\T1.000000;ＳＵＳ３０４
   7
GMM001
  44
 0.79999984000003
   0
MTEXT
   5
1F9
 100
AcDbEntity
   8
LEVEL001
 370
9
  62
1
 100
AcDbMText
  10
 3695.9540229885
  20
 2126.1609195402
  30
0.0
  40
 32.000000000000
  41
0.0
  71
7
  72
1
   1
\T1.000000;ＳＵＳ４３０　ＳＵＳ３０４
   7
GMM001
  44
 0.79999984000003
   0
MTEXT
   5
1FB
 100
AcDbEntity
   8
LEVEL001
 370
9
  62
1
 100
AcDbMText
  10
 3347.9540229885
  20
 2703.4942528736
  30
0.0
  40
 32.000000000000
  41
0.0
  71
7
  72
1
   1
\T1.000000;ＳＮ－６Ｐ
   7
GMM001
  44
 0.79999984000003
   0
MTEXT
   5
1FD
 100
AcDbEntity
   8
LEVEL001
 370
9
  62
1
 100
AcDbMText
  10
 3347.9540229885
  20
 2639.4942528736
  30
0.0
  40
 32.000000000000
  41
0.0
  71
7
  72
1
   1
\T1.000000;ＲＰ－１Ｐ
   7
GMM001
  44
 0.79999984000003
   0
MTEXT
   5
1FF
 100
AcDbEntity
   8
LEVEL001
 370
9
  62
1
 100
AcDbMText
  10
 3695.9540229885
  20
 2894.1609195402
  30
0.0
  40
 32.000000000000
  41
0.0
  71
7
  72
1
   1
\T1.000000;Ｍ－８０８ＡＰ－６
   7
GMM001
  44
 0.79999984000003
   0
MTEXT
   5
201
 100
AcDbEntity
   8
LEVEL001
 370
9
  62
1
 100
AcDbMText
  10
 3695.9540229885
  20
 2830.1609195402
  30
0.0
  40
 32.000000000000
  41
0.0
  71
7
  72
1
   1
\T1.000000;８８５×７２５×１，２４５
   7
GMM001
  44
 0.79999984000003
   0
MTEXT
   5
203
 100
AcDbEntity
   8
LEVEL001
 370
9
  62
1
 100
AcDbMText
  10
 3347.9540229885
  20
 2575.4942528736
  30
0.0
  40
 32.000000000000
  41
0.0
  71
7
  72
1
   1
\T1.000000;Ｍ－８０８
   7
GMM001
  44
 0.79999984000003
   0
MTEXT
   5
205
 100
AcDbEntity
   8
LEVEL001
 370
9
  62
1
 100
AcDbMText
  10
 3695.9540229885
  20
 2574.1609195402
  30
0.0
  40
 32.000000000000
  41
0.0
  71
7
  72
1
   1
\T1.000000;　２５０Ｗ　／　２００食／時（製麺能力）
   7
GMM001
  44
 0.79999984000003
   0
MTEXT
   5
207
 100
AcDbEntity
   8
LEVEL001
 370
9
  62
1
 100
AcDbMText
  10
 3691.2432677438
  20
 2510.1609195402
  30
0.0
  40
 32.000000000000
  41
0.0
  71
7
  72
1
   1
\T1.000000;（４５０Ｗ）
   7
GMM001
  44
 0.79999984000003
   0
MTEXT
   5
209
 100
AcDbEntity
   8
LEVEL001
 370
9
  62
1
 100
AcDbMText
  10
 3695.9540229885
  20
 2446.1609195402
  30
0.0
  40
 32.000000000000
  41
0.0
  71
7
  72
1
   1
\T1.000000;ポリプロピレン　（長さ５２５）
   7
GMM001
  44
 0.79999984000003
   0
MTEXT
   5
20B
 100
AcDbEntity
   8
LEVEL001
 370
9
  62
1
 100
AcDbMText
  10
 3695.9540229885
  20
 2318.1609195402
  30
0.0
  40
 32.000000000000
  41
0.0
  71
7
  72
1
   1
\T1.000000;樹脂ベルト　ＮＳ８２ＵＫＧ０／８Ｎ
   7
GMM001
  44
 0.79999984000003
   0
MTEXT
   5
20D
 100
AcDbEntity
   8
LEVEL001
 370
9
  62
1
 100
AcDbMText
  10
 3695.9540229885
  20
 2254.1609195402
  30
0.0
  40
 32.000000000000
  41
0.0
  71
7
  72
1
   1
\T1.000000;ＳＵＳ　（長さ２６０）
   7
GMM001
  44
 0.79999984000003
   0
LINE
   5
20E
 100
AcDbEntity
   8
LEVEL001
 370
30
 100
AcDbLine
   6
CONTINUOUS
  62
7
  10
 4554.6206896552
  20
 2116.8275862069
  30
0.0
  11
 3338.6206896552
  21
 2116.8275862069
  31
0.0
   0
MTEXT
   5
210
 100
AcDbEntity
   8
LEVEL001
 370
9
  62
1
 100
AcDbMText
  10
 3695.9540229885
  20
 2766.1609195402
  30
0.0
  40
 32.000000000000
  41
0.0
  71
7
  72
1
   1
\T1.000000;単相１００Ｖ　５０／６０Ｈｚ
   7
GMM001
  44
 0.79999984000003
   0
LINE
   5
211
 100
AcDbEntity
   8
LEVEL001
 370
30
 100
AcDbLine
   6
CONTINUOUS
  62
7
  10
 2775.3241379310
  20
 855.56036624701
  30
0.0
  11
 3435.3241379310
  21
 855.56036624701
  31
0.0
   0
LINE
   5
212
 100
AcDbEntity
   8
LEVEL001
 370
30
 100
AcDbLine
   6
CONTINUOUS
  62
7
  10
 3458.7241379310
  20
 826.56036624701
  30
0.0
  11
 3458.7241379310
  21
 855.56036624701
  31
0.0
   0
LINE
   5
213
 100
AcDbEntity
   8
LEVEL001
 370
30
 100
AcDbLine
   6
CONTINUOUS
  62
7
  10
 3458.7241379310
  20
 826.56036624701
  30
0.0
  11
 3458.7241379310
  21
 195.56036624701
  31
0.0
   0
LINE
   5
214
 100
AcDbEntity
   8
LEVEL001
 370
30
 100
AcDbLine
   6
CONTINUOUS
  62
7
  10
 2733.7241379310
  20
 826.56036624701
  30
0.0
  11
 3458.7241379310
  21
 826.56036624701
  31
0.0
   0
LINE
   5
215
 100
AcDbEntity
   8
LEVEL001
 370
30
 100
AcDbLine
   6
CONTINUOUS
  62
7
  10
 3458.7241379310
  20
 855.56036624701
  30
0.0
  11
 2733.7241379310
  21
 855.56036624701
  31
0.0
   0
LINE
   5
216
 100
AcDbEntity
   8
LEVEL001
 370
30
 100
AcDbLine
   6
CONTINUOUS
  62
7
  10
 2733.7241379310
  20
 855.56036624701
  30
0.0
  11
 2733.7241379310
  21
 826.56036624701
  31
0.0
   0
LINE
   5
217
 100
AcDbEntity
   8
LEVEL001
 370
30
 100
AcDbLine
   6
CONTINUOUS
  62
7
  10
 2733.7241379310
  20
 826.56036624701
  30
0.0
  11
 2733.7241379310
  21
 195.56036624701
  31
0.0
   0
LINE
   5
218
 100
AcDbEntity
   8
LEVEL001
 370
30
 100
AcDbLine
   6
CONTINUOUS
  62
7
  10
 2742.7241379310
  20
 857.56036624701
  30
0.0
  11
 2740.7241379310
  21
 857.56036624701
  31
0.0
   0
INSERT
   5
219
 100
AcDbEntity
   8
0
 100
AcDbBlockReference
   2
BLOCK004
  10
0.0
  20
0.0
  30
0.0
   0
LINE
   5
21A
 100
AcDbEntity
   8
LEVEL001
 370
30
 100
AcDbLine
   6
CONTINUOUS
  62
7
  10
 3350.7241379310
  20
 876.56036624701
  30
0.0
  11
 3350.7241379310
  21
 855.56036624701
  31
0.0
   0
ARC
   5
21B
 100
AcDbEntity
   8
LEVEL001
 370
30
   6
CONTINUOUS
  62
7
 100
AcDbCircle
  10
 3079.7241379310
  20
 880.56036624701
  30
0.0
  40
 4.0000000000000
 100
AcDbArc
  50
 180.00000000000
  51
 270.00000000000
   0
LINE
   5
21C
 100
AcDbEntity
   8
LEVEL001
 370
30
 100
AcDbLine
   6
CONTINUOUS
  62
7
  10
 3102.7241379310
  20
 876.56036624701
  30
0.0
  11
 3102.7241379310
  21
 875.56036624701
  31
0.0
   0
LINE
   5
21D
 100
AcDbEntity
   8
LEVEL001
 370
30
 100
AcDbLine
   6
CONTINUOUS
  62
7
  10
 3351.7241379310
  20
 875.56036624701
  30
0.0
  11
 3102.7241379310
  21
 875.56036624701
  31
0.0
   0
ARC
   5
21E
 100
AcDbEntity
   8
LEVEL001
 370
30
   6
CONTINUOUS
  62
7
 100
AcDbCircle
  10
 3351.7241379310
  20
 877.56036624701
  30
0.0
  40
 2.0000000000000
 100
AcDbArc
  50
 270.00000000000
  51
0.0
   0
LINE
   5
21F
 100
AcDbEntity
   8
LEVEL001
 370
30
 100
AcDbLine
   6
CONTINUOUS
  62
7
  10
 2742.7241379310
  20
 876.56036624701
  30
0.0
  11
 2742.7241379310
  21
 855.56036624701
  31
0.0
   0
LINE
   5
220
 100
AcDbEntity
   8
LEVEL001
 370
30
 100
AcDbLine
   6
CONTINUOUS
  62
7
  10
 2740.7241379310
  20
 874.56036624701
  30
0.0
  11
 2740.7241379310
  21
 857.56036624701
  31
0.0
   0
LINE
   5
221
 100
AcDbEntity
   8
LEVEL001
 370
30
 100
AcDbLine
   6
CONTINUOUS
  62
7
  10
 2742.7241379310
  20
 874.56036624701
  30
0.0
  11
 2740.7241379310
  21
 874.56036624701
  31
0.0
   0
ARC
   5
222
 100
AcDbEntity
   8
LEVEL001
 370
30
   6
CONTINUOUS
  62
7
 100
AcDbCircle
  10
 2744.7241379310
  20
 880.56036624701
  30
0.0
  40
 2.0000000000000
 100
AcDbArc
  50
 180.00000000000
  51
 270.00000000000
   0
ARC
   5
223
 100
AcDbEntity
   8
LEVEL001
 370
30
   6
CONTINUOUS
  62
7
 100
AcDbCircle
  10
 2744.7241379310
  20
 880.56036624701
  30
0.0
  40
 4.0000000000000
 100
AcDbArc
  50
 180.00000000000
  51
 269.99999999997
   0
LINE
   5
224
 100
AcDbEntity
   8
LEVEL001
 370
30
 100
AcDbLine
   6
CONTINUOUS
  62
7
  10
 2763.7241379310
  20
 876.56036624701
  30
0.0
  11
 2744.7241379310
  21
 876.56036624701
  31
0.0
   0
LINE
   5
225
 100
AcDbEntity
   8
LEVEL001
 370
30
 100
AcDbLine
   6
CONTINUOUS
  62
7
  10
 2742.7241379310
  20
 931.56036624701
  30
0.0
  11
 2742.7241379310
  21
 880.56036624701
  31
0.0
   0
LINE
   5
226
 100
AcDbEntity
   8
LEVEL001
 370
30
 100
AcDbLine
   6
CONTINUOUS
  62
7
  10
 3350.7241379310
  20
 876.56036624701
  30
0.0
  11
 3079.7241379310
  21
 876.56036624701
  31
0.0
   0
LINE
   5
227
 100
AcDbEntity
   8
LEVEL001
 370
30
 100
AcDbLine
   6
CONTINUOUS
  62
7
  10
 2763.7241379310
  20
 878.56036624701
  30
0.0
  11
 2744.7241379310
  21
 878.56036624701
  31
0.0
   0
LINE
   5
228
 100
AcDbEntity
   8
LEVEL001
 370
30
 100
AcDbLine
   6
CONTINUOUS
  62
7
  10
 3099.7241379310
  20
 1272.5603662470
  30
0.0
  11
 3102.7241379310
  21
 1269.5603662470
  31
0.0
   0
LINE
   5
229
 100
AcDbEntity
   8
LEVEL001
 370
30
 100
AcDbLine
   6
CONTINUOUS
  62
7
  10
 3099.7241379310
  20
 1003.5603662470
  30
0.0
  11
 3102.7241379310
  21
 1006.5603662470
  31
0.0
   0
LINE
   5
22A
 100
AcDbEntity
   8
LEVEL001
 370
30
 100
AcDbLine
   6
CONTINUOUS
  62
7
  10
 3102.7241379310
  20
 1269.5603662470
  30
0.0
  11
 3102.7241379310
  21
 1006.5603662470
  31
0.0
   0
LINE
   5
22B
 100
AcDbEntity
   8
LEVEL001
 370
30
 100
AcDbLine
   6
CONTINUOUS
  62
7
  10
 2751.7241379310
  20
 1003.5603662470
  30
0.0
  11
 3099.7241379310
  21
 1003.5603662470
  31
0.0
   0
LINE
   5
22C
 100
AcDbEntity
   8
LEVEL001
 370
30
 100
AcDbLine
   6
CONTINUOUS
  62
7
  10
 2751.7241379310
  20
 1272.5603662470
  30
0.0
  11
 3099.7241379310
  21
 1272.5603662470
  31
0.0
   0
ARC
   5
22D
 100
AcDbEntity
   8
LEVEL001
 370
30
   6
CONTINUOUS
  62
7
 100
AcDbCircle
  10
 3074.0672836815
  20
 1306.5603662470
  30
0.0
  40
 2.0000000000000
 100
AcDbArc
  50
 269.99999999999
  51
 314.99999999999
   0
LINE
   5
22E
 100
AcDbEntity
   8
LEVEL001
 370
30
 100
AcDbLine
   6
CONTINUOUS
  62
7
  10
 3352.7241379310
  20
 1410.5603662470
  30
0.0
  11
 3352.7241379310
  21
 1411.5603662470
  31
0.0
   0
LINE
   5
22F
 100
AcDbEntity
   8
LEVEL001
 370
30
 100
AcDbLine
   6
CONTINUOUS
  62
7
  10
 3352.7241379310
  20
 1410.5603662470
  30
0.0
  11
 3353.7241379310
  21
 1410.5603662470
  31
0.0
   0
ARC
   5
230
 100
AcDbEntity
   8
LEVEL001
 370
30
   6
CONTINUOUS
  62
7
 100
AcDbCircle
  10
 3112.4610324770
  20
 1397.4515897254
  30
0.0
  40
 1.0000000000000
 100
AcDbArc
  50
 135.00000000002
  51
 183.00000000003
   0
ARC
   5
231
 100
AcDbEntity
   8
LEVEL001
 370
30
   6
CONTINUOUS
  62
7
 100
AcDbCircle
  10
 3112.4610324770
  20
 1397.4515897253
  30
0.0
  40
 2.0000000000000
 100
AcDbArc
  50
 135.00000000002
  51
 183.00000000002
   0
LINE
   5
232
 100
AcDbEntity
   8
LEVEL001
 370
30
 100
AcDbLine
   6
CONTINUOUS
  62
7
  10
 3181.0170311499
  20
 1412.2674730282
  30
0.0
  11
 3181.7241379310
  21
 1411.5603662471
  31
0.0
   0
LINE
   5
233
 100
AcDbEntity
   8
LEVEL001
 370
30
 100
AcDbLine
   6
CONTINUOUS
  62
7
  10
 3181.7241379310
  20
 1412.5603662470
  30
0.0
  11
 3181.7241379310
  21
 1411.5603662471
  31
0.0
   0
LINE
   5
234
 100
AcDbEntity
   8
LEVEL001
 370
30
 100
AcDbLine
   6
CONTINUOUS
  62
7
  10
 3114.1856755238
  20
 1345.4361174022
  30
0.0
  11
 3114.8927823050
  21
 1344.7290106210
  31
0.0
   0
ARC
   5
235
 100
AcDbEntity
   8
LEVEL001
 370
30
   6
CONTINUOUS
  62
7
 100
AcDbCircle
  10
 3181.7241379311
  20
 1413.5603662470
  30
0.0
  40
 1.0000000000000
 100
AcDbArc
  50
 224.99999999987
  51
 269.99999999992
   0
LINE
   5
236
 100
AcDbEntity
   8
LEVEL001
 370
30
 100
AcDbLine
   6
CONTINUOUS
  62
7
  10
 3114.1856755238
  20
 1345.4361174022
  30
0.0
  11
 3181.0170311499
  21
 1412.2674730282
  31
0.0
   0
ARC
   5
237
 100
AcDbEntity
   8
LEVEL001
 370
30
   6
CONTINUOUS
  62
7
 100
AcDbCircle
  10
 3181.7241379311
  20
 1413.5603662470
  30
0.0
  40
 2.0000000000000
 100
AcDbArc
  50
 225.00000000005
  51
 236.90208124536
   0
ARC
   5
238
 100
AcDbEntity
   8
LEVEL001
 370
30
   6
CONTINUOUS
  62
7
 100
AcDbCircle
  10
 3352.7241379310
  20
 1300.9745798094
  30
0.0
  40
 1.0000000000000
 100
AcDbArc
  50
 315.00000000001
  51
 0.13027551975275E-10
   0
ARC
   5
239
 100
AcDbEntity
   8
LEVEL001
 370
30
   6
CONTINUOUS
  62
7
 100
AcDbCircle
  10
 3352.7241379310
  20
 1410.5603662470
  30
0.0
  40
 1.0000000000000
 100
AcDbArc
  50
0.0
  51
 90.000000000000
   0
ARC
   5
23A
 100
AcDbEntity
   8
LEVEL001
 370
30
   6
CONTINUOUS
  62
7
 100
AcDbCircle
  10
 3352.7241379310
  20
 1410.5603662470
  30
0.0
  40
 2.0000000000000
 100
AcDbArc
  50
0.0
  51
 90.000000000000
   0
LINE
   5
23B
 100
AcDbEntity
   8
LEVEL001
 370
30
 100
AcDbLine
   6
CONTINUOUS
  62
7
  10
 3353.7241379310
  20
 1410.5603662470
  30
0.0
  11
 3353.7241379310
  21
 1300.5603662470
  31
0.0
   0
LINE
   5
23C
 100
AcDbEntity
   8
LEVEL001
 370
30
 100
AcDbLine
   6
CONTINUOUS
  62
7
  10
 3354.7241379310
  20
 1410.5603662470
  30
0.0
  11
 3354.7241379310
  21
 1300.5603662470
  31
0.0
   0
LINE
   5
23D
 100
AcDbEntity
   8
LEVEL001
 370
30
 100
AcDbLine
   6
CONTINUOUS
  62
7
  10
 3353.7241379310
  20
 1300.5603662470
  30
0.0
  11
 3354.7241379310
  21
 1300.5603662470
  31
0.0
   0
ARC
   5
23E
 100
AcDbEntity
   8
LEVEL001
 370
30
   6
CONTINUOUS
  62
7
 100
AcDbCircle
  10
 3352.7241379310
  20
 1300.9745798095
  30
0.0
  40
 2.0000000000000
 100
AcDbArc
  50
 315.00000000000
  51
 348.04714410557
   0
LINE
   5
23F
 100
AcDbEntity
   8
LEVEL001
 370
30
 100
AcDbLine
   6
CONTINUOUS
  62
7
  10
 3181.7241379311
  20
 1412.5603662470
  30
0.0
  11
 3352.7241379310
  21
 1412.5603662470
  31
0.0
   0
LINE
   5
240
 100
AcDbEntity
   8
LEVEL001
 370
30
 100
AcDbLine
   6
CONTINUOUS
  62
7
  10
 3181.7241379310
  20
 1411.5603662470
  30
0.0
  11
 3352.7241379310
  21
 1411.5603662470
  31
0.0
   0
LINE
   5
241
 100
AcDbEntity
   8
LEVEL001
 370
30
 100
AcDbLine
   6
CONTINUOUS
  62
7
  10
 2751.7241379310
  20
 1272.5603662470
  30
0.0
  11
 2748.7241379310
  21
 1269.5603662470
  31
0.0
   0
LINE
   5
242
 100
AcDbEntity
   8
LEVEL001
 370
30
 100
AcDbLine
   6
CONTINUOUS
  62
7
  10
 2748.7241379310
  20
 1006.5603662470
  30
0.0
  11
 2751.7241379310
  21
 1003.5603662470
  31
0.0
   0
LINE
   5
243
 100
AcDbEntity
   8
LEVEL001
 370
30
 100
AcDbLine
   6
CONTINUOUS
  62
7
  10
 2748.7241379310
  20
 1304.5603662470
  30
0.0
  11
 2748.7241379310
  21
 1302.5603662470
  31
0.0
   0
LINE
   5
244
 100
AcDbEntity
   8
LEVEL001
 370
30
 100
AcDbLine
   6
CONTINUOUS
  62
7
  10
 2748.7241379310
  20
 1304.5603662470
  30
0.0
  11
 3074.0672836815
  21
 1304.5603662470
  31
0.0
   0
ARC
   5
245
 100
AcDbEntity
   8
LEVEL001
 370
30
   6
CONTINUOUS
  62
7
 100
AcDbCircle
  10
 2744.7241379310
  20
 1298.5603662470
  30
0.0
  40
 4.0000000000000
 100
AcDbArc
  50
 90.000000000026
  51
 180.00000000000
   0
LINE
   5
246
 100
AcDbEntity
   8
LEVEL001
 370
30
 100
AcDbLine
   6
CONTINUOUS
  62
7
  10
 2770.7241379310
  20
 1302.5603662470
  30
0.0
  11
 2744.7241379310
  21
 1302.5603662470
  31
0.0
   0
LINE
   5
247
 100
AcDbEntity
   8
LEVEL001
 370
30
 100
AcDbLine
   6
CONTINUOUS
  62
7
  10
 2740.7241379310
  20
 1298.5603662470
  30
0.0
  11
 2740.7241379310
  21
 1003.5603662470
  31
0.0
   0
LINE
   5
248
 100
AcDbEntity
   8
LEVEL001
 370
30
 100
AcDbLine
   6
CONTINUOUS
  62
7
  10
 2740.7241379310
  20
 1003.5603662470
  30
0.0
  11
 2737.7241379310
  21
 1003.5603662470
  31
0.0
   0
LINE
   5
249
 100
AcDbEntity
   8
LEVEL001
 370
30
 100
AcDbLine
   6
CONTINUOUS
  62
7
  10
 2740.7241379310
  20
 1089.5603662470
  30
0.0
  11
 2737.7241379310
  21
 1089.5603662470
  31
0.0
   0
LINE
   5
24A
 100
AcDbEntity
   8
LEVEL001
 370
30
 100
AcDbLine
   6
CONTINUOUS
  62
7
  10
 2740.7241379310
  20
 1003.5603662470
  30
0.0
  11
 2740.7241379310
  21
 1089.5603662470
  31
0.0
   0
LINE
   5
24B
 100
AcDbEntity
   8
LEVEL001
 370
30
 100
AcDbLine
   6
CONTINUOUS
  62
7
  10
 2737.7241379310
  20
 1089.5603662470
  30
0.0
  11
 2737.7241379310
  21
 1003.5603662470
  31
0.0
   0
LINE
   5
24C
 100
AcDbEntity
   8
LEVEL001
 370
30
 100
AcDbLine
   6
CONTINUOUS
  62
7
  10
 2770.7241379310
  20
 1304.5603662470
  30
0.0
  11
 2770.7241379310
  21
 1272.5603662470
  31
0.0
   0
LINE
   5
24D
 100
AcDbEntity
   8
LEVEL001
 370
30
 100
AcDbLine
   6
CONTINUOUS
  62
7
  10
 2748.7241379310
  20
 1006.5603662470
  30
0.0
  11
 2748.7241379310
  21
 1269.5603662470
  31
0.0
   0
LINE
   5
24E
 100
AcDbEntity
   8
LEVEL001
 370
30
 100
AcDbLine
   6
CONTINUOUS
  62
7
  10
 3074.0672836815
  20
 1304.5603662470
  30
0.0
  11
 3074.0672836815
  21
 1272.5603662470
  31
0.0
   0
LINE
   5
24F
 100
AcDbEntity
   8
LEVEL001
 370
30
 100
AcDbLine
   6
CONTINUOUS
  62
7
  10
 3038.0173382698
  20
 1310.0353408461
  30
0.0
  11
 3036.3399971173
  21
 1311.1246188905
  31
0.0
   0
LINE
   5
250
 100
AcDbEntity
   8
LEVEL001
 370
30
 100
AcDbLine
   6
CONTINUOUS
  62
7
  10
 3030.2057764887
  20
 1314.6537018953
  30
0.0
  11
 3035.0141544590
  21
 1311.5311048348
  31
0.0
   0
ARC
   5
251
 100
AcDbEntity
   8
LEVEL001
 370
30
   6
CONTINUOUS
  62
7
 100
AcDbCircle
  10
 3033.8404474922
  20
 1306.7860289357
  30
0.0
  40
 8.6666666661756
 100
AcDbArc
  50
 114.79577336929
  51
 179.20422838132
   0
ARC
   5
252
 100
AcDbEntity
   8
LEVEL001
 370
30
   6
CONTINUOUS
  62
7
 100
AcDbCircle
  10
 3038.5576966111
  20
 1315.5511595639
  30
0.0
  40
 8.3999999999553
 100
AcDbArc
  50
 167.86680309088
  51
 186.13319865970
   0
ARC
   5
253
 100
AcDbEntity
   8
LEVEL001
 370
30
   6
CONTINUOUS
  62
7
 100
AcDbCircle
  10
 3032.4369906375
  20
 1319.5259923660
  30
0.0
  40
 8.3999999999553
 100
AcDbArc
  50
 287.86680309049
  51
 306.13319866011
   0
ARC
   5
254
 100
AcDbEntity
   8
LEVEL001
 370
30
   6
CONTINUOUS
  62
7
 100
AcDbCircle
  10
 3027.7517805326
  20
 1298.9115074365
  30
0.0
  40
 8.3999999999553
 100
AcDbArc
  50
 107.86680308870
  51
 126.13319865563
   0
LINE
   5
255
 100
AcDbEntity
   8
LEVEL001
 370
30
 100
AcDbLine
   6
CONTINUOUS
  62
7
  10
 3020.6829862145
  20
 1304.5603662470
  30
0.0
  11
 3022.7390962197
  21
 1304.5603662470
  31
0.0
   0
LINE
   5
256
 100
AcDbEntity
   8
LEVEL001
 370
30
 100
AcDbLine
   6
CONTINUOUS
  62
7
  10
 3046.4480600274
  20
 1304.5603662470
  30
0.0
  11
 3036.3399970914
  21
 1311.1246188506
  31
0.0
   0
LWPOLYLINE
   5
257
 100
AcDbEntity
   8
LEVEL001
 370
30
   6
CONTINUOUS
  62
7
 100
AcDbPolyline
  90
7
  70
0
  10
 3032.0771217495
  20
 1304.5603662470
  10
 3037.3901718386
  20
 1312.7417462039
  10
 3037.5297343479
  20
 1315.4047582984
  10
 3032.7213563771
  20
 1318.5273553592
  10
 3030.3453389980
  20
 1317.3167139903
  10
 3022.7985993321
  20
 1305.6957535990
  10
 3022.7390962197
  20
 1304.5603662470
   0
ARC
   5
258
 100
AcDbEntity
   8
LEVEL001
 370
30
   6
CONTINUOUS
  62
7
 100
AcDbCircle
  10
 3010.6372282158
  20
 1321.8543752164
  30
0.0
  40
 20.000000000000
 100
AcDbArc
  50
 300.15148203117
  51
 308.80512853671
   0
ARC
   5
259
 100
AcDbEntity
   8
LEVEL001
 370
30
   6
CONTINUOUS
  62
7
 100
AcDbCircle
  10
 3010.6372282159
  20
 1321.8543752164
  30
0.0
  40
 20.000000000000
 100
AcDbArc
  50
 345.19487321410
  51
 239.84851796891
   0
LINE
   5
25A
 100
AcDbEntity
   8
LEVEL001
 370
30
 100
AcDbLine
   6
CONTINUOUS
  62
7
  10
 3025.1746167114
  20
 1306.9063949678
  30
0.0
  11
 3028.7871842635
  21
 1304.5603662470
  31
0.0
   0
ARC
   5
25B
 100
AcDbEntity
   8
LEVEL001
 370
30
   6
CONTINUOUS
  62
7
 100
AcDbCircle
  10
 3026.3483236786
  20
 1311.6514708667
  30
0.0
  40
 8.6666666658229
 100
AcDbArc
  50
 305.09455291018
  51
 359.20422838258
   0
LINE
   5
25C
 100
AcDbEntity
   8
LEVEL001
 370
30
 100
AcDbLine
   6
CONTINUOUS
  62
7
  10
 3111.4624029422
  20
 1397.3992537692
  30
0.0
  11
 3112.1166826902
  21
 1384.9148524663
  31
0.0
   0
LINE
   5
25D
 100
AcDbEntity
   8
LEVEL001
 370
30
 100
AcDbLine
   6
CONTINUOUS
  62
7
  10
 3110.4637734075
  20
 1397.3469178129
  30
0.0
  11
 3111.1651766628
  21
 1383.9633464255
  31
0.0
   0
LWPOLYLINE
   5
25E
 100
AcDbEntity
   8
LEVEL001
 370
30
   6
CONTINUOUS
  62
7
 100
AcDbPolyline
  90
4
  70
1
  10
 3081.6132252525
  20
 1311.2778806435
  10
 3173.5371061600
  20
 1403.2017628445
  10
 3172.4764459807
  20
 1404.2624230088
  10
 3080.5525650732
  20
 1312.3385408078
   0
ARC
   5
25F
 100
AcDbEntity
   8
LEVEL001
 370
30
   6
CONTINUOUS
  62
7
 100
AcDbCircle
  10
 3142.0708545837
  20
 1376.6852583286
  30
0.0
  40
 9.0000000000000
 100
AcDbArc
  50
 45.000000403124
  51
 225.00000040312
   0
LWPOLYLINE
   5
260
 100
AcDbEntity
   8
LEVEL001
 370
30
   6
CONTINUOUS
  62
7
 100
AcDbPolyline
  90
4
  70
1
  10
 3148.4348155696
  20
 1383.0492194041
  10
 3135.7068935978
  20
 1370.3212972531
  10
 3136.4140003939
  20
 1368.1999769146
  10
 3150.5561359182
  20
 1382.3421126378
   0
LWPOLYLINE
   5
261
 100
AcDbEntity
   8
LEVEL001
 370
30
   6
CONTINUOUS
  62
7
 100
AcDbPolyline
  90
9
  70
0
  10
 3098.2302344188
  20
 1338.5014918361
  10
 3110.2510496144
  20
 1350.5223072008
  10
 3113.7865835452
  20
 1346.9867733198
  10
 3101.0586615734
  20
 1334.2588511688
  10
 3097.5231276426
  20
 1337.7943850499
  10
 3098.2302344188
  20
 1338.5014918361
  10
 3091.8662733334
  20
 1346.2796663843
  10
 3101.7657682004
  20
 1356.1791613906
  10
 3109.5439428382
  20
 1349.8152004147
   0
LWPOLYLINE
   5
262
 100
AcDbEntity
   8
LEVEL001
 370
30
   6
CONTINUOUS
  62
7
 100
AcDbPolyline
  90
4
  70
1
  10
 3100.7051081953
  20
 1332.4910842134
  10
 3099.9980014091
  20
 1333.1981909896
  10
 3114.8472437095
  20
 1348.0474334990
  10
 3115.5543504957
  20
 1347.3403267228
   0
LWPOLYLINE
   5
263
 100
AcDbEntity
   8
LEVEL001
 370
30
   6
CONTINUOUS
  62
7
 100
AcDbPolyline
  90
9
  70
0
  10
 3115.9079038241
  20
 1356.1791614901
  10
 3127.9287190197
  20
 1368.1999768549
  10
 3131.4642529505
  20
 1364.6644429738
  10
 3118.7363309787
  20
 1351.9365208229
  10
 3115.2007970479
  20
 1355.4720547039
  10
 3115.9079038241
  20
 1356.1791614901
  10
 3109.5439427387
  20
 1363.9573360384
  10
 3119.4434376057
  20
 1373.8568310446
  10
 3127.2216122435
  20
 1367.4928700687
   0
LWPOLYLINE
   5
264
 100
AcDbEntity
   8
LEVEL001
 370
30
   6
CONTINUOUS
  62
7
 100
AcDbPolyline
  90
4
  70
1
  10
 3118.3827776006
  20
 1350.1687538674
  10
 3117.6756708144
  20
 1350.8758606436
  10
 3132.5249131148
  20
 1365.7251031530
  10
 3133.2320199010
  20
 1365.0179963768
   0
LINE
   5
265
 100
AcDbEntity
   8
LEVEL001
 370
30
 100
AcDbLine
   6
CONTINUOUS
  62
7
  10
 3141.0101943000
  20
 1392.5951608978
  30
0.0
  11
 3126.2252344338
  21
 1377.8102008235
  31
0.0
   0
LINE
   5
266
 100
AcDbEntity
   8
LEVEL001
 370
30
 100
AcDbLine
   6
CONTINUOUS
  62
7
  10
 3112.0188165649
  20
 1350.8758606038
  30
0.0
  11
 3110.9581564006
  21
 1349.8152004246
  31
0.0
   0
LINE
   5
267
 100
AcDbEntity
   8
LEVEL001
 370
30
 100
AcDbLine
   6
CONTINUOUS
  62
7
  10
 3109.8974961467
  20
 1361.4824623067
  30
0.0
  11
 3103.3214031279
  21
 1354.9063691954
  31
0.0
   0
LINE
   5
268
 100
AcDbEntity
   8
LEVEL001
 370
30
 100
AcDbLine
   6
CONTINUOUS
  62
7
  10
 3107.2104904469
  20
 1351.7243887074
  30
0.0
  11
 3113.2883946006
  21
 1357.8022929467
  31
0.0
   0
LWPOLYLINE
   5
269
 100
AcDbEntity
   8
LEVEL001
 370
30
   6
CONTINUOUS
  62
7
 100
AcDbPolyline
  90
4
  70
0
  10
 3107.0690690020
  20
 1364.3108894116
  10
 3102.8264282851
  20
 1368.5535300688
  10
 3087.9771859847
  20
 1353.7042875594
  10
 3093.6340402739
  20
 1348.0474333497
   0
LWPOLYLINE
   5
26A
 100
AcDbEntity
   8
LEVEL001
 370
30
   6
CONTINUOUS
  62
7
 100
AcDbPolyline
  90
4
  70
0
  10
 3153.5613397171
  20
 1385.3473164790
  10
 3150.0258057863
  20
 1388.8828503600
  10
 3146.3134951714
  20
 1390.8273939822
  10
 3141.1211070525
  20
 1385.6350057902
   0
LINE
   5
26B
 100
AcDbEntity
   8
LEVEL001
 370
30
 100
AcDbLine
   6
CONTINUOUS
  62
7
  10
 3133.1211071087
  20
 1377.6350057339
  30
0.0
  11
 3129.8411214073
  21
 1374.3550199864
  31
0.0
   0
LINE
   5
26C
 100
AcDbEntity
   8
LEVEL001
 370
30
 100
AcDbLine
   6
CONTINUOUS
  62
7
  10
 3131.2874761968
  20
 1372.9729476515
  30
0.0
  11
 3126.4437947797
  21
 1368.1292661663
  31
0.0
   0
LINE
   5
26D
 100
AcDbEntity
   8
LEVEL001
 370
30
 100
AcDbLine
   6
CONTINUOUS
  62
7
  10
 3115.2715077156
  20
 1356.9569789449
  30
0.0
  11
 3114.6704669558
  21
 1356.3559381767
  31
0.0
   0
LWPOLYLINE
   5
26E
 100
AcDbEntity
   8
LEVEL001
 370
30
   6
CONTINUOUS
  62
7
 100
AcDbPolyline
  90
3
  70
0
  10
 3115.5543504957
  20
 1347.3403267228
  10
 3112.7259233511
  20
 1350.1687538276
  10
 3116.6150106202
  20
 1354.0578411515
   0
LINE
   5
26F
 100
AcDbEntity
   8
LEVEL001
 370
30
 100
AcDbLine
   6
CONTINUOUS
  62
7
  10
 3129.3429325920
  20
 1366.7857633024
  30
0.0
  11
 3134.4518042321
  21
 1371.8946350144
  31
0.0
   0
LINE
   5
270
 100
AcDbEntity
   8
LEVEL001
 370
30
 100
AcDbLine
   6
CONTINUOUS
  62
7
  10
 3129.8411214073
  20
 1374.3550199864
  30
0.0
  11
 3133.1211071087
  21
 1377.6350057339
  31
0.0
   0
LWPOLYLINE
   5
271
 100
AcDbEntity
   8
LEVEL001
 370
30
   6
CONTINUOUS
  62
7
 100
AcDbPolyline
  90
7
  70
0
  10
 3141.1211070525
  20
 1385.6350057902
  10
 3145.4296117011
  20
 1389.9435104995
  10
 3141.8940777703
  20
 1393.4790443805
  10
 3141.0101943000
  20
 1392.5951608978
  10
 3133.9391264384
  20
 1399.6662286599
  10
 3119.0898841380
  20
 1384.8169861506
  10
 3126.1609519996
  20
 1377.7459183884
   0
LWPOLYLINE
   5
272
 100
AcDbEntity
   8
LEVEL001
 370
30
   6
CONTINUOUS
  62
7
 100
AcDbPolyline
  90
8
  70
0
  10
 3133.2438180680
  20
 1374.9292895503
  10
 3131.2874761968
  20
 1372.9729476515
  10
 3115.3775735131
  20
 1388.1757433351
  10
 3099.4676710483
  20
 1372.2658406464
  10
 3114.6704669558
  20
 1356.3559381767
  10
 3110.6046029926
  20
 1352.2900741563
  10
 3112.7259233511
  20
 1350.1687538276
  10
 3116.6150106202
  20
 1354.0578411515
   0
LINE
   5
273
 100
AcDbEntity
   8
LEVEL001
 370
30
 100
AcDbLine
   6
CONTINUOUS
  62
7
  10
 3129.3429325920
  20
 1366.7857633024
  30
0.0
  11
 3134.4518042321
  21
 1371.8946350144
  31
0.0
   0
LINE
   5
274
 100
AcDbEntity
   8
LEVEL001
 370
30
 100
AcDbLine
   6
CONTINUOUS
  62
7
  10
 3150.0258057863
  20
 1388.8828503600
  30
0.0
  11
 3145.9495341830
  21
 1384.8065786994
  31
0.0
   0
LINE
   5
275
 100
AcDbEntity
   8
LEVEL001
 370
30
 100
AcDbLine
   6
CONTINUOUS
  62
7
  10
 3353.7241379310
  20
 1410.5603662470
  30
0.0
  11
 3353.7241379310
  21
 877.56036624701
  31
0.0
   0
LINE
   5
276
 100
AcDbEntity
   8
LEVEL001
 370
30
 100
AcDbLine
   6
CONTINUOUS
  62
7
  10
 2740.7241379310
  20
 880.56036624701
  30
0.0
  11
 2740.7241379310
  21
 1003.5603662470
  31
0.0
   0
LINE
   5
277
 100
AcDbEntity
   8
LEVEL001
 370
30
 100
AcDbLine
   6
CONTINUOUS
  62
7
  10
 3075.7241379310
  20
 931.56036624701
  30
0.0
  11
 3075.7241379310
  21
 1003.5603662470
  31
0.0
   0
LINE
   5
278
 100
AcDbEntity
   8
LEVEL001
 370
30
 100
AcDbLine
   6
CONTINUOUS
  62
7
  10
 3153.0256531213
  20
 1439.4304239321
  30
0.0
  11
 3180.3099243688
  21
 1412.1461526846
  31
0.0
   0
LINE
   5
279
 100
AcDbEntity
   8
LEVEL001
 370
30
 100
AcDbLine
   6
CONTINUOUS
  62
7
  10
 3153.0256531213
  20
 1440.8446374944
  30
0.0
  11
 3111.0468189146
  21
 1398.8658032877
  31
0.0
   0
LINE
   5
27A
 100
AcDbEntity
   8
LEVEL001
 370
30
 100
AcDbLine
   6
CONTINUOUS
  62
7
  10
 3153.0256531213
  20
 1440.8446374944
  30
0.0
  11
 3181.0170311499
  21
 1412.8532594658
  31
0.0
   0
DIMENSION
   5
27B
 100
AcDbEntity
   8
LEVEL001
 370
30
   6
CONTINUOUS
  62
7
 100
AcDbDimension
   2
*D1
  10
 2733.7241379310
  20
 1555.7430773572
  30
0.0
  11
 3096.2241379310
  21
 1569.4573630715
  31
0.0
  70
128
   3
GMM001
 100
AcDbAlignedDimension
  13
 3458.7241379310
  23
 879.56036624701
  33
0.0
  14
 2733.7241379310
  24
 852.56036624697
  34
0.0
  50
 180.00000000000
 100
AcDbRotatedDimension
   0
LINE
   5
27C
 100
AcDbEntity
   8
LEVEL001
 370
30
 100
AcDbLine
   6
CONTINUOUS
  62
7
  10
 3181.8099243687
  20
 1411.4745798094
  30
0.0
  11
 3075.4814972439
  21
 1305.1461526846
  31
0.0
   0
LWPOLYLINE
   5
27D
 100
AcDbEntity
   8
LEVEL001
 370
9
   6
DIVIDE
  62
1
 100
AcDbPolyline
  90
3
  70
0
  10
 2733.7241379310
  20
 805.06036624701
  10
 2008.7241379310
  20
 805.06036624701
  10
 2008.7241379310
  20
 195.56036624701
   0
LINE
   5
27E
 100
AcDbEntity
   8
LEVEL001
 370
30
 100
AcDbLine
   6
CONTINUOUS
  62
7
  10
 1592.7028671703
  20
 855.56036624701
  30
0.0
  11
 1612.7028671703
  21
 855.56036624701
  31
0.0
   0
LINE
   5
27F
 100
AcDbEntity
   8
LEVEL001
 370
30
 100
AcDbLine
   6
CONTINUOUS
  62
7
  10
 867.70286717027
  20
 855.56036624701
  30
0.0
  11
 847.70286717027
  21
 855.56036624701
  31
0.0
   0
LINE
   5
280
 100
AcDbEntity
   8
LEVEL001
 370
30
 100
AcDbLine
   6
CONTINUOUS
  62
7
  10
 766.70286717027
  20
 826.56036624701
  30
0.0
  11
 766.70286717027
  21
 195.56036624701
  31
0.0
   0
LINE
   5
281
 100
AcDbEntity
   8
LEVEL001
 370
30
 100
AcDbLine
   6
CONTINUOUS
  62
7
  10
 795.70286717027
  20
 826.56036624701
  30
0.0
  11
 795.70286717027
  21
 195.56036624701
  31
0.0
   0
INSERT
   5
282
 100
AcDbEntity
   8
0
 100
AcDbBlockReference
   2
BLOCK005
  10
0.0
  20
0.0
  30
0.0
   0
INSERT
   5
283
 100
AcDbEntity
   8
0
 100
AcDbBlockReference
   2
BLOCK006
  10
0.0
  20
0.0
  30
0.0
   0
LINE
   5
284
 100
AcDbEntity
   8
LEVEL001
 370
30
 100
AcDbLine
   6
CONTINUOUS
  62
7
  10
 726.70286717027
  20
 195.56036624701
  30
0.0
  11
 1683.7904949588
  21
 195.56036624701
  31
0.0
   0
LWPOLYLINE
   5
285
 100
AcDbEntity
   8
LEVEL001
 370
30
   6
CONTINUOUS
  62
7
 100
AcDbPolyline
  90
4
  70
1
  10
 1651.7028671703
  20
 855.56036624701
  10
 766.70286717027
  20
 855.56036624701
  10
 766.70286717027
  20
 826.56036624701
  10
 1651.7028671703
  20
 826.56036624701
   0
LINE
   5
286
 100
AcDbEntity
   8
LEVEL001
 370
30
 100
AcDbLine
   6
CONTINUOUS
  62
7
  10
 1651.7028671703
  20
 826.56036624701
  30
0.0
  11
 1651.7028671703
  21
 195.56036624701
  31
0.0
   0
LINE
   5
287
 100
AcDbEntity
   8
LEVEL001
 370
30
 100
AcDbLine
   6
CONTINUOUS
  62
7
  10
 1622.7028671703
  20
 195.56036624701
  30
0.0
  11
 1622.7028671703
  21
 826.56036624701
  31
0.0
   0
LINE
   5
288
 100
AcDbEntity
   8
LEVEL001
 370
30
 100
AcDbLine
   6
CONTINUOUS
  62
7
  10
 1647.2028671703
  20
 1272.5603662470
  30
0.0
  11
 1647.2028671703
  21
 1003.5603662470
  31
0.0
   0
LINE
   5
289
 100
AcDbEntity
   8
LEVEL001
 370
30
 100
AcDbLine
   6
CONTINUOUS
  62
7
  10
 1642.2028671703
  20
 1003.5603662470
  30
0.0
  11
 1647.2028671703
  21
 1003.5603662470
  31
0.0
   0
LINE
   5
28A
 100
AcDbEntity
   8
LEVEL001
 370
30
 100
AcDbLine
   6
CONTINUOUS
  62
7
  10
 1642.2028671703
  20
 1272.5603662470
  30
0.0
  11
 1647.2028671703
  21
 1272.5603662470
  31
0.0
   0
ARC
   5
28B
 100
AcDbEntity
   8
LEVEL001
 370
30
   6
CONTINUOUS
  62
7
 100
AcDbCircle
  10
 1416.2028671703
  20
 1406.5603662470
  30
0.0
  40
 4.0000000000000
 100
AcDbArc
  50
 90.000000000000
  51
 180.00000000000
   0
ARC
   5
28C
 100
AcDbEntity
   8
LEVEL001
 370
30
   6
CONTINUOUS
  62
7
 100
AcDbCircle
  10
 878.20286717027
  20
 1406.5603662470
  30
0.0
  40
 4.0000000000000
 100
AcDbArc
  50
0.0
  51
 90.000000000000
   0
ARC
   5
28D
 100
AcDbEntity
   8
LEVEL001
 370
30
   6
CONTINUOUS
  62
7
 100
AcDbCircle
  10
 1416.2028671703
  20
 1300.5603662470
  30
0.0
  40
 4.0000000000000
 100
AcDbArc
  50
 90.000000000000
  51
 180.00000000000
   0
LINE
   5
28E
 100
AcDbEntity
   8
LEVEL001
 370
30
 100
AcDbLine
   6
CONTINUOUS
  62
7
  10
 1416.2028671703
  20
 1304.5603662470
  30
0.0
  11
 1638.2028671703
  21
 1304.5603662470
  31
0.0
   0
ARC
   5
28F
 100
AcDbEntity
   8
LEVEL001
 370
30
   6
CONTINUOUS
  62
7
 100
AcDbCircle
  10
 1638.2028671703
  20
 1300.5603662470
  30
0.0
  40
 4.0000000000000
 100
AcDbArc
  50
0.0
  51
 90.000000000000
   0
LINE
   5
290
 100
AcDbEntity
   8
LEVEL001
 370
30
 100
AcDbLine
   6
CONTINUOUS
  62
7
  10
 775.20286717027
  20
 1077.5603662470
  30
0.0
  11
 775.20286717027
  21
 1080.5603662470
  31
0.0
   0
LINE
   5
291
 100
AcDbEntity
   8
LEVEL001
 370
30
 100
AcDbLine
   6
CONTINUOUS
  62
7
  10
 778.20286717027
  20
 1080.5603662470
  30
0.0
  11
 778.20286717027
  21
 1077.5603662470
  31
0.0
   0
ARC
   5
292
 100
AcDbEntity
   8
LEVEL001
 370
30
   6
CONTINUOUS
  62
7
 100
AcDbCircle
  10
 1641.2028671703
  20
 1409.5603662470
  30
0.0
  40
 2.0000000000000
 100
AcDbArc
  50
0.0
  51
 90.000000000000
   0
LINE
   5
293
 100
AcDbEntity
   8
LEVEL001
 370
30
 100
AcDbLine
   6
CONTINUOUS
  62
7
  10
 1417.2028671703
  20
 1411.5603662470
  30
0.0
  11
 1641.2028671703
  21
 1411.5603662470
  31
0.0
   0
ARC
   5
294
 100
AcDbEntity
   8
LEVEL001
 370
30
   6
CONTINUOUS
  62
7
 100
AcDbCircle
  10
 845.70286717027
  20
 1278.0603662470
  30
0.0
  40
 7.5000000000000
 100
AcDbArc
  50
0.0
  51
 90.000000000000
   0
ARC
   5
295
 100
AcDbEntity
   8
LEVEL001
 370
30
   6
CONTINUOUS
  62
7
 100
AcDbCircle
  10
 845.70286717027
  20
 1278.0603662470
  30
0.0
  40
 7.5000000000000
 100
AcDbArc
  50
 270.00000000000
  51
0.0
   0
LINE
   5
296
 100
AcDbEntity
   8
LEVEL001
 370
30
 100
AcDbLine
   6
CONTINUOUS
  62
7
  10
 845.70286717027
  20
 1270.5603662470
  30
0.0
  11
 838.20286717027
  21
 1270.5603662470
  31
0.0
   0
ARC
   5
297
 100
AcDbEntity
   8
LEVEL001
 370
30
   6
CONTINUOUS
  62
7
 100
AcDbCircle
  10
 838.20286717027
  20
 1268.5603662470
  30
0.0
  40
 2.0000000000000
 100
AcDbArc
  50
 90.000000000000
  51
 180.00000000000
   0
LINE
   5
298
 100
AcDbEntity
   8
LEVEL001
 370
30
 100
AcDbLine
   6
CONTINUOUS
  62
7
  10
 836.20286717027
  20
 1268.5603662470
  30
0.0
  11
 836.20286717027
  21
 1257.5603662470
  31
0.0
   0
ARC
   5
299
 100
AcDbEntity
   8
LEVEL001
 370
30
   6
CONTINUOUS
  62
7
 100
AcDbCircle
  10
 838.20286717027
  20
 1257.5603662470
  30
0.0
  40
 2.0000000000000
 100
AcDbArc
  50
 180.00000000000
  51
 270.00000000000
   0
LINE
   5
29A
 100
AcDbEntity
   8
LEVEL001
 370
30
 100
AcDbLine
   6
CONTINUOUS
  62
7
  10
 824.20286717027
  20
 1278.0603662470
  30
0.0
  11
 824.20286717027
  21
 1272.5603662470
  31
0.0
   0
ARC
   5
29B
 100
AcDbEntity
   8
LEVEL001
 370
30
   6
CONTINUOUS
  62
7
 100
AcDbCircle
  10
 822.20286717027
  20
 1272.5603662470
  30
0.0
  40
 2.0000000000000
 100
AcDbArc
  50
 270.00000000000
  51
0.0
   0
ARC
   5
29C
 100
AcDbEntity
   8
LEVEL001
 370
30
   6
CONTINUOUS
  62
7
 100
AcDbCircle
  10
 822.20286717027
  20
 1253.5603662470
  30
0.0
  40
 2.0000000000000
 100
AcDbArc
  50
0.0
  51
 90.000000000000
   0
LINE
   5
29D
 100
AcDbEntity
   8
LEVEL001
 370
30
 100
AcDbLine
   6
CONTINUOUS
  62
7
  10
 824.20286717027
  20
 1253.5603662470
  30
0.0
  11
 824.20286717027
  21
 1242.5603662470
  31
0.0
   0
ARC
   5
29E
 100
AcDbEntity
   8
LEVEL001
 370
30
   6
CONTINUOUS
  62
7
 100
AcDbCircle
  10
 822.20286717027
  20
 1242.5603662470
  30
0.0
  40
 2.0000000000000
 100
AcDbArc
  50
 270.00000000000
  51
0.0
   0
ARC
   5
29F
 100
AcDbEntity
   8
LEVEL001
 370
30
   6
CONTINUOUS
  62
7
 100
AcDbCircle
  10
 838.20286717027
  20
 1238.5603662470
  30
0.0
  40
 2.0000000000000
 100
AcDbArc
  50
 90.000000000000
  51
 180.00000000000
   0
LINE
   5
2A0
 100
AcDbEntity
   8
LEVEL001
 370
30
 100
AcDbLine
   6
CONTINUOUS
  62
7
  10
 836.20286717027
  20
 1238.5603662470
  30
0.0
  11
 836.20286717027
  21
 1227.5603662470
  31
0.0
   0
ARC
   5
2A1
 100
AcDbEntity
   8
LEVEL001
 370
30
   6
CONTINUOUS
  62
7
 100
AcDbCircle
  10
 838.20286717027
  20
 1227.5603662470
  30
0.0
  40
 2.0000000000000
 100
AcDbArc
  50
 180.00000000000
  51
 270.00000000000
   0
ARC
   5
2A2
 100
AcDbEntity
   8
LEVEL001
 370
30
   6
CONTINUOUS
  62
7
 100
AcDbCircle
  10
 838.20286717027
  20
 1208.5603662470
  30
0.0
  40
 2.0000000000000
 100
AcDbArc
  50
 90.000000000000
  51
 180.00000000000
   0
LINE
   5
2A3
 100
AcDbEntity
   8
LEVEL001
 370
30
 100
AcDbLine
   6
CONTINUOUS
  62
7
  10
 836.20286717027
  20
 1208.5603662470
  30
0.0
  11
 836.20286717027
  21
 1197.5603662470
  31
0.0
   0
ARC
   5
2A4
 100
AcDbEntity
   8
LEVEL001
 370
30
   6
CONTINUOUS
  62
7
 100
AcDbCircle
  10
 838.20286717027
  20
 1197.5603662470
  30
0.0
  40
 2.0000000000000
 100
AcDbArc
  50
 180.00000000000
  51
 270.00000000000
   0
ARC
   5
2A5
 100
AcDbEntity
   8
LEVEL001
 370
30
   6
CONTINUOUS
  62
7
 100
AcDbCircle
  10
 822.20286717027
  20
 1223.5603662470
  30
0.0
  40
 2.0000000000000
 100
AcDbArc
  50
0.0
  51
 90.000000000000
   0
LINE
   5
2A6
 100
AcDbEntity
   8
LEVEL001
 370
30
 100
AcDbLine
   6
CONTINUOUS
  62
7
  10
 824.20286717027
  20
 1223.5603662470
  30
0.0
  11
 824.20286717027
  21
 1212.5603662470
  31
0.0
   0
ARC
   5
2A7
 100
AcDbEntity
   8
LEVEL001
 370
30
   6
CONTINUOUS
  62
7
 100
AcDbCircle
  10
 822.20286717027
  20
 1212.5603662470
  30
0.0
  40
 2.0000000000000
 100
AcDbArc
  50
 270.00000000000
  51
0.0
   0
ARC
   5
2A8
 100
AcDbEntity
   8
LEVEL001
 370
30
   6
CONTINUOUS
  62
7
 100
AcDbCircle
  10
 844.70286717027
  20
 1249.0603662470
  30
0.0
  40
 8.5000000000000
 100
AcDbArc
  50
 270.00000000000
  51
0.0
   0
LINE
   5
2A9
 100
AcDbEntity
   8
LEVEL001
 370
30
 100
AcDbLine
   6
CONTINUOUS
  62
7
  10
 844.70286717027
  20
 1240.5603662470
  30
0.0
  11
 838.20286717027
  21
 1240.5603662470
  31
0.0
   0
ARC
   5
2AA
 100
AcDbEntity
   8
LEVEL001
 370
30
   6
CONTINUOUS
  62
7
 100
AcDbCircle
  10
 844.70286717027
  20
 1189.0603662470
  30
0.0
  40
 8.5000000000000
 100
AcDbArc
  50
 270.09963562129
  51
 128.75435279187
   0
LINE
   5
2AB
 100
AcDbEntity
   8
LEVEL001
 370
30
 100
AcDbLine
   6
CONTINUOUS
  62
7
  10
 822.20286717027
  20
 1270.5603662470
  30
0.0
  11
 819.18009274532
  21
 1270.5603662470
  31
0.0
   0
LINE
   5
2AC
 100
AcDbEntity
   8
LEVEL001
 370
30
 100
AcDbLine
   6
CONTINUOUS
  62
7
  10
 822.20286717027
  20
 1255.5603662470
  30
0.0
  11
 813.70286717027
  21
 1255.5603662470
  31
0.0
   0
ARC
   5
2AD
 100
AcDbEntity
   8
LEVEL001
 370
30
   6
CONTINUOUS
  62
7
 100
AcDbCircle
  10
 813.70286717027
  20
 1264.0603662470
  30
0.0
  40
 8.5000000000000
 100
AcDbArc
  50
 49.880833101586
  51
 272.67592212630
   0
ARC
   5
2AE
 100
AcDbEntity
   8
LEVEL001
 370
30
   6
CONTINUOUS
  62
7
 100
AcDbCircle
  10
 844.70286717027
  20
 1249.0603662470
  30
0.0
  40
 8.5000000000000
 100
AcDbArc
  50
 0.15326531735617E-11
  51
 130.77316082173
   0
LINE
   5
2AF
 100
AcDbEntity
   8
LEVEL001
 370
30
 100
AcDbLine
   6
CONTINUOUS
  62
7
  10
 839.15180675181
  20
 1255.5603662470
  30
0.0
  11
 838.20286717027
  21
 1255.5603662470
  31
0.0
   0
LINE
   5
2B0
 100
AcDbEntity
   8
LEVEL001
 370
30
 100
AcDbLine
   6
CONTINUOUS
  62
7
  10
 845.41633605225
  20
 1210.5603662470
  30
0.0
  11
 838.20286717027
  21
 1210.5603662470
  31
0.0
   0
ARC
   5
2B1
 100
AcDbEntity
   8
LEVEL001
 370
30
   6
CONTINUOUS
  62
7
 100
AcDbCircle
  10
 844.70286717027
  20
 1219.0603662470
  30
0.0
  40
 8.5000000000000
 100
AcDbArc
  50
 276.93305429915
  51
 130.05255048953
   0
LINE
   5
2B2
 100
AcDbEntity
   8
LEVEL001
 370
30
 100
AcDbLine
   6
CONTINUOUS
  62
7
  10
 839.23320268747
  20
 1225.5603662470
  30
0.0
  11
 838.20286717027
  21
 1225.5603662470
  31
0.0
   0
LINE
   5
2B3
 100
AcDbEntity
   8
LEVEL001
 370
30
 100
AcDbLine
   6
CONTINUOUS
  62
7
  10
 831.70286717027
  20
 1180.5603662470
  30
0.0
  11
 844.71764840479
  21
 1180.5603662470
  31
0.0
   0
LINE
   5
2B4
 100
AcDbEntity
   8
LEVEL001
 370
30
 100
AcDbLine
   6
CONTINUOUS
  62
7
  10
 839.38201406191
  20
 1195.5603662470
  30
0.0
  11
 838.20286717027
  21
 1195.5603662470
  31
0.0
   0
LINE
   5
2B5
 100
AcDbEntity
   8
LEVEL001
 370
30
 100
AcDbLine
   6
CONTINUOUS
  62
7
  10
 822.20286717027
  20
 1210.5603662470
  30
0.0
  11
 819.18009274532
  21
 1210.5603662470
  31
0.0
   0
LINE
   5
2B6
 100
AcDbEntity
   8
LEVEL001
 370
30
 100
AcDbLine
   6
CONTINUOUS
  62
7
  10
 822.20286717027
  20
 1240.5603662470
  30
0.0
  11
 819.18009274532
  21
 1240.5603662470
  31
0.0
   0
ARC
   5
2B7
 100
AcDbEntity
   8
LEVEL001
 370
30
   6
CONTINUOUS
  62
7
 100
AcDbCircle
  10
 813.70286717027
  20
 1234.0603662470
  30
0.0
  40
 8.5000000000000
 100
AcDbArc
  50
 49.880833101584
  51
 270.74783502539
   0
LINE
   5
2B8
 100
AcDbEntity
   8
LEVEL001
 370
30
 100
AcDbLine
   6
CONTINUOUS
  62
7
  10
 822.20286717027
  20
 1225.5603662470
  30
0.0
  11
 813.13518538006
  21
 1225.5603662470
  31
0.0
   0
ARC
   5
2B9
 100
AcDbEntity
   8
LEVEL001
 370
30
   6
CONTINUOUS
  62
7
 100
AcDbCircle
  10
 831.70286717027
  20
 1188.0353440248
  30
0.0
  40
 7.5000000000000
 100
AcDbArc
  50
 180.00000000000
  51
 270.00000000000
   0
ARC
   5
2BA
 100
AcDbEntity
   8
LEVEL001
 370
30
   6
CONTINUOUS
  62
7
 100
AcDbCircle
  10
 813.70286717027
  20
 1204.0353440248
  30
0.0
  40
 8.5000000000000
 100
AcDbArc
  50
 49.471246009424
  51
 269.47614095487
   0
LINE
   5
2BB
 100
AcDbEntity
   8
LEVEL001
 370
30
 100
AcDbLine
   6
CONTINUOUS
  62
7
  10
 822.20838554216
  20
 1195.5408471914
  30
0.0
  11
 812.97791035776
  21
 1195.5663158857
  31
0.0
   0
ARC
   5
2BC
 100
AcDbEntity
   8
LEVEL001
 370
30
   6
CONTINUOUS
  62
7
 100
AcDbCircle
  10
 822.20286717027
  20
 1193.5408548045
  30
0.0
  40
 2.0000000000000
 100
AcDbArc
  50
 0.65137759876373E-11
  51
 89.841910089957
   0
LINE
   5
2BD
 100
AcDbEntity
   8
LEVEL001
 370
30
 100
AcDbLine
   6
CONTINUOUS
  62
7
  10
 824.20286717027
  20
 1193.5408548045
  30
0.0
  11
 824.20286717027
  21
 1188.0353440248
  31
0.0
   0
LINE
   5
2BE
 100
AcDbEntity
   8
LEVEL001
 370
30
 100
AcDbLine
   6
CONTINUOUS
  62
7
  10
 779.20286717027
  20
 1065.5603662470
  30
0.0
  11
 782.20286717027
  21
 1068.5603662470
  31
0.0
   0
LINE
   5
2BF
 100
AcDbEntity
   8
LEVEL001
 370
30
 100
AcDbLine
   6
CONTINUOUS
  62
7
  10
 779.20286717027
  20
 1065.5603662470
  30
0.0
  11
 779.20286717027
  21
 984.56036624701
  31
0.0
   0
LINE
   5
2C0
 100
AcDbEntity
   8
LEVEL001
 370
30
 100
AcDbLine
   6
CONTINUOUS
  62
7
  10
 779.20286717027
  20
 984.56036624701
  30
0.0
  11
 782.20286717027
  21
 981.56036624701
  31
0.0
   0
LINE
   5
2C1
 100
AcDbEntity
   8
LEVEL001
 370
30
 100
AcDbLine
   6
CONTINUOUS
  62
7
  10
 879.20286717027
  20
 1068.5603662470
  30
0.0
  11
 882.20286717027
  21
 1065.5603662470
  31
0.0
   0
LINE
   5
2C2
 100
AcDbEntity
   8
LEVEL001
 370
30
 100
AcDbLine
   6
CONTINUOUS
  62
7
  10
 782.20286717027
  20
 1068.5603662470
  30
0.0
  11
 879.20286717027
  21
 1068.5603662470
  31
0.0
   0
LINE
   5
2C3
 100
AcDbEntity
   8
LEVEL001
 370
30
 100
AcDbLine
   6
CONTINUOUS
  62
7
  10
 882.20286717027
  20
 984.56036624701
  30
0.0
  11
 879.20286717027
  21
 981.56036624701
  31
0.0
   0
LINE
   5
2C4
 100
AcDbEntity
   8
LEVEL001
 370
30
 100
AcDbLine
   6
CONTINUOUS
  62
7
  10
 782.20286717027
  20
 981.56036624701
  30
0.0
  11
 879.20286717027
  21
 981.56036624701
  31
0.0
   0
LINE
   5
2C5
 100
AcDbEntity
   8
LEVEL001
 370
30
 100
AcDbLine
   6
CONTINUOUS
  62
7
  10
 1497.5028671703
  20
 1006.5603662470
  30
0.0
  11
 1500.5028671703
  21
 1003.5603662470
  31
0.0
   0
LINE
   5
2C6
 100
AcDbEntity
   8
LEVEL001
 370
30
 100
AcDbLine
   6
CONTINUOUS
  62
7
  10
 1602.5028671703
  20
 1003.5603662470
  30
0.0
  11
 1605.5028671703
  21
 1006.5603662470
  31
0.0
   0
LINE
   5
2C7
 100
AcDbEntity
   8
LEVEL001
 370
30
 100
AcDbLine
   6
CONTINUOUS
  62
7
  10
 1500.5028671703
  20
 1003.5603662470
  30
0.0
  11
 1602.5028671703
  21
 1003.5603662470
  31
0.0
   0
LINE
   5
2C8
 100
AcDbEntity
   8
LEVEL001
 370
30
 100
AcDbLine
   6
CONTINUOUS
  62
7
  10
 1497.5028671703
  20
 1006.5603662470
  30
0.0
  11
 1497.5028671703
  21
 1087.5603662470
  31
0.0
   0
LINE
   5
2C9
 100
AcDbEntity
   8
LEVEL001
 370
30
 100
AcDbLine
   6
CONTINUOUS
  62
7
  10
 1605.5028671703
  20
 1087.5603662470
  30
0.0
  11
 1605.5028671703
  21
 1006.5603662470
  31
0.0
   0
LINE
   5
2CA
 100
AcDbEntity
   8
LEVEL001
 370
30
 100
AcDbLine
   6
CONTINUOUS
  62
7
  10
 1500.5028671703
  20
 1090.5603662470
  30
0.0
  11
 1602.5028671703
  21
 1090.5603662470
  31
0.0
   0
LINE
   5
2CB
 100
AcDbEntity
   8
LEVEL001
 370
30
 100
AcDbLine
   6
CONTINUOUS
  62
7
  10
 1602.5028671703
  20
 1090.5603662470
  30
0.0
  11
 1605.5028671703
  21
 1087.5603662470
  31
0.0
   0
LINE
   5
2CC
 100
AcDbEntity
   8
LEVEL001
 370
30
 100
AcDbLine
   6
CONTINUOUS
  62
7
  10
 1500.5028671703
  20
 1090.5603662470
  30
0.0
  11
 1497.5028671703
  21
 1087.5603662470
  31
0.0
   0
LINE
   5
2CD
 100
AcDbEntity
   8
LEVEL001
 370
30
 100
AcDbLine
   6
CONTINUOUS
  62
7
  10
 1411.2028671703
  20
 1294.5603662470
  30
0.0
  11
 1412.2028671703
  21
 1294.5603662470
  31
0.0
   0
LINE
   5
2CE
 100
AcDbEntity
   8
LEVEL001
 370
30
 100
AcDbLine
   6
CONTINUOUS
  62
7
  10
 1411.2028671703
  20
 1294.5603662470
  30
0.0
  11
 1411.2028671703
  21
 1081.5603662470
  31
0.0
   0
LINE
   5
2CF
 100
AcDbEntity
   8
LEVEL001
 370
30
 100
AcDbLine
   6
CONTINUOUS
  62
7
  10
 1411.2028671703
  20
 1081.5603662470
  30
0.0
  11
 1412.2028671703
  21
 1081.5603662470
  31
0.0
   0
LINE
   5
2D0
 100
AcDbEntity
   8
LEVEL001
 370
30
 100
AcDbLine
   6
CONTINUOUS
  62
7
  10
 1412.2028671703
  20
 1086.5603662470
  30
0.0
  11
 1411.2028671703
  21
 1086.5603662470
  31
0.0
   0
LINE
   5
2D1
 100
AcDbEntity
   8
LEVEL001
 370
30
 100
AcDbLine
   6
CONTINUOUS
  62
7
  10
 1643.2028671703
  20
 1409.5603662470
  30
0.0
  11
 1643.2028671703
  21
 1003.5603662470
  31
0.0
   0
LWPOLYLINE
   5
2D2
 100
AcDbEntity
   8
LEVEL001
 370
30
   6
CONTINUOUS
  62
7
 100
AcDbPolyline
  90
6
  70
1
  10
 1504.5028671703
  20
 1089.3338689389
  10
 1499.5028671703
  20
 1086.4471175930
  10
 1499.5028671703
  20
 1080.6736149011
  10
 1504.5028671703
  20
 1077.7868635551
  10
 1509.5028671703
  20
 1080.6736149011
  10
 1509.5028671703
  20
 1086.4471175930
   0
CIRCLE
   5
2D3
 100
AcDbEntity
   8
LEVEL001
 370
30
 100
AcDbCircle
   6
CONTINUOUS
  62
7
  10
 1504.5028671703
  20
 1083.5603662470
  30
0.0
  40
 5.0000000000000
   0
LWPOLYLINE
   5
2D4
 100
AcDbEntity
   8
LEVEL001
 370
30
   6
CONTINUOUS
  62
7
 100
AcDbPolyline
  90
6
  70
1
  10
 1504.5028671703
  20
 1016.3338689389
  10
 1499.5028671703
  20
 1013.4471175930
  10
 1499.5028671703
  20
 1007.6736149011
  10
 1504.5028671703
  20
 1004.7868635551
  10
 1509.5028671703
  20
 1007.6736149011
  10
 1509.5028671703
  20
 1013.4471175930
   0
CIRCLE
   5
2D5
 100
AcDbEntity
   8
LEVEL001
 370
30
 100
AcDbCircle
   6
CONTINUOUS
  62
7
  10
 1504.5028671703
  20
 1010.5603662470
  30
0.0
  40
 5.0000000000000
   0
LWPOLYLINE
   5
2D6
 100
AcDbEntity
   8
LEVEL001
 370
30
   6
CONTINUOUS
  62
7
 100
AcDbPolyline
  90
6
  70
1
  10
 1598.5028671703
  20
 1089.3338689389
  10
 1593.5028671703
  20
 1086.4471175930
  10
 1593.5028671703
  20
 1080.6736149011
  10
 1598.5028671703
  20
 1077.7868635551
  10
 1603.5028671703
  20
 1080.6736149011
  10
 1603.5028671703
  20
 1086.4471175930
   0
CIRCLE
   5
2D7
 100
AcDbEntity
   8
LEVEL001
 370
30
 100
AcDbCircle
   6
CONTINUOUS
  62
7
  10
 1598.5028671703
  20
 1083.5603662470
  30
0.0
  40
 5.0000000000000
   0
LWPOLYLINE
   5
2D8
 100
AcDbEntity
   8
LEVEL001
 370
30
   6
CONTINUOUS
  62
7
 100
AcDbPolyline
  90
6
  70
1
  10
 1598.5028671703
  20
 1016.3338689389
  10
 1593.5028671703
  20
 1013.4471175930
  10
 1593.5028671703
  20
 1007.6736149011
  10
 1598.5028671703
  20
 1004.7868635551
  10
 1603.5028671703
  20
 1007.6736149011
  10
 1603.5028671703
  20
 1013.4471175930
   0
CIRCLE
   5
2D9
 100
AcDbEntity
   8
LEVEL001
 370
30
 100
AcDbCircle
   6
CONTINUOUS
  62
7
  10
 1598.5028671703
  20
 1010.5603662470
  30
0.0
  40
 5.0000000000000
   0
LINE
   5
2DA
 100
AcDbEntity
   8
LEVEL001
 370
30
 100
AcDbLine
   6
CONTINUOUS
  62
7
  10
 775.20286717027
  20
 1080.5603662470
  30
0.0
  11
 1412.2028671703
  21
 1080.5603662470
  31
0.0
   0
LWPOLYLINE
   5
2DB
 100
AcDbEntity
   8
LEVEL001
 370
30
   6
CONTINUOUS
  62
7
 100
AcDbPolyline
  90
6
  70
1
  10
 786.20286717027
  20
 1067.3338689389
  10
 781.20286717027
  20
 1064.4471175930
  10
 781.20286717027
  20
 1058.6736149011
  10
 786.20286717027
  20
 1055.7868635551
  10
 791.20286717027
  20
 1058.6736149011
  10
 791.20286717027
  20
 1064.4471175930
   0
CIRCLE
   5
2DC
 100
AcDbEntity
   8
LEVEL001
 370
30
 100
AcDbCircle
   6
CONTINUOUS
  62
7
  10
 786.20286717027
  20
 1061.5603662470
  30
0.0
  40
 5.0000000000000
   0
LWPOLYLINE
   5
2DD
 100
AcDbEntity
   8
LEVEL001
 370
30
   6
CONTINUOUS
  62
7
 100
AcDbPolyline
  90
6
  70
1
  10
 786.20286717027
  20
 994.33386893890
  10
 781.20286717027
  20
 991.44711759296
  10
 781.20286717027
  20
 985.67361490106
  10
 786.20286717027
  20
 982.78686355511
  10
 791.20286717027
  20
 985.67361490106
  10
 791.20286717027
  20
 991.44711759296
   0
CIRCLE
   5
2DE
 100
AcDbEntity
   8
LEVEL001
 370
30
 100
AcDbCircle
   6
CONTINUOUS
  62
7
  10
 786.20286717027
  20
 988.56036624701
  30
0.0
  40
 5.0000000000000
   0
LWPOLYLINE
   5
2DF
 100
AcDbEntity
   8
LEVEL001
 370
30
   6
CONTINUOUS
  62
7
 100
AcDbPolyline
  90
6
  70
1
  10
 875.20286717027
  20
 1067.3338689389
  10
 870.20286717027
  20
 1064.4471175930
  10
 870.20286717027
  20
 1058.6736149011
  10
 875.20286717027
  20
 1055.7868635551
  10
 880.20286717027
  20
 1058.6736149011
  10
 880.20286717027
  20
 1064.4471175930
   0
CIRCLE
   5
2E0
 100
AcDbEntity
   8
LEVEL001
 370
30
 100
AcDbCircle
   6
CONTINUOUS
  62
7
  10
 875.20286717027
  20
 1061.5603662470
  30
0.0
  40
 5.0000000000000
   0
LWPOLYLINE
   5
2E1
 100
AcDbEntity
   8
LEVEL001
 370
30
   6
CONTINUOUS
  62
7
 100
AcDbPolyline
  90
6
  70
1
  10
 875.20286717027
  20
 994.33386893890
  10
 870.20286717027
  20
 991.44711759296
  10
 870.20286717027
  20
 985.67361490106
  10
 875.20286717027
  20
 982.78686355511
  10
 880.20286717027
  20
 985.67361490106
  10
 880.20286717027
  20
 991.44711759296
   0
CIRCLE
   5
2E2
 100
AcDbEntity
   8
LEVEL001
 370
30
 100
AcDbCircle
   6
CONTINUOUS
  62
7
  10
 875.20286717027
  20
 988.56036624701
  30
0.0
  40
 5.0000000000000
   0
LINE
   5
2E3
 100
AcDbEntity
   8
LEVEL001
 370
30
 100
AcDbLine
   6
CONTINUOUS
  62
7
  10
 882.20286717027
  20
 984.56036624701
  30
0.0
  11
 882.20286717027
  21
 1065.5603662470
  31
0.0
   0
LINE
   5
2E4
 100
AcDbEntity
   8
LEVEL001
 370
30
 100
AcDbLine
   6
CONTINUOUS
  62
7
  10
 882.20286717027
  20
 1080.5603662470
  30
0.0
  11
 882.20286717027
  21
 1406.5603662470
  31
0.0
   0
LINE
   5
2E5
 100
AcDbEntity
   8
LEVEL001
 370
30
 100
AcDbLine
   6
CONTINUOUS
  62
7
  10
 877.20286717027
  20
 1411.5603662470
  30
0.0
  11
 877.20286717027
  21
 1410.5603662470
  31
0.0
   0
LINE
   5
2E6
 100
AcDbEntity
   8
LEVEL001
 370
30
 100
AcDbLine
   6
CONTINUOUS
  62
7
  10
 883.70286717027
  20
 1294.1608520778
  30
0.0
  11
 1412.2028671703
  21
 1294.1608520778
  31
0.0
   0
LINE
   5
2E7
 100
AcDbEntity
   8
LEVEL001
 370
30
 100
AcDbLine
   6
CONTINUOUS
  62
7
  10
 898.52411942257
  20
 1398.2361548427
  30
0.0
  11
 1396.8250930687
  21
 1398.2361548427
  31
0.0
   0
LINE
   5
2E8
 100
AcDbEntity
   8
LEVEL001
 370
30
 100
AcDbLine
   6
CONTINUOUS
  62
7
  10
 1410.7028671703
  20
 1410.5603662470
  30
0.0
  11
 1417.2028671703
  21
 1410.5603662470
  31
0.0
   0
LINE
   5
2E9
 100
AcDbEntity
   8
LEVEL001
 370
30
 100
AcDbLine
   6
CONTINUOUS
  62
7
  10
 883.70286717027
  20
 1410.5603662470
  30
0.0
  11
 877.20286717027
  21
 1410.5603662470
  31
0.0
   0
LINE
   5
2EA
 100
AcDbEntity
   8
LEVEL001
 370
30
 100
AcDbLine
   6
CONTINUOUS
  62
7
  10
 883.70286717027
  20
 1438.0160776673
  30
0.0
  11
 883.70286717027
  21
 1294.1608520778
  31
0.0
   0
ARC
   5
2EB
 100
AcDbEntity
   8
LEVEL001
 370
30
   6
CONTINUOUS
  62
7
 100
AcDbCircle
  10
 885.70286717027
  20
 1438.0160776673
  30
0.0
  40
 2.0000000000000
 100
AcDbArc
  50
 90.000000000000
  51
 180.00000000000
   0
POINT
   5
2EC
 100
AcDbEntity
   8
LEVEL001
 100
AcDbPoint
  62
7
  10
 883.70286717027
  20
 1440.0160776673
  30
0.0
   0
LINE
   5
2ED
 100
AcDbEntity
   8
LEVEL001
 370
30
 100
AcDbLine
   6
CONTINUOUS
  62
7
  10
 885.70286717027
  20
 1440.0160776673
  30
0.0
  11
 1408.7028671703
  21
 1440.0160776673
  31
0.0
   0
ARC
   5
2EE
 100
AcDbEntity
   8
LEVEL001
 370
30
   6
CONTINUOUS
  62
7
 100
AcDbCircle
  10
 1408.7028671703
  20
 1438.0160776673
  30
0.0
  40
 2.0000000000000
 100
AcDbArc
  50
0.0
  51
 90.000000000000
   0
POINT
   5
2EF
 100
AcDbEntity
   8
LEVEL001
 100
AcDbPoint
  62
7
  10
 1410.7028671703
  20
 1440.0160776673
  30
0.0
   0
LINE
   5
2F0
 100
AcDbEntity
   8
LEVEL001
 370
30
 100
AcDbLine
   6
CONTINUOUS
  62
7
  10
 904.70286717027
  20
 1432.3593561202
  30
0.0
  11
 1389.7028671703
  21
 1432.3593561202
  31
0.0
   0
LINE
   5
2F1
 100
AcDbEntity
   8
LEVEL001
 370
30
 100
AcDbLine
   6
CONTINUOUS
  62
7
  10
 1389.7028671703
  20
 1432.3593561202
  30
0.0
  11
 1389.7028671703
  21
 1407.6106187786
  31
0.0
   0
LINE
   5
2F2
 100
AcDbEntity
   8
LEVEL001
 370
30
 100
AcDbLine
   6
CONTINUOUS
  62
7
  10
 1389.7028671703
  20
 1407.6106187786
  30
0.0
  11
 904.70286717027
  21
 1407.6106187786
  31
0.0
   0
LINE
   5
2F3
 100
AcDbEntity
   8
LEVEL001
 370
30
 100
AcDbLine
   6
CONTINUOUS
  62
7
  10
 904.70286717027
  20
 1407.6106187786
  30
0.0
  11
 904.70286717027
  21
 1432.3593561202
  31
0.0
   0
ARC
   5
2F4
 100
AcDbEntity
   8
LEVEL001
 370
30
   6
CONTINUOUS
  62
7
 100
AcDbCircle
  10
 1125.6028671703
  20
 1245.8503662470
  30
0.0
  40
 8.2900000000000
 100
AcDbArc
  50
 229.35372634067
  51
 310.64627365933
   0
ARC
   5
2F5
 100
AcDbEntity
   8
LEVEL001
 370
30
   6
CONTINUOUS
  62
7
 100
AcDbCircle
  10
 1039.2028671703
  20
 1245.8503662470
  30
0.0
  40
 8.2900000000000
 100
AcDbArc
  50
 229.35372634067
  51
 310.64627365933
   0
ARC
   5
2F6
 100
AcDbEntity
   8
LEVEL001
 370
30
   6
CONTINUOUS
  62
7
 100
AcDbCircle
  10
 1060.8028671703
  20
 1245.8503662470
  30
0.0
  40
 8.2900000000000
 100
AcDbArc
  50
 229.35372634067
  51
 310.64627365933
   0
ARC
   5
2F7
 100
AcDbEntity
   8
LEVEL001
 370
30
   6
CONTINUOUS
  62
7
 100
AcDbCircle
  10
 1104.0028671703
  20
 1245.8503662470
  30
0.0
  40
 8.2900000000000
 100
AcDbArc
  50
 229.35372634067
  51
 310.64627365933
   0
ARC
   5
2F8
 100
AcDbEntity
   8
LEVEL001
 370
30
   6
CONTINUOUS
  62
7
 100
AcDbCircle
  10
 1082.4028671703
  20
 1245.8503662470
  30
0.0
  40
 8.2900000000000
 100
AcDbArc
  50
 229.35372634068
  51
 310.64627365932
   0
ARC
   5
2F9
 100
AcDbEntity
   8
LEVEL001
 370
30
   6
CONTINUOUS
  62
7
 100
AcDbCircle
  10
 1050.0028671703
  20
 1233.2703662470
  30
0.0
  40
 8.2900000000000
 100
AcDbArc
  50
 49.353726340673
  51
 130.64627365933
   0
ARC
   5
2FA
 100
AcDbEntity
   8
LEVEL001
 370
30
   6
CONTINUOUS
  62
7
 100
AcDbCircle
  10
 1071.6028671703
  20
 1233.2703662470
  30
0.0
  40
 8.2900000000000
 100
AcDbArc
  50
 49.353726340673
  51
 130.64627365933
   0
ARC
   5
2FB
 100
AcDbEntity
   8
LEVEL001
 370
30
   6
CONTINUOUS
  62
7
 100
AcDbCircle
  10
 1093.2028671703
  20
 1233.2703662470
  30
0.0
  40
 8.2900000000000
 100
AcDbArc
  50
 49.353726340677
  51
 130.64627365932
   0
ARC
   5
2FC
 100
AcDbEntity
   8
LEVEL001
 370
30
   6
CONTINUOUS
  62
7
 100
AcDbCircle
  10
 1114.8028671703
  20
 1233.2703662470
  30
0.0
  40
 8.2900000000000
 100
AcDbArc
  50
 49.353726340673
  51
 130.64627365933
   0
ARC
   5
2FD
 100
AcDbEntity
   8
LEVEL001
 370
30
   6
CONTINUOUS
  62
7
 100
AcDbCircle
  10
 1017.6028671703
  20
 1245.8503662470
  30
0.0
  40
 8.2900000000000
 100
AcDbArc
  50
 229.35372634067
  51
 310.64627365933
   0
ARC
   5
2FE
 100
AcDbEntity
   8
LEVEL001
 370
30
   6
CONTINUOUS
  62
7
 100
AcDbCircle
  10
 931.20286717029
  20
 1245.8503662470
  30
0.0
  40
 8.2900000000000
 100
AcDbArc
  50
 229.35372634068
  51
 310.64627365932
   0
ARC
   5
2FF
 100
AcDbEntity
   8
LEVEL001
 370
30
   6
CONTINUOUS
  62
7
 100
AcDbCircle
  10
 974.40286717029
  20
 1245.8503662470
  30
0.0
  40
 8.2900000000000
 100
AcDbArc
  50
 229.35372634067
  51
 310.64627365933
   0
ARC
   5
300
 100
AcDbEntity
   8
LEVEL001
 370
30
   6
CONTINUOUS
  62
7
 100
AcDbCircle
  10
 952.80286717029
  20
 1245.8503662470
  30
0.0
  40
 8.2900000000000
 100
AcDbArc
  50
 229.35372634067
  51
 310.64627365933
   0
ARC
   5
301
 100
AcDbEntity
   8
LEVEL001
 370
30
   6
CONTINUOUS
  62
7
 100
AcDbCircle
  10
 996.00286717029
  20
 1245.8503662470
  30
0.0
  40
 8.2900000000000
 100
AcDbArc
  50
 229.35372634067
  51
 310.64627365933
   0
ARC
   5
302
 100
AcDbEntity
   8
LEVEL001
 370
30
   6
CONTINUOUS
  62
7
 100
AcDbCircle
  10
 1028.4028671703
  20
 1233.2703662470
  30
0.0
  40
 8.2900000000000
 100
AcDbArc
  50
 49.353726340675
  51
 130.64627365933
   0
ARC
   5
303
 100
AcDbEntity
   8
LEVEL001
 370
30
   6
CONTINUOUS
  62
7
 100
AcDbCircle
  10
 942.00286717029
  20
 1233.2703662470
  30
0.0
  40
 8.2900000000000
 100
AcDbArc
  50
 49.353726340673
  51
 130.64627365933
   0
ARC
   5
304
 100
AcDbEntity
   8
LEVEL001
 370
30
   6
CONTINUOUS
  62
7
 100
AcDbCircle
  10
 963.60286717029
  20
 1233.2703662470
  30
0.0
  40
 8.2900000000000
 100
AcDbArc
  50
 49.353726340673
  51
 130.64627365933
   0
ARC
   5
305
 100
AcDbEntity
   8
LEVEL001
 370
30
   6
CONTINUOUS
  62
7
 100
AcDbCircle
  10
 985.20286717029
  20
 1233.2703662470
  30
0.0
  40
 8.2900000000000
 100
AcDbArc
  50
 49.353726340677
  51
 130.64627365932
   0
ARC
   5
306
 100
AcDbEntity
   8
LEVEL001
 370
30
   6
CONTINUOUS
  62
7
 100
AcDbCircle
  10
 1006.8028671703
  20
 1233.2703662470
  30
0.0
  40
 8.2900000000000
 100
AcDbArc
  50
 49.353726340673
  51
 130.64627365933
   0
ARC
   5
307
 100
AcDbEntity
   8
LEVEL001
 370
30
   6
CONTINUOUS
  62
7
 100
AcDbCircle
  10
 909.60286717029
  20
 1245.8503662470
  30
0.0
  40
 8.2900000000000
 100
AcDbArc
  50
 229.35372634067
  51
 310.64627365933
   0
ARC
   5
308
 100
AcDbEntity
   8
LEVEL001
 370
30
   6
CONTINUOUS
  62
7
 100
AcDbCircle
  10
 898.80286717029
  20
 1233.2703662470
  30
0.0
  40
 8.2900000000000
 100
AcDbArc
  50
 49.353726340673
  51
 130.64627365933
   0
ARC
   5
309
 100
AcDbEntity
   8
LEVEL001
 370
30
   6
CONTINUOUS
  62
7
 100
AcDbCircle
  10
 920.40286717029
  20
 1233.2703662470
  30
0.0
  40
 8.2900000000000
 100
AcDbArc
  50
 49.353726340673
  51
 130.64627365933
   0
ARC
   5
30A
 100
AcDbEntity
   8
LEVEL001
 370
30
   6
CONTINUOUS
  62
7
 100
AcDbCircle
  10
 888.00286717029
  20
 1245.8503662470
  30
0.0
  40
 8.2900000000000
 100
AcDbArc
  50
 246.54242208239
  51
 310.64627365931
   0
ARC
   5
30B
 100
AcDbEntity
   8
LEVEL001
 370
30
   6
CONTINUOUS
  62
7
 100
AcDbCircle
  10
 1136.4028671703
  20
 1233.2703662470
  30
0.0
  40
 8.2900000000000
 100
AcDbArc
  50
 49.353726340677
  51
 130.64627365932
   0
ARC
   5
30C
 100
AcDbEntity
   8
LEVEL001
 370
30
   6
CONTINUOUS
  62
7
 100
AcDbCircle
  10
 1147.2028671703
  20
 1245.8503662470
  30
0.0
  40
 8.2900000000000
 100
AcDbArc
  50
 229.35372634067
  51
 310.64627365933
   0
ARC
   5
30D
 100
AcDbEntity
   8
LEVEL001
 370
30
   6
CONTINUOUS
  62
7
 100
AcDbCircle
  10
 1158.0028671703
  20
 1233.2703662470
  30
0.0
  40
 8.2900000000000
 100
AcDbArc
  50
 49.353726340673
  51
 130.64627365933
   0
ARC
   5
30E
 100
AcDbEntity
   8
LEVEL001
 370
30
   6
CONTINUOUS
  62
7
 100
AcDbCircle
  10
 1168.8028671703
  20
 1245.8503662470
  30
0.0
  40
 8.2900000000000
 100
AcDbArc
  50
 229.35372634067
  51
 310.64627365933
   0
ARC
   5
30F
 100
AcDbEntity
   8
LEVEL001
 370
30
   6
CONTINUOUS
  62
7
 100
AcDbCircle
  10
 1179.6028671703
  20
 1233.2703662470
  30
0.0
  40
 8.2900000000000
 100
AcDbArc
  50
 49.353726340673
  51
 130.64627365933
   0
ARC
   5
310
 100
AcDbEntity
   8
LEVEL001
 370
30
   6
CONTINUOUS
  62
7
 100
AcDbCircle
  10
 1212.0028671703
  20
 1245.8503662470
  30
0.0
  40
 8.2900000000000
 100
AcDbArc
  50
 229.35372634067
  51
 310.64627365933
   0
ARC
   5
311
 100
AcDbEntity
   8
LEVEL001
 370
30
   6
CONTINUOUS
  62
7
 100
AcDbCircle
  10
 1201.2028671703
  20
 1233.2703662470
  30
0.0
  40
 8.2900000000000
 100
AcDbArc
  50
 49.353726340677
  51
 130.64627365932
   0
ARC
   5
312
 100
AcDbEntity
   8
LEVEL001
 370
30
   6
CONTINUOUS
  62
7
 100
AcDbCircle
  10
 1190.4028671703
  20
 1245.8503662470
  30
0.0
  40
 8.2900000000000
 100
AcDbArc
  50
 229.35372634068
  51
 310.64627365932
   0
ARC
   5
313
 100
AcDbEntity
   8
LEVEL001
 370
30
   6
CONTINUOUS
  62
7
 100
AcDbCircle
  10
 1233.6028671703
  20
 1245.8503662470
  30
0.0
  40
 8.2900000000000
 100
AcDbArc
  50
 229.35372634067
  51
 310.64627365933
   0
ARC
   5
314
 100
AcDbEntity
   8
LEVEL001
 370
30
   6
CONTINUOUS
  62
7
 100
AcDbCircle
  10
 1222.8028671703
  20
 1233.2703662470
  30
0.0
  40
 8.2900000000000
 100
AcDbArc
  50
 49.353726340673
  51
 130.64627365933
   0
ARC
   5
315
 100
AcDbEntity
   8
LEVEL001
 370
30
   6
CONTINUOUS
  62
7
 100
AcDbCircle
  10
 1287.6028671703
  20
 1233.2703662470
  30
0.0
  40
 8.2900000000000
 100
AcDbArc
  50
 49.353726340673
  51
 130.64627365933
   0
ARC
   5
316
 100
AcDbEntity
   8
LEVEL001
 370
30
   6
CONTINUOUS
  62
7
 100
AcDbCircle
  10
 1255.2028671703
  20
 1245.8503662470
  30
0.0
  40
 8.2900000000000
 100
AcDbArc
  50
 229.35372634067
  51
 310.64627365933
   0
ARC
   5
317
 100
AcDbEntity
   8
LEVEL001
 370
30
   6
CONTINUOUS
  62
7
 100
AcDbCircle
  10
 1266.0028671703
  20
 1233.2703662470
  30
0.0
  40
 8.2900000000000
 100
AcDbArc
  50
 49.353726340673
  51
 130.64627365933
   0
ARC
   5
318
 100
AcDbEntity
   8
LEVEL001
 370
30
   6
CONTINUOUS
  62
7
 100
AcDbCircle
  10
 1276.8028671703
  20
 1245.8503662470
  30
0.0
  40
 8.2900000000000
 100
AcDbArc
  50
 229.35372634067
  51
 310.64627365933
   0
ARC
   5
319
 100
AcDbEntity
   8
LEVEL001
 370
30
   6
CONTINUOUS
  62
7
 100
AcDbCircle
  10
 1298.4028671703
  20
 1245.8503662470
  30
0.0
  40
 8.2900000000000
 100
AcDbArc
  50
 229.35372634068
  51
 310.64627365932
   0
ARC
   5
31A
 100
AcDbEntity
   8
LEVEL001
 370
30
   6
CONTINUOUS
  62
7
 100
AcDbCircle
  10
 1309.2028671703
  20
 1233.2703662470
  30
0.0
  40
 8.2900000000000
 100
AcDbArc
  50
 49.353726340673
  51
 130.64627365933
   0
ARC
   5
31B
 100
AcDbEntity
   8
LEVEL001
 370
30
   6
CONTINUOUS
  62
7
 100
AcDbCircle
  10
 1341.6028671703
  20
 1245.8503662470
  30
0.0
  40
 8.2900000000000
 100
AcDbArc
  50
 229.35372634067
  51
 310.64627365933
   0
ARC
   5
31C
 100
AcDbEntity
   8
LEVEL001
 370
30
   6
CONTINUOUS
  62
7
 100
AcDbCircle
  10
 1330.8028671703
  20
 1233.2703662470
  30
0.0
  40
 8.2900000000000
 100
AcDbArc
  50
 49.353726340673
  51
 130.64627365933
   0
ARC
   5
31D
 100
AcDbEntity
   8
LEVEL001
 370
30
   6
CONTINUOUS
  62
7
 100
AcDbCircle
  10
 1320.0028671703
  20
 1245.8503662470
  30
0.0
  40
 8.2900000000000
 100
AcDbArc
  50
 229.35372634067
  51
 310.64627365933
   0
ARC
   5
31E
 100
AcDbEntity
   8
LEVEL001
 370
30
   6
CONTINUOUS
  62
7
 100
AcDbCircle
  10
 1363.2028671703
  20
 1245.8503662470
  30
0.0
  40
 8.2900000000000
 100
AcDbArc
  50
 229.35372634067
  51
 310.64627365933
   0
ARC
   5
31F
 100
AcDbEntity
   8
LEVEL001
 370
30
   6
CONTINUOUS
  62
7
 100
AcDbCircle
  10
 1352.4028671703
  20
 1233.2703662470
  30
0.0
  40
 8.2900000000000
 100
AcDbArc
  50
 49.353726340677
  51
 130.64627365932
   0
ARC
   5
320
 100
AcDbEntity
   8
LEVEL001
 370
30
   6
CONTINUOUS
  62
7
 100
AcDbCircle
  10
 1374.0028671703
  20
 1233.2703662470
  30
0.0
  40
 8.2900000000000
 100
AcDbArc
  50
 49.353726340673
  51
 130.64627365933
   0
ARC
   5
321
 100
AcDbEntity
   8
LEVEL001
 370
30
   6
CONTINUOUS
  62
7
 100
AcDbCircle
  10
 1384.8028671703
  20
 1245.8503662470
  30
0.0
  40
 8.2900000000000
 100
AcDbArc
  50
 229.35372634067
  51
 310.64627365933
   0
ARC
   5
322
 100
AcDbEntity
   8
LEVEL001
 370
30
   6
CONTINUOUS
  62
7
 100
AcDbCircle
  10
 1244.4028671703
  20
 1233.2703662470
  30
0.0
  40
 8.2900000000000
 100
AcDbArc
  50
 49.353726340677
  51
 130.64627365932
   0
ARC
   5
323
 100
AcDbEntity
   8
LEVEL001
 370
30
   6
CONTINUOUS
  62
7
 100
AcDbCircle
  10
 1395.6028671703
  20
 1233.2703662470
  30
0.0
  40
 8.2900000000000
 100
AcDbArc
  50
 49.353726340677
  51
 130.64627365932
   0
ARC
   5
324
 100
AcDbEntity
   8
LEVEL001
 370
30
   6
CONTINUOUS
  62
7
 100
AcDbCircle
  10
 1406.4028671703
  20
 1245.8503662470
  30
0.0
  40
 8.2900000000000
 100
AcDbArc
  50
 229.35372634070
  51
 293.45757791746
   0
LINE
   5
325
 100
AcDbEntity
   8
LEVEL001
 370
30
 100
AcDbLine
   6
CONTINUOUS
  62
7
  10
 1409.7028671703
  20
 1294.5603662470
  30
0.0
  11
 1409.7028671703
  21
 1238.2454928095
  31
0.0
   0
ARC
   5
326
 100
AcDbEntity
   8
LEVEL001
 370
30
   6
CONTINUOUS
  62
7
 100
AcDbCircle
  10
 831.70286717027
  20
 1278.0603662470
  30
0.0
  40
 7.5000000000000
 100
AcDbArc
  50
 124.22697445374
  51
 180.00000000001
   0
LINE
   5
327
 100
AcDbEntity
   8
LEVEL001
 370
30
 100
AcDbLine
   6
CONTINUOUS
  62
7
  10
 845.70286717027
  20
 1285.5603662470
  30
0.0
  11
 838.04577140442
  21
 1285.5603662470
  31
0.0
   0
LINE
   5
328
 100
AcDbEntity
   8
LEVEL001
 370
30
 100
AcDbLine
   6
CONTINUOUS
  62
7
  10
 818.11220541819
  20
 1302.6552988009
  30
0.0
  11
 836.20286717027
  21
 1267.1503773356
  31
0.0
   0
LINE
   5
329
 100
AcDbEntity
   8
LEVEL001
 370
30
 100
AcDbLine
   6
CONTINUOUS
  62
7
  10
 845.68865343548
  20
 1270.5603662470
  30
0.0
  11
 827.02227059071
  21
 1307.1952039344
  31
0.0
   0
LINE
   5
32A
 100
AcDbEntity
   8
LEVEL001
 370
30
 100
AcDbLine
   6
CONTINUOUS
  62
7
  10
 772.20286717027
  20
 1305.3887933719
  30
0.0
  11
 802.58868229910
  21
 1305.3887933719
  31
0.0
   0
LINE
   5
32B
 100
AcDbEntity
   8
LEVEL001
 370
30
 100
AcDbLine
   6
CONTINUOUS
  62
7
  10
 827.94268277929
  20
 1305.3887933719
  30
0.0
  11
 877.20286717027
  21
 1305.3887933719
  31
0.0
   0
ELLIPSE
   5
32C
 100
AcDbEntity
   8
LEVEL001
 370
30
   6
CONTINUOUS
  62
7
 100
AcDbEllipse
  10
 798.20286717027
  20
 1403.8428518257
  30
0.0
  11
-20.000000000000
  21
0.0
  31
0.0
  40
 0.80000000000000
  41
-0.13297405187129
  42
-3.0086186017185
   0
LINE
   5
32D
 100
AcDbEntity
   8
LEVEL001
 370
30
 100
AcDbLine
   6
CONTINUOUS
  62
7
  10
 817.72550037076
  20
 1411.5603662470
  30
0.0
  11
 877.20286717027
  21
 1411.5603662470
  31
0.0
   0
ELLIPSE
   5
32E
 100
AcDbEntity
   8
LEVEL001
 370
30
   6
CONTINUOUS
  62
7
 100
AcDbEllipse
  10
 798.20286717027
  20
 1389.3471628113
  30
0.0
  11
-15.200000000000
  21
0.0
  31
0.0
  40
 0.65789473684211
  41
-0.33994986682127
  42
-0.70769736666052E-1
   0
ELLIPSE
   5
32F
 100
AcDbEntity
   8
LEVEL001
 370
30
   6
CONTINUOUS
  62
7
 100
AcDbEllipse
  10
 798.20286717027
  20
 1389.3471628113
  30
0.0
  11
-15.200000000000
  21
0.0
  31
0.0
  40
 0.65789473684211
  41
-3.0708229169237
  42
-2.8016427867685
   0
ELLIPSE
   5
330
 100
AcDbEntity
   8
LEVEL001
 370
30
   6
CONTINUOUS
  62
7
 100
AcDbEllipse
  10
 798.20286717027
  20
 1390.7613763737
  30
0.0
  11
-15.200000000000
  21
0.0
  31
0.0
  40
 0.65789473684211
  41
-0.23310545403521
  42
-2.9084871995546
   0
ELLIPSE
   5
331
 100
AcDbEntity
   8
LEVEL001
 370
30
   6
CONTINUOUS
  62
7
 100
AcDbEllipse
  10
 798.20286717027
  20
 1408.0854925129
  30
0.0
  11
-20.000000000000
  21
0.0
  31
0.0
  40
 0.80000000000000
  41
0.0
  42
 6.2831853071796
   0
LINE
   5
332
 100
AcDbEntity
   8
LEVEL001
 370
30
 100
AcDbLine
   6
CONTINUOUS
  62
7
  10
 772.20286717027
  20
 1077.5603662470
  30
0.0
  11
 1412.2028671703
  21
 1077.5603662470
  31
0.0
   0
LINE
   5
333
 100
AcDbEntity
   8
LEVEL001
 370
30
 100
AcDbLine
   6
CONTINUOUS
  62
7
  10
 1417.2028671703
  20
 1411.5603662470
  30
0.0
  11
 1417.2028671703
  21
 1304.5603662470
  31
0.0
   0
LINE
   5
334
 100
AcDbEntity
   8
LEVEL001
 370
30
 100
AcDbLine
   6
CONTINUOUS
  62
7
  10
 1410.7028671703
  20
 1438.0160776673
  30
0.0
  11
 1410.7028671703
  21
 1294.1608520778
  31
0.0
   0
LINE
   5
335
 100
AcDbEntity
   8
LEVEL001
 370
30
 100
AcDbLine
   6
CONTINUOUS
  62
7
  10
 884.70286717027
  20
 1238.2454928095
  30
0.0
  11
 884.70286717027
  21
 1294.5603662470
  31
0.0
   0
LINE
   5
336
 100
AcDbEntity
   8
LEVEL001
 370
30
 100
AcDbLine
   6
CONTINUOUS
  62
7
  10
 1637.2028671703
  20
 1309.8134145742
  30
0.0
  11
 1447.2028671703
  21
 1309.8134145742
  31
0.0
   0
LINE
   5
337
 100
AcDbEntity
   8
LEVEL001
 370
30
 100
AcDbLine
   6
CONTINUOUS
  62
7
  10
 1447.2028671703
  20
 1404.7520147541
  30
0.0
  11
 1637.2028671703
  21
 1404.7520147541
  31
0.0
   0
LINE
   5
338
 100
AcDbEntity
   8
LEVEL001
 370
30
 100
AcDbLine
   6
CONTINUOUS
  62
7
  10
 1447.2028671703
  20
 1404.7520147541
  30
0.0
  11
 1447.2028671703
  21
 1309.8134145742
  31
0.0
   0
LINE
   5
339
 100
AcDbEntity
   8
LEVEL001
 370
30
 100
AcDbLine
   6
CONTINUOUS
  62
7
  10
 1637.2028671703
  20
 1309.8134145742
  30
0.0
  11
 1637.2028671703
  21
 1404.7520147541
  31
0.0
   0
LINE
   5
33A
 100
AcDbEntity
   8
LEVEL001
 370
30
 100
AcDbLine
   6
CONTINUOUS
  62
7
  10
 1412.2028671703
  20
 1077.5012547688
  30
0.0
  11
 1412.2028671703
  21
 1300.5603662470
  31
0.0
   0
LINE
   5
33B
 100
AcDbEntity
   8
LEVEL001
 370
30
 100
AcDbLine
   6
CONTINUOUS
  62
7
  10
 882.20286717027
  20
 1170.4603662472
  30
0.0
  11
 1411.2028671703
  21
 1170.4603662472
  31
0.0
   0
LINE
   5
33C
 100
AcDbEntity
   8
LEVEL001
 370
30
 100
AcDbLine
   6
CONTINUOUS
  62
7
  10
 1411.2028671703
  20
 1095.4603662472
  30
0.0
  11
 882.20286717027
  21
 1095.4603662472
  31
0.0
   0
ARC
   5
33D
 100
AcDbEntity
   8
LEVEL001
 370
30
   6
CONTINUOUS
  62
7
 100
AcDbCircle
  10
 814.22803368728
  20
 1321.8543752164
  30
0.0
  40
 20.000000000000
 100
AcDbArc
  50
 316.35314739568
  51
 277.64685435500
   0
LINE
   5
33E
 100
AcDbEntity
   8
LEVEL001
 370
30
 100
AcDbLine
   6
CONTINUOUS
  62
7
  10
 816.88937218936
  20
 1302.0322341268
  30
0.0
  11
 828.70018759260
  21
 1308.0501453813
  31
0.0
   0
LWPOLYLINE
   5
33F
 100
AcDbEntity
   8
LEVEL001
 370
30
   6
CONTINUOUS
  62
7
 100
AcDbPolyline
  90
4
  70
0
  10
 1642.2028671703
  20
 876.56036624701
  10
 1642.2028671703
  20
 903.56036624701
  10
 1640.2028671703
  20
 903.56036624701
  10
 1640.2028671703
  20
 876.56036624701
   0
LINE
   5
340
 100
AcDbEntity
   8
LEVEL001
 370
30
 100
AcDbLine
   6
CONTINUOUS
  62
7
  10
 1640.2028671703
  20
 875.56036624701
  30
0.0
  11
 775.20286717027
  21
 875.56036624701
  31
0.0
   0
LWPOLYLINE
   5
341
 100
AcDbEntity
   8
LEVEL001
 370
30
   6
CONTINUOUS
  62
7
 100
AcDbPolyline
  90
4
  70
0
  10
 1639.2028671703
  20
 875.56036624701
  10
 1612.2028671703
  20
 875.56036624701
  10
 1612.2028671703
  20
 873.56036624701
  10
 1639.2028671703
  20
 873.56036624701
   0
LINE
   5
342
 100
AcDbEntity
   8
LEVEL001
 370
30
 100
AcDbLine
   6
CONTINUOUS
  62
7
  10
 1640.2028671703
  20
 877.56036624701
  30
0.0
  11
 1640.2028671703
  21
 875.56036624701
  31
0.0
   0
LINE
   5
343
 100
AcDbEntity
   8
LEVEL001
 370
30
 100
AcDbLine
   6
CONTINUOUS
  62
7
  10
 1640.2028671703
  20
 877.56036624701
  30
0.0
  11
 1642.2028671703
  21
 877.56036624701
  31
0.0
   0
ARC
   5
344
 100
AcDbEntity
   8
LEVEL001
 370
30
   6
CONTINUOUS
  62
7
 100
AcDbCircle
  10
 1639.2028671703
  20
 876.56036624701
  30
0.0
  40
 1.0000000000000
 100
AcDbArc
  50
 270.00000000000
  51
0.0
   0
ARC
   5
345
 100
AcDbEntity
   8
LEVEL001
 370
30
   6
CONTINUOUS
  62
7
 100
AcDbCircle
  10
 1639.2028671703
  20
 876.56036624701
  30
0.0
  40
 3.0000000000000
 100
AcDbArc
  50
 270.00000000000
  51
0.0
   0
LINE
   5
346
 100
AcDbEntity
   8
LEVEL001
 370
30
 100
AcDbLine
   6
CONTINUOUS
  62
7
  10
 1374.2028671677
  20
 903.56036624701
  30
0.0
  11
 1642.2028671703
  21
 903.56036624701
  31
0.0
   0
LINE
   5
347
 100
AcDbEntity
   8
LEVEL001
 370
30
 100
AcDbLine
   6
CONTINUOUS
  62
7
  10
 1642.2028671703
  20
 1300.5603662470
  30
0.0
  11
 1642.2028671703
  21
 877.56036624701
  31
0.0
   0
ARC
   5
348
 100
AcDbEntity
   8
LEVEL001
 370
30
   6
CONTINUOUS
  62
7
 100
AcDbCircle
  10
 1416.2028671703
  20
 871.56036624701
  30
0.0
  40
 4.0000000000000
 100
AcDbArc
  50
 90.000000000000
  51
 180.00000000000
   0
ARC
   5
349
 100
AcDbEntity
   8
LEVEL001
 370
30
   6
CONTINUOUS
  62
7
 100
AcDbCircle
  10
 1438.2028671703
  20
 871.56036624701
  30
0.0
  40
 4.0000000000000
 100
AcDbArc
  50
0.0
  51
 90.000000000000
   0
ARC
   5
34A
 100
AcDbEntity
   8
LEVEL001
 370
30
   6
CONTINUOUS
  62
7
 100
AcDbCircle
  10
 856.20286717027
  20
 871.56036624701
  30
0.0
  40
 4.0000000000000
 100
AcDbArc
  50
 90.000000000007
  51
 180.00000000000
   0
ARC
   5
34B
 100
AcDbEntity
   8
LEVEL001
 370
30
   6
CONTINUOUS
  62
7
 100
AcDbCircle
  10
 878.20286717027
  20
 871.56036624701
  30
0.0
  40
 4.0000000000000
 100
AcDbArc
  50
0.0
  51
 90.000000000000
   0
LINE
   5
34C
 100
AcDbEntity
   8
LEVEL001
 370
30
 100
AcDbLine
   6
CONTINUOUS
  62
7
  10
 878.20286717027
  20
 875.56036624701
  30
0.0
  11
 855.69272947781
  21
 875.56036624701
  31
0.0
   0
LINE
   5
34D
 100
AcDbEntity
   8
LEVEL001
 370
30
 100
AcDbLine
   6
CONTINUOUS
  62
7
  10
 878.20286717027
  20
 875.56036624701
  30
0.0
  11
 857.20286717027
  21
 875.56036624701
  31
0.0
   0
LINE
   5
34E
 100
AcDbEntity
   8
LEVEL001
 370
30
 100
AcDbLine
   6
CONTINUOUS
  62
7
  10
 1412.2028671703
  20
 859.56036624701
  30
0.0
  11
 1412.2028671703
  21
 871.56036624701
  31
0.0
   0
LINE
   5
34F
 100
AcDbEntity
   8
LEVEL001
 370
30
 100
AcDbLine
   6
CONTINUOUS
  62
7
  10
 1442.2028671703
  20
 871.56036624701
  30
0.0
  11
 1442.2028671703
  21
 859.56036624701
  31
0.0
   0
LINE
   5
350
 100
AcDbEntity
   8
LEVEL001
 370
30
 100
AcDbLine
   6
CONTINUOUS
  62
7
  10
 852.20286717027
  20
 859.56036624701
  30
0.0
  11
 852.20286717027
  21
 871.56036624701
  31
0.0
   0
LINE
   5
351
 100
AcDbEntity
   8
LEVEL001
 370
30
 100
AcDbLine
   6
CONTINUOUS
  62
7
  10
 882.20286717027
  20
 871.56036624701
  30
0.0
  11
 882.20286717027
  21
 859.56036624701
  31
0.0
   0
ARC
   5
352
 100
AcDbEntity
   8
LEVEL001
 370
30
   6
CONTINUOUS
  62
7
 100
AcDbCircle
  10
 1416.2028671703
  20
 859.56036624701
  30
0.0
  40
 4.0000000000000
 100
AcDbArc
  50
 180.00000000000
  51
 270.00000000000
   0
ARC
   5
353
 100
AcDbEntity
   8
LEVEL001
 370
30
   6
CONTINUOUS
  62
7
 100
AcDbCircle
  10
 1438.2028671703
  20
 859.56036624701
  30
0.0
  40
 4.0000000000000
 100
AcDbArc
  50
 270.00000000000
  51
0.0
   0
LINE
   5
354
 100
AcDbEntity
   8
LEVEL001
 370
30
 100
AcDbLine
   6
CONTINUOUS
  62
7
  10
 1438.2028671703
  20
 855.56036624701
  30
0.0
  11
 1416.2028671703
  21
 855.56036624701
  31
0.0
   0
ARC
   5
355
 100
AcDbEntity
   8
LEVEL001
 370
30
   6
CONTINUOUS
  62
7
 100
AcDbCircle
  10
 856.20286717027
  20
 859.56036624701
  30
0.0
  40
 4.0000000000000
 100
AcDbArc
  50
 180.00000000000
  51
 269.99999999999
   0
ARC
   5
356
 100
AcDbEntity
   8
LEVEL001
 370
30
   6
CONTINUOUS
  62
7
 100
AcDbCircle
  10
 878.20286717027
  20
 859.56036624701
  30
0.0
  40
 4.0000000000000
 100
AcDbArc
  50
 270.00000000000
  51
0.0
   0
LINE
   5
357
 100
AcDbEntity
   8
LEVEL001
 370
30
 100
AcDbLine
   6
CONTINUOUS
  62
7
  10
 878.20286717027
  20
 855.56036624701
  30
0.0
  11
 856.20286717027
  21
 855.56036624701
  31
0.0
   0
LINE
   5
358
 100
AcDbEntity
   8
LEVEL001
 370
30
 100
AcDbLine
   6
CONTINUOUS
  62
7
  10
 773.20286717027
  20
 875.56036624701
  30
0.0
  11
 787.20286717027
  21
 875.56036624701
  31
0.0
   0
ARC
   5
359
 100
AcDbEntity
   8
LEVEL001
 370
30
   6
CONTINUOUS
  62
7
 100
AcDbCircle
  10
 773.20286717027
  20
 877.56036624701
  30
0.0
  40
 2.0000000000000
 100
AcDbArc
  50
 187.37105868158
  51
 270.00000000001
   0
LINE
   5
35A
 100
AcDbEntity
   8
LEVEL001
 370
30
 100
AcDbLine
   6
CONTINUOUS
  62
7
  10
 771.20286717027
  20
 1409.5603662470
  30
0.0
  11
 771.20286717027
  21
 877.30377691512
  31
0.0
   0
LINE
   5
35B
 100
AcDbEntity
   8
LEVEL001
 370
30
 100
AcDbLine
   6
CONTINUOUS
  62
7
  10
 1374.2028671677
  20
 973.56046124701
  30
0.0
  11
 1374.2028671677
  21
 903.56036624701
  31
0.0
   0
LINE
   5
35C
 100
AcDbEntity
   8
LEVEL001
 370
30
 100
AcDbLine
   6
CONTINUOUS
  62
7
  10
 1374.2028671677
  20
 973.56046124701
  30
0.0
  11
 1642.2028671703
  21
 973.56046124701
  31
0.0
   0
INSERT
   5
35D
 100
AcDbEntity
   8
0
 100
AcDbBlockReference
   2
BLOCK007
  10
0.0
  20
0.0
  30
0.0
   0
DIMENSION
   5
35E
 100
AcDbEntity
   8
LEVEL001
 370
30
   6
CONTINUOUS
  62
7
 100
AcDbDimension
   2
*D2
  10
 1651.7028671703
  20
 48.132822477650
  30
0.0
  11
 1209.2028671703
  21
 56.132822477650
  31
0.0
  70
128
   3
GMM002
 100
AcDbAlignedDimension
  13
 766.70286717027
  23
 208.56036624701
  33
0.0
  14
 1651.7028671703
  24
 208.56036624701
  34
0.0
 100
AcDbRotatedDimension
   0
MTEXT
   5
360
 100
AcDbEntity
   8
LEVEL001
 370
9
  62
1
 100
AcDbMText
  10
 1004.9934714031
  20
 577.60287922106
  30
0.0
  40
 32.000000000000
  41
0.0
  71
2
  72
1
   1
{\T1.000000;スーパーニーダー}\P{\T1.000000;　ＳＮ－６Ｐ}
   7
GMM001
  44
 0.79999984000003
   0
MTEXT
   5
362
 100
AcDbEntity
   8
LEVEL001
 370
9
  62
1
 100
AcDbMText
  10
 1307.0726185377
  20
 534.84073962191
  30
0.0
  40
 32.000000000000
  41
0.0
  71
4
  72
1
   1
{\W1.000000;\T1.000000;ローリングプレス}\P{\W0.500000;\T1.000000;  \W1.000000;\T1.000000;ＲＰ－１Ｐ}
   7
GMM001
  44
 0.79999984000003
   0
MTEXT
   5
364
 100
AcDbEntity
   8
LEVEL001
 370
9
  62
1
 100
AcDbMText
  10
 1063.5704922636
  20
 1001.5958404815
  30
0.0
  40
 32.000000000000
  41
0.0
  71
5
  72
1
   1
\T1.000000;Ｍ－８０８
   7
GMM001
  44
 0.79999984000003
   0
DIMENSION
   5
365
 100
AcDbEntity
   8
LEVEL001
 370
30
   6
CONTINUOUS
  62
7
 100
AcDbDimension
   2
*D3
  10
 1651.7028671703
  20
 1555.7430773572
  30
0.0
  11
 1209.2028671703
  21
 1555.7430773572
  31
0.0
  70
0
   3
GMM003
 100
AcDbAlignedDimension
  13
 766.70286717027
  23
 1392.5473215722
  33
0.0
  14
 1651.7028671703
  24
 1288.5603662470
  34
0.0
 100
AcDbRotatedDimension
   0
ARC
   5
366
 100
AcDbEntity
   8
LEVEL001
 370
30
   6
CONTINUOUS
  62
7
 100
AcDbCircle
  10
 773.20286717027
  20
 1409.5603662470
  30
0.0
  40
 2.0000000000000
 100
AcDbArc
  50
 90.000000000000
  51
 180.00000000000
   0
LINE
   5
367
 100
AcDbEntity
   8
LEVEL001
 370
30
 100
AcDbLine
   6
CONTINUOUS
  62
7
  10
 773.20286717027
  20
 1411.5603662470
  30
0.0
  11
 778.68023396978
  21
 1411.5603662470
  31
0.0
   0
INSERT
   5
368
 100
AcDbEntity
   8
0
 100
AcDbBlockReference
   2
BLOCK008
  10
0.0
  20
0.0
  30
0.0
   0
LINE
   5
369
 100
AcDbEntity
   8
LEVEL001
 370
30
 100
AcDbLine
   6
CONTINUOUS
  62
7
  10
 1963.6883780332
  20
 195.56036624701
  30
0.0
  11
 3503.7241379310
  21
 195.56036624701
  31
0.0
   0
DIMENSION
   5
36A
 100
AcDbEntity
   8
LEVEL001
 370
30
   6
CONTINUOUS
  62
7
 100
AcDbDimension
   2
*D4
  10
 601.66538952746
  20
 855.56036624701
  30
0.0
  11
 601.66538952746
  21
 525.56036624701
  31
0.0
  70
0
   3
GMM003
 100
AcDbAlignedDimension
  13
 731.70286717027
  23
 195.56036624701
  33
0.0
  14
 761.89063439350
  24
 855.56036624701
  34
0.0
  50
 90.000000000000
 100
AcDbRotatedDimension
   0
DIMENSION
   5
36B
 100
AcDbEntity
   8
LEVEL001
 370
30
   6
CONTINUOUS
  62
7
 100
AcDbDimension
   2
*D5
  10
 601.66538952746
  20
 1440.5603662470
  30
0.0
  11
 601.66538952746
  21
 1148.0603662470
  31
0.0
  70
0
   3
GMM003
 100
AcDbAlignedDimension
  13
 761.89063439350
  23
 855.56036624701
  33
0.0
  14
 766.70286717027
  24
 1440.5603662470
  34
0.0
  50
 90.000000000000
 100
AcDbRotatedDimension
   0
DIMENSION
   5
36C
 100
AcDbEntity
   8
LEVEL001
 370
30
   6
CONTINUOUS
  62
7
 100
AcDbDimension
   2
*D6
  10
 528.28607918263
  20
 195.56036624701
  30
0.0
  11
 528.28607918263
  21
 818.06036624701
  31
0.0
  70
0
   3
GMM003
 100
AcDbAlignedDimension
  13
 766.70286717027
  23
 1440.5603662470
  33
0.0
  14
 731.70286717027
  24
 195.56036624701
  34
0.0
  50
 270.00000000000
 100
AcDbRotatedDimension
   0
LINE
   5
36D
 100
AcDbEntity
   8
LEVEL001
 370
30
 100
AcDbLine
   6
CONTINUOUS
  62
7
  10
 766.70286717027
  20
 2358.7190293742
  30
0.0
  11
 766.70286717027
  21
 3083.7190293742
  31
0.0
   0
LINE
   5
36E
 100
AcDbEntity
   8
LEVEL001
 370
30
 100
AcDbLine
   6
CONTINUOUS
  62
7
  10
 1651.7028671703
  20
 2358.7190293742
  30
0.0
  11
 1651.7028671703
  21
 3083.7190293742
  31
0.0
   0
LINE
   5
36F
 100
AcDbEntity
   8
LEVEL001
 370
30
 100
AcDbLine
   6
CONTINUOUS
  62
7
  10
 766.70286717027
  20
 2358.7190293742
  30
0.0
  11
 1651.7028671703
  21
 2358.7190293742
  31
0.0
   0
LINE
   5
370
 100
AcDbEntity
   8
LEVEL001
 370
30
 100
AcDbLine
   6
CONTINUOUS
  62
7
  10
 766.70286717027
  20
 3083.7190293742
  30
0.0
  11
 1651.7028671703
  21
 3083.7190293742
  31
0.0
   0
LINE
   5
371
 100
AcDbEntity
   8
LEVEL001
 370
30
 100
AcDbLine
   6
CONTINUOUS
  62
7
  10
 779.20286717027
  20
 2365.7190293742
  30
0.0
  11
 779.20286717027
  21
 2362.7190293742
  31
0.0
   0
LINE
   5
372
 100
AcDbEntity
   8
LEVEL001
 370
30
 100
AcDbLine
   6
CONTINUOUS
  62
7
  10
 882.20286717027
  20
 2362.7190293742
  30
0.0
  11
 779.20286717027
  21
 2362.7190293742
  31
0.0
   0
LINE
   5
373
 100
AcDbEntity
   8
LEVEL001
 370
30
 100
AcDbLine
   6
CONTINUOUS
  62
7
  10
 773.20286717027
  20
 2369.7190293742
  30
0.0
  11
 773.20286717027
  21
 2395.7190293742
  31
0.0
   0
LINE
   5
374
 100
AcDbEntity
   8
LEVEL001
 370
30
 100
AcDbLine
   6
CONTINUOUS
  62
7
  10
 777.20286717027
  20
 2365.7190293742
  30
0.0
  11
 1414.2028671703
  21
 2365.7190293742
  31
0.0
   0
LINE
   5
375
 100
AcDbEntity
   8
LEVEL001
 370
30
 100
AcDbLine
   6
CONTINUOUS
  62
7
  10
 775.20286717027
  20
 2395.7190293742
  30
0.0
  11
 773.20286717027
  21
 2395.7190293742
  31
0.0
   0
LINE
   5
376
 100
AcDbEntity
   8
LEVEL001
 370
30
 100
AcDbLine
   6
CONTINUOUS
  62
7
  10
 775.20286717027
  20
 2395.7190293742
  30
0.0
  11
 778.20286717027
  21
 2398.7190293742
  31
0.0
   0
LINE
   5
377
 100
AcDbEntity
   8
LEVEL001
 370
30
 100
AcDbLine
   6
CONTINUOUS
  62
7
  10
 771.20286717027
  20
 2702.7190293742
  30
0.0
  11
 772.20286717027
  21
 2702.7190293742
  31
0.0
   0
ARC
   5
378
 100
AcDbEntity
   8
LEVEL001
 370
30
   6
CONTINUOUS
  62
7
 100
AcDbCircle
  10
 773.20286717027
  20
 2976.7190293742
  30
0.0
  40
 1.0000000000000
 100
AcDbArc
  50
 90.000000000000
  51
 180.00000000000
   0
ARC
   5
379
 100
AcDbEntity
   8
LEVEL001
 370
30
   6
CONTINUOUS
  62
7
 100
AcDbCircle
  10
 773.20286717027
  20
 2976.7190293742
  30
0.0
  40
 2.0000000000000
 100
AcDbArc
  50
 90.000000000000
  51
 180.00000000000
   0
LINE
   5
37A
 100
AcDbEntity
   8
LEVEL001
 370
30
 100
AcDbLine
   6
CONTINUOUS
  62
7
  10
 877.20286717027
  20
 2807.7190293742
  30
0.0
  11
 771.20286717027
  21
 2807.7190293742
  31
0.0
   0
ARC
   5
37B
 100
AcDbEntity
   8
LEVEL001
 370
30
   6
CONTINUOUS
  62
7
 100
AcDbCircle
  10
 777.20286717027
  20
 2369.7190293742
  30
0.0
  40
 4.0000000000000
 100
AcDbArc
  50
 180.00000000000
  51
 270.00000000000
   0
LINE
   5
37C
 100
AcDbEntity
   8
LEVEL001
 370
30
 100
AcDbLine
   6
CONTINUOUS
  62
7
  10
 773.20286717027
  20
 2395.7190293742
  30
0.0
  11
 773.20286717027
  21
 2369.7190293742
  31
0.0
   0
LINE
   5
37D
 100
AcDbEntity
   8
LEVEL001
 370
30
 100
AcDbLine
   6
CONTINUOUS
  62
7
  10
 775.20286717027
  20
 2395.7190293742
  30
0.0
  11
 773.20286717027
  21
 2395.7190293742
  31
0.0
   0
LINE
   5
37E
 100
AcDbEntity
   8
LEVEL001
 370
30
 100
AcDbLine
   6
CONTINUOUS
  62
7
  10
 857.20286717027
  20
 2978.7190293742
  30
0.0
  11
 773.20286717027
  21
 2978.7190293742
  31
0.0
   0
LINE
   5
37F
 100
AcDbEntity
   8
LEVEL001
 370
30
 100
AcDbLine
   6
CONTINUOUS
  62
7
  10
 878.20286717027
  20
 2977.7190293742
  30
0.0
  11
 773.20286717027
  21
 2977.7190293742
  31
0.0
   0
LINE
   5
380
 100
AcDbEntity
   8
LEVEL001
 370
30
 100
AcDbLine
   6
CONTINUOUS
  62
7
  10
 772.20286717027
  20
 2702.7190293742
  30
0.0
  11
 772.20286717027
  21
 2700.7190293742
  31
0.0
   0
LINE
   5
381
 100
AcDbEntity
   8
LEVEL001
 370
30
 100
AcDbLine
   6
CONTINUOUS
  62
7
  10
 778.20286717027
  20
 2398.7190293742
  30
0.0
  11
 1412.2028671703
  21
 2398.7190293742
  31
0.0
   0
ARC
   5
382
 100
AcDbEntity
   8
LEVEL001
 370
30
   6
CONTINUOUS
  62
7
 100
AcDbCircle
  10
 1638.2028671703
  20
 2704.7190293742
  30
0.0
  40
 4.0000000000000
 100
AcDbArc
  50
 270.00000000000
  51
0.0
   0
LINE
   5
383
 100
AcDbEntity
   8
LEVEL001
 370
30
 100
AcDbLine
   6
CONTINUOUS
  62
7
  10
 1409.7028671703
  20
 2736.4572943854
  30
0.0
  11
 1409.7028671703
  21
 2735.4559239202
  31
0.0
   0
LINE
   5
384
 100
AcDbEntity
   8
LEVEL001
 370
30
 100
AcDbLine
   6
CONTINUOUS
  62
7
  10
 883.70286717027
  20
 2778.0205445645
  30
0.0
  11
 1410.7028671703
  21
 2778.0205445645
  31
0.0
   0
LINE
   5
385
 100
AcDbEntity
   8
LEVEL001
 370
30
 100
AcDbLine
   6
CONTINUOUS
  62
7
  10
 1409.7028671703
  20
 2735.4559239202
  30
0.0
  11
 884.70286717027
  21
 2735.4559239202
  31
0.0
   0
LINE
   5
386
 100
AcDbEntity
   8
LEVEL001
 370
30
 100
AcDbLine
   6
CONTINUOUS
  62
7
  10
 857.20286717027
  20
 2979.7190293742
  30
0.0
  11
 1437.2028671703
  21
 2979.7190293742
  31
0.0
   0
LINE
   5
387
 100
AcDbEntity
   8
LEVEL001
 370
30
 100
AcDbLine
   6
CONTINUOUS
  62
7
  10
 1412.2028671703
  20
 2700.7190293742
  30
0.0
  11
 1409.2028671703
  21
 2697.7190293742
  31
0.0
   0
LINE
   5
388
 100
AcDbEntity
   8
LEVEL001
 370
30
 100
AcDbLine
   6
CONTINUOUS
  62
7
  10
 1409.2028671703
  20
 2697.7190293742
  30
0.0
  11
 885.20286717035
  21
 2697.7190293742
  31
0.0
   0
LINE
   5
389
 100
AcDbEntity
   8
LEVEL001
 370
30
 100
AcDbLine
   6
CONTINUOUS
  62
7
  10
 1417.2028671703
  20
 2376.7190293742
  30
0.0
  11
 1420.2028671703
  21
 2373.7190293742
  31
0.0
   0
LINE
   5
38A
 100
AcDbEntity
   8
LEVEL001
 370
30
 100
AcDbLine
   6
CONTINUOUS
  62
7
  10
 1414.2028671703
  20
 2395.7190293742
  30
0.0
  11
 1412.2028671703
  21
 2395.7190293742
  31
0.0
   0
ARC
   5
38B
 100
AcDbEntity
   8
LEVEL001
 370
30
   6
CONTINUOUS
  62
7
 100
AcDbCircle
  10
 1414.2028671703
  20
 2392.7190293742
  30
0.0
  40
 3.0000000000000
 100
AcDbArc
  50
0.0
  51
 90.000000000000
   0
LINE
   5
38C
 100
AcDbEntity
   8
LEVEL001
 370
30
 100
AcDbLine
   6
CONTINUOUS
  62
7
  10
 1417.2028671703
  20
 2392.7190293742
  30
0.0
  11
 1417.2028671703
  21
 2376.7190293742
  31
0.0
   0
LINE
   5
38D
 100
AcDbEntity
   8
LEVEL001
 370
30
 100
AcDbLine
   6
CONTINUOUS
  62
7
  10
 1634.2028671703
  20
 2373.7190293742
  30
0.0
  11
 1637.2028671703
  21
 2376.7190293742
  31
0.0
   0
LINE
   5
38E
 100
AcDbEntity
   8
LEVEL001
 370
30
 100
AcDbLine
   6
CONTINUOUS
  62
7
  10
 1637.2028671703
  20
 2392.7190293742
  30
0.0
  11
 1637.2028671703
  21
 2376.7190293742
  31
0.0
   0
ARC
   5
38F
 100
AcDbEntity
   8
LEVEL001
 370
30
   6
CONTINUOUS
  62
7
 100
AcDbCircle
  10
 1640.2028671703
  20
 2392.7190293742
  30
0.0
  40
 3.0000000000000
 100
AcDbArc
  50
 90.000000000000
  51
 180.00000000000
   0
ARC
   5
390
 100
AcDbEntity
   8
LEVEL001
 370
30
   6
CONTINUOUS
  62
7
 100
AcDbCircle
  10
 1416.2028671703
  20
 2973.7190293742
  30
0.0
  40
 4.0000000000000
 100
AcDbArc
  50
 90.000000000007
  51
 180.00000000000
   0
ARC
   5
391
 100
AcDbEntity
   8
LEVEL001
 370
30
   6
CONTINUOUS
  62
7
 100
AcDbCircle
  10
 1638.2028671703
  20
 2369.7190293742
  30
0.0
  40
 4.0000000000000
 100
AcDbArc
  50
 270.00000000000
  51
0.0
   0
LINE
   5
392
 100
AcDbEntity
   8
LEVEL001
 370
30
 100
AcDbLine
   6
CONTINUOUS
  62
7
  10
 1642.2028671703
  20
 2395.7190293742
  30
0.0
  11
 1642.2028671703
  21
 2369.7190293742
  31
0.0
   0
LINE
   5
393
 100
AcDbEntity
   8
LEVEL001
 370
30
 100
AcDbLine
   6
CONTINUOUS
  62
7
  10
 1642.2028671703
  20
 2395.7190293742
  30
0.0
  11
 1640.2028671703
  21
 2395.7190293742
  31
0.0
   0
ARC
   5
394
 100
AcDbEntity
   8
LEVEL001
 370
30
   6
CONTINUOUS
  62
7
 100
AcDbCircle
  10
 1641.2028671703
  20
 2976.7190293742
  30
0.0
  40
 1.0000000000000
 100
AcDbArc
  50
0.0
  51
 90.000000000000
   0
ARC
   5
395
 100
AcDbEntity
   8
LEVEL001
 370
30
   6
CONTINUOUS
  62
7
 100
AcDbCircle
  10
 1641.2028671703
  20
 2976.7190293742
  30
0.0
  40
 2.0000000000000
 100
AcDbArc
  50
0.0
  51
 90.000000000000
   0
LINE
   5
396
 100
AcDbEntity
   8
LEVEL001
 370
30
 100
AcDbLine
   6
CONTINUOUS
  62
7
  10
 1642.2028671703
  20
 2705.7190293742
  30
0.0
  11
 1643.2028671703
  21
 2705.7190293742
  31
0.0
   0
ARC
   5
397
 100
AcDbEntity
   8
LEVEL001
 370
30
   6
CONTINUOUS
  62
7
 100
AcDbCircle
  10
 1416.2028671703
  20
 2369.7190293742
  30
0.0
  40
 4.0000000000000
 100
AcDbArc
  50
 180.00000000027
  51
 194.47751218613
   0
LINE
   5
398
 100
AcDbEntity
   8
LEVEL001
 370
30
 100
AcDbLine
   6
CONTINUOUS
  62
7
  10
 1437.2028671703
  20
 2979.7190293742
  30
0.0
  11
 1437.2028671703
  21
 2978.7190293742
  31
0.0
   0
LINE
   5
399
 100
AcDbEntity
   8
LEVEL001
 370
30
 100
AcDbLine
   6
CONTINUOUS
  62
7
  10
 1437.2028671703
  20
 2978.7190293742
  30
0.0
  11
 1641.2028671703
  21
 2978.7190293742
  31
0.0
   0
LINE
   5
39A
 100
AcDbEntity
   8
LEVEL001
 370
30
 100
AcDbLine
   6
CONTINUOUS
  62
7
  10
 1410.7028671703
  20
 2736.4572943854
  30
0.0
  11
 1410.7028671703
  21
 2806.3048158118
  31
0.0
   0
LINE
   5
39B
 100
AcDbEntity
   8
LEVEL001
 370
30
 100
AcDbLine
   6
CONTINUOUS
  62
7
  10
 1409.7028671703
  20
 2736.4572943854
  30
0.0
  11
 1412.2028671703
  21
 2736.4572943854
  31
0.0
   0
LINE
   5
39C
 100
AcDbEntity
   8
LEVEL001
 370
30
 100
AcDbLine
   6
CONTINUOUS
  62
7
  10
 882.20286717027
  20
 2806.3048158118
  30
0.0
  11
 1412.2028671703
  21
 2806.3048158118
  31
0.0
   0
ARC
   5
39D
 100
AcDbEntity
   8
LEVEL001
 370
30
   6
CONTINUOUS
  62
7
 100
AcDbCircle
  10
 1416.2028671703
  20
 2369.7190293742
  30
0.0
  40
 4.0000000000000
 100
AcDbArc
  50
 194.47751218593
  51
 269.99999999995
   0
LINE
   5
39E
 100
AcDbEntity
   8
LEVEL001
 370
30
 100
AcDbLine
   6
CONTINUOUS
  62
7
  10
 1647.2028671703
  20
 2727.7190293742
  30
0.0
  11
 1643.2028671703
  21
 2727.7190293742
  31
0.0
   0
LINE
   5
39F
 100
AcDbEntity
   8
LEVEL001
 370
30
 100
AcDbLine
   6
CONTINUOUS
  62
7
  10
 1647.2028671703
  20
 2373.7190293742
  30
0.0
  11
 1642.2028671703
  21
 2373.7190293742
  31
0.0
   0
LINE
   5
3A0
 100
AcDbEntity
   8
LEVEL001
 370
30
 100
AcDbLine
   6
CONTINUOUS
  62
7
  10
 1605.5028671703
  20
 2365.7190293742
  30
0.0
  11
 1605.5028671703
  21
 2362.7190293742
  31
0.0
   0
LINE
   5
3A1
 100
AcDbEntity
   8
LEVEL001
 370
30
 100
AcDbLine
   6
CONTINUOUS
  62
7
  10
 1497.5028671703
  20
 2365.7190293742
  30
0.0
  11
 1497.5028671703
  21
 2362.7190293742
  31
0.0
   0
LINE
   5
3A2
 100
AcDbEntity
   8
LEVEL001
 370
30
 100
AcDbLine
   6
CONTINUOUS
  62
7
  10
 1605.5028671703
  20
 2362.7190293742
  30
0.0
  11
 1497.5028671703
  21
 2362.7190293742
  31
0.0
   0
LINE
   5
3A3
 100
AcDbEntity
   8
LEVEL001
 370
30
 100
AcDbLine
   6
CONTINUOUS
  62
7
  10
 1414.2028671703
  20
 2365.7190293742
  30
0.0
  11
 1638.2028671703
  21
 2365.7190293742
  31
0.0
   0
ARC
   5
3A4
 100
AcDbEntity
   8
LEVEL001
 370
30
   6
CONTINUOUS
  62
7
 100
AcDbCircle
  10
 878.20286717027
  20
 2706.7190293742
  30
0.0
  40
 4.0000000000000
 100
AcDbArc
  50
 270.00000000000
  51
0.0
   0
ARC
   5
3A5
 100
AcDbEntity
   8
LEVEL001
 370
30
   6
CONTINUOUS
  62
7
 100
AcDbCircle
  10
 878.20286717027
  20
 2706.7190293742
  30
0.0
  40
 4.0000000000000
 100
AcDbArc
  50
 270.00000000000
  51
0.0
   0
ARC
   5
3A6
 100
AcDbEntity
   8
LEVEL001
 370
30
   6
CONTINUOUS
  62
7
 100
AcDbCircle
  10
 878.20286717027
  20
 2973.7190293742
  30
0.0
  40
 4.0000000000000
 100
AcDbArc
  50
0.0
  51
 90.000000000000
   0
LINE
   5
3A7
 100
AcDbEntity
   8
LEVEL001
 370
30
 100
AcDbLine
   6
CONTINUOUS
  62
7
  10
 1389.7028671703
  20
 2743.3723122863
  30
0.0
  11
 1389.7028671703
  21
 2770.3636903150
  31
0.0
   0
LINE
   5
3A8
 100
AcDbEntity
   8
LEVEL001
 370
30
 100
AcDbLine
   6
CONTINUOUS
  62
7
  10
 904.70286717027
  20
 2743.3723122863
  30
0.0
  11
 904.70286717027
  21
 2770.3636903150
  31
0.0
   0
LINE
   5
3A9
 100
AcDbEntity
   8
LEVEL001
 370
30
 100
AcDbLine
   6
CONTINUOUS
  62
7
  10
 904.70286717027
  20
 2770.3636903150
  30
0.0
  11
 1389.7028671703
  21
 2770.3636903150
  31
0.0
   0
LINE
   5
3AA
 100
AcDbEntity
   8
LEVEL001
 370
30
 100
AcDbLine
   6
CONTINUOUS
  62
7
  10
 904.70286717027
  20
 2743.3723122863
  30
0.0
  11
 1389.7028671703
  21
 2743.3723122863
  31
0.0
   0
LINE
   5
3AB
 100
AcDbEntity
   8
LEVEL001
 370
30
 100
AcDbLine
   6
CONTINUOUS
  62
7
  10
 884.70286717027
  20
 2736.4572943854
  30
0.0
  11
 884.70286717027
  21
 2735.4559239202
  31
0.0
   0
LINE
   5
3AC
 100
AcDbEntity
   8
LEVEL001
 370
30
 100
AcDbLine
   6
CONTINUOUS
  62
7
  10
 882.20286717035
  20
 2700.7190293742
  30
0.0
  11
 885.20286717035
  21
 2697.7190293742
  31
0.0
   0
LINE
   5
3AD
 100
AcDbEntity
   8
LEVEL001
 370
30
 100
AcDbLine
   6
CONTINUOUS
  62
7
  10
 857.20286717027
  20
 2977.7190293742
  30
0.0
  11
 857.20286717027
  21
 2979.7190293742
  31
0.0
   0
LINE
   5
3AE
 100
AcDbEntity
   8
LEVEL001
 370
30
 100
AcDbLine
   6
CONTINUOUS
  62
7
  10
 878.20286717027
  20
 2702.7190293742
  30
0.0
  11
 877.20286717027
  21
 2702.7190293742
  31
0.0
   0
LINE
   5
3AF
 100
AcDbEntity
   8
LEVEL001
 370
30
 100
AcDbLine
   6
CONTINUOUS
  62
7
  10
 883.70286717027
  20
 2736.4572943854
  30
0.0
  11
 883.70286717027
  21
 2806.3048158118
  31
0.0
   0
LINE
   5
3B0
 100
AcDbEntity
   8
LEVEL001
 370
30
 100
AcDbLine
   6
CONTINUOUS
  62
7
  10
 882.20286717027
  20
 2736.4572943854
  30
0.0
  11
 884.70286717027
  21
 2736.4572943854
  31
0.0
   0
LINE
   5
3B1
 100
AcDbEntity
   8
LEVEL001
 370
30
 100
AcDbLine
   6
CONTINUOUS
  62
7
  10
 837.80118385262
  20
 2702.7190293742
  30
0.0
  11
 816.69899997534
  21
 2651.5280107528
  31
0.0
   0
LINE
   5
3B2
 100
AcDbEntity
   8
LEVEL001
 370
30
 100
AcDbLine
   6
CONTINUOUS
  62
7
  10
 848.61750904505
  20
 2702.7190293742
  30
0.0
  11
 825.94428413801
  21
 2647.7168795886
  31
0.0
   0
LINE
   5
3B3
 100
AcDbEntity
   8
LEVEL001
 370
30
 100
AcDbLine
   6
CONTINUOUS
  62
7
  10
 802.20286717027
  20
 2702.7190293742
  30
0.0
  11
 802.20286717027
  21
 2647.9118184349
  31
0.0
   0
LINE
   5
3B4
 100
AcDbEntity
   8
LEVEL001
 370
30
 100
AcDbLine
   6
CONTINUOUS
  62
7
  10
 802.20286717027
  20
 2615.5262403135
  30
0.0
  11
 802.20286717027
  21
 2398.7190293742
  31
0.0
   0
LINE
   5
3B5
 100
AcDbEntity
   8
LEVEL001
 370
30
 100
AcDbLine
   6
CONTINUOUS
  62
7
  10
 814.90645189239
  20
 2657.6751052999
  30
0.0
  11
 813.00088631025
  21
 2653.0524632186
  31
0.0
   0
LINE
   5
3B6
 100
AcDbEntity
   8
LEVEL001
 370
30
 100
AcDbLine
   6
CONTINUOUS
  62
7
  10
 814.90645189239
  20
 2657.6751052999
  30
0.0
  11
 831.54796338523
  21
 2650.8150692042
  31
0.0
   0
LINE
   5
3B7
 100
AcDbEntity
   8
LEVEL001
 370
30
 100
AcDbLine
   6
CONTINUOUS
  62
7
  10
 831.54796338523
  20
 2650.8150692042
  30
0.0
  11
 829.64239780309
  21
 2646.1924271229
  31
0.0
   0
LINE
   5
3B8
 100
AcDbEntity
   8
LEVEL001
 370
30
 100
AcDbLine
   6
CONTINUOUS
  62
7
  10
 829.64239780309
  20
 2646.1924271229
  30
0.0
  11
 813.00088631025
  21
 2653.0524632186
  31
0.0
   0
ARC
   5
3B9
 100
AcDbEntity
   8
LEVEL001
 370
30
   6
CONTINUOUS
  62
7
 100
AcDbCircle
  10
 813.94141829192
  20
 2631.7190293742
  30
0.0
  40
 20.000000000000
 100
AcDbArc
  50
 82.074863481193
  51
 53.119839109335
   0
ELLIPSE
   5
3BA
 100
AcDbEntity
   8
LEVEL001
 370
30
   6
CONTINUOUS
  62
7
 100
AcDbEllipse
  10
 798.20286717027
  20
 2774.4243504864
  30
0.0
  11
-20.000000000000
  21
0.0
  31
0.0
  40
 0.80000000000000
  41
 3.0086186017183
  42
 0.13297405187152
   0
ELLIPSE
   5
3BB
 100
AcDbEntity
   8
LEVEL001
 370
30
   6
CONTINUOUS
  62
7
 100
AcDbEllipse
  10
 798.20286717027
  20
 2788.9200395009
  30
0.0
  11
-15.200000000000
  21
0.0
  31
0.0
  40
 0.65789473684211
  41
 0.70769736666052E-1
  42
 0.33994986682127
   0
ELLIPSE
   5
3BC
 100
AcDbEntity
   8
LEVEL001
 370
30
   6
CONTINUOUS
  62
7
 100
AcDbEllipse
  10
 798.20286717027
  20
 2788.9200395009
  30
0.0
  11
-15.200000000000
  21
0.0
  31
0.0
  40
 0.65789473684211
  41
 2.8016427867685
  42
 3.0708229169237
   0
ELLIPSE
   5
3BD
 100
AcDbEntity
   8
LEVEL001
 370
30
   6
CONTINUOUS
  62
7
 100
AcDbEllipse
  10
 798.20286717027
  20
 2787.5058259385
  30
0.0
  11
-15.200000000000
  21
0.0
  31
0.0
  40
 0.65789473684211
  41
 2.9084871995546
  42
 0.23310545403521
   0
ELLIPSE
   5
3BE
 100
AcDbEntity
   8
LEVEL001
 370
30
   6
CONTINUOUS
  62
7
 100
AcDbEllipse
  10
 798.20286717027
  20
 2770.1817097993
  30
0.0
  11
-20.000000000000
  21
0.0
  31
0.0
  40
 0.80000000000000
  41
0.0
  42
 6.2831853071796
   0
LINE
   5
3BF
 100
AcDbEntity
   8
LEVEL001
 370
30
 100
AcDbLine
   6
CONTINUOUS
  62
7
  10
 1643.2028671703
  20
 2705.7190293742
  30
0.0
  11
 1643.2028671703
  21
 2976.7190293742
  31
0.0
   0
LINE
   5
3C0
 100
AcDbEntity
   8
LEVEL001
 370
30
 100
AcDbLine
   6
CONTINUOUS
  62
7
  10
 882.20286717027
  20
 2362.7190293742
  30
0.0
  11
 882.20286717027
  21
 2365.7190293742
  31
0.0
   0
LINE
   5
3C1
 100
AcDbEntity
   8
LEVEL001
 370
30
 100
AcDbLine
   6
CONTINUOUS
  62
7
  10
 1420.2028671703
  20
 2373.7190293742
  30
0.0
  11
 1634.2028671703
  21
 2373.7190293742
  31
0.0
   0
LINE
   5
3C2
 100
AcDbEntity
   8
LEVEL001
 370
30
 100
AcDbLine
   6
CONTINUOUS
  62
7
  10
 1412.2028671703
  20
 2369.7190293742
  30
0.0
  11
 1412.2028671703
  21
 2973.7190293742
  31
0.0
   0
LINE
   5
3C3
 100
AcDbEntity
   8
LEVEL001
 370
30
 100
AcDbLine
   6
CONTINUOUS
  62
7
  10
 882.20286717027
  20
 2700.7190293742
  30
0.0
  11
 882.20286717027
  21
 2973.7190293742
  31
0.0
   0
LINE
   5
3C4
 100
AcDbEntity
   8
LEVEL001
 370
30
 100
AcDbLine
   6
CONTINUOUS
  62
7
  10
 771.20286717027
  20
 2702.7190293742
  30
0.0
  11
 882.20286717027
  21
 2702.7190293742
  31
0.0
   0
LINE
   5
3C5
 100
AcDbEntity
   8
LEVEL001
 370
30
 100
AcDbLine
   6
CONTINUOUS
  62
7
  10
 1416.2028671703
  20
 2977.7190293742
  30
0.0
  11
 1641.2028671703
  21
 2977.7190293742
  31
0.0
   0
LINE
   5
3C6
 100
AcDbEntity
   8
LEVEL001
 370
30
 100
AcDbLine
   6
CONTINUOUS
  62
7
  10
 1638.2028671703
  20
 2700.7190293742
  30
0.0
  11
 1414.3049838668
  21
 2700.7190293742
  31
0.0
   0
LINE
   5
3C7
 100
AcDbEntity
   8
LEVEL001
 370
30
 100
AcDbLine
   6
CONTINUOUS
  62
7
  10
 1637.2028671703
  20
 2799.9964643191
  30
0.0
  11
 1447.2028671703
  21
 2799.9964643191
  31
0.0
   0
LINE
   5
3C8
 100
AcDbEntity
   8
LEVEL001
 370
30
 100
AcDbLine
   6
CONTINUOUS
  62
7
  10
 1637.2028671703
  20
 2705.0578641392
  30
0.0
  11
 1447.2028671703
  21
 2705.0578641392
  31
0.0
   0
LINE
   5
3C9
 100
AcDbEntity
   8
LEVEL001
 370
30
 100
AcDbLine
   6
CONTINUOUS
  62
7
  10
 1447.2028671703
  20
 2799.9964643191
  30
0.0
  11
 1447.2028671703
  21
 2705.0578641392
  31
0.0
   0
LINE
   5
3CA
 100
AcDbEntity
   8
LEVEL001
 370
30
 100
AcDbLine
   6
CONTINUOUS
  62
7
  10
 1637.2028671703
  20
 2705.0578641392
  30
0.0
  11
 1637.2028671703
  21
 2799.9964643191
  31
0.0
   0
LINE
   5
3CB
 100
AcDbEntity
   8
LEVEL001
 370
30
 100
AcDbLine
   6
CONTINUOUS
  62
7
  10
 1440.3389241109
  20
 2805.8906022494
  30
0.0
  11
 1630.2141008486
  21
 2805.8906022494
  31
0.0
   0
LINE
   5
3CC
 100
AcDbEntity
   8
LEVEL001
 370
30
 100
AcDbLine
   6
CONTINUOUS
  62
7
  10
 771.20286717027
  20
 2977.7190293742
  30
0.0
  11
 771.20286717027
  21
 2702.7190293742
  31
0.0
   0
LINE
   5
3CD
 100
AcDbEntity
   8
LEVEL001
 370
30
 100
AcDbLine
   6
CONTINUOUS
  62
7
  10
 1647.2028671703
  20
 2373.7190293742
  30
0.0
  11
 1647.2028671703
  21
 2727.7190293742
  31
0.0
   0
LINE
   5
3CE
 100
AcDbEntity
   8
LEVEL001
 370
30
 100
AcDbLine
   6
CONTINUOUS
  62
7
  10
 772.20286717027
  20
 2702.7190293742
  30
0.0
  11
 772.20286717027
  21
 2368.7190293742
  31
0.0
   0
LINE
   5
3CF
 100
AcDbEntity
   8
LEVEL001
 370
30
 100
AcDbLine
   6
CONTINUOUS
  62
7
  10
 772.20286717027
  20
 2368.7190293742
  30
0.0
  11
 1412.3298838241
  21
 2368.7190293742
  31
0.0
   0
LINE
   5
3D0
 100
AcDbEntity
   8
LEVEL001
 370
30
 100
AcDbLine
   6
CONTINUOUS
  62
7
  10
 794.20286717027
  20
 2752.1504869385
  30
0.0
  11
 794.20286717027
  21
 2747.1504869384
  31
0.0
   0
ARC
   5
3D1
 100
AcDbEntity
   8
LEVEL001
 370
30
   6
CONTINUOUS
  62
7
 100
AcDbCircle
  10
 798.20286717027
  20
 2747.1504869384
  30
0.0
  40
 4.0000000000000
 100
AcDbArc
  50
 180.00000000000
  51
0.0
   0
POINT
   5
3D2
 100
AcDbEntity
   8
LEVEL001
 100
AcDbPoint
  62
7
  10
 798.20286717027
  20
 2752.1504869385
  30
0.0
   0
LINE
   5
3D3
 100
AcDbEntity
   8
LEVEL001
 370
30
 100
AcDbLine
   6
CONTINUOUS
  62
7
  10
 802.20286717027
  20
 2752.1504869385
  30
0.0
  11
 802.20286717027
  21
 2747.1504869384
  31
0.0
   0
ARC
   5
3D4
 100
AcDbEntity
   8
LEVEL001
 370
30
   6
CONTINUOUS
  62
7
 100
AcDbCircle
  10
 798.20286717027
  20
 2752.1504869385
  30
0.0
  40
 9.0000000000000
 100
AcDbArc
  50
 157.28824540463
  51
 22.711754595375
   0
ARC
   5
3D5
 100
AcDbEntity
   8
LEVEL001
 370
30
   6
CONTINUOUS
  62
7
 100
AcDbCircle
  10
 798.20286717027
  20
 2752.1504869385
  30
0.0
  40
 6.5000000000000
 100
AcDbArc
  50
 155.05209483757
  51
 232.02012755515
   0
ARC
   5
3D6
 100
AcDbEntity
   8
LEVEL001
 370
30
   6
CONTINUOUS
  62
7
 100
AcDbCircle
  10
 798.20286717027
  20
 2752.1504869385
  30
0.0
  40
 6.5000000000000
 100
AcDbArc
  50
 307.97987244485
  51
 24.947905162428
   0
ARC
   5
3D7
 100
AcDbEntity
   8
LEVEL001
 370
30
   6
CONTINUOUS
  62
7
 100
AcDbCircle
  10
 798.20286717027
  20
 2752.1504869385
  30
0.0
  40
 4.0000000000000
 100
AcDbArc
  50
 145.74749145004
  51
 180.00000000000
   0
ARC
   5
3D8
 100
AcDbEntity
   8
LEVEL001
 370
30
   6
CONTINUOUS
  62
7
 100
AcDbCircle
  10
 798.20286717027
  20
 2752.1504869385
  30
0.0
  40
 4.0000000000000
 100
AcDbArc
  50
0.0
  51
 34.252508549962
   0
LWPOLYLINE
   5
3D9
 100
AcDbEntity
   8
LEVEL001
 370
9
   6
DIVIDE
  62
1
 100
AcDbPolyline
  90
4
  70
0
  10
 836.20286717027
  20
 2358.7190293742
  10
 836.20286717027
  20
 1633.7190293742
  10
 1581.2028671703
  20
 1633.7190293742
  10
 1581.2028671703
  20
 2358.7190293742
   0
DIMENSION
   5
3DA
 100
AcDbEntity
   8
LEVEL001
 370
30
   6
CONTINUOUS
  62
7
 100
AcDbDimension
   2
*D7
  10
 3458.7241379310
  20
 48.132822477650
  30
0.0
  11
 2733.7241379310
  21
 48.132822477650
  31
0.0
  70
0
   3
GMM003
 100
AcDbAlignedDimension
  13
 2008.7241379310
  23
 195.56036624701
  33
0.0
  14
 3458.7241379310
  24
 195.56036624701
  34
0.0
 100
AcDbRotatedDimension
   0
DIMENSION
   5
3DB
 100
AcDbEntity
   8
LEVEL001
 370
30
   6
CONTINUOUS
  62
7
 100
AcDbDimension
   2
*D8
  10
 1858.4827586207
  20
 1633.7190293742
  30
0.0
  11
 1858.4827586207
  21
 2358.7190293742
  31
0.0
  70
0
   3
GMM003
 100
AcDbAlignedDimension
  13
 1651.7028671703
  23
 3083.7190293742
  33
0.0
  14
 1581.2028671703
  24
 1633.7190293742
  34
0.0
  50
 270.00000000000
 100
AcDbRotatedDimension
   0
LINE
   5
3DC
 100
AcDbEntity
   8
LEVEL001
 370
30
 100
AcDbLine
   6
CONTINUOUS
  62
7
  10
 4554.6206896552
  20
 2052.8275862069
  30
0.0
  11
 3238.6206896552
  21
 2052.8275862069
  31
0.0
   0
MTEXT
   5
3DE
 100
AcDbEntity
   8
LEVEL001
 370
30
  62
7
 100
AcDbMText
  10
 3790.6206896552
  20
 224.00000000000
  30
0.0
  40
 32.000000000000
  41
0.0
  71
7
  72
1
   1
\T1.000000;M-808 AP-6
   7
GMM004
  44
 0.79999984000003
   0
MTEXT
   5
3E0
 100
AcDbEntity
   8
LEVEL001
 370
30
  62
7
 100
AcDbMText
  10
 4334.6206896552
  20
 224.00000000000
  30
0.0
  40
 32.000000000000
  41
0.0
  71
7
  72
1
   1
\T1.000000;M808-AP6-A
   7
GMM004
  44
 0.79999984000003
   0
MTEXT
   5
3E2
 100
AcDbEntity
   8
LEVEL001
 370
30
  62
7
 100
AcDbMText
  10
 4312.5360352999
  20
 303.11769182382
  30
0.0
  40
 32.000000000000
  41
0.0
  71
7
  72
1
   1
\W0.500000;\T1.000000;'22.03.17\W1.000000;\T1.000000;　変更　\W0.500000;\T1.000000;H.M
   7
GMM001
  44
 0.79999984000003
   0
ENDSEC
  0
SECTION
  2
OBJECTS
  0
DICTIONARY
  5
C
100
AcDbDictionary
  3
ACAD_GROUP
350
D
  3
ACAD_MLINESTYLE
350
1B
  3
DWGPROPS
350
1C
  0
DICTIONARY
  5
D
102
{ACAD_REACTORS
330
C
102
}
100
AcDbDictionary
  0
DICTIONARY
  5
1B
102
{ACAD_REACTORS
330
C
102
}
100
AcDbDictionary
  3
STANDARD
350
1D
  0
MLINESTYLE
  5
1D
102
{ACAD_REACTORS
330
1B
102
}
100
AcDbMlineStyle
  2
STANDARD
 70
     0
  3

 62
   256
 51
90.0
 52
90.0
 71
     2
 49
0.5
 62
   256
  6
BYLAYER
 49
-0.5
 62
   256
  6
BYLAYER
   0
XRECORD
   5
1C
 102
{ACAD_REACTORS
 330
C
 102
}
 330
C
 100
AcDbXrecord
 280
1
   1
DWGPROPS COOKIE
   2
 
   3
M808AP6
   4
 
   6
 
   7
M808-AP6-A
   8
 
   9

 300
 = 
 301
 = 
 302
 = 
 303
 = 
 304
 = 
 305
 = 
 306
 = 
 307
 = 
 308
 = 
 309
 = 
  40
0.0
  41
 2457107.5000000
  42
 2459656.5000000
   1

  90
10
   0
ENDSEC
   0
EOF
