   0
SECTION
   2
HEADER
   9
$ACADVER
   1
AC1015
   9
$DWGCODEPAGE
   3
ANSI_932
   9
$LIMMIN
  10
0.0
  20
0.0
   9
$LIMMAX
  10
 2376.0000000000
  20
 1680.0000000000
   9
$EXTMIN
  10
0.0
  20
0.0
  30
0.0
   9
$EXTMAX
  10
 2376.0000000000
  20
 1680.0000000000
  30
0.0
   9
$LTSCALE
  40
 47.520000000000
   9
$HANDSEED
   5
409
   0
ENDSEC
   0
SECTION
   2
TABLES
  0
TABLE
  2
VPORT
  5
8
100
AcDbSymbolTable
 70
     1
  0
VPORT
  5
408
100
AcDbSymbolTableRecord
100
AcDbViewportTableRecord
  2
*ACTIVE
 70
     0
 10
0.0
 20
0.0
 11
1.0
 21
1.0
  12
 1188.0000000000
  22
 840.00000000000
 13
0.0
 23
0.0
 14
1.0
 24
1.0
 15
0.0
 25
0.0
 16
0.0
 26
0.0
 36
1.0
 17
0.0
 27
0.0
 37
0.0
  40
 2376.0000000000
  41
 1.4787878787879
 42
50.0
 43
0.0
 44
0.0
 50
0.0
 51
0.0
 71
     0
 72
   100
 73
     1
 74
     1
 75
     0
 76
     0
 77
     0
 78
     0
  0
ENDTAB
  0
TABLE
  2
LTYPE
  5
5
100
AcDbSymbolTable
 70
    25
  0
LTYPE
  5
12
100
AcDbSymbolTableRecord
100
AcDbLinetypeTableRecord
  2
BYBLOCK
 70
     0
  3

 72
    65
 73
     0
 40
0.0
  0
LTYPE
  5
13
100
AcDbSymbolTableRecord
100
AcDbLinetypeTableRecord
  2
BYLAYER
 70
     0
  3

 72
    65
 73
     0
 40
0.0
  0
LTYPE
  5
14
100
AcDbSymbolTableRecord
100
AcDbLinetypeTableRecord
  2
CONTINUOUS
 70
     0
  3
Solid line
 72
    65
 73
     0
 40
0.0
  0
LTYPE
  5
20
100
AcDbSymbolTableRecord
100
AcDbLinetypeTableRecord
  2
BORDER
 70
     0
  3
__ __ . __ __ . __ __ . __ __ . __ __ . __ __ .
 72
    65
 73
     6
 40
1.75
 49
0.5
 74
     0
 49
-0.25
 74
     0
 49
0.5
 74
     0
 49
-0.25
 74
     0
 49
0.0
 74
     0
 49
-0.25
 74
     0
  0
LTYPE
  5
21
100
AcDbSymbolTableRecord
100
AcDbLinetypeTableRecord
  2
BORDER2
 70
     0
  3
__.__.__.__.__.__.__.__.__.__.__.__.__.__.__.__
 72
    65
 73
     6
 40
0.875
 49
0.25
 74
     0
 49
-0.125
 74
     0
 49
0.25
 74
     0
 49
-0.125
 74
     0
 49
0.0
 74
     0
 49
-0.125
 74
     0
  0
LTYPE
  5
22
100
AcDbSymbolTableRecord
100
AcDbLinetypeTableRecord
  2
BORDERX2
 70
     0
  3
____  ____  .  ____  ____  .  ____  ____  .  __
 72
    65
 73
     6
 40
3.5
 49
1.0
 74
     0
 49
-0.5
 74
     0
 49
1.0
 74
     0
 49
-0.5
 74
     0
 49
0.0
 74
     0
 49
-0.5
 74
     0
  0
LTYPE
  5
23
100
AcDbSymbolTableRecord
100
AcDbLinetypeTableRecord
  2
CENTER
 70
     0
  3
____ _ ____ _ ____ _ ____ _ ____ _ ____ _ ____ 
 72
    65
 73
     4
 40
2.0
 49
1.25
 74
     0
 49
-0.25
 74
     0
 49
0.25
 74
     0
 49
-0.25
 74
     0
  0
LTYPE
  5
24
100
AcDbSymbolTableRecord
100
AcDbLinetypeTableRecord
  2
CENTER2
 70
     0
  3
___ _ ___ _ ___ _ ___ _ ___ _ ___ _ ___ _ ___ _
 72
    65
 73
     4
 40
1.125
 49
0.75
 74
     0
 49
-0.125
 74
     0
 49
0.125
 74
     0
 49
-0.125
 74
     0
  0
LTYPE
  5
25
100
AcDbSymbolTableRecord
100
AcDbLinetypeTableRecord
  2
CENTERX2
 70
     0
  3
________  __  ________  __  ________  __  _____
 72
    65
 73
     4
 40
4.0
 49
2.5
 74
     0
 49
-0.5
 74
     0
 49
0.5
 74
     0
 49
-0.5
 74
     0
  0
LTYPE
  5
26
100
AcDbSymbolTableRecord
100
AcDbLinetypeTableRecord
  2
DASHDOT
 70
     0
  3
__ . __ . __ . __ . __ . __ . __ . __ . __ . __
 72
    65
 73
     4
 40
1.0
 49
0.5
 74
     0
 49
-0.25
 74
     0
 49
0.0
 74
     0
 49
-0.25
 74
     0
  0
LTYPE
  5
27
100
AcDbSymbolTableRecord
100
AcDbLinetypeTableRecord
  2
DASHDOT2
 70
     0
  3
_._._._._._._._._._._._._._._._._._._._._._._._
 72
    65
 73
     4
 40
0.5
 49
0.25
 74
     0
 49
-0.125
 74
     0
 49
0.0
 74
     0
 49
-0.125
 74
     0
  0
LTYPE
  5
28
100
AcDbSymbolTableRecord
100
AcDbLinetypeTableRecord
  2
DASHDOTX2
 70
     0
  3
____  .  ____  .  ____  .  ____  .  ____  .  __
 72
    65
 73
     4
 40
2.0
 49
1.0
 74
     0
 49
-0.5
 74
     0
 49
0.0
 74
     0
 49
-0.5
 74
     0
  0
LTYPE
  5
29
100
AcDbSymbolTableRecord
100
AcDbLinetypeTableRecord
  2
DASHED
 70
     0
  3
__ __ __ __ __ __ __ __ __ __ __ __ __ __ __ __
 72
    65
 73
     2
 40
0.75
 49
0.5
 74
     0
 49
-0.25
 74
     0
  0
LTYPE
  5
2A
100
AcDbSymbolTableRecord
100
AcDbLinetypeTableRecord
  2
DASHED2
 70
     0
  3
_ _ _ _ _ _ _ _ _ _ _ _ _ _ _ _ _ _ _ _ _ _ _ _
 72
    65
 73
     2
 40
0.375
 49
0.25
 74
     0
 49
-0.125
 74
     0
  0
LTYPE
  5
2B
100
AcDbSymbolTableRecord
100
AcDbLinetypeTableRecord
  2
DASHEDX2
 70
     0
  3
____  ____  ____  ____  ____  ____  ____  ____ 
 72
    65
 73
     2
 40
1.5
 49
1.0
 74
     0
 49
-0.5
 74
     0
  0
LTYPE
  5
2C
100
AcDbSymbolTableRecord
100
AcDbLinetypeTableRecord
  2
DIVIDE
 70
     0
  3
____ . . ____ . . ____ . . ____ . . ____ . . __
 72
    65
 73
     6
 40
1.25
 49
0.5
 74
     0
 49
-0.25
 74
     0
 49
0.0
 74
     0
 49
-0.25
 74
     0
 49
0.0
 74
     0
 49
-0.25
 74
     0
  0
LTYPE
  5
2D
100
AcDbSymbolTableRecord
100
AcDbLinetypeTableRecord
  2
DIVIDE2
 70
     0
  3
__..__..__..__..__..__..__..__..__..__..__..__.
 72
    65
 73
     6
 40
0.625
 49
0.25
 74
     0
 49
-0.125
 74
     0
 49
0.0
 74
     0
 49
-0.125
 74
     0
 49
0.0
 74
     0
 49
-0.125
 74
     0
  0
LTYPE
  5
2E
100
AcDbSymbolTableRecord
100
AcDbLinetypeTableRecord
  2
DIVIDEX2
 70
     0
  3
________  .  .  ________  .  .  ________  .  . 
 72
    65
 73
     6
 40
2.5
 49
1.0
 74
     0
 49
-0.5
 74
     0
 49
0.0
 74
     0
 49
-0.5
 74
     0
 49
0.0
 74
     0
 49
-0.5
 74
     0
  0
LTYPE
  5
2F
100
AcDbSymbolTableRecord
100
AcDbLinetypeTableRecord
  2
DOT
 70
     0
  3
. . . . . . . . . . . . . . . . . . . . . . . .
 72
    65
 73
     2
 40
0.25
 49
0.0
 74
     0
 49
-0.25
 74
     0
  0
LTYPE
  5
30
100
AcDbSymbolTableRecord
100
AcDbLinetypeTableRecord
  2
DOT2
 70
     0
  3
...............................................
 72
    65
 73
     2
 40
0.125
 49
0.0
 74
     0
 49
-0.125
 74
     0
  0
LTYPE
  5
31
100
AcDbSymbolTableRecord
100
AcDbLinetypeTableRecord
  2
DOTX2
 70
     0
  3
.  .  .  .  .  .  .  .  .  .  .  .  .  .  .  . 
 72
    65
 73
     2
 40
0.5
 49
0.0
 74
     0
 49
-0.5
 74
     0
  0
LTYPE
  5
32
100
AcDbSymbolTableRecord
100
AcDbLinetypeTableRecord
  2
HIDDEN
 70
     0
  3
__ __ __ __ __ __ __ __ __ __ __ __ __ __ __ __
 72
    65
 73
     2
 40
0.375
 49
0.25
 74
     0
 49
-0.125
 74
     0
  0
LTYPE
  5
33
100
AcDbSymbolTableRecord
100
AcDbLinetypeTableRecord
  2
HIDDEN2
 70
     0
  3
_ _ _ _ _ _ _ _ _ _ _ _ _ _ _ _ _ _ _ _ _ _ _ _
 72
    65
 73
     2
 40
0.1875
 49
0.125
 74
     0
 49
-0.0625
 74
     0
  0
LTYPE
  5
34
100
AcDbSymbolTableRecord
100
AcDbLinetypeTableRecord
  2
HIDDENX2
 70
     0
  3
____ ____ ____ ____ ____ ____ ____ ____ ____ __
 72
    65
 73
     2
 40
0.75
 49
0.5
 74
     0
 49
-0.25
 74
     0
  0
LTYPE
  5
35
100
AcDbSymbolTableRecord
100
AcDbLinetypeTableRecord
  2
PHANTOM
 70
     0
  3
______  __  __  ______  __  __  ______  __  __ 
 72
    65
 73
     6
 40
2.5
 49
1.25
 74
     0
 49
-0.25
 74
     0
 49
0.25
 74
     0
 49
-0.25
 74
     0
 49
0.25
 74
     0
 49
-0.25
 74
     0
  0
LTYPE
  5
36
100
AcDbSymbolTableRecord
100
AcDbLinetypeTableRecord
  2
PHANTOM2
 70
     0
  3
___ _ _ ___ _ _ ___ _ _ ___ _ _ ___ _ _ ___ _ _
 72
    65
 73
     6
 40
1.25
 49
0.625
 74
     0
 49
-0.125
 74
     0
 49
0.125
 74
     0
 49
-0.125
 74
     0
 49
0.125
 74
     0
 49
-0.125
 74
     0
  0
LTYPE
  5
37
100
AcDbSymbolTableRecord
100
AcDbLinetypeTableRecord
  2
PHANTOMX2
 70
     0
  3
____________    ____    ____    ____________   
 72
    65
 73
     6
 40
5.0
 49
2.5
 74
     0
 49
-0.5
 74
     0
 49
0.5
 74
     0
 49
-0.5
 74
     0
 49
0.5
 74
     0
 49
-0.5
 74
     0
  0
ENDTAB
   0
TABLE
   2
LAYER
   5
2
 100
AcDbSymbolTable
  70
6
   0
LAYER
   5
E
 100
AcDbSymbolTableRecord
 100
AcDbLayerTableRecord
   2
0
  70
0
  62
7
   6
CONTINUOUS
 390
30
   0
LAYER
   5
39
 100
AcDbSymbolTableRecord
 100
AcDbLayerTableRecord
   2
LEVEL001
  70
0
  62
7
   6
CONTINUOUS
 390
30
   0
LAYER
   5
3A
 100
AcDbSymbolTableRecord
 100
AcDbLayerTableRecord
   2
LEVEL002
  70
0
  62
7
   6
CONTINUOUS
 390
30
   0
LAYER
   5
3B
 100
AcDbSymbolTableRecord
 100
AcDbLayerTableRecord
   2
内図枠(作図領域)
  70
0
  62
7
   6
CONTINUOUS
 390
30
   0
LAYER
   5
3C
 100
AcDbSymbolTableRecord
 100
AcDbLayerTableRecord
   2
外図枠(出力紙領域)
  70
0
  62
7
   6
CONTINUOUS
 390
30
   0
LAYER
   5
3D
 100
AcDbSymbolTableRecord
 100
AcDbLayerTableRecord
   2
部品表金額表示用
  70
0
  62
7
   6
CONTINUOUS
 390
30
   0
ENDTAB
  0
TABLE
  2
STYLE
  5
3
100
AcDbSymbolTable
  70
4
  0
STYLE
  5
F
100
AcDbSymbolTableRecord
100
AcDbTextStyleTableRecord
  2
STANDARD
 70
     0
 40
0.0
 41
1.0
 50
0.0
 71
     0
 42
0.2
  3
TXT
  4
BIGFONT
  0
STYLE
  5
38
100
AcDbSymbolTableRecord
100
AcDbTextStyleTableRecord
  2
STANDARD1
 70
     4
 40
0.0
 41
1.0
 50
0.0
 71
     0
 42
0.2
  3
TXT
  4
BIGFONT
   0
STYLE
   5
3E
 100
AcDbSymbolTableRecord
 100
AcDbTextStyleTableRecord
   2
GMM001
  70
0
  40
0.0
  41
 1.0000000000000
  50
0.0
  71
     0
  42
1.0
   3
txt.shx
   4
bigfont.shx
   0
STYLE
   5
3F
 100
AcDbSymbolTableRecord
 100
AcDbTextStyleTableRecord
   2
GMM002
  70
0
  40
0.0
  41
 0.50000000000000
  50
0.0
  71
     0
  42
1.0
   3
txt.shx
   4
bigfont.shx
   0
ENDTAB
  0
TABLE
  2
VIEW
  5
6
100
AcDbSymbolTable
 70
     0
  0
ENDTAB
  0
TABLE
  2
UCS
  5
7
100
AcDbSymbolTable
 70
     0
  0
ENDTAB
  0
TABLE
  2
APPID
  5
9
100
AcDbSymbolTable
 70
     1
  0
APPID
  5
10
100
AcDbSymbolTableRecord
100
AcDbRegAppTableRecord
  2
ACAD
 70
     0
  0
ENDTAB
   0
TABLE
   2
DIMSTYLE
   5
A
 100
AcDbSymbolTable
  70
3
 100
AcDbDimStyleTable
  0
DIMSTYLE
105
1D
100
AcDbSymbolTableRecord
100
AcDbDimStyleTableRecord
  2
STANDARD
 70
     0
  3

  4

  5

  6

  7

 40
1.0
 41
0.18
 42
0.0625
 43
0.38
 44
0.18
 45
0.0
 46
0.0
 47
0.0
 48
0.0
140
0.18
141
0.09
142
0.0
143
25.4
144
1.0
145
0.0
146
1.0
147
0.09
 71
     0
 72
     0
 73
     1
 74
     1
 75
     0
 76
     0
 77
     0
 78
     0
170
     0
171
     2
172
     0
173
     0
174
     0
175
     0
176
     0
177
     0
178
     0
270
     2
271
     4
272
     4
273
     2
274
     2
340
F
275
     0
280
     0
281
     0
282
     0
283
     1
284
     0
285
     0
286
     0
287
     3
288
     0
   0
DIMSTYLE
 105
40
 100
AcDbSymbolTableRecord
 100
AcDbDimStyleTableRecord
   2
GMM001
  70
0
   3

   4

   5

   6
_OPEN30
   7
_OPEN30
  40
 1.0000000000000
  41
 12.000000000000
  42
0.0
  43
 32.000000000000
  44
 8.0000000000000
  45
0.0
  46
0.0
  47
0.0
  48
0.0
 140
 16.000000000000
 141
 4.0000000000000
 142
0.0
 143
 0.39400000000000E-1
 144
 1.0000000000000
 145
0.0
 146
 0.62500000000000
 147
 6.8571428571429
  71
0
  72
0
  73
0
  74
0
  75
0
  76
0
  77
3
  78
8
 170
0
 171
2
 172
1
 173
1
 174
0
 175
0
 176
1
 177
1
 178
7
 270
2
 271
6
 272
0
 273
2
 274
2
 340
3E
 275
0
 280
0
 281
0
 282
0
 283
1
 284
0
 285
0
 286
0
 287
3
 288
0
   0
ENDTAB
  0
TABLE
  2
BLOCK_RECORD
  5
1
100
AcDbSymbolTable
 70
     0
  0
BLOCK_RECORD
  5
18
100
AcDbSymbolTableRecord
100
AcDbBlockTableRecord
  2
*MODEL_SPACE
  0
BLOCK_RECORD
  5
15
100
AcDbSymbolTableRecord
100
AcDbBlockTableRecord
  2
*PAPER_SPACE
   0
BLOCK_RECORD
   5
41
 100
AcDbSymbolTableRecord
 100
AcDbBlockTableRecord
   2
GMM001
   0
BLOCK_RECORD
   5
42
 100
AcDbSymbolTableRecord
 100
AcDbBlockTableRecord
   2
*D1
   0
BLOCK_RECORD
   5
43
 100
AcDbSymbolTableRecord
 100
AcDbBlockTableRecord
   2
*D2
   0
BLOCK_RECORD
   5
44
 100
AcDbSymbolTableRecord
 100
AcDbBlockTableRecord
   2
*D3
   0
BLOCK_RECORD
   5
45
 100
AcDbSymbolTableRecord
 100
AcDbBlockTableRecord
   2
_ARCHTICK
   0
BLOCK_RECORD
   5
46
 100
AcDbSymbolTableRecord
 100
AcDbBlockTableRecord
   2
_BOXBLANK
   0
BLOCK_RECORD
   5
47
 100
AcDbSymbolTableRecord
 100
AcDbBlockTableRecord
   2
_BOXFILLED
   0
BLOCK_RECORD
   5
48
 100
AcDbSymbolTableRecord
 100
AcDbBlockTableRecord
   2
_CLOSED
   0
BLOCK_RECORD
   5
49
 100
AcDbSymbolTableRecord
 100
AcDbBlockTableRecord
   2
_CLOSEDBLANK
   0
BLOCK_RECORD
   5
4A
 100
AcDbSymbolTableRecord
 100
AcDbBlockTableRecord
   2
_DATUMBLANK
   0
BLOCK_RECORD
   5
4B
 100
AcDbSymbolTableRecord
 100
AcDbBlockTableRecord
   2
_DATUMFILLED
   0
BLOCK_RECORD
   5
4C
 100
AcDbSymbolTableRecord
 100
AcDbBlockTableRecord
   2
_DOT
   0
BLOCK_RECORD
   5
4D
 100
AcDbSymbolTableRecord
 100
AcDbBlockTableRecord
   2
_DOTBLANK
   0
BLOCK_RECORD
   5
4E
 100
AcDbSymbolTableRecord
 100
AcDbBlockTableRecord
   2
_DOTSMALL
   0
BLOCK_RECORD
   5
4F
 100
AcDbSymbolTableRecord
 100
AcDbBlockTableRecord
   2
_INTEGRAL
   0
BLOCK_RECORD
   5
50
 100
AcDbSymbolTableRecord
 100
AcDbBlockTableRecord
   2
_NONE
   0
BLOCK_RECORD
   5
51
 100
AcDbSymbolTableRecord
 100
AcDbBlockTableRecord
   2
_OBLIQUE
   0
BLOCK_RECORD
   5
52
 100
AcDbSymbolTableRecord
 100
AcDbBlockTableRecord
   2
_OPEN
   0
BLOCK_RECORD
   5
53
 100
AcDbSymbolTableRecord
 100
AcDbBlockTableRecord
   2
_OPEN30
   0
BLOCK_RECORD
   5
54
 100
AcDbSymbolTableRecord
 100
AcDbBlockTableRecord
   2
_OPEN90
   0
BLOCK_RECORD
   5
55
 100
AcDbSymbolTableRecord
 100
AcDbBlockTableRecord
   2
_ORIGIN
   0
ENDTAB
   0
ENDSEC
  0
SECTION
  2
BLOCKS
  0
BLOCK
  5
19
100
AcDbEntity
  8
0
100
AcDbBlockBegin
  2
*MODEL_SPACE
 70
     0
 10
0.0
 20
0.0
 30
0.0
  3
*MODEL_SPACE
  1

  0
ENDBLK
  5
1A
100
AcDbEntity
  8
0
100
AcDbBlockEnd
  0
BLOCK
  5
16
100
AcDbEntity
 67
     1
  8
0
100
AcDbBlockBegin
  2
*PAPER_SPACE
 70
     0
 10
0.0
 20
0.0
 30
0.0
  3
*PAPER_SPACE
  1

  0
ENDBLK
  5
17
100
AcDbEntity
 67
     1
  8
0
100
AcDbBlockEnd
   0
BLOCK
   5
56
 100
AcDbEntity
   8
0
 100
AcDbBlockBegin
   2
_ARCHTICK
  70
0
  10
0.0
  20
0.0
  30
0.0
   3
_ARCHTICK
   0
POLYLINE
   5
57
 100
AcDbEntity
   8
0
 370
-2
   6
BYBLOCK
  62
0
 100
AcDb2dPolyline
  66
1
  10
0.0
  20
0.0
  30
0.0
  70
1
  40
 0.15000000000000
  41
 0.15000000000000
   0
VERTEX
   5
58
 100
AcDbEntity
   8
0
   6
BYBLOCK
  62
0
 100
AcDbVertex
 100
AcDb2dVertex
  10
-0.50000000000000
  20
-0.50000000000000
  30
0.0
  40
 0.15000000000000
  41
 0.15000000000000
   0
VERTEX
   5
59
 100
AcDbEntity
   8
0
   6
BYBLOCK
  62
0
 100
AcDbVertex
 100
AcDb2dVertex
  10
 0.50000000000000
  20
 0.50000000000000
  30
0.0
  40
 0.15000000000000
  41
 0.15000000000000
   0
SEQEND
   5
5A
 100
AcDbEntity
   8
0
   6
BYBLOCK
  62
0
   0
ENDBLK
   5
5B
 100
AcDbEntity
   8
0
 100
AcDbBlockEnd
   0
BLOCK
   5
5C
 100
AcDbEntity
   8
0
 100
AcDbBlockBegin
   2
_OBLIQUE
  70
0
  10
0.0
  20
0.0
  30
0.0
   3
_OBLIQUE
   0
LINE
   5
5D
 100
AcDbEntity
   8
0
 370
-2
 100
AcDbLine
   6
BYBLOCK
  62
0
  10
-0.50000000000000
  20
-0.50000000000000
  30
0.0
  11
 0.50000000000000
  21
 0.50000000000000
  31
0.0
   0
ENDBLK
   5
5E
 100
AcDbEntity
   8
0
 100
AcDbBlockEnd
   0
BLOCK
   5
5F
 100
AcDbEntity
   8
0
 100
AcDbBlockBegin
   2
_BOXBLANK
  70
0
  10
0.0
  20
0.0
  30
0.0
   3
_BOXBLANK
   0
LINE
   5
60
 100
AcDbEntity
   8
0
 370
-2
 100
AcDbLine
   6
BYBLOCK
  62
0
  10
-0.50000000000000
  20
-0.50000000000000
  30
0.0
  11
 0.50000000000000
  21
-0.50000000000000
  31
0.0
   0
LINE
   5
61
 100
AcDbEntity
   8
0
 370
-2
 100
AcDbLine
   6
BYBLOCK
  62
0
  10
 0.50000000000000
  20
-0.50000000000000
  30
0.0
  11
 0.50000000000000
  21
 0.50000000000000
  31
0.0
   0
LINE
   5
62
 100
AcDbEntity
   8
0
 370
-2
 100
AcDbLine
   6
BYBLOCK
  62
0
  10
 0.50000000000000
  20
 0.50000000000000
  30
0.0
  11
-0.50000000000000
  21
 0.50000000000000
  31
0.0
   0
LINE
   5
63
 100
AcDbEntity
   8
0
 370
-2
 100
AcDbLine
   6
BYBLOCK
  62
0
  10
-0.50000000000000
  20
 0.50000000000000
  30
0.0
  11
-0.50000000000000
  21
-0.50000000000000
  31
0.0
   0
LINE
   5
64
 100
AcDbEntity
   8
0
 370
-2
 100
AcDbLine
   6
BYBLOCK
  62
0
  10
-0.50000000000000
  20
0.0
  30
0.0
  11
-1.0000000000000
  21
0.0
  31
0.0
   0
ENDBLK
   5
65
 100
AcDbEntity
   8
0
 100
AcDbBlockEnd
   0
BLOCK
   5
66
 100
AcDbEntity
   8
0
 100
AcDbBlockBegin
   2
_BOXFILLED
  70
0
  10
0.0
  20
0.0
  30
0.0
   3
_BOXFILLED
   0
SOLID
   5
67
 100
AcDbEntity
   8
0
 100
AcDbTrace
   6
BYBLOCK
  62
0
  10
-0.50000000000000
  20
 0.50000000000000
  30
0.0
  11
 0.50000000000000
  21
 0.50000000000000
  31
0.0
  12
-0.50000000000000
  22
-0.50000000000000
  32
0.0
  13
 0.50000000000000
  23
-0.50000000000000
  33
0.0
   0
LINE
   5
68
 100
AcDbEntity
   8
0
 370
-2
 100
AcDbLine
   6
BYBLOCK
  62
0
  10
-0.50000000000000
  20
0.0
  30
0.0
  11
-1.0000000000000
  21
0.0
  31
0.0
   0
ENDBLK
   5
69
 100
AcDbEntity
   8
0
 100
AcDbBlockEnd
   0
BLOCK
   5
6A
 100
AcDbEntity
   8
0
 100
AcDbBlockBegin
   2
_CLOSED
  70
0
  10
0.0
  20
0.0
  30
0.0
   3
_CLOSED
   0
LINE
   5
6B
 100
AcDbEntity
   8
0
 370
-2
 100
AcDbLine
   6
BYBLOCK
  62
0
  10
-1.0000000000000
  20
 0.16666666666667
  30
0.0
  11
0.0
  21
0.0
  31
0.0
   0
LINE
   5
6C
 100
AcDbEntity
   8
0
 370
-2
 100
AcDbLine
   6
BYBLOCK
  62
0
  10
0.0
  20
0.0
  30
0.0
  11
-1.0000000000000
  21
-0.16666666666667
  31
0.0
   0
LINE
   5
6D
 100
AcDbEntity
   8
0
 370
-2
 100
AcDbLine
   6
BYBLOCK
  62
0
  10
-1.0000000000000
  20
 0.16666666666667
  30
0.0
  11
-1.0000000000000
  21
-0.16666666666667
  31
0.0
   0
LINE
   5
6E
 100
AcDbEntity
   8
0
 370
-2
 100
AcDbLine
   6
BYBLOCK
  62
0
  10
0.0
  20
0.0
  30
0.0
  11
-1.0000000000000
  21
0.0
  31
0.0
   0
ENDBLK
   5
6F
 100
AcDbEntity
   8
0
 100
AcDbBlockEnd
   0
BLOCK
   5
70
 100
AcDbEntity
   8
0
 100
AcDbBlockBegin
   2
_OPEN
  70
0
  10
0.0
  20
0.0
  30
0.0
   3
_OPEN
   0
LINE
   5
71
 100
AcDbEntity
   8
0
 370
-2
 100
AcDbLine
   6
BYBLOCK
  62
0
  10
-1.0000000000000
  20
 0.16666666666667
  30
0.0
  11
0.0
  21
0.0
  31
0.0
   0
LINE
   5
72
 100
AcDbEntity
   8
0
 370
-2
 100
AcDbLine
   6
BYBLOCK
  62
0
  10
0.0
  20
0.0
  30
0.0
  11
-1.0000000000000
  21
-0.16666666666667
  31
0.0
   0
LINE
   5
73
 100
AcDbEntity
   8
0
 370
-2
 100
AcDbLine
   6
BYBLOCK
  62
0
  10
0.0
  20
0.0
  30
0.0
  11
-1.0000000000000
  21
0.0
  31
0.0
   0
ENDBLK
   5
74
 100
AcDbEntity
   8
0
 100
AcDbBlockEnd
   0
BLOCK
   5
75
 100
AcDbEntity
   8
0
 100
AcDbBlockBegin
   2
_OPEN30
  70
0
  10
0.0
  20
0.0
  30
0.0
   3
_OPEN30
   0
LINE
   5
76
 100
AcDbEntity
   8
0
 370
-2
 100
AcDbLine
   6
BYBLOCK
  62
0
  10
-1.0000000000000
  20
 0.26794919243110
  30
0.0
  11
0.0
  21
0.0
  31
0.0
   0
LINE
   5
77
 100
AcDbEntity
   8
0
 370
-2
 100
AcDbLine
   6
BYBLOCK
  62
0
  10
0.0
  20
0.0
  30
0.0
  11
-1.0000000000000
  21
-0.26794919243110
  31
0.0
   0
LINE
   5
78
 100
AcDbEntity
   8
0
 370
-2
 100
AcDbLine
   6
BYBLOCK
  62
0
  10
0.0
  20
0.0
  30
0.0
  11
-1.0000000000000
  21
0.0
  31
0.0
   0
ENDBLK
   5
79
 100
AcDbEntity
   8
0
 100
AcDbBlockEnd
   0
BLOCK
   5
7A
 100
AcDbEntity
   8
0
 100
AcDbBlockBegin
   2
_OPEN90
  70
0
  10
0.0
  20
0.0
  30
0.0
   3
_OPEN90
   0
LINE
   5
7B
 100
AcDbEntity
   8
0
 370
-2
 100
AcDbLine
   6
BYBLOCK
  62
0
  10
-0.50000000000000
  20
 0.50000000000000
  30
0.0
  11
0.0
  21
0.0
  31
0.0
   0
LINE
   5
7C
 100
AcDbEntity
   8
0
 370
-2
 100
AcDbLine
   6
BYBLOCK
  62
0
  10
0.0
  20
0.0
  30
0.0
  11
-0.50000000000000
  21
-0.50000000000000
  31
0.0
   0
LINE
   5
7D
 100
AcDbEntity
   8
0
 370
-2
 100
AcDbLine
   6
BYBLOCK
  62
0
  10
0.0
  20
0.0
  30
0.0
  11
-1.0000000000000
  21
0.0
  31
0.0
   0
ENDBLK
   5
7E
 100
AcDbEntity
   8
0
 100
AcDbBlockEnd
   0
BLOCK
   5
7F
 100
AcDbEntity
   8
0
 100
AcDbBlockBegin
   2
_CLOSEDBLANK
  70
0
  10
0.0
  20
0.0
  30
0.0
   3
_CLOSEDBLANK
   0
LINE
   5
80
 100
AcDbEntity
   8
0
 370
-2
 100
AcDbLine
   6
BYBLOCK
  62
0
  10
-1.0000000000000
  20
 0.16666666666667
  30
0.0
  11
0.0
  21
0.0
  31
0.0
   0
LINE
   5
81
 100
AcDbEntity
   8
0
 370
-2
 100
AcDbLine
   6
BYBLOCK
  62
0
  10
0.0
  20
0.0
  30
0.0
  11
-1.0000000000000
  21
-0.16666666666667
  31
0.0
   0
LINE
   5
82
 100
AcDbEntity
   8
0
 370
-2
 100
AcDbLine
   6
BYBLOCK
  62
0
  10
-1.0000000000000
  20
 0.16666666666667
  30
0.0
  11
-1.0000000000000
  21
-0.16666666666667
  31
0.0
   0
ENDBLK
   5
83
 100
AcDbEntity
   8
0
 100
AcDbBlockEnd
   0
BLOCK
   5
84
 100
AcDbEntity
   8
0
 100
AcDbBlockBegin
   2
_DOT
  70
0
  10
0.0
  20
0.0
  30
0.0
   3
_DOT
   0
POLYLINE
   5
85
 100
AcDbEntity
   8
0
 370
-2
   6
BYBLOCK
  62
0
 100
AcDb2dPolyline
  66
1
  10
0.0
  20
0.0
  30
0.0
  70
1
  40
 0.50000000000000
  41
 0.50000000000000
   0
VERTEX
   5
86
 100
AcDbEntity
   8
0
   6
BYBLOCK
  62
0
 100
AcDbVertex
 100
AcDb2dVertex
  10
-0.25000000000000
  20
0.0
  30
0.0
  42
 1.0000000000000
  40
 0.50000000000000
  41
 0.50000000000000
   0
VERTEX
   5
87
 100
AcDbEntity
   8
0
   6
BYBLOCK
  62
0
 100
AcDbVertex
 100
AcDb2dVertex
  10
 0.25000000000000
  20
0.0
  30
0.0
  42
 1.0000000000000
  40
 0.50000000000000
  41
 0.50000000000000
   0
SEQEND
   5
88
 100
AcDbEntity
   8
0
   6
BYBLOCK
  62
0
   0
LINE
   5
89
 100
AcDbEntity
   8
0
 370
-2
 100
AcDbLine
   6
BYBLOCK
  62
0
  10
-0.50000000000000
  20
0.0
  30
0.0
  11
-1.0000000000000
  21
0.0
  31
0.0
   0
ENDBLK
   5
8A
 100
AcDbEntity
   8
0
 100
AcDbBlockEnd
   0
BLOCK
   5
8B
 100
AcDbEntity
   8
0
 100
AcDbBlockBegin
   2
_DOTSMALL
  70
0
  10
0.0
  20
0.0
  30
0.0
   3
_DOTSMALL
   0
POLYLINE
   5
8C
 100
AcDbEntity
   8
0
 370
-2
   6
BYBLOCK
  62
0
 100
AcDb2dPolyline
  66
1
  10
0.0
  20
0.0
  30
0.0
  70
1
  40
 0.50000000000000
  41
 0.50000000000000
   0
VERTEX
   5
8D
 100
AcDbEntity
   8
0
   6
BYBLOCK
  62
0
 100
AcDbVertex
 100
AcDb2dVertex
  10
-0.62500000000000E-1
  20
0.0
  30
0.0
  42
 1.0000000000000
  40
 0.50000000000000
  41
 0.50000000000000
   0
VERTEX
   5
8E
 100
AcDbEntity
   8
0
   6
BYBLOCK
  62
0
 100
AcDbVertex
 100
AcDb2dVertex
  10
 0.62500000000000E-1
  20
0.0
  30
0.0
  42
 1.0000000000000
  40
 0.50000000000000
  41
 0.50000000000000
   0
SEQEND
   5
8F
 100
AcDbEntity
   8
0
   6
BYBLOCK
  62
0
   0
ENDBLK
   5
90
 100
AcDbEntity
   8
0
 100
AcDbBlockEnd
   0
BLOCK
   5
91
 100
AcDbEntity
   8
0
 100
AcDbBlockBegin
   2
_DATUMBLANK
  70
0
  10
0.0
  20
0.0
  30
0.0
   3
_DATUMBLANK
   0
LINE
   5
92
 100
AcDbEntity
   8
0
 370
-2
 100
AcDbLine
   6
BYBLOCK
  62
0
  10
0.0
  20
 0.57735027000000
  30
0.0
  11
-1.0000000000000
  21
0.0
  31
0.0
   0
LINE
   5
93
 100
AcDbEntity
   8
0
 370
-2
 100
AcDbLine
   6
BYBLOCK
  62
0
  10
-1.0000000000000
  20
0.0
  30
0.0
  11
0.0
  21
-0.57735027000000
  31
0.0
   0
LINE
   5
94
 100
AcDbEntity
   8
0
 370
-2
 100
AcDbLine
   6
BYBLOCK
  62
0
  10
0.0
  20
-0.57735027000000
  30
0.0
  11
0.0
  21
 0.57735027000000
  31
0.0
   0
ENDBLK
   5
95
 100
AcDbEntity
   8
0
 100
AcDbBlockEnd
   0
BLOCK
   5
96
 100
AcDbEntity
   8
0
 100
AcDbBlockBegin
   2
_DATUMFILLED
  70
0
  10
0.0
  20
0.0
  30
0.0
   3
_DATUMFILLED
   0
SOLID
   5
97
 100
AcDbEntity
   8
0
 100
AcDbTrace
   6
BYBLOCK
  62
0
  10
0.0
  20
 0.57735027000000
  30
0.0
  11
-1.0000000000000
  21
0.0
  31
0.0
  12
0.0
  22
-0.57735027000000
  32
0.0
  13
0.0
  23
-0.57735027000000
  33
0.0
   0
ENDBLK
   5
98
 100
AcDbEntity
   8
0
 100
AcDbBlockEnd
   0
BLOCK
   5
99
 100
AcDbEntity
   8
0
 100
AcDbBlockBegin
   2
_ORIGIN
  70
0
  10
0.0
  20
0.0
  30
0.0
   3
_ORIGIN
   0
CIRCLE
   5
9A
 100
AcDbEntity
   8
0
 370
-2
 100
AcDbCircle
   6
BYBLOCK
  62
0
  10
0.0
  20
0.0
  30
0.0
  40
 0.50000000000000
   0
LINE
   5
9B
 100
AcDbEntity
   8
0
 370
-2
 100
AcDbLine
   6
BYBLOCK
  62
0
  10
0.0
  20
0.0
  30
0.0
  11
-1.0000000000000
  21
0.0
  31
0.0
   0
ENDBLK
   5
9C
 100
AcDbEntity
   8
0
 100
AcDbBlockEnd
   0
BLOCK
   5
9D
 100
AcDbEntity
   8
0
 100
AcDbBlockBegin
   2
_NONE
  70
0
  10
0.0
  20
0.0
  30
0.0
   3
_NONE
   0
CIRCLE
   5
9E
 100
AcDbEntity
   8
0
 370
-2
 100
AcDbCircle
   6
BYBLOCK
  62
0
  10
0.0
  20
0.0
  30
0.0
  40
 0.25000000000000
   0
ENDBLK
   5
9F
 100
AcDbEntity
   8
0
 100
AcDbBlockEnd
   0
BLOCK
   5
A0
 100
AcDbEntity
   8
0
 100
AcDbBlockBegin
   2
_DOTBLANK
  70
0
  10
0.0
  20
0.0
  30
0.0
   3
_DOTBLANK
   0
CIRCLE
   5
A1
 100
AcDbEntity
   8
0
 370
-2
 100
AcDbCircle
   6
BYBLOCK
  62
0
  10
0.0
  20
0.0
  30
0.0
  40
 0.50000000000000
   0
LINE
   5
A2
 100
AcDbEntity
   8
0
 370
-2
 100
AcDbLine
   6
BYBLOCK
  62
0
  10
-0.50000000000000
  20
0.0
  30
0.0
  11
-1.0000000000000
  21
0.0
  31
0.0
   0
ENDBLK
   5
A3
 100
AcDbEntity
   8
0
 100
AcDbBlockEnd
   0
BLOCK
   5
A4
 100
AcDbEntity
   8
0
 100
AcDbBlockBegin
   2
_INTEGRAL
  70
0
  10
0.0
  20
0.0
  30
0.0
   3
_INTEGRAL
   0
ARC
   5
A5
 100
AcDbEntity
   8
0
 370
-2
   6
BYBLOCK
  62
0
 100
AcDbCircle
  10
 0.44488800000000
  20
-0.91335000000000E-1
  30
0.0
  40
 0.45416700000000
 100
AcDbArc
  50
 102.00000000000
  51
 168.00000000000
   0
ARC
   5
A6
 100
AcDbEntity
   8
0
 370
-2
   6
BYBLOCK
  62
0
 100
AcDbCircle
  10
-0.44488800000000
  20
 0.91335000000000E-1
  30
0.0
  40
 0.45416700000000
 100
AcDbArc
  50
 282.00000000000
  51
 348.00000000000
   0
ENDBLK
   5
A7
 100
AcDbEntity
   8
0
 100
AcDbBlockEnd
   0
BLOCK
   5
A8
 100
AcDbEntity
   8
0
 100
AcDbBlockBegin
   2
GMM001
  70
64
  10
0.0
  20
0.0
  30
0.0
   3
GMM001
   0
LWPOLYLINE
   5
A9
 100
AcDbEntity
   8
LEVEL001
 370
30
   6
CONTINUOUS
  62
7
 100
AcDbPolyline
  90
4
  70
1
  10
-568.00000000000
  20
 394.00000000000
  10
-568.00000000000
  20
0.0
  10
0.0
  20
0.0
  10
0.0
  20
 394.00000000000
   0
LINE
   5
AA
 100
AcDbEntity
   8
LEVEL001
 370
30
 100
AcDbLine
   6
CONTINUOUS
  62
7
  10
-135.00000000000
  20
 10.000000000000
  30
0.0
  11
0.0
  21
 10.000000000000
  31
0.0
   0
LINE
   5
AB
 100
AcDbEntity
   8
LEVEL001
 370
30
 100
AcDbLine
   6
CONTINUOUS
  62
7
  10
0.0
  20
 18.000000000000
  30
0.0
  11
-97.000000000000
  21
 18.000000000000
  31
0.0
   0
LINE
   5
AC
 100
AcDbEntity
   8
LEVEL001
 370
30
 100
AcDbLine
   6
CONTINUOUS
  62
7
  10
-135.00000000000
  20
 26.000000000000
  30
0.0
  11
0.0
  21
 26.000000000000
  31
0.0
   0
LINE
   5
AD
 100
AcDbEntity
   8
LEVEL001
 370
30
 100
AcDbLine
   6
CONTINUOUS
  62
7
  10
-97.000000000000
  20
 26.000000000000
  30
0.0
  11
-97.000000000000
  21
 10.000000000000
  31
0.0
   0
LINE
   5
AE
 100
AcDbEntity
   8
LEVEL001
 370
30
 100
AcDbLine
   6
CONTINUOUS
  62
7
  10
-39.000000000000
  20
 26.000000000000
  30
0.0
  11
-39.000000000000
  21
 10.000000000000
  31
0.0
   0
LINE
   5
AF
 100
AcDbEntity
   8
LEVEL001
 370
30
 100
AcDbLine
   6
CONTINUOUS
  62
7
  10
-31.000000000000
  20
 26.000000000000
  30
0.0
  11
-31.000000000000
  21
 10.000000000000
  31
0.0
   0
LINE
   5
B0
 100
AcDbEntity
   8
LEVEL001
 370
30
 100
AcDbLine
   6
CONTINUOUS
  62
7
  10
-23.000000000000
  20
 26.000000000000
  30
0.0
  11
-23.000000000000
  21
 10.000000000000
  31
0.0
   0
LINE
   5
B1
 100
AcDbEntity
   8
LEVEL001
 370
30
 100
AcDbLine
   6
CONTINUOUS
  62
7
  10
-15.000000000000
  20
 26.000000000000
  30
0.0
  11
-15.000000000000
  21
 10.000000000000
  31
0.0
   0
MTEXT
   5
B3
 100
AcDbEntity
   8
LEVEL001
 370
30
  62
7
 100
AcDbMText
  10
-66.768592015439
  20
 19.890823176117
  30
0.0
  40
 3.6000000000000
  41
0.0
  71
7
  72
1
   1
\T1.000000;個
   7
GMM001
  44
 0.79999984000003
   0
MTEXT
   5
B5
 100
AcDbEntity
   8
LEVEL001
 370
30
  62
7
 100
AcDbMText
  10
-63.168592015439
  20
 19.890823176117
  30
0.0
  40
 3.6000000000000
  41
0.0
  71
7
  72
1
   1
\T1.000000;数
   7
GMM001
  44
 0.79999984000003
   0
MTEXT
   5
B7
 100
AcDbEntity
   8
LEVEL001
 370
30
  62
7
 100
AcDbMText
  10
-54.799712276311
  20
 20.036370662307
  30
0.0
  40
 3.6000000000000
  41
0.0
  71
7
  72
1
   1
\T1.000000;尺
   7
GMM001
  44
 0.79999984000003
   0
MTEXT
   5
B9
 100
AcDbEntity
   8
LEVEL001
 370
30
  62
7
 100
AcDbMText
  10
-36.905811353661
  20
 20.191231118064
  30
0.0
  40
 3.6000000000000
  41
0.0
  71
7
  72
1
   1
\T1.000000;年
   7
GMM001
  44
 0.79999984000003
   0
MTEXT
   5
BB
 100
AcDbEntity
   8
LEVEL001
 370
30
  62
7
 100
AcDbMText
  10
-29.006925672360
  20
 20.076338823367
  30
0.0
  40
 3.6000000000000
  41
0.0
  71
7
  72
1
   1
\T1.000000;月
   7
GMM001
  44
 0.79999984000003
   0
MTEXT
   5
BD
 100
AcDbEntity
   8
LEVEL001
 370
30
  62
7
 100
AcDbMText
  10
-133.05073750221
  20
 13.474059353471
  30
0.0
  40
 3.6000000000000
  41
0.0
  71
7
  72
1
   1
\T1.000000;法
   7
GMM001
  44
 0.79999984000003
   0
MTEXT
   5
BF
 100
AcDbEntity
   8
LEVEL001
 370
30
  62
7
 100
AcDbMText
  10
-133.05073750221
  20
 19.495906200318
  30
0.0
  40
 3.6000000000000
  41
0.0
  71
7
  72
1
   1
\T1.000000;画
   7
GMM001
  44
 0.79999984000003
   0
MTEXT
   5
C1
 100
AcDbEntity
   8
LEVEL001
 370
30
  62
7
 100
AcDbMText
  10
-123.09620208444
  20
 15.917386504151
  30
0.0
  40
 3.6000000000000
  41
0.0
  71
7
  72
1
   1
\T1.000000;第
   7
GMM001
  44
 0.79999984000003
   0
MTEXT
   5
C3
 100
AcDbEntity
   8
LEVEL001
 370
30
  62
7
 100
AcDbMText
  10
-105.66588610669
  20
 15.917386504151
  30
0.0
  40
 3.6000000000000
  41
0.0
  71
7
  72
1
   1
\T1.000000;法
   7
GMM001
  44
 0.79999984000003
   0
MTEXT
   5
C5
 100
AcDbEntity
   8
LEVEL001
 370
30
  62
7
 100
AcDbMText
  10
-111.85332648825
  20
 15.917386504151
  30
0.0
  40
 3.6000000000000
  41
0.0
  71
7
  72
1
   1
\T1.000000;画
   7
GMM001
  44
 0.79999984000003
   0
MTEXT
   5
C7
 100
AcDbEntity
   8
LEVEL001
 370
30
  62
7
 100
AcDbMText
  10
-117.44781178237
  20
 15.917386504151
  30
0.0
  40
 3.6000000000000
  41
0.0
  71
7
  72
1
   1
\T1.000000;三
   7
GMM001
  44
 0.79999984000003
   0
MTEXT
   5
C9
 100
AcDbEntity
   8
LEVEL001
 370
30
  62
7
 100
AcDbMText
  10
-93.366063857976
  20
 19.826214449744
  30
0.0
  40
 3.6000000000000
  41
0.0
  71
7
  72
1
   1
\T1.000000;共
   7
GMM001
  44
 0.79999984000003
   0
MTEXT
   5
CB
 100
AcDbEntity
   8
LEVEL001
 370
30
  62
7
 100
AcDbMText
  10
-75.234982776895
  20
 19.826214449744
  30
0.0
  40
 3.6000000000000
  41
0.0
  71
7
  72
1
   1
\T1.000000;種
   7
GMM001
  44
 0.79999984000003
   0
MTEXT
   5
CD
 100
AcDbEntity
   8
LEVEL001
 370
30
  62
7
 100
AcDbMText
  10
-81.422423158452
  20
 19.826214449744
  30
0.0
  40
 3.6000000000000
  41
0.0
  71
7
  72
1
   1
\T1.000000;機
   7
GMM001
  44
 0.79999984000003
   0
MTEXT
   5
CF
 100
AcDbEntity
   8
LEVEL001
 370
30
  62
7
 100
AcDbMText
  10
-87.502053524112
  20
 19.826214449744
  30
0.0
  40
 3.6000000000000
  41
0.0
  71
7
  72
1
   1
\T1.000000;通
   7
GMM001
  44
 0.79999984000003
   0
MTEXT
   5
D1
 100
AcDbEntity
   8
LEVEL001
 370
30
  62
7
 100
AcDbMText
  10
-48.666176902702
  20
 20.036370662307
  30
0.0
  40
 3.6000000000000
  41
0.0
  71
7
  72
1
   1
\T1.000000;度
   7
GMM001
  44
 0.79999984000003
   0
MTEXT
   5
D3
 100
AcDbEntity
   8
LEVEL001
 370
30
  62
7
 100
AcDbMText
  10
-21.032113419726
  20
 19.874883349168
  30
0.0
  40
 3.6000000000000
  41
0.0
  71
7
  72
1
   1
\T1.000000;日
   7
GMM001
  44
 0.79999984000003
   0
MTEXT
   5
D5
 100
AcDbEntity
   8
LEVEL001
 370
30
  62
7
 100
AcDbMText
  10
-107.53500000000
  20
 2.2398892493447
  30
0.0
  40
 5.0700000000000
  41
0.0
  71
7
  72
1
   1
\T1.000000;さ
   7
GMM001
  44
 0.79999984000003
   0
MTEXT
   5
D7
 100
AcDbEntity
   8
LEVEL001
 370
30
  62
7
 100
AcDbMText
  10
-97.535000000000
  20
 2.2398892493447
  30
0.0
  40
 5.0700000000000
  41
0.0
  71
7
  72
1
   1
\T1.000000;ぬ
   7
GMM001
  44
 0.79999984000003
   0
MTEXT
   5
D9
 100
AcDbEntity
   8
LEVEL001
 370
30
  62
7
 100
AcDbMText
  10
-87.535000000000
  20
 2.2398892493447
  30
0.0
  40
 5.0700000000000
  41
0.0
  71
7
  72
1
   1
\T1.000000;き
   7
GMM001
  44
 0.79999984000003
   0
MTEXT
   5
DB
 100
AcDbEntity
   8
LEVEL001
 370
30
  62
7
 100
AcDbMText
  10
-27.384057622806
  20
 2.2398892493447
  30
0.0
  40
 5.0700000000000
  41
0.0
  71
7
  72
1
   1
\T1.000000;社
   7
GMM001
  44
 0.79999984000003
   0
MTEXT
   5
DD
 100
AcDbEntity
   8
LEVEL001
 370
30
  62
7
 100
AcDbMText
  10
-37.384057622806
  20
 2.2398892493447
  30
0.0
  40
 5.0700000000000
  41
0.0
  71
7
  72
1
   1
\T1.000000;会
   7
GMM001
  44
 0.79999984000003
   0
MTEXT
   5
DF
 100
AcDbEntity
   8
LEVEL001
 370
30
  62
7
 100
AcDbMText
  10
-47.384057622806
  20
 2.2398892493447
  30
0.0
  40
 5.0700000000000
  41
0.0
  71
7
  72
1
   1
\T1.000000;式
   7
GMM001
  44
 0.79999984000003
   0
MTEXT
   5
E1
 100
AcDbEntity
   8
LEVEL001
 370
30
  62
7
 100
AcDbMText
  10
-57.384057622806
  20
 2.2398892493447
  30
0.0
  40
 5.0700000000000
  41
0.0
  71
7
  72
1
   1
\T1.000000;株
   7
GMM001
  44
 0.79999984000003
   0
MTEXT
   5
E3
 100
AcDbEntity
   8
LEVEL001
 370
30
  62
7
 100
AcDbMText
  10
-67.535000000000
  20
 2.2398892493447
  30
0.0
  40
 5.0700000000000
  41
0.0
  71
7
  72
1
   1
\T1.000000;機
   7
GMM001
  44
 0.79999984000003
   0
MTEXT
   5
E5
 100
AcDbEntity
   8
LEVEL001
 370
30
  62
7
 100
AcDbMText
  10
-77.535000000000
  20
 2.2398892493447
  30
0.0
  40
 5.0700000000000
  41
0.0
  71
7
  72
1
   1
\T1.000000;麺
   7
GMM001
  44
 0.79999984000003
   0
MTEXT
   5
E7
 100
AcDbEntity
   8
LEVEL001
 370
30
  62
7
 100
AcDbMText
  10
-7.0395193042363
  20
 19.867801070369
  30
0.0
  40
 3.6000000000000
  41
0.0
  71
7
  72
1
   1
\T1.000000;図
   7
GMM001
  44
 0.79999984000003
   0
MTEXT
   5
E9
 100
AcDbEntity
   8
LEVEL001
 370
30
  62
7
 100
AcDbMText
  10
-12.256669542710
  20
 19.867801070369
  30
0.0
  40
 3.6000000000000
  41
0.0
  71
7
  72
1
   1
\T1.000000;製
   7
GMM001
  44
 0.79999984000003
   0
LINE
   5
EA
 100
AcDbEntity
   8
LEVEL001
 370
30
 100
AcDbLine
   6
CONTINUOUS
  62
7
  10
0.0
  20
0.0
  30
0.0
  11
0.0
  21
 38.000000000000
  31
0.0
   0
LINE
   5
EB
 100
AcDbEntity
   8
LEVEL001
 370
30
 100
AcDbLine
   6
CONTINUOUS
  62
7
  10
-59.000000000000
  20
 38.000000000000
  30
0.0
  11
-59.000000000000
  21
 10.000000000000
  31
0.0
   0
LINE
   5
EC
 100
AcDbEntity
   8
LEVEL001
 370
30
 100
AcDbLine
   6
CONTINUOUS
  62
7
  10
-67.000000000000
  20
 38.000000000000
  30
0.0
  11
-67.000000000000
  21
 10.000000000000
  31
0.0
   0
LINE
   5
ED
 100
AcDbEntity
   8
LEVEL001
 370
30
 100
AcDbLine
   6
CONTINUOUS
  62
7
  10
-127.00000000000
  20
 38.000000000000
  30
0.0
  11
-127.00000000000
  21
 10.000000000000
  31
0.0
   0
MTEXT
   5
EF
 100
AcDbEntity
   8
LEVEL001
 370
30
  62
7
 100
AcDbMText
  10
-64.988844727080
  20
 33.040849283540
  30
0.0
  40
 3.6000000000000
  41
0.0
  71
7
  72
1
   1
\T1.000000;図
   7
GMM001
  44
 0.79999984000003
   0
MTEXT
   5
F1
 100
AcDbEntity
   8
LEVEL001
 370
30
  62
7
 100
AcDbMText
  10
-64.964975431747
  20
 26.999645926203
  30
0.0
  40
 3.6000000000000
  41
0.0
  71
7
  72
1
   1
\T1.000000;番
   7
GMM001
  44
 0.79999984000003
   0
MTEXT
   5
F3
 100
AcDbEntity
   8
LEVEL001
 370
30
  62
7
 100
AcDbMText
  10
-132.92204869229
  20
 33.000109852500
  30
0.0
  40
 3.6000000000000
  41
0.0
  71
7
  72
1
   1
\T1.000000;名
   7
GMM001
  44
 0.79999984000003
   0
MTEXT
   5
F5
 100
AcDbEntity
   8
LEVEL001
 370
30
  62
7
 100
AcDbMText
  10
-132.75496362496
  20
 27.340815220497
  30
0.0
  40
 3.6000000000000
  41
0.0
  71
7
  72
1
   1
\T1.000000;称
   7
GMM001
  44
 0.79999984000003
   0
LINE
   5
F6
 100
AcDbEntity
   8
LEVEL001
 370
30
 100
AcDbLine
   6
CONTINUOUS
  62
7
  10
0.0
  20
 38.000000000000
  30
0.0
  11
-135.00000000000
  21
 38.000000000000
  31
0.0
   0
LINE
   5
F7
 100
AcDbEntity
   8
LEVEL001
 370
30
 100
AcDbLine
   6
CONTINUOUS
  62
7
  10
-135.00000000000
  20
0.0
  30
0.0
  11
-135.00000000000
  21
 38.000000000000
  31
0.0
   0
ENDBLK
   5
F8
 100
AcDbEntity
   8
0
 100
AcDbBlockEnd
   0
BLOCK
   5
F9
 100
AcDbEntity
   8
0
 100
AcDbBlockBegin
   2
*D1
  70
65
  10
0.0
  20
0.0
  30
0.0
   3
*D1
   0
LINE
   5
FA
 100
AcDbEntity
   8
LEVEL001
 370
9
 100
AcDbLine
   6
CONTINUOUS
  62
1
  10
 454.63793103448
  20
 737.75272180213
  30
0.0
  11
 454.63793103448
  21
 824.28145743431
  31
0.0
   0
LINE
   5
FB
 100
AcDbEntity
   8
LEVEL001
 370
9
 100
AcDbLine
   6
CONTINUOUS
  62
1
  10
 1194.6379310345
  20
 735.17800915845
  30
0.0
  11
 1194.6379310345
  21
 824.28145743431
  31
0.0
   0
LINE
   5
FC
 100
AcDbEntity
   8
LEVEL001
 370
9
 100
AcDbLine
   6
CONTINUOUS
  62
1
  10
 454.63793103448
  20
 816.28145743431
  30
0.0
  11
 824.63793103448
  21
 816.28145743431
  31
0.0
   0
LINE
   5
FD
 100
AcDbEntity
   8
LEVEL001
 370
9
 100
AcDbLine
   6
CONTINUOUS
  62
1
  10
 1194.6379310345
  20
 816.28145743431
  30
0.0
  11
 824.63793103448
  21
 816.28145743431
  31
0.0
   0
INSERT
   5
FE
 100
AcDbEntity
   8
LEVEL001
   6
CONTINUOUS
  62
1
 100
AcDbBlockReference
   2
_OPEN30
  10
 454.63793103448
  20
 816.28145743431
  30
0.0
  41
 12.000000000000
  42
 12.000000000000
  43
 12.000000000000
  50
 180.00000000000
   0
INSERT
   5
FF
 100
AcDbEntity
   8
LEVEL001
   6
CONTINUOUS
  62
1
 100
AcDbBlockReference
   2
_OPEN30
  10
 1194.6379310345
  20
 816.28145743431
  30
0.0
  41
 12.000000000000
  42
 12.000000000000
  43
 12.000000000000
  50
0.0
   0
MTEXT
   5
100
 100
AcDbEntity
   8
LEVEL001
 370
30
  62
7
 100
AcDbMText
  10
 824.63793103448
  20
 823.13860029146
  30
0.0
  40
 16.000000000000
  41
0.0
  71
8
  72
1
   1
\A1;740
   7
GMM001
   0
ENDBLK
   5
101
 100
AcDbEntity
   8
0
 100
AcDbBlockEnd
   0
BLOCK
   5
102
 100
AcDbEntity
   8
0
 100
AcDbBlockBegin
   2
*D2
  70
65
  10
0.0
  20
0.0
  30
0.0
   3
*D2
   0
LINE
   5
103
 100
AcDbEntity
   8
LEVEL001
 370
9
 100
AcDbLine
   6
CONTINUOUS
  62
1
  10
 1099.3556762079
  20
 759.30788177340
  30
0.0
  11
 1275.8234360089
  21
 759.30788177340
  31
0.0
   0
LINE
   5
104
 100
AcDbEntity
   8
LEVEL001
 370
9
 100
AcDbLine
   6
CONTINUOUS
  62
1
  10
 1205.4195331683
  20
 304.30788177340
  30
0.0
  11
 1275.8234360089
  21
 304.30788177340
  31
0.0
   0
LINE
   5
105
 100
AcDbEntity
   8
LEVEL001
 370
9
 100
AcDbLine
   6
CONTINUOUS
  62
1
  10
 1267.8234360089
  20
 759.30788177340
  30
0.0
  11
 1267.8234360089
  21
 531.80788177340
  31
0.0
   0
LINE
   5
106
 100
AcDbEntity
   8
LEVEL001
 370
9
 100
AcDbLine
   6
CONTINUOUS
  62
1
  10
 1267.8234360089
  20
 304.30788177340
  30
0.0
  11
 1267.8234360089
  21
 531.80788177340
  31
0.0
   0
INSERT
   5
107
 100
AcDbEntity
   8
LEVEL001
   6
CONTINUOUS
  62
1
 100
AcDbBlockReference
   2
_OPEN30
  10
 1267.8234360089
  20
 759.30788177340
  30
0.0
  41
 12.000000000000
  42
 12.000000000000
  43
 12.000000000000
  50
 90.000000000000
   0
INSERT
   5
108
 100
AcDbEntity
   8
LEVEL001
   6
CONTINUOUS
  62
1
 100
AcDbBlockReference
   2
_OPEN30
  10
 1267.8234360089
  20
 304.30788177340
  30
0.0
  41
 12.000000000000
  42
 12.000000000000
  43
 12.000000000000
  50
 270.00000000000
   0
MTEXT
   5
109
 100
AcDbEntity
   8
LEVEL001
 370
30
  62
7
 100
AcDbMText
  10
 1260.9662931517
  20
 531.80788177340
  30
0.0
  40
 16.000000000000
  41
0.0
  71
8
  72
1
   1
\A1;455
   7
GMM001
  11
0.0
  21
 1.0000000000000
  31
0.0
   0
ENDBLK
   5
10A
 100
AcDbEntity
   8
0
 100
AcDbBlockEnd
   0
BLOCK
   5
10B
 100
AcDbEntity
   8
0
 100
AcDbBlockBegin
   2
*D3
  70
65
  10
0.0
  20
0.0
  30
0.0
   3
*D3
   0
LINE
   5
10C
 100
AcDbEntity
   8
LEVEL001
 370
9
 100
AcDbLine
   6
CONTINUOUS
  62
1
  10
 1475.1379310345
  20
 625.31383166689
  30
0.0
  11
 1475.1379310345
  21
 824.28145743431
  31
0.0
   0
LINE
   5
10D
 100
AcDbEntity
   8
LEVEL001
 370
9
 100
AcDbLine
   6
CONTINUOUS
  62
1
  10
 1950.1379310345
  20
 589.27540898514
  30
0.0
  11
 1950.1379310345
  21
 824.28145743431
  31
0.0
   0
LINE
   5
10E
 100
AcDbEntity
   8
LEVEL001
 370
9
 100
AcDbLine
   6
CONTINUOUS
  62
1
  10
 1475.1379310345
  20
 816.28145743431
  30
0.0
  11
 1712.6379310345
  21
 816.28145743431
  31
0.0
   0
LINE
   5
10F
 100
AcDbEntity
   8
LEVEL001
 370
9
 100
AcDbLine
   6
CONTINUOUS
  62
1
  10
 1950.1379310345
  20
 816.28145743431
  30
0.0
  11
 1712.6379310345
  21
 816.28145743431
  31
0.0
   0
INSERT
   5
110
 100
AcDbEntity
   8
LEVEL001
   6
CONTINUOUS
  62
1
 100
AcDbBlockReference
   2
_OPEN30
  10
 1475.1379310345
  20
 816.28145743431
  30
0.0
  41
 12.000000000000
  42
 12.000000000000
  43
 12.000000000000
  50
 180.00000000000
   0
INSERT
   5
111
 100
AcDbEntity
   8
LEVEL001
   6
CONTINUOUS
  62
1
 100
AcDbBlockReference
   2
_OPEN30
  10
 1950.1379310345
  20
 816.28145743431
  30
0.0
  41
 12.000000000000
  42
 12.000000000000
  43
 12.000000000000
  50
0.0
   0
MTEXT
   5
112
 100
AcDbEntity
   8
LEVEL001
 370
30
  62
7
 100
AcDbMText
  10
 1712.6379310345
  20
 823.13860029146
  30
0.0
  40
 16.000000000000
  41
0.0
  71
8
  72
1
   1
\A1;475
   7
GMM001
   0
ENDBLK
   5
113
 100
AcDbEntity
   8
0
 100
AcDbBlockEnd
   0
ENDSEC
   0
SECTION
   2
ENTITIES
   0
INSERT
   5
114
 100
AcDbEntity
   8
0
 100
AcDbBlockReference
   2
GMM001
  10
 2323.4482758621
  20
 57.931034482759
  30
0.0
  41
 4.0000000000000
  42
 4.0000000000000
   0
LINE
   5
115
 100
AcDbEntity
   8
LEVEL002
 370
30
 100
AcDbLine
   6
CONTINUOUS
  62
7
  10
 1095.6379310345
  20
 720.30788177340
  30
0.0
  11
 1095.6379310345
  21
 722.30788177340
  31
0.0
   0
LINE
   5
116
 100
AcDbEntity
   8
LEVEL002
 370
30
 100
AcDbLine
   6
CONTINUOUS
  62
7
  10
 1095.6379310345
  20
 722.30788177340
  30
0.0
  11
 1074.6379310345
  21
 722.30788177340
  31
0.0
   0
LINE
   5
117
 100
AcDbEntity
   8
LEVEL002
 370
30
 100
AcDbLine
   6
CONTINUOUS
  62
7
  10
 1074.6379310345
  20
 722.30788177340
  30
0.0
  11
 1074.6379310345
  21
 720.30788177340
  31
0.0
   0
LINE
   5
118
 100
AcDbEntity
   8
LEVEL002
 370
30
 100
AcDbLine
   6
CONTINUOUS
  62
7
  10
 1074.6379310345
  20
 720.30788177340
  30
0.0
  11
 1095.6379310345
  21
 720.30788177340
  31
0.0
   0
ELLIPSE
   5
119
 100
AcDbEntity
   8
LEVEL002
 370
30
   6
CONTINUOUS
  62
7
 100
AcDbEllipse
  10
 1085.1379310345
  20
 716.52871647710
  30
0.0
  11
0.0
  21
-13.779165296305
  31
0.0
  40
 1.0000000000000
  41
 2.7774460350634
  42
-2.7774460350634
   0
ELLIPSE
   5
11A
 100
AcDbEntity
   8
LEVEL002
 370
30
   6
CONTINUOUS
  62
7
 100
AcDbEllipse
  10
 1092.4991469666
  20
 726.52426784450
  30
0.0
  11
0.0
  21
-3.7836139288987
  31
0.0
  40
 1.0000000000000
  41
 3.1415926535898
  42
-2.4359578373652
   0
LINE
   5
11B
 100
AcDbEntity
   8
LEVEL002
 370
30
 100
AcDbLine
   6
CONTINUOUS
  62
7
  10
 1075.3229764583
  20
 722.30788177340
  30
0.0
  11
 1094.9528856107
  21
 722.30788177340
  31
0.0
   0
LINE
   5
11C
 100
AcDbEntity
   8
LEVEL002
 370
30
 100
AcDbLine
   6
CONTINUOUS
  62
7
  10
 1094.9528856107
  20
 722.30788177340
  30
0.0
  11
 1094.9528856107
  21
 729.40435482749
  31
0.0
   0
LINE
   5
11D
 100
AcDbEntity
   8
LEVEL002
 370
30
 100
AcDbLine
   6
CONTINUOUS
  62
7
  10
 1094.9528856107
  20
 729.40435482749
  30
0.0
  11
 1093.3879310345
  21
 730.30788177340
  31
0.0
   0
LINE
   5
11E
 100
AcDbEntity
   8
LEVEL002
 370
30
 100
AcDbLine
   6
CONTINUOUS
  62
7
  10
 1093.3879310345
  20
 730.30788177340
  30
0.0
  11
 1076.8879310345
  21
 730.30788177340
  31
0.0
   0
LINE
   5
11F
 100
AcDbEntity
   8
LEVEL002
 370
30
 100
AcDbLine
   6
CONTINUOUS
  62
7
  10
 1076.8879310345
  20
 730.30788177340
  30
0.0
  11
 1075.3229764583
  21
 729.40435482749
  31
0.0
   0
LINE
   5
120
 100
AcDbEntity
   8
LEVEL002
 370
30
 100
AcDbLine
   6
CONTINUOUS
  62
7
  10
 1075.3229764583
  20
 729.40435482749
  30
0.0
  11
 1075.3229764583
  21
 722.30788177340
  31
0.0
   0
LINE
   5
121
 100
AcDbEntity
   8
LEVEL002
 370
30
 100
AcDbLine
   6
CONTINUOUS
  62
7
  10
 1090.0454083225
  20
 722.30788177340
  30
0.0
  11
 1090.0454083225
  21
 729.40435482749
  31
0.0
   0
ELLIPSE
   5
122
 100
AcDbEntity
   8
LEVEL002
 370
30
   6
CONTINUOUS
  62
7
 100
AcDbEllipse
  10
 1077.7767151024
  20
 726.52426784450
  30
0.0
  11
0.0
  21
-3.7836139288987
  31
0.0
  40
 1.0000000000000
  41
 2.4359578373653
  42
 3.1415926535898
   0
LINE
   5
123
 100
AcDbEntity
   8
LEVEL002
 370
30
 100
AcDbLine
   6
CONTINUOUS
  62
7
  10
 1080.2304537464
  20
 722.30788177340
  30
0.0
  11
 1080.2304537464
  21
 729.40435482749
  31
0.0
   0
ARC
   5
124
 100
AcDbEntity
   8
LEVEL002
 370
30
   6
CONTINUOUS
  62
7
 100
AcDbCircle
  10
 1085.1379310345
  20
 741.52871647709
  30
0.0
  40
 13.779165296305
 100
AcDbArc
  50
 69.135935634479
  51
 110.86406436552
   0
ARC
   5
125
 100
AcDbEntity
   8
LEVEL002
 370
30
   6
CONTINUOUS
  62
7
 100
AcDbCircle
  10
 1077.7767151024
  20
 751.52426784450
  30
0.0
  40
 3.7836139288987
 100
AcDbArc
  50
 49.570103152840
  51
 90.000000000000
   0
LINE
   5
126
 100
AcDbEntity
   8
LEVEL002
 370
30
 100
AcDbLine
   6
CONTINUOUS
  62
7
  10
 1075.3229764583
  20
 748.30788177340
  30
0.0
  11
 1094.9528856107
  21
 748.30788177340
  31
0.0
   0
LINE
   5
127
 100
AcDbEntity
   8
LEVEL002
 370
30
 100
AcDbLine
   6
CONTINUOUS
  62
7
  10
 1094.9528856107
  20
 748.30788177340
  30
0.0
  11
 1094.9528856107
  21
 754.40435482749
  31
0.0
   0
LINE
   5
128
 100
AcDbEntity
   8
LEVEL002
 370
30
 100
AcDbLine
   6
CONTINUOUS
  62
7
  10
 1094.9528856107
  20
 754.40435482749
  30
0.0
  11
 1093.3879310345
  21
 755.30788177340
  31
0.0
   0
LINE
   5
129
 100
AcDbEntity
   8
LEVEL002
 370
30
 100
AcDbLine
   6
CONTINUOUS
  62
7
  10
 1093.3879310345
  20
 755.30788177340
  30
0.0
  11
 1076.8879310345
  21
 755.30788177340
  31
0.0
   0
LINE
   5
12A
 100
AcDbEntity
   8
LEVEL002
 370
30
 100
AcDbLine
   6
CONTINUOUS
  62
7
  10
 1076.8879310345
  20
 755.30788177340
  30
0.0
  11
 1075.3229764583
  21
 754.40435482749
  31
0.0
   0
LINE
   5
12B
 100
AcDbEntity
   8
LEVEL002
 370
30
 100
AcDbLine
   6
CONTINUOUS
  62
7
  10
 1075.3229764583
  20
 754.40435482749
  30
0.0
  11
 1075.3229764583
  21
 748.30788177340
  31
0.0
   0
LINE
   5
12C
 100
AcDbEntity
   8
LEVEL002
 370
30
 100
AcDbLine
   6
CONTINUOUS
  62
7
  10
 1080.2304537464
  20
 748.30788177340
  30
0.0
  11
 1080.2304537464
  21
 754.40435482749
  31
0.0
   0
ARC
   5
12D
 100
AcDbEntity
   8
LEVEL002
 370
30
   6
CONTINUOUS
  62
7
 100
AcDbCircle
  10
 1092.4991469666
  20
 751.52426784450
  30
0.0
  40
 3.7836139288987
 100
AcDbArc
  50
 90.000000000000
  51
 130.42989684716
   0
LINE
   5
12E
 100
AcDbEntity
   8
LEVEL002
 370
30
 100
AcDbLine
   6
CONTINUOUS
  62
7
  10
 1090.0454083225
  20
 748.30788177340
  30
0.0
  11
 1090.0454083225
  21
 754.40435482749
  31
0.0
   0
LINE
   5
12F
 100
AcDbEntity
   8
LEVEL002
 370
30
 100
AcDbLine
   6
CONTINUOUS
  62
7
  10
 574.63793103448
  20
 720.30788177340
  30
0.0
  11
 574.63793103448
  21
 722.30788177340
  31
0.0
   0
LINE
   5
130
 100
AcDbEntity
   8
LEVEL002
 370
30
 100
AcDbLine
   6
CONTINUOUS
  62
7
  10
 574.63793103448
  20
 722.30788177340
  30
0.0
  11
 553.63793103448
  21
 722.30788177340
  31
0.0
   0
LINE
   5
131
 100
AcDbEntity
   8
LEVEL002
 370
30
 100
AcDbLine
   6
CONTINUOUS
  62
7
  10
 553.63793103448
  20
 722.30788177340
  30
0.0
  11
 553.63793103448
  21
 720.30788177340
  31
0.0
   0
LINE
   5
132
 100
AcDbEntity
   8
LEVEL002
 370
30
 100
AcDbLine
   6
CONTINUOUS
  62
7
  10
 553.63793103448
  20
 720.30788177340
  30
0.0
  11
 574.63793103448
  21
 720.30788177340
  31
0.0
   0
ELLIPSE
   5
133
 100
AcDbEntity
   8
LEVEL002
 370
30
   6
CONTINUOUS
  62
7
 100
AcDbEllipse
  10
 564.13793103448
  20
 716.52871647710
  30
0.0
  11
0.0
  21
-13.779165296305
  31
0.0
  40
 1.0000000000000
  41
 2.7774460350634
  42
-2.7774460350634
   0
ELLIPSE
   5
134
 100
AcDbEntity
   8
LEVEL002
 370
30
   6
CONTINUOUS
  62
7
 100
AcDbEllipse
  10
 571.49914696661
  20
 726.52426784450
  30
0.0
  11
0.0
  21
-3.7836139288987
  31
0.0
  40
 1.0000000000000
  41
 3.1415926535898
  42
-2.4359578373652
   0
LINE
   5
135
 100
AcDbEntity
   8
LEVEL002
 370
30
 100
AcDbLine
   6
CONTINUOUS
  62
7
  10
 554.32297645829
  20
 722.30788177340
  30
0.0
  11
 573.95288561068
  21
 722.30788177340
  31
0.0
   0
LINE
   5
136
 100
AcDbEntity
   8
LEVEL002
 370
30
 100
AcDbLine
   6
CONTINUOUS
  62
7
  10
 573.95288561068
  20
 722.30788177340
  30
0.0
  11
 573.95288561068
  21
 729.40435482749
  31
0.0
   0
LINE
   5
137
 100
AcDbEntity
   8
LEVEL002
 370
30
 100
AcDbLine
   6
CONTINUOUS
  62
7
  10
 573.95288561068
  20
 729.40435482749
  30
0.0
  11
 572.38793103448
  21
 730.30788177340
  31
0.0
   0
LINE
   5
138
 100
AcDbEntity
   8
LEVEL002
 370
30
 100
AcDbLine
   6
CONTINUOUS
  62
7
  10
 572.38793103448
  20
 730.30788177340
  30
0.0
  11
 555.88793103448
  21
 730.30788177340
  31
0.0
   0
LINE
   5
139
 100
AcDbEntity
   8
LEVEL002
 370
30
 100
AcDbLine
   6
CONTINUOUS
  62
7
  10
 555.88793103448
  20
 730.30788177340
  30
0.0
  11
 554.32297645829
  21
 729.40435482749
  31
0.0
   0
LINE
   5
13A
 100
AcDbEntity
   8
LEVEL002
 370
30
 100
AcDbLine
   6
CONTINUOUS
  62
7
  10
 554.32297645829
  20
 729.40435482749
  30
0.0
  11
 554.32297645829
  21
 722.30788177340
  31
0.0
   0
LINE
   5
13B
 100
AcDbEntity
   8
LEVEL002
 370
30
 100
AcDbLine
   6
CONTINUOUS
  62
7
  10
 569.04540832254
  20
 722.30788177340
  30
0.0
  11
 569.04540832254
  21
 729.40435482749
  31
0.0
   0
ELLIPSE
   5
13C
 100
AcDbEntity
   8
LEVEL002
 370
30
   6
CONTINUOUS
  62
7
 100
AcDbEllipse
  10
 556.77671510235
  20
 726.52426784450
  30
0.0
  11
0.0
  21
-3.7836139288987
  31
0.0
  40
 1.0000000000000
  41
 2.4359578373653
  42
 3.1415926535898
   0
LINE
   5
13D
 100
AcDbEntity
   8
LEVEL002
 370
30
 100
AcDbLine
   6
CONTINUOUS
  62
7
  10
 559.23045374642
  20
 722.30788177340
  30
0.0
  11
 559.23045374642
  21
 729.40435482749
  31
0.0
   0
ARC
   5
13E
 100
AcDbEntity
   8
LEVEL002
 370
30
   6
CONTINUOUS
  62
7
 100
AcDbCircle
  10
 564.13793103448
  20
 741.52871647709
  30
0.0
  40
 13.779165296305
 100
AcDbArc
  50
 69.135935634479
  51
 110.86406436552
   0
ARC
   5
13F
 100
AcDbEntity
   8
LEVEL002
 370
30
   6
CONTINUOUS
  62
7
 100
AcDbCircle
  10
 556.77671510235
  20
 751.52426784450
  30
0.0
  40
 3.7836139288987
 100
AcDbArc
  50
 49.570103152840
  51
 90.000000000000
   0
LINE
   5
140
 100
AcDbEntity
   8
LEVEL002
 370
30
 100
AcDbLine
   6
CONTINUOUS
  62
7
  10
 554.32297645829
  20
 748.30788177340
  30
0.0
  11
 573.95288561068
  21
 748.30788177340
  31
0.0
   0
LINE
   5
141
 100
AcDbEntity
   8
LEVEL002
 370
30
 100
AcDbLine
   6
CONTINUOUS
  62
7
  10
 573.95288561068
  20
 748.30788177340
  30
0.0
  11
 573.95288561068
  21
 754.40435482749
  31
0.0
   0
LINE
   5
142
 100
AcDbEntity
   8
LEVEL002
 370
30
 100
AcDbLine
   6
CONTINUOUS
  62
7
  10
 573.95288561068
  20
 754.40435482749
  30
0.0
  11
 572.38793103448
  21
 755.30788177340
  31
0.0
   0
LINE
   5
143
 100
AcDbEntity
   8
LEVEL002
 370
30
 100
AcDbLine
   6
CONTINUOUS
  62
7
  10
 572.38793103448
  20
 755.30788177340
  30
0.0
  11
 555.88793103448
  21
 755.30788177340
  31
0.0
   0
LINE
   5
144
 100
AcDbEntity
   8
LEVEL002
 370
30
 100
AcDbLine
   6
CONTINUOUS
  62
7
  10
 555.88793103448
  20
 755.30788177340
  30
0.0
  11
 554.32297645829
  21
 754.40435482749
  31
0.0
   0
LINE
   5
145
 100
AcDbEntity
   8
LEVEL002
 370
30
 100
AcDbLine
   6
CONTINUOUS
  62
7
  10
 554.32297645829
  20
 754.40435482749
  30
0.0
  11
 554.32297645829
  21
 748.30788177340
  31
0.0
   0
LINE
   5
146
 100
AcDbEntity
   8
LEVEL002
 370
30
 100
AcDbLine
   6
CONTINUOUS
  62
7
  10
 559.23045374642
  20
 748.30788177340
  30
0.0
  11
 559.23045374642
  21
 754.40435482749
  31
0.0
   0
ARC
   5
147
 100
AcDbEntity
   8
LEVEL002
 370
30
   6
CONTINUOUS
  62
7
 100
AcDbCircle
  10
 571.49914696661
  20
 751.52426784450
  30
0.0
  40
 3.7836139288987
 100
AcDbArc
  50
 90.000000000000
  51
 130.42989684716
   0
LINE
   5
148
 100
AcDbEntity
   8
LEVEL002
 370
30
 100
AcDbLine
   6
CONTINUOUS
  62
7
  10
 569.04540832254
  20
 748.30788177340
  30
0.0
  11
 569.04540832254
  21
 754.40435482749
  31
0.0
   0
POINT
   5
149
 100
AcDbEntity
   8
LEVEL002
 100
AcDbPoint
  62
7
  10
 582.13793103448
  20
 699.30788177340
  30
0.0
   0
POINT
   5
14A
 100
AcDbEntity
   8
LEVEL002
 100
AcDbPoint
  62
7
  10
 606.38793103448
  20
 686.09180722477
  30
0.0
   0
LINE
   5
14B
 100
AcDbEntity
   8
LEVEL002
 370
30
 100
AcDbLine
   6
CONTINUOUS
  62
7
  10
 586.38793103448
  20
 658.30788177339
  30
0.0
  11
 1062.8879310345
  21
 658.30788177339
  31
0.0
   0
LINE
   5
14C
 100
AcDbEntity
   8
LEVEL002
 370
30
 100
AcDbLine
   6
CONTINUOUS
  62
7
  10
 1062.8879310345
  20
 658.30788177339
  30
0.0
  11
 1062.8879310345
  21
 697.01551135986
  31
0.0
   0
LINE
   5
14D
 100
AcDbEntity
   8
LEVEL002
 370
30
 100
AcDbLine
   6
CONTINUOUS
  62
7
  10
 1062.8879310345
  20
 697.01551135986
  30
0.0
  11
 586.38793103448
  21
 697.01551135986
  31
0.0
   0
LINE
   5
14E
 100
AcDbEntity
   8
LEVEL002
 370
30
 100
AcDbLine
   6
CONTINUOUS
  62
7
  10
 586.38793103448
  20
 697.01551135986
  30
0.0
  11
 586.38793103448
  21
 658.30788177339
  31
0.0
   0
LINE
   5
14F
 100
AcDbEntity
   8
LEVEL002
 370
30
 100
AcDbLine
   6
CONTINUOUS
  62
7
  10
 586.38793103448
  20
 661.05362851598
  30
0.0
  11
 1062.8879310345
  21
 661.05362851598
  31
0.0
   0
POINT
   5
150
 100
AcDbEntity
   8
LEVEL002
 100
AcDbPoint
  62
7
  10
 1067.1379310345
  20
 699.30788177340
  30
0.0
   0
POINT
   5
151
 100
AcDbEntity
   8
LEVEL002
 100
AcDbPoint
  62
7
  10
 1042.8879310345
  20
 686.09180722477
  30
0.0
   0
POINT
   5
152
 100
AcDbEntity
   8
LEVEL002
 100
AcDbPoint
  62
7
  10
 1044.6379310345
  20
 600.67252784838
  30
0.0
   0
POINT
   5
153
 100
AcDbEntity
   8
LEVEL002
 100
AcDbPoint
  62
7
  10
 604.63793103448
  20
 600.67252784838
  30
0.0
   0
LINE
   5
154
 100
AcDbEntity
   8
LEVEL002
 370
30
 100
AcDbLine
   6
CONTINUOUS
  62
7
  10
 1060.6879310345
  20
 586.27056214027
  30
0.0
  11
 1063.8879310345
  21
 586.27056214027
  31
0.0
   0
POINT
   5
155
 100
AcDbEntity
   8
LEVEL002
 100
AcDbPoint
  62
7
  10
 1066.3879310345
  20
 584.30788177340
  30
0.0
   0
POINT
   5
156
 100
AcDbEntity
   8
LEVEL002
 100
AcDbPoint
  62
7
  10
 582.88793103448
  20
 584.30788177340
  30
0.0
   0
LINE
   5
157
 100
AcDbEntity
   8
LEVEL002
 370
30
 100
AcDbLine
   6
CONTINUOUS
  62
7
  10
 1066.1379310345
  20
 715.96621531594
  30
0.0
  11
 583.13793103448
  21
 715.96621531594
  31
0.0
   0
LINE
   5
158
 100
AcDbEntity
   8
LEVEL002
 370
30
 100
AcDbLine
   6
CONTINUOUS
  62
7
  10
 583.13793103448
  20
 715.96621531594
  30
0.0
  11
 583.13793103448
  21
 710.13172310332
  31
0.0
   0
LINE
   5
159
 100
AcDbEntity
   8
LEVEL002
 370
30
 100
AcDbLine
   6
CONTINUOUS
  62
7
  10
 583.13793103448
  20
 710.13172310332
  30
0.0
  11
 1066.1379310345
  21
 710.13172310332
  31
0.0
   0
LINE
   5
15A
 100
AcDbEntity
   8
LEVEL002
 370
30
 100
AcDbLine
   6
CONTINUOUS
  62
7
  10
 1066.1379310345
  20
 710.13172310332
  30
0.0
  11
 1066.1379310345
  21
 715.96621531594
  31
0.0
   0
LINE
   5
15B
 100
AcDbEntity
   8
LEVEL002
 370
30
 100
AcDbLine
   6
CONTINUOUS
  62
7
  10
 583.13793103448
  20
 710.85628762616
  30
0.0
  11
 1066.1379310345
  21
 710.85628762616
  31
0.0
   0
LINE
   5
15C
 100
AcDbEntity
   8
LEVEL002
 370
30
 100
AcDbLine
   6
CONTINUOUS
  62
7
  10
 582.13793103448
  20
 324.30788177340
  30
0.0
  11
 1067.1379310345
  21
 324.30788177340
  31
0.0
   0
LINE
   5
15D
 100
AcDbEntity
   8
LEVEL002
 370
30
 100
AcDbLine
   6
CONTINUOUS
  62
7
  10
 428.13793103448
  20
 304.30788177340
  30
0.0
  11
 1221.1379310345
  21
 304.30788177340
  31
0.0
   0
LINE
   5
15E
 100
AcDbEntity
   8
LEVEL002
 370
30
 100
AcDbLine
   6
CONTINUOUS
  62
7
  10
 1139.3379310345
  20
 361.30788177340
  30
0.0
  11
 1191.3379310345
  21
 361.30788177340
  31
0.0
   0
LINE
   5
15F
 100
AcDbEntity
   8
LEVEL002
 370
30
 100
AcDbLine
   6
CONTINUOUS
  62
7
  10
 1191.3379310345
  20
 361.30788177340
  30
0.0
  11
 1191.3379310345
  21
 451.30788177340
  31
0.0
   0
LINE
   5
160
 100
AcDbEntity
   8
LEVEL002
 370
30
 100
AcDbLine
   6
CONTINUOUS
  62
7
  10
 1191.3379310345
  20
 451.30788177340
  30
0.0
  11
 1139.3379310345
  21
 451.30788177340
  31
0.0
   0
LINE
   5
161
 100
AcDbEntity
   8
LEVEL002
 370
30
 100
AcDbLine
   6
CONTINUOUS
  62
7
  10
 1139.3379310345
  20
 451.30788177340
  30
0.0
  11
 1139.3379310345
  21
 361.30788177340
  31
0.0
   0
POINT
   5
162
 100
AcDbEntity
   8
LEVEL002
 100
AcDbPoint
  62
7
  10
 1185.8379310345
  20
 445.30788177340
  30
0.0
   0
LINE
   5
163
 100
AcDbEntity
   8
LEVEL002
 370
30
 100
AcDbLine
   6
CONTINUOUS
  62
7
  10
 1155.3379310345
  20
 408.80788177340
  30
0.0
  11
 1175.3379310345
  21
 408.80788177340
  31
0.0
   0
LINE
   5
164
 100
AcDbEntity
   8
LEVEL002
 370
30
 100
AcDbLine
   6
CONTINUOUS
  62
7
  10
 1175.3379310345
  20
 408.80788177340
  30
0.0
  11
 1175.3379310345
  21
 428.80788177340
  31
0.0
   0
LINE
   5
165
 100
AcDbEntity
   8
LEVEL002
 370
30
 100
AcDbLine
   6
CONTINUOUS
  62
7
  10
 1175.3379310345
  20
 428.80788177340
  30
0.0
  11
 1155.3379310345
  21
 428.80788177340
  31
0.0
   0
LINE
   5
166
 100
AcDbEntity
   8
LEVEL002
 370
30
 100
AcDbLine
   6
CONTINUOUS
  62
7
  10
 1155.3379310345
  20
 428.80788177340
  30
0.0
  11
 1155.3379310345
  21
 408.80788177340
  31
0.0
   0
LINE
   5
167
 100
AcDbEntity
   8
LEVEL002
 370
30
 100
AcDbLine
   6
CONTINUOUS
  62
7
  10
 1155.3379310345
  20
 383.80788177340
  30
0.0
  11
 1175.3379310345
  21
 383.80788177340
  31
0.0
   0
LINE
   5
168
 100
AcDbEntity
   8
LEVEL002
 370
30
 100
AcDbLine
   6
CONTINUOUS
  62
7
  10
 1175.3379310345
  20
 383.80788177340
  30
0.0
  11
 1175.3379310345
  21
 403.80788177340
  31
0.0
   0
LINE
   5
169
 100
AcDbEntity
   8
LEVEL002
 370
30
 100
AcDbLine
   6
CONTINUOUS
  62
7
  10
 1175.3379310345
  20
 403.80788177340
  30
0.0
  11
 1155.3379310345
  21
 403.80788177340
  31
0.0
   0
LINE
   5
16A
 100
AcDbEntity
   8
LEVEL002
 370
30
 100
AcDbLine
   6
CONTINUOUS
  62
7
  10
 1155.3379310345
  20
 403.80788177340
  30
0.0
  11
 1155.3379310345
  21
 383.80788177340
  31
0.0
   0
POINT
   5
16B
 100
AcDbEntity
   8
LEVEL002
 100
AcDbPoint
  62
7
  10
 1144.8379310345
  20
 367.30788177340
  30
0.0
   0
LINE
   5
16C
 100
AcDbEntity
   8
LEVEL002
 370
30
 100
AcDbLine
   6
CONTINUOUS
  62
7
  10
 1090.1379310345
  20
 748.30788177340
  30
0.0
  11
 1090.1379310345
  21
 730.30788177340
  31
0.0
   0
LINE
   5
16D
 100
AcDbEntity
   8
LEVEL002
 370
30
 100
AcDbLine
   6
CONTINUOUS
  62
7
  10
 1080.1379310345
  20
 748.30788177340
  30
0.0
  11
 1080.1379310345
  21
 730.30788177340
  31
0.0
   0
LINE
   5
16E
 100
AcDbEntity
   8
LEVEL002
 370
30
 100
AcDbLine
   6
CONTINUOUS
  62
7
  10
 569.13793103448
  20
 748.30788177340
  30
0.0
  11
 569.13793103448
  21
 730.30788177340
  31
0.0
   0
LINE
   5
16F
 100
AcDbEntity
   8
LEVEL002
 370
30
 100
AcDbLine
   6
CONTINUOUS
  62
7
  10
 559.13793103448
  20
 748.30788177340
  30
0.0
  11
 559.13793103448
  21
 730.30788177340
  31
0.0
   0
POINT
   5
170
 100
AcDbEntity
   8
LEVEL002
 100
AcDbPoint
  62
7
  10
 569.63793103448
  20
 344.30788177340
  30
0.0
   0
POINT
   5
171
 100
AcDbEntity
   8
LEVEL002
 100
AcDbPoint
  62
7
  10
 569.63793103448
  20
 490.30788177340
  30
0.0
   0
POINT
   5
172
 100
AcDbEntity
   8
LEVEL002
 100
AcDbPoint
  62
7
  10
 569.63793103448
  20
 580.30788177340
  30
0.0
   0
POINT
   5
173
 100
AcDbEntity
   8
LEVEL002
 100
AcDbPoint
  62
7
  10
 569.63793103448
  20
 699.30788177340
  30
0.0
   0
POINT
   5
174
 100
AcDbEntity
   8
LEVEL002
 100
AcDbPoint
  62
7
  10
 1079.6379310345
  20
 344.30788177340
  30
0.0
   0
POINT
   5
175
 100
AcDbEntity
   8
LEVEL002
 100
AcDbPoint
  62
7
  10
 1079.6379310345
  20
 490.30788177340
  30
0.0
   0
POINT
   5
176
 100
AcDbEntity
   8
LEVEL002
 100
AcDbPoint
  62
7
  10
 1079.6379310345
  20
 580.30788177340
  30
0.0
   0
POINT
   5
177
 100
AcDbEntity
   8
LEVEL002
 100
AcDbPoint
  62
7
  10
 1079.6379310345
  20
 699.30788177340
  30
0.0
   0
POINT
   5
178
 100
AcDbEntity
   8
LEVEL002
 100
AcDbPoint
  62
7
  10
 569.63793103448
  20
 490.30788177340
  30
0.0
   0
POINT
   5
179
 100
AcDbEntity
   8
LEVEL002
 100
AcDbPoint
  62
7
  10
 569.63793103448
  20
 580.30788177340
  30
0.0
   0
POINT
   5
17A
 100
AcDbEntity
   8
LEVEL002
 100
AcDbPoint
  62
7
  10
 1079.6379310345
  20
 490.30788177340
  30
0.0
   0
POINT
   5
17B
 100
AcDbEntity
   8
LEVEL002
 100
AcDbPoint
  62
7
  10
 1079.6379310345
  20
 580.30788177340
  30
0.0
   0
LINE
   5
17C
 100
AcDbEntity
   8
LEVEL002
 370
30
 100
AcDbLine
   6
CONTINUOUS
  62
7
  10
 524.63793103448
  20
 482.30788177340
  30
0.0
  11
 524.63793103448
  21
 588.30788177340
  31
0.0
   0
LINE
   5
17D
 100
AcDbEntity
   8
LEVEL002
 370
30
 100
AcDbLine
   6
CONTINUOUS
  62
7
  10
 524.63793103448
  20
 588.30788177340
  30
0.0
  11
 579.63793103448
  21
 588.30788177340
  31
0.0
   0
LINE
   5
17E
 100
AcDbEntity
   8
LEVEL002
 370
30
 100
AcDbLine
   6
CONTINUOUS
  62
7
  10
 579.63793103448
  20
 588.30788177340
  30
0.0
  11
 579.63793103448
  21
 580.30788177340
  31
0.0
   0
LINE
   5
17F
 100
AcDbEntity
   8
LEVEL002
 370
30
 100
AcDbLine
   6
CONTINUOUS
  62
7
  10
 579.63793103448
  20
 580.30788177340
  30
0.0
  11
 1069.6379310345
  21
 580.30788177340
  31
0.0
   0
LINE
   5
180
 100
AcDbEntity
   8
LEVEL002
 370
30
 100
AcDbLine
   6
CONTINUOUS
  62
7
  10
 1069.6379310345
  20
 580.30788177340
  30
0.0
  11
 1069.6379310345
  21
 588.30788177340
  31
0.0
   0
LINE
   5
181
 100
AcDbEntity
   8
LEVEL002
 370
30
 100
AcDbLine
   6
CONTINUOUS
  62
7
  10
 1069.6379310345
  20
 588.30788177340
  30
0.0
  11
 1179.6379310345
  21
 588.30788177340
  31
0.0
   0
LINE
   5
182
 100
AcDbEntity
   8
LEVEL002
 370
30
 100
AcDbLine
   6
CONTINUOUS
  62
7
  10
 1179.6379310345
  20
 588.30788177340
  30
0.0
  11
 1179.6379310345
  21
 482.30788177340
  31
0.0
   0
LINE
   5
183
 100
AcDbEntity
   8
LEVEL002
 370
30
 100
AcDbLine
   6
CONTINUOUS
  62
7
  10
 1179.6379310345
  20
 482.30788177340
  30
0.0
  11
 1069.6379310345
  21
 482.30788177340
  31
0.0
   0
LINE
   5
184
 100
AcDbEntity
   8
LEVEL002
 370
30
 100
AcDbLine
   6
CONTINUOUS
  62
7
  10
 1069.6379310345
  20
 482.30788177340
  30
0.0
  11
 1069.6379310345
  21
 490.30788177340
  31
0.0
   0
LINE
   5
185
 100
AcDbEntity
   8
LEVEL002
 370
30
 100
AcDbLine
   6
CONTINUOUS
  62
7
  10
 1069.6379310345
  20
 490.30788177340
  30
0.0
  11
 579.63793103448
  21
 490.30788177340
  31
0.0
   0
LINE
   5
186
 100
AcDbEntity
   8
LEVEL002
 370
30
 100
AcDbLine
   6
CONTINUOUS
  62
7
  10
 579.63793103448
  20
 490.30788177340
  30
0.0
  11
 579.63793103448
  21
 482.30788177340
  31
0.0
   0
LINE
   5
187
 100
AcDbEntity
   8
LEVEL002
 370
30
 100
AcDbLine
   6
CONTINUOUS
  62
7
  10
 579.63793103448
  20
 482.30788177340
  30
0.0
  11
 524.63793103448
  21
 482.30788177340
  31
0.0
   0
POINT
   5
188
 100
AcDbEntity
   8
LEVEL002
 100
AcDbPoint
  62
7
  10
 569.63793103448
  20
 344.30788177340
  30
0.0
   0
POINT
   5
189
 100
AcDbEntity
   8
LEVEL002
 100
AcDbPoint
  62
7
  10
 569.63793103448
  20
 490.30788177340
  30
0.0
   0
POINT
   5
18A
 100
AcDbEntity
   8
LEVEL002
 100
AcDbPoint
  62
7
  10
 569.63793103448
  20
 580.30788177340
  30
0.0
   0
POINT
   5
18B
 100
AcDbEntity
   8
LEVEL002
 100
AcDbPoint
  62
7
  10
 569.63793103448
  20
 699.30788177340
  30
0.0
   0
POINT
   5
18C
 100
AcDbEntity
   8
LEVEL002
 100
AcDbPoint
  62
7
  10
 1079.6379310345
  20
 344.30788177340
  30
0.0
   0
POINT
   5
18D
 100
AcDbEntity
   8
LEVEL002
 100
AcDbPoint
  62
7
  10
 1079.6379310345
  20
 490.30788177340
  30
0.0
   0
POINT
   5
18E
 100
AcDbEntity
   8
LEVEL002
 100
AcDbPoint
  62
7
  10
 1079.6379310345
  20
 580.30788177340
  30
0.0
   0
POINT
   5
18F
 100
AcDbEntity
   8
LEVEL002
 100
AcDbPoint
  62
7
  10
 1079.6379310345
  20
 699.30788177340
  30
0.0
   0
LINE
   5
190
 100
AcDbEntity
   8
LEVEL002
 370
30
 100
AcDbLine
   6
CONTINUOUS
  62
7
  10
 1092.1379310345
  20
 323.30788177340
  30
0.0
  11
 1092.1379310345
  21
 304.30788177340
  31
0.0
   0
LINE
   5
191
 100
AcDbEntity
   8
LEVEL002
 370
30
 100
AcDbLine
   6
CONTINUOUS
  62
7
  10
 1092.1379310345
  20
 304.30788177340
  30
0.0
  11
 1072.1379310345
  21
 304.30788177340
  31
0.0
   0
LINE
   5
192
 100
AcDbEntity
   8
LEVEL002
 370
30
 100
AcDbLine
   6
CONTINUOUS
  62
7
  10
 1072.1379310345
  20
 304.30788177340
  30
0.0
  11
 1072.1379310345
  21
 323.30788177340
  31
0.0
   0
LINE
   5
193
 100
AcDbEntity
   8
LEVEL002
 370
30
 100
AcDbLine
   6
CONTINUOUS
  62
7
  10
 579.93793103448
  20
 719.30788177340
  30
0.0
  11
 582.13793103448
  21
 719.30788177340
  31
0.0
   0
LINE
   5
194
 100
AcDbEntity
   8
LEVEL002
 370
30
 100
AcDbLine
   6
CONTINUOUS
  62
7
  10
 582.13793103448
  20
 719.30788177340
  30
0.0
  11
 582.13793103448
  21
 580.30788177340
  31
0.0
   0
LINE
   5
195
 100
AcDbEntity
   8
LEVEL002
 370
30
 100
AcDbLine
   6
CONTINUOUS
  62
7
  10
 557.13793103448
  20
 323.30788177340
  30
0.0
  11
 557.13793103448
  21
 304.30788177340
  31
0.0
   0
LINE
   5
196
 100
AcDbEntity
   8
LEVEL002
 370
30
 100
AcDbLine
   6
CONTINUOUS
  62
7
  10
 557.13793103448
  20
 304.30788177340
  30
0.0
  11
 577.13793103448
  21
 304.30788177340
  31
0.0
   0
LINE
   5
197
 100
AcDbEntity
   8
LEVEL002
 370
30
 100
AcDbLine
   6
CONTINUOUS
  62
7
  10
 577.13793103448
  20
 304.30788177340
  30
0.0
  11
 577.13793103448
  21
 323.30788177340
  31
0.0
   0
LINE
   5
198
 100
AcDbEntity
   8
LEVEL002
 370
30
 100
AcDbLine
   6
CONTINUOUS
  62
7
  10
 1063.8879310345
  20
 590.65788177340
  30
0.0
  11
 1066.3879310345
  21
 590.65788177340
  31
0.0
   0
LINE
   5
199
 100
AcDbEntity
   8
LEVEL002
 370
30
 100
AcDbLine
   6
CONTINUOUS
  62
7
  10
 1066.3879310345
  20
 590.65788177340
  30
0.0
  11
 1066.3879310345
  21
 580.30788177340
  31
0.0
   0
LINE
   5
19A
 100
AcDbEntity
   8
LEVEL002
 370
30
 100
AcDbLine
   6
CONTINUOUS
  62
7
  10
 1063.8879310345
  20
 580.30788177340
  30
0.0
  11
 1063.8879310345
  21
 605.98341653230
  31
0.0
   0
LINE
   5
19B
 100
AcDbEntity
   8
LEVEL002
 370
30
 100
AcDbLine
   6
CONTINUOUS
  62
7
  10
 1063.8879310345
  20
 605.98341653230
  30
0.0
  11
 1060.6879310345
  21
 605.98341653230
  31
0.0
   0
LINE
   5
19C
 100
AcDbEntity
   8
LEVEL002
 370
30
 100
AcDbLine
   6
CONTINUOUS
  62
7
  10
 1060.6879310345
  20
 605.98341653230
  30
0.0
  11
 1060.6879310345
  21
 580.30788177340
  31
0.0
   0
LINE
   5
19D
 100
AcDbEntity
   8
LEVEL002
 370
30
 100
AcDbLine
   6
CONTINUOUS
  62
7
  10
 1057.6379310345
  20
 590.80788177340
  30
0.0
  11
 1060.6879310345
  21
 590.80788177340
  31
0.0
   0
LINE
   5
19E
 100
AcDbEntity
   8
LEVEL002
 370
30
 100
AcDbLine
   6
CONTINUOUS
  62
7
  10
 1060.6879310345
  20
 590.80788177340
  30
0.0
  11
 1060.6879310345
  21
 608.74301802939
  31
0.0
   0
LINE
   5
19F
 100
AcDbEntity
   8
LEVEL002
 370
30
 100
AcDbLine
   6
CONTINUOUS
  62
7
  10
 1060.6879310345
  20
 590.65788177340
  30
0.0
  11
 1057.6379310345
  21
 590.65788177340
  31
0.0
   0
LINE
   5
1A0
 100
AcDbEntity
   8
LEVEL002
 370
30
 100
AcDbLine
   6
CONTINUOUS
  62
7
  10
 584.63793103448
  20
 590.65788177340
  30
0.0
  11
 582.88793103448
  21
 590.65788177340
  31
0.0
   0
LINE
   5
1A1
 100
AcDbEntity
   8
LEVEL002
 370
30
 100
AcDbLine
   6
CONTINUOUS
  62
7
  10
 582.88793103448
  20
 590.65788177340
  30
0.0
  11
 582.88793103448
  21
 580.30788177340
  31
0.0
   0
LINE
   5
1A2
 100
AcDbEntity
   8
LEVEL002
 370
30
 100
AcDbLine
   6
CONTINUOUS
  62
7
  10
 1064.6379310345
  20
 633.30788177340
  30
0.0
  11
 1064.6379310345
  21
 608.74301802939
  31
0.0
   0
LINE
   5
1A3
 100
AcDbEntity
   8
LEVEL002
 370
30
 100
AcDbLine
   6
CONTINUOUS
  62
7
  10
 1064.6379310345
  20
 608.74301802939
  30
0.0
  11
 1057.6379310345
  21
 608.74301802939
  31
0.0
   0
LINE
   5
1A4
 100
AcDbEntity
   8
LEVEL002
 370
30
 100
AcDbLine
   6
CONTINUOUS
  62
7
  10
 1057.6379310345
  20
 608.74301802939
  30
0.0
  11
 1057.6379310345
  21
 580.30788177340
  31
0.0
   0
LINE
   5
1A5
 100
AcDbEntity
   8
LEVEL002
 370
30
 100
AcDbLine
   6
CONTINUOUS
  62
7
  10
 584.63793103448
  20
 580.30788177340
  30
0.0
  11
 584.63793103448
  21
 633.30788177340
  31
0.0
   0
LINE
   5
1A6
 100
AcDbEntity
   8
LEVEL002
 370
30
 100
AcDbLine
   6
CONTINUOUS
  62
7
  10
 1062.8879310345
  20
 680.30788177340
  30
0.0
  11
 1064.6379310345
  21
 680.30788177340
  31
0.0
   0
LINE
   5
1A7
 100
AcDbEntity
   8
LEVEL002
 370
30
 100
AcDbLine
   6
CONTINUOUS
  62
7
  10
 1064.6379310345
  20
 680.30788177340
  30
0.0
  11
 1064.6379310345
  21
 693.30788177340
  31
0.0
   0
LINE
   5
1A8
 100
AcDbEntity
   8
LEVEL002
 370
30
 100
AcDbLine
   6
CONTINUOUS
  62
7
  10
 1064.6379310345
  20
 693.30788177340
  30
0.0
  11
 1062.8879310345
  21
 693.30788177340
  31
0.0
   0
LINE
   5
1A9
 100
AcDbEntity
   8
LEVEL002
 370
30
 100
AcDbLine
   6
CONTINUOUS
  62
7
  10
 586.38793103448
  20
 693.30788177340
  30
0.0
  11
 584.63793103448
  21
 693.30788177340
  31
0.0
   0
LINE
   5
1AA
 100
AcDbEntity
   8
LEVEL002
 370
30
 100
AcDbLine
   6
CONTINUOUS
  62
7
  10
 584.63793103448
  20
 693.30788177340
  30
0.0
  11
 584.63793103448
  21
 680.30788177340
  31
0.0
   0
LINE
   5
1AB
 100
AcDbEntity
   8
LEVEL002
 370
30
 100
AcDbLine
   6
CONTINUOUS
  62
7
  10
 584.63793103448
  20
 680.30788177340
  30
0.0
  11
 586.38793103448
  21
 680.30788177340
  31
0.0
   0
LINE
   5
1AC
 100
AcDbEntity
   8
LEVEL002
 370
30
 100
AcDbLine
   6
CONTINUOUS
  62
7
  10
 1062.8879310345
  20
 693.30788177340
  30
0.0
  11
 1067.1379310345
  21
 693.30788177340
  31
0.0
   0
LINE
   5
1AD
 100
AcDbEntity
   8
LEVEL002
 370
30
 100
AcDbLine
   6
CONTINUOUS
  62
7
  10
 1067.1379310345
  20
 693.30788177340
  30
0.0
  11
 1067.1379310345
  21
 705.30788177340
  31
0.0
   0
LINE
   5
1AE
 100
AcDbEntity
   8
LEVEL002
 370
30
 100
AcDbLine
   6
CONTINUOUS
  62
7
  10
 1067.1379310345
  20
 705.30788177340
  30
0.0
  11
 582.13793103448
  21
 705.30788177340
  31
0.0
   0
LINE
   5
1AF
 100
AcDbEntity
   8
LEVEL002
 370
30
 100
AcDbLine
   6
CONTINUOUS
  62
7
  10
 582.13793103448
  20
 705.30788177340
  30
0.0
  11
 582.13793103448
  21
 693.30788177340
  31
0.0
   0
LINE
   5
1B0
 100
AcDbEntity
   8
LEVEL002
 370
30
 100
AcDbLine
   6
CONTINUOUS
  62
7
  10
 582.13793103448
  20
 693.30788177340
  30
0.0
  11
 586.38793103448
  21
 693.30788177340
  31
0.0
   0
LINE
   5
1B1
 100
AcDbEntity
   8
LEVEL002
 370
30
 100
AcDbLine
   6
CONTINUOUS
  62
7
  10
 584.63793103448
  20
 680.30788177340
  30
0.0
  11
 584.63793103448
  21
 633.30788177340
  31
0.0
   0
LINE
   5
1B2
 100
AcDbEntity
   8
LEVEL002
 370
30
 100
AcDbLine
   6
CONTINUOUS
  62
7
  10
 584.63793103448
  20
 633.30788177340
  30
0.0
  11
 1064.6379310345
  21
 633.30788177340
  31
0.0
   0
LINE
   5
1B3
 100
AcDbEntity
   8
LEVEL002
 370
30
 100
AcDbLine
   6
CONTINUOUS
  62
7
  10
 1064.6379310345
  20
 633.30788177340
  30
0.0
  11
 1064.6379310345
  21
 680.30788177340
  31
0.0
   0
LINE
   5
1B4
 100
AcDbEntity
   8
LEVEL002
 370
9
 100
AcDbLine
   6
HIDDEN
  62
1
  10
 584.63793103448
  20
 680.30788177340
  30
0.0
  11
 584.63793103448
  21
 694.30788177340
  31
0.0
   0
LINE
   5
1B5
 100
AcDbEntity
   8
LEVEL002
 370
9
 100
AcDbLine
   6
HIDDEN
  62
1
  10
 584.63793103448
  20
 694.30788177340
  30
0.0
  11
 1064.6379310345
  21
 694.30788177340
  31
0.0
   0
LINE
   5
1B6
 100
AcDbEntity
   8
LEVEL002
 370
9
 100
AcDbLine
   6
HIDDEN
  62
1
  10
 1064.6379310345
  20
 694.30788177340
  30
0.0
  11
 1064.6379310345
  21
 680.30788177340
  31
0.0
   0
LINE
   5
1B7
 100
AcDbEntity
   8
LEVEL002
 370
9
 100
AcDbLine
   6
DASHDOT
  62
1
  10
 1119.1379310345
  20
 663.80788177340
  30
0.0
  11
 530.13793103448
  21
 663.80788177340
  31
0.0
   0
LINE
   5
1B8
 100
AcDbEntity
   8
LEVEL002
 370
9
 100
AcDbLine
   6
DASHDOT
  62
1
  10
 564.13793103448
  20
 769.30788177340
  30
0.0
  11
 564.13793103448
  21
 691.30788177340
  31
0.0
   0
LINE
   5
1B9
 100
AcDbEntity
   8
LEVEL002
 370
9
 100
AcDbLine
   6
DASHDOT
  62
1
  10
 1085.1379310345
  20
 769.30788177340
  30
0.0
  11
 1085.1379310345
  21
 691.30788177340
  31
0.0
   0
LINE
   5
1BA
 100
AcDbEntity
   8
LEVEL002
 370
30
 100
AcDbLine
   6
CONTINUOUS
  62
7
  10
 1074.6379310345
  20
 721.30788177340
  30
0.0
  11
 1064.6379310345
  21
 721.30788177340
  31
0.0
   0
LINE
   5
1BB
 100
AcDbEntity
   8
LEVEL002
 370
30
 100
AcDbLine
   6
CONTINUOUS
  62
7
  10
 1064.6379310345
  20
 721.30788177340
  30
0.0
  11
 1064.6379310345
  21
 715.96621531594
  31
0.0
   0
LINE
   5
1BC
 100
AcDbEntity
   8
LEVEL002
 370
30
 100
AcDbLine
   6
CONTINUOUS
  62
7
  10
 574.63793103448
  20
 721.30788177340
  30
0.0
  11
 584.63793103448
  21
 721.30788177340
  31
0.0
   0
LINE
   5
1BD
 100
AcDbEntity
   8
LEVEL002
 370
30
 100
AcDbLine
   6
CONTINUOUS
  62
7
  10
 584.63793103448
  20
 721.30788177340
  30
0.0
  11
 584.63793103448
  21
 715.96621531594
  31
0.0
   0
LINE
   5
1BE
 100
AcDbEntity
   8
LEVEL002
 370
9
 100
AcDbLine
   6
DASHDOT
  62
1
  10
 824.63793103448
  20
 259.30788177340
  30
0.0
  11
 824.63793103448
  21
 798.30788177340
  31
0.0
   0
CIRCLE
   5
1BF
 100
AcDbEntity
   8
LEVEL002
 370
30
 100
AcDbCircle
   6
CONTINUOUS
  62
7
  10
 1085.1379310345
  20
 1061.3078817734
  30
0.0
  40
 8.2500000000000
   0
LINE
   5
1C0
 100
AcDbEntity
   8
LEVEL002
 370
30
 100
AcDbLine
   6
CONTINUOUS
  62
7
  10
 1085.1379310345
  20
 1071.1228363496
  30
0.0
  11
 1076.6379310345
  21
 1066.2153590615
  31
0.0
   0
LINE
   5
1C1
 100
AcDbEntity
   8
LEVEL002
 370
30
 100
AcDbLine
   6
CONTINUOUS
  62
7
  10
 1076.6379310345
  20
 1066.2153590615
  30
0.0
  11
 1076.6379310345
  21
 1056.4004044853
  31
0.0
   0
LINE
   5
1C2
 100
AcDbEntity
   8
LEVEL002
 370
30
 100
AcDbLine
   6
CONTINUOUS
  62
7
  10
 1076.6379310345
  20
 1056.4004044853
  30
0.0
  11
 1085.1379310345
  21
 1051.4929271972
  31
0.0
   0
LINE
   5
1C3
 100
AcDbEntity
   8
LEVEL002
 370
30
 100
AcDbLine
   6
CONTINUOUS
  62
7
  10
 1085.1379310345
  20
 1051.4929271972
  30
0.0
  11
 1093.6379310345
  21
 1056.4004044853
  31
0.0
   0
LINE
   5
1C4
 100
AcDbEntity
   8
LEVEL002
 370
30
 100
AcDbLine
   6
CONTINUOUS
  62
7
  10
 1093.6379310345
  20
 1056.4004044853
  30
0.0
  11
 1093.6379310345
  21
 1066.2153590615
  31
0.0
   0
LINE
   5
1C5
 100
AcDbEntity
   8
LEVEL002
 370
30
 100
AcDbLine
   6
CONTINUOUS
  62
7
  10
 1093.6379310345
  20
 1066.2153590615
  30
0.0
  11
 1085.1379310345
  21
 1071.1228363496
  31
0.0
   0
CIRCLE
   5
1C6
 100
AcDbEntity
   8
LEVEL002
 370
30
 100
AcDbCircle
   6
CONTINUOUS
  62
7
  10
 564.13793103448
  20
 1061.3078817734
  30
0.0
  40
 8.2500000000000
   0
LINE
   5
1C7
 100
AcDbEntity
   8
LEVEL002
 370
30
 100
AcDbLine
   6
CONTINUOUS
  62
7
  10
 564.13793103448
  20
 1071.1228363496
  30
0.0
  11
 555.63793103448
  21
 1066.2153590615
  31
0.0
   0
LINE
   5
1C8
 100
AcDbEntity
   8
LEVEL002
 370
30
 100
AcDbLine
   6
CONTINUOUS
  62
7
  10
 555.63793103448
  20
 1066.2153590615
  30
0.0
  11
 555.63793103448
  21
 1056.4004044853
  31
0.0
   0
LINE
   5
1C9
 100
AcDbEntity
   8
LEVEL002
 370
30
 100
AcDbLine
   6
CONTINUOUS
  62
7
  10
 555.63793103448
  20
 1056.4004044853
  30
0.0
  11
 564.13793103448
  21
 1051.4929271972
  31
0.0
   0
LINE
   5
1CA
 100
AcDbEntity
   8
LEVEL002
 370
30
 100
AcDbLine
   6
CONTINUOUS
  62
7
  10
 564.13793103448
  20
 1051.4929271972
  30
0.0
  11
 572.63793103448
  21
 1056.4004044853
  31
0.0
   0
LINE
   5
1CB
 100
AcDbEntity
   8
LEVEL002
 370
30
 100
AcDbLine
   6
CONTINUOUS
  62
7
  10
 572.63793103448
  20
 1056.4004044853
  30
0.0
  11
 572.63793103448
  21
 1066.2153590615
  31
0.0
   0
LINE
   5
1CC
 100
AcDbEntity
   8
LEVEL002
 370
30
 100
AcDbLine
   6
CONTINUOUS
  62
7
  10
 572.63793103448
  20
 1066.2153590615
  30
0.0
  11
 564.13793103448
  21
 1071.1228363496
  31
0.0
   0
LINE
   5
1CD
 100
AcDbEntity
   8
LEVEL002
 370
30
 100
AcDbLine
   6
CONTINUOUS
  62
7
  10
 583.13793103448
  20
 995.72986683825
  30
0.0
  11
 1066.1379310345
  21
 995.72986683825
  31
0.0
   0
LINE
   5
1CE
 100
AcDbEntity
   8
LEVEL002
 370
30
 100
AcDbLine
   6
CONTINUOUS
  62
7
  10
 1066.1379310345
  20
 995.72986683825
  30
0.0
  11
 1066.1379310345
  21
 1107.3078817734
  31
0.0
   0
LINE
   5
1CF
 100
AcDbEntity
   8
LEVEL002
 370
30
 100
AcDbLine
   6
CONTINUOUS
  62
7
  10
 1066.1379310345
  20
 1107.3078817734
  30
0.0
  11
 583.13793103448
  21
 1107.3078817734
  31
0.0
   0
LINE
   5
1D0
 100
AcDbEntity
   8
LEVEL002
 370
30
 100
AcDbLine
   6
CONTINUOUS
  62
7
  10
 583.13793103448
  20
 1107.3078817734
  30
0.0
  11
 583.13793103448
  21
 995.72986683825
  31
0.0
   0
POINT
   5
1D1
 100
AcDbEntity
   8
LEVEL002
 100
AcDbPoint
  62
7
  10
 604.63793103448
  20
 1091.4628925579
  30
0.0
   0
POINT
   5
1D2
 100
AcDbEntity
   8
LEVEL002
 100
AcDbPoint
  62
7
  10
 1044.6379310345
  20
 1091.4628925579
  30
0.0
   0
LINE
   5
1D3
 100
AcDbEntity
   8
LEVEL002
 370
30
 100
AcDbLine
   6
CONTINUOUS
  62
7
  10
 583.13793103448
  20
 1001.1019429503
  30
0.0
  11
 1066.1379310345
  21
 1001.1019429503
  31
0.0
   0
LINE
   5
1D4
 100
AcDbEntity
   8
LEVEL002
 370
30
 100
AcDbLine
   6
CONTINUOUS
  62
7
  10
 582.63793103448
  20
 1128.5135808229
  30
0.0
  11
 1066.6379310345
  21
 1128.5135808229
  31
0.0
   0
CIRCLE
   5
1D5
 100
AcDbEntity
   8
LEVEL002
 370
30
 100
AcDbCircle
   6
CONTINUOUS
  62
7
  10
 1085.1379310345
  20
 1061.3078817734
  30
0.0
  40
 10.500000000000
   0
CIRCLE
   5
1D6
 100
AcDbEntity
   8
LEVEL002
 370
30
 100
AcDbCircle
   6
CONTINUOUS
  62
7
  10
 564.13793103448
  20
 1061.3078817734
  30
0.0
  40
 10.500000000000
   0
LINE
   5
1D7
 100
AcDbEntity
   8
LEVEL002
 370
30
 100
AcDbLine
   6
CONTINUOUS
  62
7
  10
 1066.6379310345
  20
 1285.7202705299
  30
0.0
  11
 582.63793103448
  21
 1285.7202705299
  31
0.0
   0
POINT
   5
1D8
 100
AcDbEntity
   8
LEVEL002
 100
AcDbPoint
  62
7
  10
 564.13793103448
  20
 1061.3078817734
  30
0.0
   0
POINT
   5
1D9
 100
AcDbEntity
   8
LEVEL002
 100
AcDbPoint
  62
7
  10
 1085.1379310345
  20
 1061.3078817734
  30
0.0
   0
LINE
   5
1DA
 100
AcDbEntity
   8
LEVEL002
 370
30
 100
AcDbLine
   6
CONTINUOUS
  62
7
  10
 1085.6379310345
  20
 1131.2192764505
  30
0.0
  11
 1064.6379310345
  21
 1131.2192764505
  31
0.0
   0
LINE
   5
1DB
 100
AcDbEntity
   8
LEVEL002
 370
30
 100
AcDbLine
   6
CONTINUOUS
  62
7
  10
 1064.6379310345
  20
 1131.2192764505
  30
0.0
  11
 1064.6379310345
  21
 1137.5101169030
  31
0.0
   0
LINE
   5
1DC
 100
AcDbEntity
   8
LEVEL002
 370
30
 100
AcDbLine
   6
CONTINUOUS
  62
7
  10
 1064.6379310345
  20
 1137.5101169030
  30
0.0
  11
 584.63793103448
  21
 1137.5101169030
  31
0.0
   0
LINE
   5
1DD
 100
AcDbEntity
   8
LEVEL002
 370
30
 100
AcDbLine
   6
CONTINUOUS
  62
7
  10
 584.63793103448
  20
 1137.5101169030
  30
0.0
  11
 584.63793103448
  21
 1131.2192764505
  31
0.0
   0
LINE
   5
1DE
 100
AcDbEntity
   8
LEVEL002
 370
30
 100
AcDbLine
   6
CONTINUOUS
  62
7
  10
 584.63793103448
  20
 1131.2192764505
  30
0.0
  11
 563.63793103448
  21
 1131.2192764505
  31
0.0
   0
LINE
   5
1DF
 100
AcDbEntity
   8
LEVEL002
 370
30
 100
AcDbLine
   6
CONTINUOUS
  62
7
  10
 563.63793103448
  20
 1131.2192764505
  30
0.0
  11
 563.63793103448
  21
 1252.1334959871
  31
0.0
   0
LINE
   5
1E0
 100
AcDbEntity
   8
LEVEL002
 370
30
 100
AcDbLine
   6
CONTINUOUS
  62
7
  10
 563.63793103448
  20
 1252.1334959871
  30
0.0
  11
 571.63793103448
  21
 1252.1334959871
  31
0.0
   0
LINE
   5
1E1
 100
AcDbEntity
   8
LEVEL002
 370
30
 100
AcDbLine
   6
CONTINUOUS
  62
7
  10
 571.63793103448
  20
 1252.1334959871
  30
0.0
  11
 571.63793103448
  21
 1266.8782327844
  31
0.0
   0
LINE
   5
1E2
 100
AcDbEntity
   8
LEVEL002
 370
30
 100
AcDbLine
   6
CONTINUOUS
  62
7
  10
 571.63793103448
  20
 1266.8782327844
  30
0.0
  11
 584.63793103448
  21
 1266.8782327844
  31
0.0
   0
LINE
   5
1E3
 100
AcDbEntity
   8
LEVEL002
 370
30
 100
AcDbLine
   6
CONTINUOUS
  62
7
  10
 584.63793103448
  20
 1266.8782327844
  30
0.0
  11
 584.63793103448
  21
 1284.3363816463
  31
0.0
   0
LINE
   5
1E4
 100
AcDbEntity
   8
LEVEL002
 370
30
 100
AcDbLine
   6
CONTINUOUS
  62
7
  10
 584.63793103448
  20
 1284.3363816463
  30
0.0
  11
 1064.6379310345
  21
 1284.3363816463
  31
0.0
   0
LINE
   5
1E5
 100
AcDbEntity
   8
LEVEL002
 370
30
 100
AcDbLine
   6
CONTINUOUS
  62
7
  10
 1064.6379310345
  20
 1284.3363816463
  30
0.0
  11
 1064.6379310345
  21
 1266.8782327844
  31
0.0
   0
LINE
   5
1E6
 100
AcDbEntity
   8
LEVEL002
 370
30
 100
AcDbLine
   6
CONTINUOUS
  62
7
  10
 1064.6379310345
  20
 1266.8782327844
  30
0.0
  11
 1077.6379310345
  21
 1266.8782327844
  31
0.0
   0
LINE
   5
1E7
 100
AcDbEntity
   8
LEVEL002
 370
30
 100
AcDbLine
   6
CONTINUOUS
  62
7
  10
 1077.6379310345
  20
 1266.8782327844
  30
0.0
  11
 1077.6379310345
  21
 1252.1334959871
  31
0.0
   0
LINE
   5
1E8
 100
AcDbEntity
   8
LEVEL002
 370
30
 100
AcDbLine
   6
CONTINUOUS
  62
7
  10
 1077.6379310345
  20
 1252.1334959871
  30
0.0
  11
 1085.6379310345
  21
 1252.1334959871
  31
0.0
   0
LINE
   5
1E9
 100
AcDbEntity
   8
LEVEL002
 370
30
 100
AcDbLine
   6
CONTINUOUS
  62
7
  10
 1085.6379310345
  20
 1252.1334959871
  30
0.0
  11
 1085.6379310345
  21
 1131.2192764505
  31
0.0
   0
LINE
   5
1EA
 100
AcDbEntity
   8
LEVEL002
 370
30
 100
AcDbLine
   6
CONTINUOUS
  62
7
  10
 1064.6379310345
  20
 1137.5101169030
  30
0.0
  11
 1064.6379310345
  21
 1266.8782327844
  31
0.0
   0
LINE
   5
1EB
 100
AcDbEntity
   8
LEVEL002
 370
30
 100
AcDbLine
   6
CONTINUOUS
  62
7
  10
 584.63793103448
  20
 1137.5101169030
  30
0.0
  11
 584.63793103448
  21
 1266.8782327844
  31
0.0
   0
LINE
   5
1EC
 100
AcDbEntity
   8
LEVEL002
 370
30
 100
AcDbLine
   6
CONTINUOUS
  62
7
  10
 584.63793103448
  20
 1138.4926034273
  30
0.0
  11
 1064.6379310345
  21
 1138.4926034273
  31
0.0
   0
LINE
   5
1ED
 100
AcDbEntity
   8
LEVEL002
 370
30
 100
AcDbLine
   6
CONTINUOUS
  62
7
  10
 1064.6379310345
  20
 1262.2192764505
  30
0.0
  11
 584.63793103448
  21
 1262.2192764505
  31
0.0
   0
LINE
   5
1EE
 100
AcDbEntity
   8
LEVEL002
 370
30
 100
AcDbLine
   6
CONTINUOUS
  62
7
  10
 1085.6379310345
  20
 1194.5345752393
  30
0.0
  11
 1064.6379310345
  21
 1194.5345752393
  31
0.0
   0
LINE
   5
1EF
 100
AcDbEntity
   8
LEVEL002
 370
30
 100
AcDbLine
   6
CONTINUOUS
  62
7
  10
 563.63793103448
  20
 1194.5345752394
  30
0.0
  11
 584.63793103448
  21
 1194.5345752394
  31
0.0
   0
LINE
   5
1F0
 100
AcDbEntity
   8
LEVEL002
 370
30
 100
AcDbLine
   6
CONTINUOUS
  62
7
  10
 1014.6379310345
  20
 1164.7192764505
  30
0.0
  11
 1008.6379310345
  21
 1164.7192764505
  31
0.0
   0
LINE
   5
1F1
 100
AcDbEntity
   8
LEVEL002
 370
30
 100
AcDbLine
   6
CONTINUOUS
  62
7
  10
 1008.6379310345
  20
 1164.7192764505
  30
0.0
  11
 1008.6379310345
  21
 1165.7192764505
  31
0.0
   0
LINE
   5
1F2
 100
AcDbEntity
   8
LEVEL002
 370
30
 100
AcDbLine
   6
CONTINUOUS
  62
7
  10
 1008.6379310345
  20
 1165.7192764505
  30
0.0
  11
 640.63793103448
  21
 1165.7192764505
  31
0.0
   0
LINE
   5
1F3
 100
AcDbEntity
   8
LEVEL002
 370
30
 100
AcDbLine
   6
CONTINUOUS
  62
7
  10
 640.63793103448
  20
 1165.7192764505
  30
0.0
  11
 640.63793103448
  21
 1164.7192764505
  31
0.0
   0
LINE
   5
1F4
 100
AcDbEntity
   8
LEVEL002
 370
30
 100
AcDbLine
   6
CONTINUOUS
  62
7
  10
 640.63793103448
  20
 1164.7192764505
  30
0.0
  11
 634.63793103448
  21
 1164.7192764505
  31
0.0
   0
LINE
   5
1F5
 100
AcDbEntity
   8
LEVEL002
 370
30
 100
AcDbLine
   6
CONTINUOUS
  62
7
  10
 634.63793103448
  20
 1164.7192764505
  30
0.0
  11
 634.63793103448
  21
 1207.7192764505
  31
0.0
   0
LINE
   5
1F6
 100
AcDbEntity
   8
LEVEL002
 370
30
 100
AcDbLine
   6
CONTINUOUS
  62
7
  10
 634.63793103448
  20
 1207.7192764505
  30
0.0
  11
 640.63793103448
  21
 1207.7192764505
  31
0.0
   0
LINE
   5
1F7
 100
AcDbEntity
   8
LEVEL002
 370
30
 100
AcDbLine
   6
CONTINUOUS
  62
7
  10
 640.63793103448
  20
 1207.7192764505
  30
0.0
  11
 640.63793103448
  21
 1206.7192764505
  31
0.0
   0
LINE
   5
1F8
 100
AcDbEntity
   8
LEVEL002
 370
30
 100
AcDbLine
   6
CONTINUOUS
  62
7
  10
 640.63793103448
  20
 1206.7192764505
  30
0.0
  11
 1008.6379310345
  21
 1206.7192764505
  31
0.0
   0
LINE
   5
1F9
 100
AcDbEntity
   8
LEVEL002
 370
30
 100
AcDbLine
   6
CONTINUOUS
  62
7
  10
 1008.6379310345
  20
 1206.7192764505
  30
0.0
  11
 1008.6379310345
  21
 1207.7192764505
  31
0.0
   0
LINE
   5
1FA
 100
AcDbEntity
   8
LEVEL002
 370
30
 100
AcDbLine
   6
CONTINUOUS
  62
7
  10
 1008.6379310345
  20
 1207.7192764505
  30
0.0
  11
 1014.6379310345
  21
 1207.7192764505
  31
0.0
   0
LINE
   5
1FB
 100
AcDbEntity
   8
LEVEL002
 370
30
 100
AcDbLine
   6
CONTINUOUS
  62
7
  10
 1014.6379310345
  20
 1207.7192764505
  30
0.0
  11
 1014.6379310345
  21
 1164.7192764505
  31
0.0
   0
LINE
   5
1FC
 100
AcDbEntity
   8
LEVEL002
 370
30
 100
AcDbLine
   6
CONTINUOUS
  62
7
  10
 582.13793103448
  20
 1131.2192764505
  30
0.0
  11
 582.13793103448
  21
 977.30788177340
  31
0.0
   0
LINE
   5
1FD
 100
AcDbEntity
   8
LEVEL002
 370
30
 100
AcDbLine
   6
CONTINUOUS
  62
7
  10
 582.13793103448
  20
 977.30788177340
  30
0.0
  11
 579.93793103448
  21
 977.30788177340
  31
0.0
   0
LINE
   5
1FE
 100
AcDbEntity
   8
LEVEL002
 370
30
 100
AcDbLine
   6
CONTINUOUS
  62
7
  10
 1066.6379310345
  20
 1266.8782327844
  30
0.0
  11
 1066.6379310345
  21
 1369.2648088149
  31
0.0
   0
LINE
   5
1FF
 100
AcDbEntity
   8
LEVEL002
 370
30
 100
AcDbLine
   6
CONTINUOUS
  62
7
  10
 1066.6379310345
  20
 1369.2648088149
  30
0.0
  11
 582.63793103448
  21
 1369.2648088149
  31
0.0
   0
LINE
   5
200
 100
AcDbEntity
   8
LEVEL002
 370
30
 100
AcDbLine
   6
CONTINUOUS
  62
7
  10
 582.63793103448
  20
 1369.2648088149
  30
0.0
  11
 582.63793103448
  21
 1266.8782327844
  31
0.0
   0
LINE
   5
201
 100
AcDbEntity
   8
LEVEL002
 370
30
 100
AcDbLine
   6
CONTINUOUS
  62
7
  10
 582.63793103448
  20
 1131.2192764505
  30
0.0
  11
 582.63793103448
  21
 1114.0028951051
  31
0.0
   0
LINE
   5
202
 100
AcDbEntity
   8
LEVEL002
 370
30
 100
AcDbLine
   6
CONTINUOUS
  62
7
  10
 582.63793103448
  20
 1114.0028951051
  30
0.0
  11
 1066.6379310345
  21
 1114.0028951051
  31
0.0
   0
LINE
   5
203
 100
AcDbEntity
   8
LEVEL002
 370
30
 100
AcDbLine
   6
CONTINUOUS
  62
7
  10
 1066.6379310345
  20
 1114.0028951051
  30
0.0
  11
 1066.6379310345
  21
 1131.2192764505
  31
0.0
   0
LINE
   5
204
 100
AcDbEntity
   8
LEVEL002
 370
30
 100
AcDbLine
   6
CONTINUOUS
  62
7
  10
 1139.3379310345
  20
 974.30788177340
  30
0.0
  11
 1139.3379310345
  21
 967.80788177340
  31
0.0
   0
LINE
   5
205
 100
AcDbEntity
   8
LEVEL002
 370
30
 100
AcDbLine
   6
CONTINUOUS
  62
7
  10
 1139.3379310345
  20
 967.80788177340
  30
0.0
  11
 1191.3379310345
  21
 967.80788177340
  31
0.0
   0
LINE
   5
206
 100
AcDbEntity
   8
LEVEL002
 370
30
 100
AcDbLine
   6
CONTINUOUS
  62
7
  10
 1191.3379310345
  20
 967.80788177340
  30
0.0
  11
 1191.3379310345
  21
 976.30788177340
  31
0.0
   0
LINE
   5
207
 100
AcDbEntity
   8
LEVEL002
 370
30
 100
AcDbLine
   6
CONTINUOUS
  62
7
  10
 1085.6379310345
  20
 1193.6210503335
  30
0.0
  11
 1194.3379310345
  21
 1193.6210503335
  31
0.0
   0
LINE
   5
208
 100
AcDbEntity
   8
LEVEL002
 370
30
 100
AcDbLine
   6
CONTINUOUS
  62
7
  10
 583.13793103448
  20
 998.30788177340
  30
0.0
  11
 582.13793103448
  21
 998.30788177340
  31
0.0
   0
LINE
   5
209
 100
AcDbEntity
   8
LEVEL002
 370
30
 100
AcDbLine
   6
CONTINUOUS
  62
7
  10
 582.13793103448
  20
 998.30788177340
  30
0.0
  11
 582.13793103448
  21
 986.30788177340
  31
0.0
   0
LINE
   5
20A
 100
AcDbEntity
   8
LEVEL002
 370
30
 100
AcDbLine
   6
CONTINUOUS
  62
7
  10
 582.13793103448
  20
 986.30788177340
  30
0.0
  11
 1067.1379310345
  21
 986.30788177340
  31
0.0
   0
LINE
   5
20B
 100
AcDbEntity
   8
LEVEL002
 370
30
 100
AcDbLine
   6
CONTINUOUS
  62
7
  10
 1067.1379310345
  20
 986.30788177340
  30
0.0
  11
 1067.1379310345
  21
 998.30788177340
  31
0.0
   0
LINE
   5
20C
 100
AcDbEntity
   8
LEVEL002
 370
30
 100
AcDbLine
   6
CONTINUOUS
  62
7
  10
 1067.1379310345
  20
 998.30788177340
  30
0.0
  11
 1066.1379310345
  21
 998.30788177340
  31
0.0
   0
LINE
   5
20D
 100
AcDbEntity
   8
LEVEL002
 370
30
 100
AcDbLine
   6
CONTINUOUS
  62
7
  10
 1062.8879310345
  20
 986.30788177340
  30
0.0
  11
 1062.8879310345
  21
 984.64335061436
  31
0.0
   0
LINE
   5
20E
 100
AcDbEntity
   8
LEVEL002
 370
30
 100
AcDbLine
   6
CONTINUOUS
  62
7
  10
 1062.8879310345
  20
 984.64335061436
  30
0.0
  11
 586.38793103448
  21
 984.64335061436
  31
0.0
   0
LINE
   5
20F
 100
AcDbEntity
   8
LEVEL002
 370
30
 100
AcDbLine
   6
CONTINUOUS
  62
7
  10
 586.38793103448
  20
 984.64335061436
  30
0.0
  11
 586.38793103448
  21
 986.30788177340
  31
0.0
   0
LINE
   5
210
 100
AcDbEntity
   8
LEVEL002
 370
30
 100
AcDbLine
   6
CONTINUOUS
  62
7
  10
 1063.8879310345
  20
 974.30788177340
  30
0.0
  11
 1179.6379310345
  21
 974.30788177340
  31
0.0
   0
LINE
   5
211
 100
AcDbEntity
   8
LEVEL002
 370
30
 100
AcDbLine
   6
CONTINUOUS
  62
7
  10
 1179.6379310345
  20
 974.30788177340
  30
0.0
  11
 1179.6379310345
  21
 976.30788177340
  31
0.0
   0
LINE
   5
212
 100
AcDbEntity
   8
LEVEL002
 370
30
 100
AcDbLine
   6
CONTINUOUS
  62
7
  10
 1179.6379310345
  20
 976.30788177340
  30
0.0
  11
 1063.8879310345
  21
 976.30788177340
  31
0.0
   0
LINE
   5
213
 100
AcDbEntity
   8
LEVEL002
 370
9
 100
AcDbLine
   6
DASHDOT
  62
1
  10
 824.63793103448
  20
 917.30788177340
  30
0.0
  11
 824.63793103448
  21
 1437.3078817734
  31
0.0
   0
LINE
   5
214
 100
AcDbEntity
   8
LEVEL002
 370
30
 100
AcDbLine
   6
CONTINUOUS
  62
7
  10
 1911.1379310345
  20
 557.30788177340
  30
0.0
  11
 1913.6379310345
  21
 557.30788177340
  31
0.0
   0
LINE
   5
215
 100
AcDbEntity
   8
LEVEL002
 370
30
 100
AcDbLine
   6
CONTINUOUS
  62
7
  10
 1913.6379310345
  20
 557.30788177340
  30
0.0
  11
 1913.6379310345
  21
 581.30788177340
  31
0.0
   0
LINE
   5
216
 100
AcDbEntity
   8
LEVEL002
 370
30
 100
AcDbLine
   6
CONTINUOUS
  62
7
  10
 1913.6379310345
  20
 581.30788177340
  30
0.0
  11
 1911.1379310345
  21
 581.30788177340
  31
0.0
   0
LINE
   5
217
 100
AcDbEntity
   8
LEVEL002
 370
30
 100
AcDbLine
   6
CONTINUOUS
  62
7
  10
 1911.1379310345
  20
 581.30788177340
  30
0.0
  11
 1911.1379310345
  21
 557.30788177340
  31
0.0
   0
ARC
   5
218
 100
AcDbEntity
   8
LEVEL002
 370
30
   6
CONTINUOUS
  62
7
 100
AcDbCircle
  10
 1909.8421869005
  20
 569.30788177340
  30
0.0
  40
 13.795744133973
 100
AcDbArc
  50
 336.57340248944
  51
 23.426597510561
   0
ARC
   5
219
 100
AcDbEntity
   8
LEVEL002
 370
30
   6
CONTINUOUS
  62
7
 100
AcDbCircle
  10
 1919.7625521594
  20
 577.53512310931
  30
0.0
  40
 3.8753788751036
 100
AcDbArc
  50
 314.95592675988
  51
 0.84040505426234E-11
   0
LINE
   5
21A
 100
AcDbEntity
   8
LEVEL002
 370
30
 100
AcDbLine
   6
CONTINUOUS
  62
7
  10
 1913.6379310345
  20
 558.33822665882
  30
0.0
  11
 1913.6379310345
  21
 580.27753688798
  31
0.0
   0
LINE
   5
21B
 100
AcDbEntity
   8
LEVEL002
 370
30
 100
AcDbLine
   6
CONTINUOUS
  62
7
  10
 1913.6379310345
  20
 580.27753688798
  30
0.0
  11
 1922.5007501238
  21
 580.27753688798
  31
0.0
   0
LINE
   5
21C
 100
AcDbEntity
   8
LEVEL002
 370
30
 100
AcDbLine
   6
CONTINUOUS
  62
7
  10
 1922.5007501238
  20
 580.27753688798
  30
0.0
  11
 1923.6379310345
  21
 578.30788177340
  31
0.0
   0
LINE
   5
21D
 100
AcDbEntity
   8
LEVEL002
 370
30
 100
AcDbLine
   6
CONTINUOUS
  62
7
  10
 1923.6379310345
  20
 578.30788177340
  30
0.0
  11
 1923.6379310345
  21
 560.30788177340
  31
0.0
   0
LINE
   5
21E
 100
AcDbEntity
   8
LEVEL002
 370
30
 100
AcDbLine
   6
CONTINUOUS
  62
7
  10
 1923.6379310345
  20
 560.30788177340
  30
0.0
  11
 1922.5007501238
  21
 558.33822665882
  31
0.0
   0
LINE
   5
21F
 100
AcDbEntity
   8
LEVEL002
 370
30
 100
AcDbLine
   6
CONTINUOUS
  62
7
  10
 1922.5007501238
  20
 558.33822665882
  30
0.0
  11
 1913.6379310345
  21
 558.33822665882
  31
0.0
   0
LINE
   5
220
 100
AcDbEntity
   8
LEVEL002
 370
30
 100
AcDbLine
   6
CONTINUOUS
  62
7
  10
 1913.6379310345
  20
 574.79270933065
  30
0.0
  11
 1922.5007501238
  21
 574.79270933065
  31
0.0
   0
ARC
   5
221
 100
AcDbEntity
   8
LEVEL002
 370
30
   6
CONTINUOUS
  62
7
 100
AcDbCircle
  10
 1919.7625521594
  20
 561.08064043749
  30
0.0
  40
 3.8753788751036
 100
AcDbArc
  50
0.0
  51
 45.044073240118
   0
LINE
   5
222
 100
AcDbEntity
   8
LEVEL002
 370
30
 100
AcDbLine
   6
CONTINUOUS
  62
7
  10
 1913.6379310345
  20
 563.82305421615
  30
0.0
  11
 1922.5007501238
  21
 563.82305421615
  31
0.0
   0
LINE
   5
223
 100
AcDbEntity
   8
LEVEL002
 370
30
 100
AcDbLine
   6
CONTINUOUS
  62
7
  10
 1608.6379310345
  20
 720.30788177340
  30
0.0
  11
 1608.6379310345
  21
 722.30788177340
  31
0.0
   0
LINE
   5
224
 100
AcDbEntity
   8
LEVEL002
 370
30
 100
AcDbLine
   6
CONTINUOUS
  62
7
  10
 1608.6379310345
  20
 722.30788177340
  30
0.0
  11
 1587.6379310345
  21
 722.30788177340
  31
0.0
   0
LINE
   5
225
 100
AcDbEntity
   8
LEVEL002
 370
30
 100
AcDbLine
   6
CONTINUOUS
  62
7
  10
 1587.6379310345
  20
 722.30788177340
  30
0.0
  11
 1587.6379310345
  21
 720.30788177340
  31
0.0
   0
LINE
   5
226
 100
AcDbEntity
   8
LEVEL002
 370
30
 100
AcDbLine
   6
CONTINUOUS
  62
7
  10
 1587.6379310345
  20
 720.30788177340
  30
0.0
  11
 1608.6379310345
  21
 720.30788177340
  31
0.0
   0
ELLIPSE
   5
227
 100
AcDbEntity
   8
LEVEL002
 370
30
   6
CONTINUOUS
  62
7
 100
AcDbEllipse
  10
 1598.1379310345
  20
 716.52871647710
  30
0.0
  11
0.0
  21
-13.779165296305
  31
0.0
  40
 1.0000000000000
  41
 2.7774460350634
  42
-2.7774460350635
   0
ELLIPSE
   5
228
 100
AcDbEntity
   8
LEVEL002
 370
30
   6
CONTINUOUS
  62
7
 100
AcDbEllipse
  10
 1605.4991469666
  20
 726.52426784450
  30
0.0
  11
0.0
  21
-3.7836139288987
  31
0.0
  40
 1.0000000000000
  41
 3.1415926535898
  42
-2.4359578373654
   0
LINE
   5
229
 100
AcDbEntity
   8
LEVEL002
 370
30
 100
AcDbLine
   6
CONTINUOUS
  62
7
  10
 1588.3229764583
  20
 722.30788177340
  30
0.0
  11
 1607.9528856107
  21
 722.30788177340
  31
0.0
   0
LINE
   5
22A
 100
AcDbEntity
   8
LEVEL002
 370
30
 100
AcDbLine
   6
CONTINUOUS
  62
7
  10
 1607.9528856107
  20
 722.30788177340
  30
0.0
  11
 1607.9528856107
  21
 729.40435482749
  31
0.0
   0
LINE
   5
22B
 100
AcDbEntity
   8
LEVEL002
 370
30
 100
AcDbLine
   6
CONTINUOUS
  62
7
  10
 1607.9528856107
  20
 729.40435482749
  30
0.0
  11
 1606.3879310345
  21
 730.30788177340
  31
0.0
   0
LINE
   5
22C
 100
AcDbEntity
   8
LEVEL002
 370
30
 100
AcDbLine
   6
CONTINUOUS
  62
7
  10
 1606.3879310345
  20
 730.30788177340
  30
0.0
  11
 1589.8879310345
  21
 730.30788177340
  31
0.0
   0
LINE
   5
22D
 100
AcDbEntity
   8
LEVEL002
 370
30
 100
AcDbLine
   6
CONTINUOUS
  62
7
  10
 1589.8879310345
  20
 730.30788177340
  30
0.0
  11
 1588.3229764583
  21
 729.40435482749
  31
0.0
   0
LINE
   5
22E
 100
AcDbEntity
   8
LEVEL002
 370
30
 100
AcDbLine
   6
CONTINUOUS
  62
7
  10
 1588.3229764583
  20
 729.40435482749
  30
0.0
  11
 1588.3229764583
  21
 722.30788177340
  31
0.0
   0
LINE
   5
22F
 100
AcDbEntity
   8
LEVEL002
 370
30
 100
AcDbLine
   6
CONTINUOUS
  62
7
  10
 1603.0454083225
  20
 722.30788177340
  30
0.0
  11
 1603.0454083225
  21
 729.40435482749
  31
0.0
   0
ELLIPSE
   5
230
 100
AcDbEntity
   8
LEVEL002
 370
30
   6
CONTINUOUS
  62
7
 100
AcDbEllipse
  10
 1590.7767151024
  20
 726.52426784450
  30
0.0
  11
0.0
  21
-3.7836139288987
  31
0.0
  40
 1.0000000000000
  41
 2.4359578373652
  42
 3.1415926535898
   0
LINE
   5
231
 100
AcDbEntity
   8
LEVEL002
 370
30
 100
AcDbLine
   6
CONTINUOUS
  62
7
  10
 1593.2304537464
  20
 722.30788177340
  30
0.0
  11
 1593.2304537464
  21
 729.40435482749
  31
0.0
   0
ARC
   5
232
 100
AcDbEntity
   8
LEVEL002
 370
30
   6
CONTINUOUS
  62
7
 100
AcDbCircle
  10
 1598.1379310345
  20
 741.52871647709
  30
0.0
  40
 13.779165296305
 100
AcDbArc
  50
 69.135935634481
  51
 110.86406436552
   0
ARC
   5
233
 100
AcDbEntity
   8
LEVEL002
 370
30
   6
CONTINUOUS
  62
7
 100
AcDbCircle
  10
 1590.7767151024
  20
 751.52426784450
  30
0.0
  40
 3.7836139288987
 100
AcDbArc
  50
 49.570103152840
  51
 90.000000000000
   0
LINE
   5
234
 100
AcDbEntity
   8
LEVEL002
 370
30
 100
AcDbLine
   6
CONTINUOUS
  62
7
  10
 1588.3229764583
  20
 748.30788177340
  30
0.0
  11
 1607.9528856107
  21
 748.30788177340
  31
0.0
   0
LINE
   5
235
 100
AcDbEntity
   8
LEVEL002
 370
30
 100
AcDbLine
   6
CONTINUOUS
  62
7
  10
 1607.9528856107
  20
 748.30788177340
  30
0.0
  11
 1607.9528856107
  21
 754.40435482749
  31
0.0
   0
LINE
   5
236
 100
AcDbEntity
   8
LEVEL002
 370
30
 100
AcDbLine
   6
CONTINUOUS
  62
7
  10
 1607.9528856107
  20
 754.40435482749
  30
0.0
  11
 1606.3879310345
  21
 755.30788177340
  31
0.0
   0
LINE
   5
237
 100
AcDbEntity
   8
LEVEL002
 370
30
 100
AcDbLine
   6
CONTINUOUS
  62
7
  10
 1606.3879310345
  20
 755.30788177340
  30
0.0
  11
 1589.8879310345
  21
 755.30788177340
  31
0.0
   0
LINE
   5
238
 100
AcDbEntity
   8
LEVEL002
 370
30
 100
AcDbLine
   6
CONTINUOUS
  62
7
  10
 1589.8879310345
  20
 755.30788177340
  30
0.0
  11
 1588.3229764583
  21
 754.40435482749
  31
0.0
   0
LINE
   5
239
 100
AcDbEntity
   8
LEVEL002
 370
30
 100
AcDbLine
   6
CONTINUOUS
  62
7
  10
 1588.3229764583
  20
 754.40435482749
  30
0.0
  11
 1588.3229764583
  21
 748.30788177340
  31
0.0
   0
LINE
   5
23A
 100
AcDbEntity
   8
LEVEL002
 370
30
 100
AcDbLine
   6
CONTINUOUS
  62
7
  10
 1593.2304537464
  20
 748.30788177340
  30
0.0
  11
 1593.2304537464
  21
 754.40435482749
  31
0.0
   0
ARC
   5
23B
 100
AcDbEntity
   8
LEVEL002
 370
30
   6
CONTINUOUS
  62
7
 100
AcDbCircle
  10
 1605.4991469666
  20
 751.52426784450
  30
0.0
  40
 3.7836139288987
 100
AcDbArc
  50
 90.000000000000
  51
 130.42989684716
   0
LINE
   5
23C
 100
AcDbEntity
   8
LEVEL002
 370
30
 100
AcDbLine
   6
CONTINUOUS
  62
7
  10
 1603.0454083225
  20
 748.30788177340
  30
0.0
  11
 1603.0454083225
  21
 754.40435482749
  31
0.0
   0
ARC
   5
23D
 100
AcDbEntity
   8
LEVEL002
 370
30
   6
CONTINUOUS
  62
7
 100
AcDbCircle
  10
 1658.1379310345
  20
 643.80788177340
  30
0.0
  40
 101.00000000000
 100
AcDbArc
  50
 78.578813725001
  51
 101.42118627500
   0
LINE
   5
23E
 100
AcDbEntity
   8
LEVEL002
 370
30
 100
AcDbLine
   6
CONTINUOUS
  62
7
  10
 1638.1379310345
  20
 742.80788177340
  30
0.0
  11
 1638.1379310345
  21
 738.80788177340
  31
0.0
   0
LINE
   5
23F
 100
AcDbEntity
   8
LEVEL002
 370
30
 100
AcDbLine
   6
CONTINUOUS
  62
7
  10
 1638.1379310345
  20
 738.80788177340
  30
0.0
  11
 1678.1379310345
  21
 738.80788177340
  31
0.0
   0
LINE
   5
240
 100
AcDbEntity
   8
LEVEL002
 370
30
 100
AcDbLine
   6
CONTINUOUS
  62
7
  10
 1678.1379310345
  20
 738.80788177340
  30
0.0
  11
 1678.1379310345
  21
 742.80788177340
  31
0.0
   0
LINE
   5
241
 100
AcDbEntity
   8
LEVEL002
 370
30
 100
AcDbLine
   6
CONTINUOUS
  62
7
  10
 1675.1379310345
  20
 726.30788177340
  30
0.0
  11
 1641.1379310345
  21
 726.30788177340
  31
0.0
   0
LINE
   5
242
 100
AcDbEntity
   8
LEVEL002
 370
30
 100
AcDbLine
   6
CONTINUOUS
  62
7
  10
 1645.6379310345
  20
 732.30788177340
  30
0.0
  11
 1645.6379310345
  21
 738.80788177340
  31
0.0
   0
LINE
   5
243
 100
AcDbEntity
   8
LEVEL002
 370
30
 100
AcDbLine
   6
CONTINUOUS
  62
7
  10
 1670.6379310345
  20
 732.30788177340
  30
0.0
  11
 1670.6379310345
  21
 738.80788177340
  31
0.0
   0
LINE
   5
244
 100
AcDbEntity
   8
LEVEL002
 370
30
 100
AcDbLine
   6
CONTINUOUS
  62
7
  10
 1502.1379310345
  20
 304.30788177340
  30
0.0
  11
 1920.1379310345
  21
 304.30788177340
  31
0.0
   0
LINE
   5
245
 100
AcDbEntity
   8
LEVEL002
 370
30
 100
AcDbLine
   6
CONTINUOUS
  62
7
  10
 1513.1379310345
  20
 451.30788177340
  30
0.0
  11
 1504.6379310345
  21
 451.30788177340
  31
0.0
   0
LINE
   5
246
 100
AcDbEntity
   8
LEVEL002
 370
30
 100
AcDbLine
   6
CONTINUOUS
  62
7
  10
 1504.6379310345
  20
 451.30788177340
  30
0.0
  11
 1504.6379310345
  21
 361.30788177340
  31
0.0
   0
LINE
   5
247
 100
AcDbEntity
   8
LEVEL002
 370
30
 100
AcDbLine
   6
CONTINUOUS
  62
7
  10
 1504.6379310345
  20
 361.30788177340
  30
0.0
  11
 1513.1379310345
  21
 361.30788177340
  31
0.0
   0
LINE
   5
248
 100
AcDbEntity
   8
LEVEL002
 370
30
 100
AcDbLine
   6
CONTINUOUS
  62
7
  10
 1603.1379310345
  20
 748.30788177340
  30
0.0
  11
 1603.1379310345
  21
 730.30788177340
  31
0.0
   0
LINE
   5
249
 100
AcDbEntity
   8
LEVEL002
 370
30
 100
AcDbLine
   6
CONTINUOUS
  62
7
  10
 1593.1379310345
  20
 748.30788177340
  30
0.0
  11
 1593.1379310345
  21
 730.30788177340
  31
0.0
   0
LINE
   5
24A
 100
AcDbEntity
   8
LEVEL002
 370
30
 100
AcDbLine
   6
CONTINUOUS
  62
7
  10
 1513.1379310345
  20
 322.30788177340
  30
0.0
  11
 1513.1379310345
  21
 720.30788177340
  31
0.0
   0
LINE
   5
24B
 100
AcDbEntity
   8
LEVEL002
 370
30
 100
AcDbLine
   6
CONTINUOUS
  62
7
  10
 1513.1379310345
  20
 720.30788177340
  30
0.0
  11
 1730.4510995946
  21
 720.30788177340
  31
0.0
   0
LINE
   5
24C
 100
AcDbEntity
   8
LEVEL002
 370
30
 100
AcDbLine
   6
CONTINUOUS
  62
7
  10
 1730.4510995946
  20
 720.30788177340
  30
0.0
  11
 1911.1379310345
  21
 594.83091549569
  31
0.0
   0
LINE
   5
24D
 100
AcDbEntity
   8
LEVEL002
 370
30
 100
AcDbLine
   6
CONTINUOUS
  62
7
  10
 1911.1379310345
  20
 594.83091549569
  30
0.0
  11
 1911.1379310345
  21
 322.30788177340
  31
0.0
   0
LINE
   5
24E
 100
AcDbEntity
   8
LEVEL002
 370
30
 100
AcDbLine
   6
CONTINUOUS
  62
7
  10
 1911.1379310345
  20
 322.30788177340
  30
0.0
  11
 1513.1379310345
  21
 322.30788177340
  31
0.0
   0
LINE
   5
24F
 100
AcDbEntity
   8
LEVEL002
 370
30
 100
AcDbLine
   6
CONTINUOUS
  62
7
  10
 1511.1379310345
  20
 482.30788177340
  30
0.0
  11
 1513.1379310345
  21
 482.30788177340
  31
0.0
   0
LINE
   5
250
 100
AcDbEntity
   8
LEVEL002
 370
30
 100
AcDbLine
   6
CONTINUOUS
  62
7
  10
 1513.1379310345
  20
 482.30788177340
  30
0.0
  11
 1513.1379310345
  21
 588.30788177340
  31
0.0
   0
LINE
   5
251
 100
AcDbEntity
   8
LEVEL002
 370
30
 100
AcDbLine
   6
CONTINUOUS
  62
7
  10
 1513.1379310345
  20
 588.30788177340
  30
0.0
  11
 1511.1379310345
  21
 588.30788177340
  31
0.0
   0
LINE
   5
252
 100
AcDbEntity
   8
LEVEL002
 370
30
 100
AcDbLine
   6
CONTINUOUS
  62
7
  10
 1511.1379310345
  20
 588.30788177340
  30
0.0
  11
 1511.1379310345
  21
 482.30788177340
  31
0.0
   0
POINT
   5
253
 100
AcDbEntity
   8
LEVEL002
 100
AcDbPoint
  62
7
  10
 1513.1379310345
  20
 580.30788177340
  30
0.0
   0
POINT
   5
254
 100
AcDbEntity
   8
LEVEL002
 100
AcDbPoint
  62
7
  10
 1513.1379310345
  20
 490.30788177340
  30
0.0
   0
LINE
   5
255
 100
AcDbEntity
   8
LEVEL002
 370
30
 100
AcDbLine
   6
CONTINUOUS
  62
7
  10
 1835.4477916424
  20
 669.00403419611
  30
0.0
  11
 1825.4477916424
  21
 669.00403419611
  31
0.0
   0
LINE
   5
256
 100
AcDbEntity
   8
LEVEL002
 370
30
 100
AcDbLine
   6
CONTINUOUS
  62
7
  10
 1825.4477916424
  20
 669.00403419611
  30
0.0
  11
 1825.4477916424
  21
 658.61172935069
  31
0.0
   0
LINE
   5
257
 100
AcDbEntity
   8
LEVEL002
 370
30
 100
AcDbLine
   6
CONTINUOUS
  62
7
  10
 1825.4477916424
  20
 658.61172935069
  30
0.0
  11
 1835.4477916424
  21
 658.61172935069
  31
0.0
   0
LINE
   5
258
 100
AcDbEntity
   8
LEVEL002
 370
30
 100
AcDbLine
   6
CONTINUOUS
  62
7
  10
 1938.1379310345
  20
 574.50403419611
  30
0.0
  11
 1928.1379310345
  21
 574.50403419611
  31
0.0
   0
LINE
   5
259
 100
AcDbEntity
   8
LEVEL002
 370
30
 100
AcDbLine
   6
CONTINUOUS
  62
7
  10
 1928.1379310345
  20
 574.50403419611
  30
0.0
  11
 1928.1379310345
  21
 564.11172935069
  31
0.0
   0
LINE
   5
25A
 100
AcDbEntity
   8
LEVEL002
 370
30
 100
AcDbLine
   6
CONTINUOUS
  62
7
  10
 1928.1379310345
  20
 564.11172935069
  30
0.0
  11
 1938.1379310345
  21
 564.11172935069
  31
0.0
   0
POINT
   5
25B
 100
AcDbEntity
   8
LEVEL002
 100
AcDbPoint
  62
7
  10
 1565.1379310345
  20
 663.80788177340
  30
0.0
   0
POINT
   5
25C
 100
AcDbEntity
   8
LEVEL002
 100
AcDbPoint
  62
7
  10
 1629.1379310345
  20
 663.80788177340
  30
0.0
   0
POINT
   5
25D
 100
AcDbEntity
   8
LEVEL002
 100
AcDbPoint
  62
7
  10
 1684.7379310345
  20
 569.30788177340
  30
0.0
   0
POINT
   5
25E
 100
AcDbEntity
   8
LEVEL002
 100
AcDbPoint
  62
7
  10
 1777.7379310345
  20
 569.30788177340
  30
0.0
   0
POINT
   5
25F
 100
AcDbEntity
   8
LEVEL002
 100
AcDbPoint
  62
7
  10
 1546.1379310345
  20
 584.30788177340
  30
0.0
   0
LINE
   5
260
 100
AcDbEntity
   8
LEVEL002
 370
30
 100
AcDbLine
   6
CONTINUOUS
  62
7
  10
 1668.0493257116
  20
 720.30788177340
  30
0.0
  11
 1731.0493257116
  21
 720.30788177337
  31
0.0
   0
LINE
   5
261
 100
AcDbEntity
   8
LEVEL002
 370
30
 100
AcDbLine
   6
CONTINUOUS
  62
7
  10
 1731.0493257116
  20
 720.30788177337
  30
0.0
  11
 1803.1347056091
  21
 669.83315537443
  31
0.0
   0
LINE
   5
262
 100
AcDbEntity
   8
LEVEL002
 370
30
 100
AcDbLine
   6
CONTINUOUS
  62
7
  10
 1668.0493257116
  20
 720.30788177340
  30
0.0
  11
 1668.0493257116
  21
 721.30788177340
  31
0.0
   0
LINE
   5
263
 100
AcDbEntity
   8
LEVEL002
 370
30
 100
AcDbLine
   6
CONTINUOUS
  62
7
  10
 1668.0493257116
  20
 721.30788177340
  30
0.0
  11
 1731.3646245005
  21
 721.30788177340
  31
0.0
   0
LINE
   5
264
 100
AcDbEntity
   8
LEVEL002
 370
30
 100
AcDbLine
   6
CONTINUOUS
  62
7
  10
 1731.3646245005
  20
 721.30788177340
  30
0.0
  11
 1803.7082820455
  21
 670.65230741872
  31
0.0
   0
LINE
   5
265
 100
AcDbEntity
   8
LEVEL002
 370
30
 100
AcDbLine
   6
CONTINUOUS
  62
7
  10
 1803.7082820455
  20
 670.65230741872
  30
0.0
  11
 1803.1347056091
  21
 669.83315537443
  31
0.0
   0
LINE
   5
266
 100
AcDbEntity
   8
LEVEL002
 370
30
 100
AcDbLine
   6
CONTINUOUS
  62
7
  10
 1675.1379310345
  20
 721.30788177340
  30
0.0
  11
 1675.1379310345
  21
 726.30788177340
  31
0.0
   0
LINE
   5
267
 100
AcDbEntity
   8
LEVEL002
 370
30
 100
AcDbLine
   6
CONTINUOUS
  62
7
  10
 1675.1379310345
  20
 726.30788177340
  30
0.0
  11
 1673.1379310345
  21
 732.30788177340
  31
0.0
   0
LINE
   5
268
 100
AcDbEntity
   8
LEVEL002
 370
30
 100
AcDbLine
   6
CONTINUOUS
  62
7
  10
 1673.1379310345
  20
 732.30788177340
  30
0.0
  11
 1643.1379310345
  21
 732.30788177340
  31
0.0
   0
LINE
   5
269
 100
AcDbEntity
   8
LEVEL002
 370
30
 100
AcDbLine
   6
CONTINUOUS
  62
7
  10
 1643.1379310345
  20
 732.30788177340
  30
0.0
  11
 1641.1379310345
  21
 726.30788177340
  31
0.0
   0
LINE
   5
26A
 100
AcDbEntity
   8
LEVEL002
 370
30
 100
AcDbLine
   6
CONTINUOUS
  62
7
  10
 1641.1379310345
  20
 726.30788177340
  30
0.0
  11
 1641.1379310345
  21
 720.30788177340
  31
0.0
   0
LINE
   5
26B
 100
AcDbEntity
   8
LEVEL002
 370
30
 100
AcDbLine
   6
CONTINUOUS
  62
7
  10
 1641.1379310345
  20
 720.30788177340
  30
0.0
  11
 1668.0493257116
  21
 720.30788177340
  31
0.0
   0
LINE
   5
26C
 100
AcDbEntity
   8
LEVEL002
 370
30
 100
AcDbLine
   6
CONTINUOUS
  62
7
  10
 1803.1710995946
  20
 669.80788177340
  30
0.0
  11
 1835.4477916424
  21
 669.80788177340
  31
0.0
   0
LINE
   5
26D
 100
AcDbEntity
   8
LEVEL002
 370
30
 100
AcDbLine
   6
CONTINUOUS
  62
7
  10
 1835.4477916424
  20
 669.80788177340
  30
0.0
  11
 1835.4477916424
  21
 657.80788177340
  31
0.0
   0
LINE
   5
26E
 100
AcDbEntity
   8
LEVEL002
 370
30
 100
AcDbLine
   6
CONTINUOUS
  62
7
  10
 1835.4477916424
  20
 657.80788177340
  30
0.0
  11
 1820.4510995946
  21
 657.80788177340
  31
0.0
   0
LINE
   5
26F
 100
AcDbEntity
   8
LEVEL002
 370
30
 100
AcDbLine
   6
CONTINUOUS
  62
7
  10
 1923.6379310345
  20
 563.30788177340
  30
0.0
  11
 1938.1379310345
  21
 563.30788177340
  31
0.0
   0
LINE
   5
270
 100
AcDbEntity
   8
LEVEL002
 370
30
 100
AcDbLine
   6
CONTINUOUS
  62
7
  10
 1938.1379310345
  20
 563.30788177340
  30
0.0
  11
 1938.1379310345
  21
 575.30788177340
  31
0.0
   0
LINE
   5
271
 100
AcDbEntity
   8
LEVEL002
 370
30
 100
AcDbLine
   6
CONTINUOUS
  62
7
  10
 1938.1379310345
  20
 575.30788177340
  30
0.0
  11
 1923.6379310345
  21
 575.30788177340
  31
0.0
   0
LINE
   5
272
 100
AcDbEntity
   8
LEVEL002
 370
30
 100
AcDbLine
   6
CONTINUOUS
  62
7
  10
 1570.9379310345
  20
 322.30788177340
  30
0.0
  11
 1570.9379310345
  21
 307.50788177340
  31
0.0
   0
LINE
   5
273
 100
AcDbEntity
   8
LEVEL002
 370
30
 100
AcDbLine
   6
CONTINUOUS
  62
7
  10
 1570.9379310345
  20
 307.50788177340
  30
0.0
  11
 1542.3379310345
  21
 307.50788177340
  31
0.0
   0
LINE
   5
274
 100
AcDbEntity
   8
LEVEL002
 370
30
 100
AcDbLine
   6
CONTINUOUS
  62
7
  10
 1542.3379310345
  20
 307.50788177340
  30
0.0
  11
 1542.3379310345
  21
 322.30788177340
  31
0.0
   0
LINE
   5
275
 100
AcDbEntity
   8
LEVEL002
 370
30
 100
AcDbLine
   6
CONTINUOUS
  62
7
  10
 1574.1379310345
  20
 322.30788177340
  30
0.0
  11
 1574.1379310345
  21
 304.30788177340
  31
0.0
   0
LINE
   5
276
 100
AcDbEntity
   8
LEVEL002
 370
30
 100
AcDbLine
   6
CONTINUOUS
  62
7
  10
 1574.1379310345
  20
 304.30788177340
  30
0.0
  11
 1539.1379310345
  21
 304.30788177340
  31
0.0
   0
LINE
   5
277
 100
AcDbEntity
   8
LEVEL002
 370
30
 100
AcDbLine
   6
CONTINUOUS
  62
7
  10
 1539.1379310345
  20
 304.30788177340
  30
0.0
  11
 1539.1379310345
  21
 322.30788177340
  31
0.0
   0
LINE
   5
278
 100
AcDbEntity
   8
LEVEL002
 370
30
 100
AcDbLine
   6
CONTINUOUS
  62
7
  10
 1884.1379310345
  20
 322.30788177340
  30
0.0
  11
 1884.1379310345
  21
 304.30788177340
  31
0.0
   0
LINE
   5
279
 100
AcDbEntity
   8
LEVEL002
 370
30
 100
AcDbLine
   6
CONTINUOUS
  62
7
  10
 1884.1379310345
  20
 304.30788177340
  30
0.0
  11
 1849.1379310345
  21
 304.30788177340
  31
0.0
   0
LINE
   5
27A
 100
AcDbEntity
   8
LEVEL002
 370
30
 100
AcDbLine
   6
CONTINUOUS
  62
7
  10
 1849.1379310345
  20
 304.30788177340
  30
0.0
  11
 1849.1379310345
  21
 322.30788177340
  31
0.0
   0
LINE
   5
27B
 100
AcDbEntity
   8
LEVEL002
 370
30
 100
AcDbLine
   6
CONTINUOUS
  62
7
  10
 1511.1379310345
  20
 580.15785241967
  30
0.0
  11
 1475.4544967252
  21
 586.27056214027
  31
0.0
   0
LINE
   5
27C
 100
AcDbEntity
   8
LEVEL002
 370
30
 100
AcDbLine
   6
CONTINUOUS
  62
7
  10
 1475.4544967252
  20
 586.27056214027
  30
0.0
  11
 1478.8313846003
  21
 605.98341653230
  31
0.0
   0
LINE
   5
27D
 100
AcDbEntity
   8
LEVEL002
 370
30
 100
AcDbLine
   6
CONTINUOUS
  62
7
  10
 1478.8313846003
  20
 605.98341653230
  30
0.0
  11
 1513.1379310345
  21
 600.10657300735
  31
0.0
   0
CIRCLE
   5
27E
 100
AcDbEntity
   8
LEVEL002
 370
9
 100
AcDbCircle
   6
HIDDEN
  62
1
  10
 1565.1379310345
  20
 663.80788177340
  30
0.0
  40
 30.500000000000
   0
CIRCLE
   5
27F
 100
AcDbEntity
   8
LEVEL002
 370
9
 100
AcDbCircle
   6
HIDDEN
  62
1
  10
 1629.1379310345
  20
 663.80788177340
  30
0.0
  40
 30.500000000000
   0
CIRCLE
   5
280
 100
AcDbEntity
   8
LEVEL002
 370
9
 100
AcDbCircle
   6
HIDDEN
  62
1
  10
 1684.7379310345
  20
 569.30788177340
  30
0.0
  40
 44.500000000000
   0
CIRCLE
   5
281
 100
AcDbEntity
   8
LEVEL002
 370
9
 100
AcDbCircle
   6
HIDDEN
  62
1
  10
 1777.7379310345
  20
 569.30788177340
  30
0.0
  40
 44.500000000000
   0
LINE
   5
282
 100
AcDbEntity
   8
LEVEL002
 370
9
 100
AcDbLine
   6
DASHDOT
  62
1
  10
 1748.1379310345
  20
 663.80788177340
  30
0.0
  11
 1854.1379310345
  21
 663.80788177340
  31
0.0
   0
LINE
   5
283
 100
AcDbEntity
   8
LEVEL002
 370
9
 100
AcDbLine
   6
DASHDOT
  62
1
  10
 1598.1379310345
  20
 769.30788177340
  30
0.0
  11
 1598.1379310345
  21
 691.30788177340
  31
0.0
   0
LINE
   5
284
 100
AcDbEntity
   8
LEVEL002
 370
9
 100
AcDbLine
   6
DASHDOT
  62
1
  10
 1887.1379310345
  20
 569.30788177340
  30
0.0
  11
 1946.1379310345
  21
 569.30788177340
  31
0.0
   0
LINE
   5
285
 100
AcDbEntity
   8
LEVEL002
 370
9
 100
AcDbLine
   6
DASHDOT
  62
1
  10
 1565.1379310345
  20
 702.30788177340
  30
0.0
  11
 1565.1379310345
  21
 625.30788177340
  31
0.0
   0
LINE
   5
286
 100
AcDbEntity
   8
LEVEL002
 370
9
 100
AcDbLine
   6
DASHDOT
  62
1
  10
 1604.1379310345
  20
 663.80788177340
  30
0.0
  11
 1526.1379310345
  21
 663.80788177340
  31
0.0
   0
LINE
   5
287
 100
AcDbEntity
   8
LEVEL002
 370
9
 100
AcDbLine
   6
DASHDOT
  62
1
  10
 1668.1379310345
  20
 663.80788177340
  30
0.0
  11
 1590.1379310345
  21
 663.80788177340
  31
0.0
   0
LINE
   5
288
 100
AcDbEntity
   8
LEVEL002
 370
9
 100
AcDbLine
   6
DASHDOT
  62
1
  10
 1629.1379310345
  20
 702.30788177340
  30
0.0
  11
 1629.1379310345
  21
 625.30788177340
  31
0.0
   0
LINE
   5
289
 100
AcDbEntity
   8
LEVEL002
 370
9
 100
AcDbLine
   6
DASHDOT
  62
1
  10
 1684.7379310345
  20
 626.30788177340
  30
0.0
  11
 1684.7379310345
  21
 512.30788177340
  31
0.0
   0
LINE
   5
28A
 100
AcDbEntity
   8
LEVEL002
 370
9
 100
AcDbLine
   6
DASHDOT
  62
1
  10
 1742.1379310345
  20
 569.30788177340
  30
0.0
  11
 1627.3379310345
  21
 569.30788177340
  31
0.0
   0
LINE
   5
28B
 100
AcDbEntity
   8
LEVEL002
 370
9
 100
AcDbLine
   6
DASHDOT
  62
1
  10
 1777.7379310345
  20
 626.30788177340
  30
0.0
  11
 1777.7379310345
  21
 512.30788177340
  31
0.0
   0
LINE
   5
28C
 100
AcDbEntity
   8
LEVEL002
 370
9
 100
AcDbLine
   6
DASHDOT
  62
1
  10
 1835.1379310345
  20
 569.30788177340
  30
0.0
  11
 1720.3379310345
  21
 569.30788177340
  31
0.0
   0
LINE
   5
28D
 100
AcDbEntity
   8
LEVEL002
 370
30
 100
AcDbLine
   6
CONTINUOUS
  62
7
  10
 582.13793103448
  20
 1372.3078817734
  30
0.0
  11
 1067.1379310345
  21
 1372.3078817734
  31
0.0
   0
POINT
   5
28E
 100
AcDbEntity
   8
LEVEL002
 100
AcDbPoint
  62
7
  10
 1644.1379310345
  20
 706.30788177340
  30
0.0
   0
ARC
   5
28F
 100
AcDbEntity
   8
LEVEL002
 370
30
   6
CONTINUOUS
  62
7
 100
AcDbCircle
  10
 1164.3379310345
  20
 1170.3078817734
  30
0.0
  40
 4.0000000000000
 100
AcDbArc
  50
0.0
  51
 180.00000000000
   0
POINT
   5
290
 100
AcDbEntity
   8
LEVEL002
 100
AcDbPoint
  62
7
  10
 1164.3379310345
  20
 1170.3078817734
  30
0.0
   0
ARC
   5
291
 100
AcDbEntity
   8
LEVEL002
 370
30
   6
CONTINUOUS
  62
7
 100
AcDbCircle
  10
 1164.3379310345
  20
 1170.3078817734
  30
0.0
  40
 6.5000000000000
 100
AcDbArc
  50
 307.97987244472
  51
 232.02012755512
   0
LINE
   5
292
 100
AcDbEntity
   8
LEVEL002
 370
30
 100
AcDbLine
   6
CONTINUOUS
  62
7
  10
 1160.3379310345
  20
 1170.3078817734
  30
0.0
  11
 1160.3379310345
  21
 1165.3078817734
  31
0.0
   0
LINE
   5
293
 100
AcDbEntity
   8
LEVEL002
 370
30
 100
AcDbLine
   6
CONTINUOUS
  62
7
  10
 1168.3379310345
  20
 1170.3078817734
  30
0.0
  11
 1168.3379310345
  21
 1165.3078817734
  31
0.0
   0
ARC
   5
294
 100
AcDbEntity
   8
LEVEL002
 370
30
   6
CONTINUOUS
  62
7
 100
AcDbCircle
  10
 1164.3379310345
  20
 1165.3078817734
  30
0.0
  40
 4.0000000000000
 100
AcDbArc
  50
 180.00000000000
  51
0.0
   0
CIRCLE
   5
295
 100
AcDbEntity
   8
LEVEL002
 370
30
 100
AcDbCircle
   6
CONTINUOUS
  62
7
  10
 1164.3379310345
  20
 1170.3078817734
  30
0.0
  40
 9.0000000000000
   0
LINE
   5
296
 100
AcDbEntity
   8
LEVEL002
 370
30
 100
AcDbLine
   6
CONTINUOUS
  62
7
  10
 1852.3379310345
  20
 322.30788177340
  30
0.0
  11
 1852.3379310345
  21
 307.50788177340
  31
0.0
   0
LINE
   5
297
 100
AcDbEntity
   8
LEVEL002
 370
30
 100
AcDbLine
   6
CONTINUOUS
  62
7
  10
 1852.3379310345
  20
 307.50788177340
  30
0.0
  11
 1880.9379310345
  21
 307.50788177340
  31
0.0
   0
LINE
   5
298
 100
AcDbEntity
   8
LEVEL002
 370
30
 100
AcDbLine
   6
CONTINUOUS
  62
7
  10
 1880.9379310345
  20
 307.50788177340
  30
0.0
  11
 1880.9379310345
  21
 322.30788177340
  31
0.0
   0
ARC
   5
299
 100
AcDbEntity
   8
LEVEL002
 370
30
   6
CONTINUOUS
  62
7
 100
AcDbCircle
  10
 484.93793103448
  20
 643.80788177340
  30
0.0
  40
 101.00000000000
 100
AcDbArc
  50
 78.578813725001
  51
 101.42118627500
   0
LINE
   5
29A
 100
AcDbEntity
   8
LEVEL002
 370
30
 100
AcDbLine
   6
CONTINUOUS
  62
7
  10
 464.93793103448
  20
 742.80788177340
  30
0.0
  11
 464.93793103448
  21
 738.80788177340
  31
0.0
   0
LINE
   5
29B
 100
AcDbEntity
   8
LEVEL002
 370
30
 100
AcDbLine
   6
CONTINUOUS
  62
7
  10
 464.93793103448
  20
 738.80788177340
  30
0.0
  11
 504.93793103448
  21
 738.80788177340
  31
0.0
   0
LINE
   5
29C
 100
AcDbEntity
   8
LEVEL002
 370
30
 100
AcDbLine
   6
CONTINUOUS
  62
7
  10
 504.93793103448
  20
 738.80788177340
  30
0.0
  11
 504.93793103448
  21
 742.80788177340
  31
0.0
   0
LINE
   5
29D
 100
AcDbEntity
   8
LEVEL002
 370
30
 100
AcDbLine
   6
CONTINUOUS
  62
7
  10
 501.93793103448
  20
 720.30788177340
  30
0.0
  11
 501.93793103448
  21
 726.30788177340
  31
0.0
   0
LINE
   5
29E
 100
AcDbEntity
   8
LEVEL002
 370
30
 100
AcDbLine
   6
CONTINUOUS
  62
7
  10
 501.93793103448
  20
 726.30788177340
  30
0.0
  11
 499.93793103448
  21
 732.30788177340
  31
0.0
   0
LINE
   5
29F
 100
AcDbEntity
   8
LEVEL002
 370
30
 100
AcDbLine
   6
CONTINUOUS
  62
7
  10
 499.93793103448
  20
 732.30788177340
  30
0.0
  11
 469.93793103448
  21
 732.30788177340
  31
0.0
   0
LINE
   5
2A0
 100
AcDbEntity
   8
LEVEL002
 370
30
 100
AcDbLine
   6
CONTINUOUS
  62
7
  10
 469.93793103448
  20
 732.30788177340
  30
0.0
  11
 467.93793103448
  21
 726.30788177340
  31
0.0
   0
LINE
   5
2A1
 100
AcDbEntity
   8
LEVEL002
 370
30
 100
AcDbLine
   6
CONTINUOUS
  62
7
  10
 467.93793103448
  20
 726.30788177340
  30
0.0
  11
 467.93793103448
  21
 720.30788177340
  31
0.0
   0
LINE
   5
2A2
 100
AcDbEntity
   8
LEVEL002
 370
30
 100
AcDbLine
   6
CONTINUOUS
  62
7
  10
 467.93793103448
  20
 720.30788177340
  30
0.0
  11
 501.93793103448
  21
 720.30788177340
  31
0.0
   0
LINE
   5
2A3
 100
AcDbEntity
   8
LEVEL002
 370
30
 100
AcDbLine
   6
CONTINUOUS
  62
7
  10
 501.93793103448
  20
 726.30788177340
  30
0.0
  11
 467.93793103448
  21
 726.30788177340
  31
0.0
   0
LINE
   5
2A4
 100
AcDbEntity
   8
LEVEL002
 370
30
 100
AcDbLine
   6
CONTINUOUS
  62
7
  10
 472.43793103448
  20
 732.30788177340
  30
0.0
  11
 472.43793103448
  21
 738.80788177340
  31
0.0
   0
LINE
   5
2A5
 100
AcDbEntity
   8
LEVEL002
 370
30
 100
AcDbLine
   6
CONTINUOUS
  62
7
  10
 497.43793103448
  20
 732.30788177340
  30
0.0
  11
 497.43793103448
  21
 738.80788177340
  31
0.0
   0
LINE
   5
2A6
 100
AcDbEntity
   8
LEVEL002
 370
30
 100
AcDbLine
   6
CONTINUOUS
  62
7
  10
 579.93793103448
  20
 580.30788177340
  30
0.0
  11
 579.93793103448
  21
 720.30788177340
  31
0.0
   0
LINE
   5
2A7
 100
AcDbEntity
   8
LEVEL002
 370
30
 100
AcDbLine
   6
CONTINUOUS
  62
7
  10
 579.93793103448
  20
 720.30788177340
  30
0.0
  11
 454.93793103448
  21
 720.30788177340
  31
0.0
   0
LINE
   5
2A8
 100
AcDbEntity
   8
LEVEL002
 370
30
 100
AcDbLine
   6
CONTINUOUS
  62
7
  10
 454.93793103448
  20
 720.30788177340
  30
0.0
  11
 454.93793103448
  21
 322.30788177340
  31
0.0
   0
LINE
   5
2A9
 100
AcDbEntity
   8
LEVEL002
 370
30
 100
AcDbLine
   6
CONTINUOUS
  62
7
  10
 454.93793103448
  20
 322.30788177340
  30
0.0
  11
 534.93793103448
  21
 322.30788177340
  31
0.0
   0
LINE
   5
2AA
 100
AcDbEntity
   8
LEVEL002
 370
30
 100
AcDbLine
   6
CONTINUOUS
  62
7
  10
 534.93793103448
  20
 322.30788177340
  30
0.0
  11
 534.93793103448
  21
 323.30788177340
  31
0.0
   0
LINE
   5
2AB
 100
AcDbEntity
   8
LEVEL002
 370
30
 100
AcDbLine
   6
CONTINUOUS
  62
7
  10
 455.93793103448
  20
 323.30788177340
  30
0.0
  11
 579.93793103448
  21
 323.30788177340
  31
0.0
   0
LINE
   5
2AC
 100
AcDbEntity
   8
LEVEL002
 370
30
 100
AcDbLine
   6
CONTINUOUS
  62
7
  10
 579.93793103448
  20
 323.30788177340
  30
0.0
  11
 579.93793103448
  21
 490.30788177340
  31
0.0
   0
LINE
   5
2AD
 100
AcDbEntity
   8
LEVEL002
 370
30
 100
AcDbLine
   6
CONTINUOUS
  62
7
  10
 1069.3379310345
  20
 580.30788177340
  30
0.0
  11
 1069.3379310345
  21
 720.30788177340
  31
0.0
   0
LINE
   5
2AE
 100
AcDbEntity
   8
LEVEL002
 370
30
 100
AcDbLine
   6
CONTINUOUS
  62
7
  10
 1069.3379310345
  20
 720.30788177340
  30
0.0
  11
 1194.3379310345
  21
 720.30788177340
  31
0.0
   0
LINE
   5
2AF
 100
AcDbEntity
   8
LEVEL002
 370
30
 100
AcDbLine
   6
CONTINUOUS
  62
7
  10
 1194.3379310345
  20
 720.30788177340
  30
0.0
  11
 1194.3379310345
  21
 322.30788177340
  31
0.0
   0
LINE
   5
2B0
 100
AcDbEntity
   8
LEVEL002
 370
30
 100
AcDbLine
   6
CONTINUOUS
  62
7
  10
 1194.3379310345
  20
 322.30788177340
  30
0.0
  11
 1114.3379310345
  21
 322.30788177340
  31
0.0
   0
LINE
   5
2B1
 100
AcDbEntity
   8
LEVEL002
 370
30
 100
AcDbLine
   6
CONTINUOUS
  62
7
  10
 1114.3379310345
  20
 322.30788177340
  30
0.0
  11
 1114.3379310345
  21
 323.30788177340
  31
0.0
   0
LINE
   5
2B2
 100
AcDbEntity
   8
LEVEL002
 370
30
 100
AcDbLine
   6
CONTINUOUS
  62
7
  10
 1069.3379310345
  20
 719.30788177340
  30
0.0
  11
 1067.1379310345
  21
 719.30788177340
  31
0.0
   0
LINE
   5
2B3
 100
AcDbEntity
   8
LEVEL002
 370
30
 100
AcDbLine
   6
CONTINUOUS
  62
7
  10
 1067.1379310345
  20
 719.30788177340
  30
0.0
  11
 1067.1379310345
  21
 580.30788177340
  31
0.0
   0
LINE
   5
2B4
 100
AcDbEntity
   8
LEVEL002
 370
30
 100
AcDbLine
   6
CONTINUOUS
  62
7
  10
 1067.1379310345
  20
 490.30788177340
  30
0.0
  11
 1067.1379310345
  21
 324.30788177340
  31
0.0
   0
LINE
   5
2B5
 100
AcDbEntity
   8
LEVEL002
 370
30
 100
AcDbLine
   6
CONTINUOUS
  62
7
  10
 1067.1379310345
  20
 324.30788177340
  30
0.0
  11
 1069.3379310345
  21
 324.30788177340
  31
0.0
   0
LINE
   5
2B6
 100
AcDbEntity
   8
LEVEL002
 370
30
 100
AcDbLine
   6
CONTINUOUS
  62
7
  10
 1193.3379310345
  20
 323.30788177340
  30
0.0
  11
 1069.3379310345
  21
 323.30788177340
  31
0.0
   0
LINE
   5
2B7
 100
AcDbEntity
   8
LEVEL002
 370
30
 100
AcDbLine
   6
CONTINUOUS
  62
7
  10
 1069.3379310345
  20
 323.30788177340
  30
0.0
  11
 1069.3379310345
  21
 490.30788177340
  31
0.0
   0
LINE
   5
2B8
 100
AcDbEntity
   8
LEVEL002
 370
30
 100
AcDbLine
   6
CONTINUOUS
  62
7
  10
 582.13793103448
  20
 490.30788177340
  30
0.0
  11
 582.13793103448
  21
 324.30788177340
  31
0.0
   0
LINE
   5
2B9
 100
AcDbEntity
   8
LEVEL002
 370
30
 100
AcDbLine
   6
CONTINUOUS
  62
7
  10
 582.13793103448
  20
 324.30788177340
  30
0.0
  11
 579.93793103448
  21
 324.30788177340
  31
0.0
   0
LINE
   5
2BA
 100
AcDbEntity
   8
LEVEL002
 370
30
 100
AcDbLine
   6
CONTINUOUS
  62
7
  10
 1156.2550272658
  20
 720.30788177340
  30
0.0
  11
 1156.2550272658
  21
 721.57070086277
  31
0.0
   0
LINE
   5
2BB
 100
AcDbEntity
   8
LEVEL002
 370
30
 100
AcDbLine
   6
CONTINUOUS
  62
7
  10
 1156.2550272658
  20
 721.57070086277
  30
0.0
  11
 1157.3379310346
  21
 722.70788177340
  31
0.0
   0
LINE
   5
2BC
 100
AcDbEntity
   8
LEVEL002
 370
30
 100
AcDbLine
   6
CONTINUOUS
  62
7
  10
 1157.3379310346
  20
 722.70788177340
  30
0.0
  11
 1171.3379310346
  21
 722.70788177340
  31
0.0
   0
LINE
   5
2BD
 100
AcDbEntity
   8
LEVEL002
 370
30
 100
AcDbLine
   6
CONTINUOUS
  62
7
  10
 1171.3379310346
  20
 722.70788177340
  30
0.0
  11
 1172.4208348033
  21
 721.57070086277
  31
0.0
   0
LINE
   5
2BE
 100
AcDbEntity
   8
LEVEL002
 370
30
 100
AcDbLine
   6
CONTINUOUS
  62
7
  10
 1172.4208348033
  20
 721.57070086277
  30
0.0
  11
 1172.4208348031
  21
 720.30788177340
  31
0.0
   0
LINE
   5
2BF
 100
AcDbEntity
   8
LEVEL002
 370
30
 100
AcDbLine
   6
CONTINUOUS
  62
7
  10
 1172.4208348031
  20
 720.30788177340
  30
0.0
  11
 1156.2550272658
  21
 720.30788177340
  31
0.0
   0
LINE
   5
2C0
 100
AcDbEntity
   8
LEVEL002
 370
30
 100
AcDbLine
   6
CONTINUOUS
  62
7
  10
 1168.3793829188
  20
 721.57070086277
  30
0.0
  11
 1168.3793829188
  21
 720.30788177340
  31
0.0
   0
LINE
   5
2C1
 100
AcDbEntity
   8
LEVEL002
 370
30
 100
AcDbLine
   6
CONTINUOUS
  62
7
  10
 1160.2964791501
  20
 721.57070086277
  30
0.0
  11
 1160.2964791501
  21
 720.30788177340
  31
0.0
   0
ARC
   5
2C2
 100
AcDbEntity
   8
LEVEL002
 370
30
   6
CONTINUOUS
  62
7
 100
AcDbCircle
  10
 1164.3379310345
  20
 714.95778959713
  30
0.0
  40
 7.7500921762708
 100
AcDbArc
  50
 58.568994004848
  51
 121.43100599527
   0
ARC
   5
2C3
 100
AcDbEntity
   8
LEVEL002
 370
30
   6
CONTINUOUS
  62
7
 100
AcDbCircle
  10
 1158.2757532080
  20
 720.34391588787
  30
0.0
  40
 2.3639658855270
 100
AcDbArc
  50
 31.261984223772
  51
 90.000000000281
   0
ARC
   5
2C4
 100
AcDbEntity
   8
LEVEL002
 370
30
   6
CONTINUOUS
  62
7
 100
AcDbCircle
  10
 1170.4001088611
  20
 720.34391588766
  30
0.0
  40
 2.3639658857093
 100
AcDbArc
  50
 90.000000001973
  51
 148.73801577291
   0
POINT
   5
2C5
 100
AcDbEntity
   8
LEVEL002
 100
AcDbPoint
  62
7
  10
 1164.3379310345
  20
 721.05797394967
  30
0.0
   0
LINE
   5
2C6
 100
AcDbEntity
   8
LEVEL002
 370
30
 100
AcDbLine
   6
CONTINUOUS
  62
7
  10
 1160.3379310345
  20
 731.70788177340
  30
0.0
  11
 1168.3379310345
  21
 731.70788177340
  31
0.0
   0
LINE
   5
2C7
 100
AcDbEntity
   8
LEVEL002
 370
30
 100
AcDbLine
   6
CONTINUOUS
  62
7
  10
 1157.8379310345
  20
 726.70788177340
  30
0.0
  11
 1170.8379310345
  21
 726.70788177340
  31
0.0
   0
ARC
   5
2C8
 100
AcDbEntity
   8
LEVEL002
 370
30
   6
CONTINUOUS
  62
7
 100
AcDbCircle
  10
 1164.3379310345
  20
 739.33644489227
  30
0.0
  40
 4.0000000000000
 100
AcDbArc
  50
0.0
  51
 180.00000000000
   0
LINE
   5
2C9
 100
AcDbEntity
   8
LEVEL002
 370
30
 100
AcDbLine
   6
CONTINUOUS
  62
7
  10
 1160.3379310345
  20
 739.33644489227
  30
0.0
  11
 1160.3379310345
  21
 731.70788177340
  31
0.0
   0
LINE
   5
2CA
 100
AcDbEntity
   8
LEVEL002
 370
30
 100
AcDbLine
   6
CONTINUOUS
  62
7
  10
 1160.3379310345
  20
 731.70788177340
  30
0.0
  11
 1157.8379310345
  21
 731.70788177340
  31
0.0
   0
LINE
   5
2CB
 100
AcDbEntity
   8
LEVEL002
 370
30
 100
AcDbLine
   6
CONTINUOUS
  62
7
  10
 1157.8379310345
  20
 731.70788177340
  30
0.0
  11
 1157.8379310345
  21
 726.70788177340
  31
0.0
   0
LINE
   5
2CC
 100
AcDbEntity
   8
LEVEL002
 370
30
 100
AcDbLine
   6
CONTINUOUS
  62
7
  10
 1157.8379310345
  20
 726.70788177340
  30
0.0
  11
 1155.3379310345
  21
 726.70788177340
  31
0.0
   0
LINE
   5
2CD
 100
AcDbEntity
   8
LEVEL002
 370
30
 100
AcDbLine
   6
CONTINUOUS
  62
7
  10
 1155.3379310345
  20
 726.70788177340
  30
0.0
  11
 1155.3379310345
  21
 722.70788177340
  31
0.0
   0
LINE
   5
2CE
 100
AcDbEntity
   8
LEVEL002
 370
30
 100
AcDbLine
   6
CONTINUOUS
  62
7
  10
 1155.3379310345
  20
 722.70788177340
  30
0.0
  11
 1173.3379310345
  21
 722.70788177340
  31
0.0
   0
LINE
   5
2CF
 100
AcDbEntity
   8
LEVEL002
 370
30
 100
AcDbLine
   6
CONTINUOUS
  62
7
  10
 1173.3379310345
  20
 722.70788177340
  30
0.0
  11
 1173.3379310345
  21
 726.70788177340
  31
0.0
   0
LINE
   5
2D0
 100
AcDbEntity
   8
LEVEL002
 370
30
 100
AcDbLine
   6
CONTINUOUS
  62
7
  10
 1173.3379310345
  20
 726.70788177340
  30
0.0
  11
 1170.8379310345
  21
 726.70788177340
  31
0.0
   0
LINE
   5
2D1
 100
AcDbEntity
   8
LEVEL002
 370
30
 100
AcDbLine
   6
CONTINUOUS
  62
7
  10
 1170.8379310345
  20
 726.70788177340
  30
0.0
  11
 1170.8379310345
  21
 731.70788177340
  31
0.0
   0
LINE
   5
2D2
 100
AcDbEntity
   8
LEVEL002
 370
30
 100
AcDbLine
   6
CONTINUOUS
  62
7
  10
 1170.8379310345
  20
 731.70788177340
  30
0.0
  11
 1168.3379310345
  21
 731.70788177340
  31
0.0
   0
LINE
   5
2D3
 100
AcDbEntity
   8
LEVEL002
 370
30
 100
AcDbLine
   6
CONTINUOUS
  62
7
  10
 1168.3379310345
  20
 731.70788177340
  30
0.0
  11
 1168.3379310345
  21
 739.33644489227
  31
0.0
   0
LINE
   5
2D4
 100
AcDbEntity
   8
LEVEL002
 370
30
 100
AcDbLine
   6
CONTINUOUS
  62
7
  10
 579.93793103448
  20
 1286.1226883066
  30
0.0
  11
 579.93793103448
  21
 1374.3078817734
  31
0.0
   0
LINE
   5
2D5
 100
AcDbEntity
   8
LEVEL002
 370
30
 100
AcDbLine
   6
CONTINUOUS
  62
7
  10
 579.93793103448
  20
 1374.3078817734
  30
0.0
  11
 454.93793103448
  21
 1374.3078817734
  31
0.0
   0
LINE
   5
2D6
 100
AcDbEntity
   8
LEVEL002
 370
30
 100
AcDbLine
   6
CONTINUOUS
  62
7
  10
 454.93793103448
  20
 1374.3078817734
  30
0.0
  11
 454.93793103448
  21
 976.30788177340
  31
0.0
   0
LINE
   5
2D7
 100
AcDbEntity
   8
LEVEL002
 370
30
 100
AcDbLine
   6
CONTINUOUS
  62
7
  10
 454.93793103448
  20
 976.30788177340
  30
0.0
  11
 579.93793103448
  21
 976.30788177340
  31
0.0
   0
LINE
   5
2D8
 100
AcDbEntity
   8
LEVEL002
 370
30
 100
AcDbLine
   6
CONTINUOUS
  62
7
  10
 579.93793103448
  20
 976.30788177340
  30
0.0
  11
 579.93793103448
  21
 1054.8078817734
  31
0.0
   0
POINT
   5
2D9
 100
AcDbEntity
   8
LEVEL002
 100
AcDbPoint
  62
7
  10
 484.93793103448
  20
 1121.3078817734
  30
0.0
   0
CIRCLE
   5
2DA
 100
AcDbEntity
   8
LEVEL002
 370
30
 100
AcDbCircle
   6
CONTINUOUS
  62
7
  10
 484.93793103448
  20
 1121.3078817734
  30
0.0
  40
 20.000000000000
   0
LINE
   5
2DB
 100
AcDbEntity
   8
LEVEL002
 370
30
 100
AcDbLine
   6
CONTINUOUS
  62
7
  10
 579.93793103448
  20
 1067.8078817734
  30
0.0
  11
 579.93793103448
  21
 1131.2192764505
  31
0.0
   0
LINE
   5
2DC
 100
AcDbEntity
   8
LEVEL002
 370
30
 100
AcDbLine
   6
CONTINUOUS
  62
7
  10
 546.93793103448
  20
 1374.3078817734
  30
0.0
  11
 546.93793103448
  21
 1376.8078817734
  31
0.0
   0
LINE
   5
2DD
 100
AcDbEntity
   8
LEVEL002
 370
30
 100
AcDbLine
   6
CONTINUOUS
  62
7
  10
 546.93793103448
  20
 1376.8078817734
  30
0.0
  11
 570.93793103448
  21
 1376.8078817734
  31
0.0
   0
LINE
   5
2DE
 100
AcDbEntity
   8
LEVEL002
 370
30
 100
AcDbLine
   6
CONTINUOUS
  62
7
  10
 570.93793103448
  20
 1376.8078817734
  30
0.0
  11
 570.93793103448
  21
 1374.3078817734
  31
0.0
   0
LINE
   5
2DF
 100
AcDbEntity
   8
LEVEL002
 370
30
 100
AcDbLine
   6
CONTINUOUS
  62
7
  10
 570.93793103448
  20
 1374.3078817734
  30
0.0
  11
 546.93793103448
  21
 1374.3078817734
  31
0.0
   0
ELLIPSE
   5
2E0
 100
AcDbEntity
   8
LEVEL002
 370
30
   6
CONTINUOUS
  62
7
 100
AcDbEllipse
  10
 558.93793103448
  20
 1373.0121376394
  30
0.0
  11
0.0
  21
-13.795744133973
  31
0.0
  40
 1.0000000000000
  41
 2.7327213944910
  42
-2.7327213944910
   0
ELLIPSE
   5
2E1
 100
AcDbEntity
   8
LEVEL002
 370
30
   6
CONTINUOUS
  62
7
 100
AcDbEllipse
  10
 567.16517237040
  20
 1382.9325028983
  30
0.0
  11
0.0
  21
-3.8753788751037
  31
0.0
  40
 1.0000000000000
  41
 3.1415926535898
  42
-2.3554252670400
   0
LINE
   5
2E2
 100
AcDbEntity
   8
LEVEL002
 370
30
 100
AcDbLine
   6
CONTINUOUS
  62
7
  10
 547.96827591991
  20
 1376.8078817734
  30
0.0
  11
 569.90758614906
  21
 1376.8078817734
  31
0.0
   0
LINE
   5
2E3
 100
AcDbEntity
   8
LEVEL002
 370
30
 100
AcDbLine
   6
CONTINUOUS
  62
7
  10
 569.90758614906
  20
 1376.8078817734
  30
0.0
  11
 569.90758614906
  21
 1385.6707008627
  31
0.0
   0
LINE
   5
2E4
 100
AcDbEntity
   8
LEVEL002
 370
30
 100
AcDbLine
   6
CONTINUOUS
  62
7
  10
 569.90758614906
  20
 1385.6707008627
  30
0.0
  11
 567.93793103448
  21
 1386.8078817734
  31
0.0
   0
LINE
   5
2E5
 100
AcDbEntity
   8
LEVEL002
 370
30
 100
AcDbLine
   6
CONTINUOUS
  62
7
  10
 567.93793103448
  20
 1386.8078817734
  30
0.0
  11
 549.93793103448
  21
 1386.8078817734
  31
0.0
   0
LINE
   5
2E6
 100
AcDbEntity
   8
LEVEL002
 370
30
 100
AcDbLine
   6
CONTINUOUS
  62
7
  10
 549.93793103448
  20
 1386.8078817734
  30
0.0
  11
 547.96827591991
  21
 1385.6707008627
  31
0.0
   0
LINE
   5
2E7
 100
AcDbEntity
   8
LEVEL002
 370
30
 100
AcDbLine
   6
CONTINUOUS
  62
7
  10
 547.96827591991
  20
 1385.6707008627
  30
0.0
  11
 547.96827591991
  21
 1376.8078817734
  31
0.0
   0
LINE
   5
2E8
 100
AcDbEntity
   8
LEVEL002
 370
30
 100
AcDbLine
   6
CONTINUOUS
  62
7
  10
 564.42275859173
  20
 1376.8078817734
  30
0.0
  11
 564.42275859173
  21
 1385.6707008627
  31
0.0
   0
ELLIPSE
   5
2E9
 100
AcDbEntity
   8
LEVEL002
 370
30
   6
CONTINUOUS
  62
7
 100
AcDbEllipse
  10
 550.71068969857
  20
 1382.9325028983
  30
0.0
  11
0.0
  21
-3.8753788751037
  31
0.0
  40
 1.0000000000000
  41
 2.3554252670401
  42
 3.1415926535898
   0
LINE
   5
2EA
 100
AcDbEntity
   8
LEVEL002
 370
30
 100
AcDbLine
   6
CONTINUOUS
  62
7
  10
 553.45310347723
  20
 1376.8078817734
  30
0.0
  11
 553.45310347723
  21
 1385.6707008627
  31
0.0
   0
LINE
   5
2EB
 100
AcDbEntity
   8
LEVEL002
 370
30
 100
AcDbLine
   6
CONTINUOUS
  62
7
  10
 564.93793103448
  20
 1386.8078817734
  30
0.0
  11
 564.93793103448
  21
 1391.3078817734
  31
0.0
   0
LINE
   5
2EC
 100
AcDbEntity
   8
LEVEL002
 370
30
 100
AcDbLine
   6
CONTINUOUS
  62
7
  10
 564.93793103448
  20
 1391.3078817734
  30
0.0
  11
 561.93793103448
  21
 1391.3078817734
  31
0.0
   0
LINE
   5
2ED
 100
AcDbEntity
   8
LEVEL002
 370
30
 100
AcDbLine
   6
CONTINUOUS
  62
7
  10
 561.93793103448
  20
 1391.3078817734
  30
0.0
  11
 561.93793103448
  21
 1401.3078817734
  31
0.0
   0
LINE
   5
2EE
 100
AcDbEntity
   8
LEVEL002
 370
30
 100
AcDbLine
   6
CONTINUOUS
  62
7
  10
 561.93793103448
  20
 1401.3078817734
  30
0.0
  11
 555.93793103448
  21
 1401.3078817734
  31
0.0
   0
LINE
   5
2EF
 100
AcDbEntity
   8
LEVEL002
 370
30
 100
AcDbLine
   6
CONTINUOUS
  62
7
  10
 555.93793103448
  20
 1401.3078817734
  30
0.0
  11
 555.93793103448
  21
 1391.3078817734
  31
0.0
   0
LINE
   5
2F0
 100
AcDbEntity
   8
LEVEL002
 370
30
 100
AcDbLine
   6
CONTINUOUS
  62
7
  10
 555.93793103448
  20
 1391.3078817734
  30
0.0
  11
 552.93793103448
  21
 1391.3078817734
  31
0.0
   0
LINE
   5
2F1
 100
AcDbEntity
   8
LEVEL002
 370
30
 100
AcDbLine
   6
CONTINUOUS
  62
7
  10
 552.93793103448
  20
 1391.3078817734
  30
0.0
  11
 552.93793103448
  21
 1386.8078817734
  31
0.0
   0
LINE
   5
2F2
 100
AcDbEntity
   8
LEVEL002
 370
9
 100
AcDbLine
   6
DASHDOT
  62
1
  10
 558.93793103448
  20
 1350.3078817734
  30
0.0
  11
 558.93793103448
  21
 1413.3078817734
  31
0.0
   0
LINE
   5
2F3
 100
AcDbEntity
   8
LEVEL002
 370
30
 100
AcDbLine
   6
CONTINUOUS
  62
7
  10
 550.93793103448
  20
 1276.4259594944
  30
0.0
  11
 550.93793103447
  21
 1268.2122598011
  31
0.0
   0
ELLIPSE
   5
2F4
 100
AcDbEntity
   8
LEVEL002
 370
30
   6
CONTINUOUS
  62
7
 100
AcDbEllipse
  10
 563.43793103448
  20
 1268.2122598012
  30
0.0
  11
 12.500000000000
  21
0.0
  31
0.0
  40
 0.82136996932055
  41
-3.1415926192019
  42
-1.5707963267949
   0
ELLIPSE
   5
2F5
 100
AcDbEntity
   8
LEVEL002
 370
30
   6
CONTINUOUS
  62
7
 100
AcDbEllipse
  10
 555.63793103436
  20
 1266.5677799546
  30
0.0
  11
 12.500000000000
  21
0.0
  31
0.0
  40
 0.82136520071042
  41
-0.99698369974041
  42
 0.40320049033695E-7
   0
LINE
   5
2F6
 100
AcDbEntity
   8
LEVEL002
 370
30
 100
AcDbLine
   6
CONTINUOUS
  62
7
  10
 564.93793103448
  20
 1259.7075363115
  30
0.0
  11
 564.93793103448
  21
 1288.6177423813
  31
0.0
   0
LINE
   5
2F7
 100
AcDbEntity
   8
LEVEL002
 370
30
 100
AcDbLine
   6
CONTINUOUS
  62
7
  10
 564.93793103448
  20
 1288.6177423813
  30
0.0
  11
 561.93793103448
  21
 1288.6177423813
  31
0.0
   0
LINE
   5
2F8
 100
AcDbEntity
   8
LEVEL002
 370
30
 100
AcDbLine
   6
CONTINUOUS
  62
7
  10
 561.93793103448
  20
 1288.6177423813
  30
0.0
  11
 561.93793103448
  21
 1298.6177423813
  31
0.0
   0
LINE
   5
2F9
 100
AcDbEntity
   8
LEVEL002
 370
30
 100
AcDbLine
   6
CONTINUOUS
  62
7
  10
 561.93793103448
  20
 1298.6177423813
  30
0.0
  11
 555.93793103448
  21
 1298.6177423813
  31
0.0
   0
LINE
   5
2FA
 100
AcDbEntity
   8
LEVEL002
 370
30
 100
AcDbLine
   6
CONTINUOUS
  62
7
  10
 555.93793103448
  20
 1298.6177423813
  30
0.0
  11
 555.93793103448
  21
 1288.6177423813
  31
0.0
   0
LINE
   5
2FB
 100
AcDbEntity
   8
LEVEL002
 370
30
 100
AcDbLine
   6
CONTINUOUS
  62
7
  10
 555.93793103448
  20
 1288.6177423813
  30
0.0
  11
 552.93793103448
  21
 1288.6177423813
  31
0.0
   0
LINE
   5
2FC
 100
AcDbEntity
   8
LEVEL002
 370
30
 100
AcDbLine
   6
CONTINUOUS
  62
7
  10
 552.93793103448
  20
 1288.6177423813
  30
0.0
  11
 552.93793103448
  21
 1262.6414577102
  31
0.0
   0
ELLIPSE
   5
2FD
 100
AcDbEntity
   8
LEVEL002
 370
30
   6
CONTINUOUS
  62
7
 100
AcDbEllipse
  10
 563.43793103448
  20
 1276.4259594944
  30
0.0
  11
 12.500000000000
  21
0.0
  31
0.0
  40
 0.82136996932055
  41
 2.5680795682218
  42
-3.1415926192027
   0
ELLIPSE
   5
2FE
 100
AcDbEntity
   8
LEVEL002
 370
30
   6
CONTINUOUS
  62
7
 100
AcDbEllipse
  10
 563.43793103448
  20
 1275.8555636901
  30
0.0
  11
 12.500000000000
  21
0.0
  31
0.0
  40
 0.82136996932055
  41
 2.5680795682218
  42
-3.1415926192028
   0
ELLIPSE
   5
2FF
 100
AcDbEntity
   8
LEVEL002
 370
30
   6
CONTINUOUS
  62
7
 100
AcDbEllipse
  10
 555.63793103441
  20
 1274.9298138095
  30
0.0
  11
 12.500000000000
  21
0.0
  31
0.0
  40
 0.82136520071042
  41
 0.40316284226002E-7
  42
 0.73175936123559
   0
ELLIPSE
   5
300
 100
AcDbEntity
   8
LEVEL002
 370
30
   6
CONTINUOUS
  62
7
 100
AcDbEllipse
  10
 555.63793103441
  20
 1273.1045252623
  30
0.0
  11
 12.500000000000
  21
0.0
  31
0.0
  40
 0.82136520071042
  41
 0.40316284226002E-7
  42
 0.73175936123559
   0
LINE
   5
301
 100
AcDbEntity
   8
LEVEL002
 370
30
 100
AcDbLine
   6
CONTINUOUS
  62
7
  10
 579.93793103448
  20
 1286.1226883066
  30
0.0
  11
 564.93793103448
  21
 1286.1226883066
  31
0.0
   0
LINE
   5
302
 100
AcDbEntity
   8
LEVEL002
 370
30
 100
AcDbLine
   6
CONTINUOUS
  62
7
  10
 579.93793103448
  20
 1286.6930841109
  30
0.0
  11
 564.93793103448
  21
 1286.6930841109
  31
0.0
   0
LINE
   5
303
 100
AcDbEntity
   8
LEVEL002
 370
9
 100
AcDbLine
   6
DASHDOT
  62
1
  10
 558.93793103448
  20
 1211.3078817734
  30
0.0
  11
 558.93793103448
  21
 1317.3078817734
  31
0.0
   0
LINE
   5
304
 100
AcDbEntity
   8
LEVEL002
 370
30
 100
AcDbLine
   6
CONTINUOUS
  62
7
  10
 568.13793103441
  20
 1274.9298138094
  30
0.0
  11
 568.13793103436
  21
 1266.5677799546
  31
0.0
   0
LINE
   5
305
 100
AcDbEntity
   8
LEVEL002
 370
30
 100
AcDbLine
   6
CONTINUOUS
  62
7
  10
 563.43793103447
  20
 1257.9451351846
  30
0.0
  11
 571.63793103448
  21
 1257.9451351846
  31
0.0
   0
LINE
   5
306
 100
AcDbEntity
   8
LEVEL002
 370
30
 100
AcDbLine
   6
CONTINUOUS
  62
7
  10
 572.13793103448
  20
 1067.8078817734
  30
0.0
  11
 579.93793103448
  21
 1067.8078817734
  31
0.0
   0
LINE
   5
307
 100
AcDbEntity
   8
LEVEL002
 370
30
 100
AcDbLine
   6
CONTINUOUS
  62
7
  10
 572.13793103448
  20
 1054.8078817734
  30
0.0
  11
 579.93793103448
  21
 1054.8078817734
  31
0.0
   0
LINE
   5
308
 100
AcDbEntity
   8
LEVEL002
 370
30
 100
AcDbLine
   6
CONTINUOUS
  62
7
  10
 563.63793103448
  20
 1193.6210503335
  30
0.0
  11
 454.93793103448
  21
 1193.6210503335
  31
0.0
   0
LINE
   5
309
 100
AcDbEntity
   8
LEVEL002
 370
30
 100
AcDbLine
   6
CONTINUOUS
  62
7
  10
 579.93793103448
  20
 1372.3078817734
  30
0.0
  11
 582.13793103448
  21
 1372.3078817734
  31
0.0
   0
LINE
   5
30A
 100
AcDbEntity
   8
LEVEL002
 370
30
 100
AcDbLine
   6
CONTINUOUS
  62
7
  10
 582.13793103448
  20
 1372.3078817734
  30
0.0
  11
 582.13793103448
  21
 1266.8782327844
  31
0.0
   0
LINE
   5
30B
 100
AcDbEntity
   8
LEVEL002
 370
30
 100
AcDbLine
   6
CONTINUOUS
  62
7
  10
 1063.8879310345
  20
 986.30788177340
  30
0.0
  11
 1063.8879310345
  21
 938.62444746407
  31
0.0
   0
LINE
   5
30C
 100
AcDbEntity
   8
LEVEL002
 370
30
 100
AcDbLine
   6
CONTINUOUS
  62
7
  10
 1063.8879310345
  20
 938.62444746407
  30
0.0
  11
 1060.6879310345
  21
 938.62444746407
  31
0.0
   0
LINE
   5
30D
 100
AcDbEntity
   8
LEVEL002
 370
30
 100
AcDbLine
   6
CONTINUOUS
  62
7
  10
 1060.6879310345
  20
 938.62444746407
  30
0.0
  11
 1060.6879310345
  21
 984.64335061436
  31
0.0
   0
LINE
   5
30E
 100
AcDbEntity
   8
LEVEL002
 370
30
 100
AcDbLine
   6
CONTINUOUS
  62
7
  10
 1060.6879310345
  20
 942.00133533922
  30
0.0
  11
 1063.8879310345
  21
 942.00133533922
  31
0.0
   0
LINE
   5
30F
 100
AcDbEntity
   8
LEVEL002
 370
30
 100
AcDbLine
   6
CONTINUOUS
  62
7
  10
 1060.6879310345
  20
 976.30788177340
  30
0.0
  11
 524.63793103448
  21
 976.30788177340
  31
0.0
   0
LINE
   5
310
 100
AcDbEntity
   8
LEVEL002
 370
30
 100
AcDbLine
   6
CONTINUOUS
  62
7
  10
 524.63793103448
  20
 976.30788177340
  30
0.0
  11
 524.63793103448
  21
 974.30788177340
  31
0.0
   0
LINE
   5
311
 100
AcDbEntity
   8
LEVEL002
 370
30
 100
AcDbLine
   6
CONTINUOUS
  62
7
  10
 524.63793103448
  20
 974.30788177340
  30
0.0
  11
 1060.6879310345
  21
 974.30788177340
  31
0.0
   0
LINE
   5
312
 100
AcDbEntity
   8
LEVEL002
 370
30
 100
AcDbLine
   6
CONTINUOUS
  62
7
  10
 1069.3379310345
  20
 1286.1226883066
  30
0.0
  11
 1069.3379310345
  21
 1374.3078817734
  31
0.0
   0
LINE
   5
313
 100
AcDbEntity
   8
LEVEL002
 370
30
 100
AcDbLine
   6
CONTINUOUS
  62
7
  10
 1069.3379310345
  20
 1374.3078817734
  30
0.0
  11
 1194.3379310345
  21
 1374.3078817734
  31
0.0
   0
LINE
   5
314
 100
AcDbEntity
   8
LEVEL002
 370
30
 100
AcDbLine
   6
CONTINUOUS
  62
7
  10
 1194.3379310345
  20
 1374.3078817734
  30
0.0
  11
 1194.3379310345
  21
 976.30788177340
  31
0.0
   0
LINE
   5
315
 100
AcDbEntity
   8
LEVEL002
 370
30
 100
AcDbLine
   6
CONTINUOUS
  62
7
  10
 1194.3379310345
  20
 976.30788177340
  30
0.0
  11
 1069.3379310345
  21
 976.30788177340
  31
0.0
   0
LINE
   5
316
 100
AcDbEntity
   8
LEVEL002
 370
30
 100
AcDbLine
   6
CONTINUOUS
  62
7
  10
 1069.3379310345
  20
 976.30788177340
  30
0.0
  11
 1069.3379310345
  21
 1054.8078817734
  31
0.0
   0
LINE
   5
317
 100
AcDbEntity
   8
LEVEL002
 370
30
 100
AcDbLine
   6
CONTINUOUS
  62
7
  10
 1069.3379310345
  20
 1067.8078817734
  30
0.0
  11
 1069.3379310345
  21
 1131.2192764505
  31
0.0
   0
LINE
   5
318
 100
AcDbEntity
   8
LEVEL002
 370
30
 100
AcDbLine
   6
CONTINUOUS
  62
7
  10
 1069.3379310345
  20
 1372.3078817734
  30
0.0
  11
 1067.1379310345
  21
 1372.3078817734
  31
0.0
   0
LINE
   5
319
 100
AcDbEntity
   8
LEVEL002
 370
30
 100
AcDbLine
   6
CONTINUOUS
  62
7
  10
 1067.1379310345
  20
 1372.3078817734
  30
0.0
  11
 1067.1379310345
  21
 1266.8782327844
  31
0.0
   0
LINE
   5
31A
 100
AcDbEntity
   8
LEVEL002
 370
30
 100
AcDbLine
   6
CONTINUOUS
  62
7
  10
 1067.1379310345
  20
 1131.2192764505
  30
0.0
  11
 1067.1379310345
  21
 977.30788177340
  31
0.0
   0
LINE
   5
31B
 100
AcDbEntity
   8
LEVEL002
 370
30
 100
AcDbLine
   6
CONTINUOUS
  62
7
  10
 1067.1379310345
  20
 977.30788177340
  30
0.0
  11
 1069.3379310345
  21
 977.30788177340
  31
0.0
   0
LINE
   5
31C
 100
AcDbEntity
   8
LEVEL002
 370
30
 100
AcDbLine
   6
CONTINUOUS
  62
7
  10
 1076.8917197832
  20
 1067.8078817734
  30
0.0
  11
 1069.3379310345
  21
 1067.8078817734
  31
0.0
   0
LINE
   5
31D
 100
AcDbEntity
   8
LEVEL002
 370
30
 100
AcDbLine
   6
CONTINUOUS
  62
7
  10
 1076.8917197832
  20
 1054.8078817734
  30
0.0
  11
 1069.3379310345
  21
 1054.8078817734
  31
0.0
   0
LINE
   5
31E
 100
AcDbEntity
   8
LEVEL002
 370
30
 100
AcDbLine
   6
CONTINUOUS
  62
7
  10
 1102.3379310345
  20
 1374.3078817734
  30
0.0
  11
 1102.3379310345
  21
 1376.8078817734
  31
0.0
   0
LINE
   5
31F
 100
AcDbEntity
   8
LEVEL002
 370
30
 100
AcDbLine
   6
CONTINUOUS
  62
7
  10
 1102.3379310345
  20
 1376.8078817734
  30
0.0
  11
 1078.3379310345
  21
 1376.8078817734
  31
0.0
   0
LINE
   5
320
 100
AcDbEntity
   8
LEVEL002
 370
30
 100
AcDbLine
   6
CONTINUOUS
  62
7
  10
 1078.3379310345
  20
 1376.8078817734
  30
0.0
  11
 1078.3379310345
  21
 1374.3078817734
  31
0.0
   0
LINE
   5
321
 100
AcDbEntity
   8
LEVEL002
 370
30
 100
AcDbLine
   6
CONTINUOUS
  62
7
  10
 1078.3379310345
  20
 1374.3078817734
  30
0.0
  11
 1102.3379310345
  21
 1374.3078817734
  31
0.0
   0
ARC
   5
322
 100
AcDbEntity
   8
LEVEL002
 370
30
   6
CONTINUOUS
  62
7
 100
AcDbCircle
  10
 1090.3379310345
  20
 1373.0121376394
  30
0.0
  40
 13.795744133973
 100
AcDbArc
  50
 66.573402489440
  51
 113.42659751056
   0
ARC
   5
323
 100
AcDbEntity
   8
LEVEL002
 370
30
   6
CONTINUOUS
  62
7
 100
AcDbCircle
  10
 1082.1106896986
  20
 1382.9325028983
  30
0.0
  40
 3.8753788751036
 100
AcDbArc
  50
 44.955926759872
  51
 90.000000000000
   0
LINE
   5
324
 100
AcDbEntity
   8
LEVEL002
 370
30
 100
AcDbLine
   6
CONTINUOUS
  62
7
  10
 1101.3075861491
  20
 1376.8078817734
  30
0.0
  11
 1079.3682759199
  21
 1376.8078817734
  31
0.0
   0
LINE
   5
325
 100
AcDbEntity
   8
LEVEL002
 370
30
 100
AcDbLine
   6
CONTINUOUS
  62
7
  10
 1079.3682759199
  20
 1376.8078817734
  30
0.0
  11
 1079.3682759199
  21
 1385.6707008627
  31
0.0
   0
LINE
   5
326
 100
AcDbEntity
   8
LEVEL002
 370
30
 100
AcDbLine
   6
CONTINUOUS
  62
7
  10
 1079.3682759199
  20
 1385.6707008627
  30
0.0
  11
 1081.3379310345
  21
 1386.8078817734
  31
0.0
   0
LINE
   5
327
 100
AcDbEntity
   8
LEVEL002
 370
30
 100
AcDbLine
   6
CONTINUOUS
  62
7
  10
 1081.3379310345
  20
 1386.8078817734
  30
0.0
  11
 1099.3379310345
  21
 1386.8078817734
  31
0.0
   0
LINE
   5
328
 100
AcDbEntity
   8
LEVEL002
 370
30
 100
AcDbLine
   6
CONTINUOUS
  62
7
  10
 1099.3379310345
  20
 1386.8078817734
  30
0.0
  11
 1101.3075861491
  21
 1385.6707008627
  31
0.0
   0
LINE
   5
329
 100
AcDbEntity
   8
LEVEL002
 370
30
 100
AcDbLine
   6
CONTINUOUS
  62
7
  10
 1101.3075861491
  20
 1385.6707008627
  30
0.0
  11
 1101.3075861491
  21
 1376.8078817734
  31
0.0
   0
LINE
   5
32A
 100
AcDbEntity
   8
LEVEL002
 370
30
 100
AcDbLine
   6
CONTINUOUS
  62
7
  10
 1084.8531034772
  20
 1376.8078817734
  30
0.0
  11
 1084.8531034772
  21
 1385.6707008627
  31
0.0
   0
ARC
   5
32B
 100
AcDbEntity
   8
LEVEL002
 370
30
   6
CONTINUOUS
  62
7
 100
AcDbCircle
  10
 1098.5651723704
  20
 1382.9325028983
  30
0.0
  40
 3.8753788751036
 100
AcDbArc
  50
 90.000000000007
  51
 135.04407324013
   0
LINE
   5
32C
 100
AcDbEntity
   8
LEVEL002
 370
30
 100
AcDbLine
   6
CONTINUOUS
  62
7
  10
 1095.8227585917
  20
 1376.8078817734
  30
0.0
  11
 1095.8227585917
  21
 1385.6707008627
  31
0.0
   0
LINE
   5
32D
 100
AcDbEntity
   8
LEVEL002
 370
30
 100
AcDbLine
   6
CONTINUOUS
  62
7
  10
 1084.3379310345
  20
 1386.8078817734
  30
0.0
  11
 1084.3379310345
  21
 1391.3078817734
  31
0.0
   0
LINE
   5
32E
 100
AcDbEntity
   8
LEVEL002
 370
30
 100
AcDbLine
   6
CONTINUOUS
  62
7
  10
 1084.3379310345
  20
 1391.3078817734
  30
0.0
  11
 1087.3379310345
  21
 1391.3078817734
  31
0.0
   0
LINE
   5
32F
 100
AcDbEntity
   8
LEVEL002
 370
30
 100
AcDbLine
   6
CONTINUOUS
  62
7
  10
 1087.3379310345
  20
 1391.3078817734
  30
0.0
  11
 1087.3379310345
  21
 1401.3078817734
  31
0.0
   0
LINE
   5
330
 100
AcDbEntity
   8
LEVEL002
 370
30
 100
AcDbLine
   6
CONTINUOUS
  62
7
  10
 1087.3379310345
  20
 1401.3078817734
  30
0.0
  11
 1093.3379310345
  21
 1401.3078817734
  31
0.0
   0
LINE
   5
331
 100
AcDbEntity
   8
LEVEL002
 370
30
 100
AcDbLine
   6
CONTINUOUS
  62
7
  10
 1093.3379310345
  20
 1401.3078817734
  30
0.0
  11
 1093.3379310345
  21
 1391.3078817734
  31
0.0
   0
LINE
   5
332
 100
AcDbEntity
   8
LEVEL002
 370
30
 100
AcDbLine
   6
CONTINUOUS
  62
7
  10
 1093.3379310345
  20
 1391.3078817734
  30
0.0
  11
 1096.3379310345
  21
 1391.3078817734
  31
0.0
   0
LINE
   5
333
 100
AcDbEntity
   8
LEVEL002
 370
30
 100
AcDbLine
   6
CONTINUOUS
  62
7
  10
 1096.3379310345
  20
 1391.3078817734
  30
0.0
  11
 1096.3379310345
  21
 1386.8078817734
  31
0.0
   0
LINE
   5
334
 100
AcDbEntity
   8
LEVEL002
 370
30
 100
AcDbLine
   6
CONTINUOUS
  62
7
  10
 1084.3379310345
  20
 1259.7075363115
  30
0.0
  11
 1084.3379310345
  21
 1288.6177423813
  31
0.0
   0
LINE
   5
335
 100
AcDbEntity
   8
LEVEL002
 370
30
 100
AcDbLine
   6
CONTINUOUS
  62
7
  10
 1084.3379310345
  20
 1288.6177423813
  30
0.0
  11
 1087.3379310345
  21
 1288.6177423813
  31
0.0
   0
LINE
   5
336
 100
AcDbEntity
   8
LEVEL002
 370
30
 100
AcDbLine
   6
CONTINUOUS
  62
7
  10
 1087.3379310345
  20
 1288.6177423813
  30
0.0
  11
 1087.3379310345
  21
 1298.6177423813
  31
0.0
   0
LINE
   5
337
 100
AcDbEntity
   8
LEVEL002
 370
30
 100
AcDbLine
   6
CONTINUOUS
  62
7
  10
 1087.3379310345
  20
 1298.6177423813
  30
0.0
  11
 1093.3379310345
  21
 1298.6177423813
  31
0.0
   0
LINE
   5
338
 100
AcDbEntity
   8
LEVEL002
 370
30
 100
AcDbLine
   6
CONTINUOUS
  62
7
  10
 1093.3379310345
  20
 1298.6177423813
  30
0.0
  11
 1093.3379310345
  21
 1288.6177423813
  31
0.0
   0
LINE
   5
339
 100
AcDbEntity
   8
LEVEL002
 370
30
 100
AcDbLine
   6
CONTINUOUS
  62
7
  10
 1093.3379310345
  20
 1288.6177423813
  30
0.0
  11
 1096.3379310345
  21
 1288.6177423813
  31
0.0
   0
LINE
   5
33A
 100
AcDbEntity
   8
LEVEL002
 370
30
 100
AcDbLine
   6
CONTINUOUS
  62
7
  10
 1096.3379310345
  20
 1288.6177423813
  30
0.0
  11
 1096.3379310345
  21
 1262.6414577102
  31
0.0
   0
LINE
   5
33B
 100
AcDbEntity
   8
LEVEL002
 370
9
 100
AcDbLine
   6
DASHDOT
  62
1
  10
 1090.3379310345
  20
 1211.3078817734
  30
0.0
  11
 1090.3379310345
  21
 1317.3078817734
  31
0.0
   0
LINE
   5
33C
 100
AcDbEntity
   8
LEVEL002
 370
9
 100
AcDbLine
   6
DASHDOT
  62
1
  10
 1090.3379310345
  20
 1350.3078817734
  30
0.0
  11
 1090.3379310345
  21
 1413.3078817734
  31
0.0
   0
LINE
   5
33D
 100
AcDbEntity
   8
LEVEL002
 370
30
 100
AcDbLine
   6
CONTINUOUS
  62
7
  10
 1069.3379310345
  20
 1286.6930841109
  30
0.0
  11
 1084.3379310345
  21
 1286.6930841109
  31
0.0
   0
LINE
   5
33E
 100
AcDbEntity
   8
LEVEL002
 370
30
 100
AcDbLine
   6
CONTINUOUS
  62
7
  10
 1069.3379310345
  20
 1286.1226883066
  30
0.0
  11
 1084.3379310345
  21
 1286.1226883066
  31
0.0
   0
ELLIPSE
   5
33F
 100
AcDbEntity
   8
LEVEL002
 370
30
   6
CONTINUOUS
  62
7
 100
AcDbEllipse
  10
 1093.6379310345
  20
 1266.5677799546
  30
0.0
  11
-12.500000000000
  21
0.0
  31
0.0
  40
 0.82136520071042
  41
-0.40320071082573E-7
  42
 0.99698369974029
   0
LINE
   5
340
 100
AcDbEntity
   8
LEVEL002
 370
30
 100
AcDbLine
   6
CONTINUOUS
  62
7
  10
 1085.8379310344
  20
 1257.9451351846
  30
0.0
  11
 1077.6379310345
  21
 1257.9451351846
  31
0.0
   0
LINE
   5
341
 100
AcDbEntity
   8
LEVEL002
 370
30
 100
AcDbLine
   6
CONTINUOUS
  62
7
  10
 1081.1379310345
  20
 1274.9298138094
  30
0.0
  11
 1081.1379310345
  21
 1266.5677799546
  31
0.0
   0
ELLIPSE
   5
342
 100
AcDbEntity
   8
LEVEL002
 370
30
   6
CONTINUOUS
  62
7
 100
AcDbEllipse
  10
 1093.6379310345
  20
 1274.9298138095
  30
0.0
  11
-12.500000000000
  21
0.0
  31
0.0
  40
 0.82136520071042
  41
-0.73175936123559
  42
-0.40316283889791E-7
   0
ELLIPSE
   5
343
 100
AcDbEntity
   8
LEVEL002
 370
30
   6
CONTINUOUS
  62
7
 100
AcDbEllipse
  10
 1093.6379310345
  20
 1273.1045252623
  30
0.0
  11
-12.500000000000
  21
0.0
  31
0.0
  40
 0.82136520071042
  41
-0.73175936123559
  42
-0.40316283889791E-7
   0
ELLIPSE
   5
344
 100
AcDbEntity
   8
LEVEL002
 370
30
   6
CONTINUOUS
  62
7
 100
AcDbEllipse
  10
 1085.8379310345
  20
 1268.2122598012
  30
0.0
  11
-12.500000000000
  21
0.0
  31
0.0
  40
 0.82136996932055
  41
 1.5707963267949
  42
 3.1415926192019
   0
LINE
   5
345
 100
AcDbEntity
   8
LEVEL002
 370
30
 100
AcDbLine
   6
CONTINUOUS
  62
7
  10
 1098.3379310345
  20
 1276.4259594944
  30
0.0
  11
 1098.3379310345
  21
 1268.2122598011
  31
0.0
   0
ELLIPSE
   5
346
 100
AcDbEntity
   8
LEVEL002
 370
30
   6
CONTINUOUS
  62
7
 100
AcDbEllipse
  10
 1085.8379310345
  20
 1276.4259594944
  30
0.0
  11
-12.500000000000
  21
0.0
  31
0.0
  40
 0.82136996932055
  41
 3.1415926192027
  42
-2.5680795682218
   0
ELLIPSE
   5
347
 100
AcDbEntity
   8
LEVEL002
 370
30
   6
CONTINUOUS
  62
7
 100
AcDbEllipse
  10
 1085.8379310345
  20
 1275.8555636901
  30
0.0
  11
-12.500000000000
  21
0.0
  31
0.0
  40
 0.82136996932055
  41
 3.1415926192028
  42
-2.5680795682218
   0
POINT
   5
348
 100
AcDbEntity
   8
LEVEL002
 100
AcDbPoint
  62
7
  10
 1066.3879310345
  20
 1107.3078817734
  30
0.0
   0
LINE
   5
349
 100
AcDbEntity
   8
LEVEL002
 370
30
 100
AcDbLine
   6
CONTINUOUS
  62
7
  10
 583.13793103448
  20
 1101.3078817734
  30
0.0
  11
 582.88793103448
  21
 1101.3078817734
  31
0.0
   0
LINE
   5
34A
 100
AcDbEntity
   8
LEVEL002
 370
30
 100
AcDbLine
   6
CONTINUOUS
  62
7
  10
 582.88793103448
  20
 1101.3078817734
  30
0.0
  11
 582.88793103448
  21
 1113.3078817734
  31
0.0
   0
LINE
   5
34B
 100
AcDbEntity
   8
LEVEL002
 370
30
 100
AcDbLine
   6
CONTINUOUS
  62
7
  10
 582.88793103448
  20
 1113.3078817734
  30
0.0
  11
 1066.3879310345
  21
 1113.3078817734
  31
0.0
   0
LINE
   5
34C
 100
AcDbEntity
   8
LEVEL002
 370
30
 100
AcDbLine
   6
CONTINUOUS
  62
7
  10
 1066.3879310345
  20
 1113.3078817734
  30
0.0
  11
 1066.3879310345
  21
 1101.3078817734
  31
0.0
   0
LINE
   5
34D
 100
AcDbEntity
   8
LEVEL002
 370
30
 100
AcDbLine
   6
CONTINUOUS
  62
7
  10
 1066.3879310345
  20
 1101.3078817734
  30
0.0
  11
 1066.1379310345
  21
 1101.3078817734
  31
0.0
   0
POINT
   5
34E
 100
AcDbEntity
   8
LEVEL002
 100
AcDbPoint
  62
7
  10
 582.88793103448
  20
 1107.3078817734
  30
0.0
   0
LINE
   5
34F
 100
AcDbEntity
   8
LEVEL002
 370
30
 100
AcDbLine
   6
CONTINUOUS
  62
7
  10
 634.63793103448
  20
 1190.0375114030
  30
0.0
  11
 641.03793103448
  21
 1192.4078817734
  31
0.0
   0
LINE
   5
350
 100
AcDbEntity
   8
LEVEL002
 370
30
 100
AcDbLine
   6
CONTINUOUS
  62
7
  10
 641.03793103448
  20
 1192.4078817734
  30
0.0
  11
 651.83793103448
  21
 1188.4078817734
  31
0.0
   0
LINE
   5
351
 100
AcDbEntity
   8
LEVEL002
 370
30
 100
AcDbLine
   6
CONTINUOUS
  62
7
  10
 651.83793103448
  20
 1188.4078817734
  30
0.0
  11
 662.63793103448
  21
 1192.4078817734
  31
0.0
   0
LINE
   5
352
 100
AcDbEntity
   8
LEVEL002
 370
30
 100
AcDbLine
   6
CONTINUOUS
  62
7
  10
 662.63793103448
  20
 1192.4078817734
  30
0.0
  11
 673.43793103448
  21
 1188.4078817734
  31
0.0
   0
LINE
   5
353
 100
AcDbEntity
   8
LEVEL002
 370
30
 100
AcDbLine
   6
CONTINUOUS
  62
7
  10
 673.43793103448
  20
 1188.4078817734
  30
0.0
  11
 684.23793103448
  21
 1192.4078817734
  31
0.0
   0
LINE
   5
354
 100
AcDbEntity
   8
LEVEL002
 370
30
 100
AcDbLine
   6
CONTINUOUS
  62
7
  10
 684.23793103448
  20
 1192.4078817734
  30
0.0
  11
 695.03793103448
  21
 1188.4078817734
  31
0.0
   0
LINE
   5
355
 100
AcDbEntity
   8
LEVEL002
 370
30
 100
AcDbLine
   6
CONTINUOUS
  62
7
  10
 695.03793103448
  20
 1188.4078817734
  30
0.0
  11
 705.83793103448
  21
 1192.4078817734
  31
0.0
   0
LINE
   5
356
 100
AcDbEntity
   8
LEVEL002
 370
30
 100
AcDbLine
   6
CONTINUOUS
  62
7
  10
 705.83793103448
  20
 1192.4078817734
  30
0.0
  11
 716.63793103448
  21
 1188.4078817734
  31
0.0
   0
LINE
   5
357
 100
AcDbEntity
   8
LEVEL002
 370
30
 100
AcDbLine
   6
CONTINUOUS
  62
7
  10
 716.63793103448
  20
 1188.4078817734
  30
0.0
  11
 727.43793103448
  21
 1192.4078817734
  31
0.0
   0
LINE
   5
358
 100
AcDbEntity
   8
LEVEL002
 370
30
 100
AcDbLine
   6
CONTINUOUS
  62
7
  10
 727.43793103448
  20
 1192.4078817734
  30
0.0
  11
 738.23793103448
  21
 1188.4078817734
  31
0.0
   0
LINE
   5
359
 100
AcDbEntity
   8
LEVEL002
 370
30
 100
AcDbLine
   6
CONTINUOUS
  62
7
  10
 738.23793103448
  20
 1188.4078817734
  30
0.0
  11
 749.03793103448
  21
 1192.4078817734
  31
0.0
   0
LINE
   5
35A
 100
AcDbEntity
   8
LEVEL002
 370
30
 100
AcDbLine
   6
CONTINUOUS
  62
7
  10
 749.03793103448
  20
 1192.4078817734
  30
0.0
  11
 759.83793103448
  21
 1188.4078817734
  31
0.0
   0
LINE
   5
35B
 100
AcDbEntity
   8
LEVEL002
 370
30
 100
AcDbLine
   6
CONTINUOUS
  62
7
  10
 759.83793103448
  20
 1188.4078817734
  30
0.0
  11
 770.63793103448
  21
 1192.4078817734
  31
0.0
   0
LINE
   5
35C
 100
AcDbEntity
   8
LEVEL002
 370
30
 100
AcDbLine
   6
CONTINUOUS
  62
7
  10
 770.63793103448
  20
 1192.4078817734
  30
0.0
  11
 781.43793103448
  21
 1188.4078817734
  31
0.0
   0
LINE
   5
35D
 100
AcDbEntity
   8
LEVEL002
 370
30
 100
AcDbLine
   6
CONTINUOUS
  62
7
  10
 781.43793103448
  20
 1188.4078817734
  30
0.0
  11
 792.23793103448
  21
 1192.4078817734
  31
0.0
   0
LINE
   5
35E
 100
AcDbEntity
   8
LEVEL002
 370
30
 100
AcDbLine
   6
CONTINUOUS
  62
7
  10
 792.23793103448
  20
 1192.4078817734
  30
0.0
  11
 803.03793103448
  21
 1188.4078817734
  31
0.0
   0
LINE
   5
35F
 100
AcDbEntity
   8
LEVEL002
 370
30
 100
AcDbLine
   6
CONTINUOUS
  62
7
  10
 803.03793103448
  20
 1188.4078817734
  30
0.0
  11
 813.83793103448
  21
 1192.4078817734
  31
0.0
   0
LINE
   5
360
 100
AcDbEntity
   8
LEVEL002
 370
30
 100
AcDbLine
   6
CONTINUOUS
  62
7
  10
 813.83793103448
  20
 1192.4078817734
  30
0.0
  11
 824.63793103448
  21
 1188.4078817734
  31
0.0
   0
LINE
   5
361
 100
AcDbEntity
   8
LEVEL002
 370
30
 100
AcDbLine
   6
CONTINUOUS
  62
7
  10
 824.63793103448
  20
 1188.4078817734
  30
0.0
  11
 835.43793103448
  21
 1192.4078817734
  31
0.0
   0
LINE
   5
362
 100
AcDbEntity
   8
LEVEL002
 370
30
 100
AcDbLine
   6
CONTINUOUS
  62
7
  10
 835.43793103448
  20
 1192.4078817734
  30
0.0
  11
 846.23793103448
  21
 1188.4078817734
  31
0.0
   0
LINE
   5
363
 100
AcDbEntity
   8
LEVEL002
 370
30
 100
AcDbLine
   6
CONTINUOUS
  62
7
  10
 846.23793103448
  20
 1188.4078817734
  30
0.0
  11
 857.03793103448
  21
 1192.4078817734
  31
0.0
   0
LINE
   5
364
 100
AcDbEntity
   8
LEVEL002
 370
30
 100
AcDbLine
   6
CONTINUOUS
  62
7
  10
 857.03793103448
  20
 1192.4078817734
  30
0.0
  11
 867.83793103448
  21
 1188.4078817734
  31
0.0
   0
LINE
   5
365
 100
AcDbEntity
   8
LEVEL002
 370
30
 100
AcDbLine
   6
CONTINUOUS
  62
7
  10
 867.83793103448
  20
 1188.4078817734
  30
0.0
  11
 878.63793103448
  21
 1192.4078817734
  31
0.0
   0
LINE
   5
366
 100
AcDbEntity
   8
LEVEL002
 370
30
 100
AcDbLine
   6
CONTINUOUS
  62
7
  10
 878.63793103448
  20
 1192.4078817734
  30
0.0
  11
 889.43793103448
  21
 1188.4078817734
  31
0.0
   0
LINE
   5
367
 100
AcDbEntity
   8
LEVEL002
 370
30
 100
AcDbLine
   6
CONTINUOUS
  62
7
  10
 889.43793103448
  20
 1188.4078817734
  30
0.0
  11
 900.23793103448
  21
 1192.4078817734
  31
0.0
   0
LINE
   5
368
 100
AcDbEntity
   8
LEVEL002
 370
30
 100
AcDbLine
   6
CONTINUOUS
  62
7
  10
 900.23793103448
  20
 1192.4078817734
  30
0.0
  11
 911.03793103448
  21
 1188.4078817734
  31
0.0
   0
LINE
   5
369
 100
AcDbEntity
   8
LEVEL002
 370
30
 100
AcDbLine
   6
CONTINUOUS
  62
7
  10
 911.03793103448
  20
 1188.4078817734
  30
0.0
  11
 921.83793103448
  21
 1192.4078817734
  31
0.0
   0
LINE
   5
36A
 100
AcDbEntity
   8
LEVEL002
 370
30
 100
AcDbLine
   6
CONTINUOUS
  62
7
  10
 921.83793103448
  20
 1192.4078817734
  30
0.0
  11
 932.63793103448
  21
 1188.4078817734
  31
0.0
   0
LINE
   5
36B
 100
AcDbEntity
   8
LEVEL002
 370
30
 100
AcDbLine
   6
CONTINUOUS
  62
7
  10
 932.63793103448
  20
 1188.4078817734
  30
0.0
  11
 943.43793103448
  21
 1192.4078817734
  31
0.0
   0
LINE
   5
36C
 100
AcDbEntity
   8
LEVEL002
 370
30
 100
AcDbLine
   6
CONTINUOUS
  62
7
  10
 943.43793103448
  20
 1192.4078817734
  30
0.0
  11
 954.23793103448
  21
 1188.4078817734
  31
0.0
   0
LINE
   5
36D
 100
AcDbEntity
   8
LEVEL002
 370
30
 100
AcDbLine
   6
CONTINUOUS
  62
7
  10
 954.23793103448
  20
 1188.4078817734
  30
0.0
  11
 965.03793103448
  21
 1192.4078817734
  31
0.0
   0
LINE
   5
36E
 100
AcDbEntity
   8
LEVEL002
 370
30
 100
AcDbLine
   6
CONTINUOUS
  62
7
  10
 965.03793103448
  20
 1192.4078817734
  30
0.0
  11
 975.83793103448
  21
 1188.4078817734
  31
0.0
   0
LINE
   5
36F
 100
AcDbEntity
   8
LEVEL002
 370
30
 100
AcDbLine
   6
CONTINUOUS
  62
7
  10
 975.83793103448
  20
 1188.4078817734
  30
0.0
  11
 986.63793103448
  21
 1192.4078817734
  31
0.0
   0
LINE
   5
370
 100
AcDbEntity
   8
LEVEL002
 370
30
 100
AcDbLine
   6
CONTINUOUS
  62
7
  10
 986.63793103448
  20
 1192.4078817734
  30
0.0
  11
 997.43793103448
  21
 1188.4078817734
  31
0.0
   0
LINE
   5
371
 100
AcDbEntity
   8
LEVEL002
 370
30
 100
AcDbLine
   6
CONTINUOUS
  62
7
  10
 997.43793103448
  20
 1188.4078817734
  30
0.0
  11
 1008.2379310345
  21
 1192.4078817734
  31
0.0
   0
LINE
   5
372
 100
AcDbEntity
   8
LEVEL002
 370
30
 100
AcDbLine
   6
CONTINUOUS
  62
7
  10
 1008.2379310345
  20
 1192.4078817734
  30
0.0
  11
 1014.6379310345
  21
 1190.0375114030
  31
0.0
   0
LINE
   5
373
 100
AcDbEntity
   8
LEVEL002
 370
30
 100
AcDbLine
   6
CONTINUOUS
  62
7
  10
 634.63793103448
  20
 1198.0375114030
  30
0.0
  11
 641.03793103448
  21
 1200.4078817734
  31
0.0
   0
LINE
   5
374
 100
AcDbEntity
   8
LEVEL002
 370
30
 100
AcDbLine
   6
CONTINUOUS
  62
7
  10
 641.03793103448
  20
 1200.4078817734
  30
0.0
  11
 651.83793103448
  21
 1196.4078817734
  31
0.0
   0
LINE
   5
375
 100
AcDbEntity
   8
LEVEL002
 370
30
 100
AcDbLine
   6
CONTINUOUS
  62
7
  10
 651.83793103448
  20
 1196.4078817734
  30
0.0
  11
 662.63793103448
  21
 1200.4078817734
  31
0.0
   0
LINE
   5
376
 100
AcDbEntity
   8
LEVEL002
 370
30
 100
AcDbLine
   6
CONTINUOUS
  62
7
  10
 662.63793103448
  20
 1200.4078817734
  30
0.0
  11
 673.43793103448
  21
 1196.4078817734
  31
0.0
   0
LINE
   5
377
 100
AcDbEntity
   8
LEVEL002
 370
30
 100
AcDbLine
   6
CONTINUOUS
  62
7
  10
 673.43793103448
  20
 1196.4078817734
  30
0.0
  11
 684.23793103448
  21
 1200.4078817734
  31
0.0
   0
LINE
   5
378
 100
AcDbEntity
   8
LEVEL002
 370
30
 100
AcDbLine
   6
CONTINUOUS
  62
7
  10
 684.23793103448
  20
 1200.4078817734
  30
0.0
  11
 695.03793103448
  21
 1196.4078817734
  31
0.0
   0
LINE
   5
379
 100
AcDbEntity
   8
LEVEL002
 370
30
 100
AcDbLine
   6
CONTINUOUS
  62
7
  10
 695.03793103448
  20
 1196.4078817734
  30
0.0
  11
 705.83793103448
  21
 1200.4078817734
  31
0.0
   0
LINE
   5
37A
 100
AcDbEntity
   8
LEVEL002
 370
30
 100
AcDbLine
   6
CONTINUOUS
  62
7
  10
 705.83793103448
  20
 1200.4078817734
  30
0.0
  11
 716.63793103448
  21
 1196.4078817734
  31
0.0
   0
LINE
   5
37B
 100
AcDbEntity
   8
LEVEL002
 370
30
 100
AcDbLine
   6
CONTINUOUS
  62
7
  10
 716.63793103448
  20
 1196.4078817734
  30
0.0
  11
 727.43793103448
  21
 1200.4078817734
  31
0.0
   0
LINE
   5
37C
 100
AcDbEntity
   8
LEVEL002
 370
30
 100
AcDbLine
   6
CONTINUOUS
  62
7
  10
 727.43793103448
  20
 1200.4078817734
  30
0.0
  11
 738.23793103448
  21
 1196.4078817734
  31
0.0
   0
LINE
   5
37D
 100
AcDbEntity
   8
LEVEL002
 370
30
 100
AcDbLine
   6
CONTINUOUS
  62
7
  10
 738.23793103448
  20
 1196.4078817734
  30
0.0
  11
 749.03793103448
  21
 1200.4078817734
  31
0.0
   0
LINE
   5
37E
 100
AcDbEntity
   8
LEVEL002
 370
30
 100
AcDbLine
   6
CONTINUOUS
  62
7
  10
 749.03793103448
  20
 1200.4078817734
  30
0.0
  11
 759.83793103448
  21
 1196.4078817734
  31
0.0
   0
LINE
   5
37F
 100
AcDbEntity
   8
LEVEL002
 370
30
 100
AcDbLine
   6
CONTINUOUS
  62
7
  10
 759.83793103448
  20
 1196.4078817734
  30
0.0
  11
 770.63793103448
  21
 1200.4078817734
  31
0.0
   0
LINE
   5
380
 100
AcDbEntity
   8
LEVEL002
 370
30
 100
AcDbLine
   6
CONTINUOUS
  62
7
  10
 770.63793103448
  20
 1200.4078817734
  30
0.0
  11
 781.43793103448
  21
 1196.4078817734
  31
0.0
   0
LINE
   5
381
 100
AcDbEntity
   8
LEVEL002
 370
30
 100
AcDbLine
   6
CONTINUOUS
  62
7
  10
 781.43793103448
  20
 1196.4078817734
  30
0.0
  11
 792.23793103448
  21
 1200.4078817734
  31
0.0
   0
LINE
   5
382
 100
AcDbEntity
   8
LEVEL002
 370
30
 100
AcDbLine
   6
CONTINUOUS
  62
7
  10
 792.23793103448
  20
 1200.4078817734
  30
0.0
  11
 803.03793103448
  21
 1196.4078817734
  31
0.0
   0
LINE
   5
383
 100
AcDbEntity
   8
LEVEL002
 370
30
 100
AcDbLine
   6
CONTINUOUS
  62
7
  10
 803.03793103448
  20
 1196.4078817734
  30
0.0
  11
 813.83793103448
  21
 1200.4078817734
  31
0.0
   0
LINE
   5
384
 100
AcDbEntity
   8
LEVEL002
 370
30
 100
AcDbLine
   6
CONTINUOUS
  62
7
  10
 813.83793103448
  20
 1200.4078817734
  30
0.0
  11
 824.63793103448
  21
 1196.4078817734
  31
0.0
   0
LINE
   5
385
 100
AcDbEntity
   8
LEVEL002
 370
30
 100
AcDbLine
   6
CONTINUOUS
  62
7
  10
 824.63793103448
  20
 1196.4078817734
  30
0.0
  11
 835.43793103448
  21
 1200.4078817734
  31
0.0
   0
LINE
   5
386
 100
AcDbEntity
   8
LEVEL002
 370
30
 100
AcDbLine
   6
CONTINUOUS
  62
7
  10
 835.43793103448
  20
 1200.4078817734
  30
0.0
  11
 846.23793103448
  21
 1196.4078817734
  31
0.0
   0
LINE
   5
387
 100
AcDbEntity
   8
LEVEL002
 370
30
 100
AcDbLine
   6
CONTINUOUS
  62
7
  10
 846.23793103448
  20
 1196.4078817734
  30
0.0
  11
 857.03793103448
  21
 1200.4078817734
  31
0.0
   0
LINE
   5
388
 100
AcDbEntity
   8
LEVEL002
 370
30
 100
AcDbLine
   6
CONTINUOUS
  62
7
  10
 857.03793103448
  20
 1200.4078817734
  30
0.0
  11
 867.83793103448
  21
 1196.4078817734
  31
0.0
   0
LINE
   5
389
 100
AcDbEntity
   8
LEVEL002
 370
30
 100
AcDbLine
   6
CONTINUOUS
  62
7
  10
 867.83793103448
  20
 1196.4078817734
  30
0.0
  11
 878.63793103448
  21
 1200.4078817734
  31
0.0
   0
LINE
   5
38A
 100
AcDbEntity
   8
LEVEL002
 370
30
 100
AcDbLine
   6
CONTINUOUS
  62
7
  10
 878.63793103448
  20
 1200.4078817734
  30
0.0
  11
 889.43793103448
  21
 1196.4078817734
  31
0.0
   0
LINE
   5
38B
 100
AcDbEntity
   8
LEVEL002
 370
30
 100
AcDbLine
   6
CONTINUOUS
  62
7
  10
 889.43793103448
  20
 1196.4078817734
  30
0.0
  11
 900.23793103448
  21
 1200.4078817734
  31
0.0
   0
LINE
   5
38C
 100
AcDbEntity
   8
LEVEL002
 370
30
 100
AcDbLine
   6
CONTINUOUS
  62
7
  10
 900.23793103448
  20
 1200.4078817734
  30
0.0
  11
 911.03793103448
  21
 1196.4078817734
  31
0.0
   0
LINE
   5
38D
 100
AcDbEntity
   8
LEVEL002
 370
30
 100
AcDbLine
   6
CONTINUOUS
  62
7
  10
 911.03793103448
  20
 1196.4078817734
  30
0.0
  11
 921.83793103448
  21
 1200.4078817734
  31
0.0
   0
LINE
   5
38E
 100
AcDbEntity
   8
LEVEL002
 370
30
 100
AcDbLine
   6
CONTINUOUS
  62
7
  10
 921.83793103448
  20
 1200.4078817734
  30
0.0
  11
 932.63793103448
  21
 1196.4078817734
  31
0.0
   0
LINE
   5
38F
 100
AcDbEntity
   8
LEVEL002
 370
30
 100
AcDbLine
   6
CONTINUOUS
  62
7
  10
 932.63793103448
  20
 1196.4078817734
  30
0.0
  11
 943.43793103448
  21
 1200.4078817734
  31
0.0
   0
LINE
   5
390
 100
AcDbEntity
   8
LEVEL002
 370
30
 100
AcDbLine
   6
CONTINUOUS
  62
7
  10
 943.43793103448
  20
 1200.4078817734
  30
0.0
  11
 954.23793103448
  21
 1196.4078817734
  31
0.0
   0
LINE
   5
391
 100
AcDbEntity
   8
LEVEL002
 370
30
 100
AcDbLine
   6
CONTINUOUS
  62
7
  10
 954.23793103448
  20
 1196.4078817734
  30
0.0
  11
 965.03793103448
  21
 1200.4078817734
  31
0.0
   0
LINE
   5
392
 100
AcDbEntity
   8
LEVEL002
 370
30
 100
AcDbLine
   6
CONTINUOUS
  62
7
  10
 965.03793103448
  20
 1200.4078817734
  30
0.0
  11
 975.83793103448
  21
 1196.4078817734
  31
0.0
   0
LINE
   5
393
 100
AcDbEntity
   8
LEVEL002
 370
30
 100
AcDbLine
   6
CONTINUOUS
  62
7
  10
 975.83793103448
  20
 1196.4078817734
  30
0.0
  11
 986.63793103448
  21
 1200.4078817734
  31
0.0
   0
LINE
   5
394
 100
AcDbEntity
   8
LEVEL002
 370
30
 100
AcDbLine
   6
CONTINUOUS
  62
7
  10
 986.63793103448
  20
 1200.4078817734
  30
0.0
  11
 997.43793103448
  21
 1196.4078817734
  31
0.0
   0
LINE
   5
395
 100
AcDbEntity
   8
LEVEL002
 370
30
 100
AcDbLine
   6
CONTINUOUS
  62
7
  10
 997.43793103448
  20
 1196.4078817734
  30
0.0
  11
 1008.2379310345
  21
 1200.4078817734
  31
0.0
   0
LINE
   5
396
 100
AcDbEntity
   8
LEVEL002
 370
30
 100
AcDbLine
   6
CONTINUOUS
  62
7
  10
 1008.2379310345
  20
 1200.4078817734
  30
0.0
  11
 1014.6379310345
  21
 1198.0375114030
  31
0.0
   0
LINE
   5
397
 100
AcDbEntity
   8
LEVEL002
 370
30
 100
AcDbLine
   6
CONTINUOUS
  62
7
  10
 1715.2208348032
  20
 720.30788177340
  30
0.0
  11
 1715.2208348032
  21
 721.57070086277
  31
0.0
   0
LINE
   5
398
 100
AcDbEntity
   8
LEVEL002
 370
30
 100
AcDbLine
   6
CONTINUOUS
  62
7
  10
 1715.2208348032
  20
 721.57070086277
  30
0.0
  11
 1714.1379310344
  21
 722.70788177340
  31
0.0
   0
LINE
   5
399
 100
AcDbEntity
   8
LEVEL002
 370
30
 100
AcDbLine
   6
CONTINUOUS
  62
7
  10
 1714.1379310344
  20
 722.70788177340
  30
0.0
  11
 1700.1379310344
  21
 722.70788177340
  31
0.0
   0
LINE
   5
39A
 100
AcDbEntity
   8
LEVEL002
 370
30
 100
AcDbLine
   6
CONTINUOUS
  62
7
  10
 1700.1379310344
  20
 722.70788177340
  30
0.0
  11
 1699.0550272657
  21
 721.57070086277
  31
0.0
   0
LINE
   5
39B
 100
AcDbEntity
   8
LEVEL002
 370
30
 100
AcDbLine
   6
CONTINUOUS
  62
7
  10
 1699.0550272657
  20
 721.57070086277
  30
0.0
  11
 1699.0550272659
  21
 720.30788177340
  31
0.0
   0
LINE
   5
39C
 100
AcDbEntity
   8
LEVEL002
 370
30
 100
AcDbLine
   6
CONTINUOUS
  62
7
  10
 1699.0550272659
  20
 720.30788177340
  30
0.0
  11
 1715.2208348032
  21
 720.30788177340
  31
0.0
   0
LINE
   5
39D
 100
AcDbEntity
   8
LEVEL002
 370
30
 100
AcDbLine
   6
CONTINUOUS
  62
7
  10
 1703.0964791502
  20
 721.57070086277
  30
0.0
  11
 1703.0964791502
  21
 720.30788177340
  31
0.0
   0
LINE
   5
39E
 100
AcDbEntity
   8
LEVEL002
 370
30
 100
AcDbLine
   6
CONTINUOUS
  62
7
  10
 1711.1793829189
  20
 721.57070086277
  30
0.0
  11
 1711.1793829189
  21
 720.30788177340
  31
0.0
   0
ARC
   5
39F
 100
AcDbEntity
   8
LEVEL002
 370
30
   6
CONTINUOUS
  62
7
 100
AcDbCircle
  10
 1707.1379310345
  20
 714.95778959712
  30
0.0
  40
 7.7500921762708
 100
AcDbArc
  50
 58.568994004889
  51
 121.43100599522
   0
ARC
   5
3A0
 100
AcDbEntity
   8
LEVEL002
 370
30
   6
CONTINUOUS
  62
7
 100
AcDbCircle
  10
 1713.2001088610
  20
 720.34391588787
  30
0.0
  40
 2.3639658855270
 100
AcDbArc
  50
 89.999999999972
  51
 148.73801577638
   0
ARC
   5
3A1
 100
AcDbEntity
   8
LEVEL002
 370
30
   6
CONTINUOUS
  62
7
 100
AcDbCircle
  10
 1701.0757532079
  20
 720.34391588770
  30
0.0
  40
 2.3639658857093
 100
AcDbArc
  50
 31.261984225971
  51
 89.999999997448
   0
ARC
   5
3A2
 100
AcDbEntity
   8
LEVEL002
 370
30
   6
CONTINUOUS
  62
7
 100
AcDbCircle
  10
 1702.1379310345
  20
 739.33644489227
  30
0.0
  40
 4.0000000000000
 100
AcDbArc
  50
 15.298764031539
  51
 195.29876403154
   0
LINE
   5
3A3
 100
AcDbEntity
   8
LEVEL002
 370
30
 100
AcDbLine
   6
CONTINUOUS
  62
7
  10
 1708.3748301999
  20
 731.69624885882
  30
0.0
  11
 1705.9961834762
  21
 740.39185386324
  31
0.0
   0
LINE
   5
3A4
 100
AcDbEntity
   8
LEVEL002
 370
30
 100
AcDbLine
   6
CONTINUOUS
  62
7
  10
 1700.0852003749
  20
 731.68060043524
  30
0.0
  11
 1698.2796785928
  21
 738.28103592130
  31
0.0
   0
LINE
   5
3A5
 100
AcDbEntity
   8
LEVEL002
 370
30
 100
AcDbLine
   6
CONTINUOUS
  62
7
  10
 1700.0852003749
  20
 731.68060043524
  30
0.0
  11
 1713.6379310345
  21
 731.70788177340
  31
0.0
   0
LINE
   5
3A6
 100
AcDbEntity
   8
LEVEL002
 370
30
 100
AcDbLine
   6
CONTINUOUS
  62
7
  10
 1713.6379310345
  20
 731.70788177340
  30
0.0
  11
 1713.6379310345
  21
 726.70788177340
  31
0.0
   0
LINE
   5
3A7
 100
AcDbEntity
   8
LEVEL002
 370
30
 100
AcDbLine
   6
CONTINUOUS
  62
7
  10
 1713.6379310345
  20
 726.70788177340
  30
0.0
  11
 1716.1379310345
  21
 726.70788177340
  31
0.0
   0
LINE
   5
3A8
 100
AcDbEntity
   8
LEVEL002
 370
30
 100
AcDbLine
   6
CONTINUOUS
  62
7
  10
 1716.1379310345
  20
 726.70788177340
  30
0.0
  11
 1716.1379310345
  21
 722.70788177340
  31
0.0
   0
LINE
   5
3A9
 100
AcDbEntity
   8
LEVEL002
 370
30
 100
AcDbLine
   6
CONTINUOUS
  62
7
  10
 1716.1379310345
  20
 722.70788177340
  30
0.0
  11
 1698.1379310345
  21
 722.70788177340
  31
0.0
   0
LINE
   5
3AA
 100
AcDbEntity
   8
LEVEL002
 370
30
 100
AcDbLine
   6
CONTINUOUS
  62
7
  10
 1698.1379310345
  20
 722.70788177340
  30
0.0
  11
 1698.1379310345
  21
 726.70788177340
  31
0.0
   0
LINE
   5
3AB
 100
AcDbEntity
   8
LEVEL002
 370
30
 100
AcDbLine
   6
CONTINUOUS
  62
7
  10
 1698.1379310345
  20
 726.70788177340
  30
0.0
  11
 1700.6379310345
  21
 726.70788177340
  31
0.0
   0
LINE
   5
3AC
 100
AcDbEntity
   8
LEVEL002
 370
30
 100
AcDbLine
   6
CONTINUOUS
  62
7
  10
 1700.6379310345
  20
 726.70788177340
  30
0.0
  11
 1700.0852003749
  21
 731.68060043524
  31
0.0
   0
LINE
   5
3AD
 100
AcDbEntity
   8
LEVEL002
 370
30
 100
AcDbLine
   6
CONTINUOUS
  62
7
  10
 1713.6379310345
  20
 726.70788177340
  30
0.0
  11
 1700.6379310345
  21
 726.70788177340
  31
0.0
   0
POINT
   5
3AE
 100
AcDbEntity
   8
LEVEL002
 100
AcDbPoint
  62
7
  10
 1707.1379310345
  20
 721.05797394967
  30
0.0
   0
LINE
   5
3AF
 100
AcDbEntity
   8
LEVEL002
 370
30
 100
AcDbLine
   6
CONTINUOUS
  62
7
  10
 1437.1379310345
  20
 1086.3078817734
  30
0.0
  11
 1437.1379310345
  21
 1182.3078817734
  31
0.0
   0
LINE
   5
3B0
 100
AcDbEntity
   8
LEVEL002
 370
30
 100
AcDbLine
   6
CONTINUOUS
  62
7
  10
 1405.1379310345
  20
 990.30788177340
  30
0.0
  11
 1405.1379310345
  21
 1374.3078817734
  31
0.0
   0
LINE
   5
3B1
 100
AcDbEntity
   8
LEVEL002
 370
30
 100
AcDbLine
   6
CONTINUOUS
  62
7
  10
 1612.1379310345
  20
 1374.3078817734
  30
0.0
  11
 1612.1379310345
  21
 990.30788177340
  31
0.0
   0
LINE
   5
3B2
 100
AcDbEntity
   8
LEVEL002
 370
30
 100
AcDbLine
   6
CONTINUOUS
  62
7
  10
 2052.1379310345
  20
 1022.3078817734
  30
0.0
  11
 1405.1379310345
  21
 1022.3078817734
  31
0.0
   0
LINE
   5
3B3
 100
AcDbEntity
   8
LEVEL002
 370
30
 100
AcDbLine
   6
CONTINUOUS
  62
7
  10
 2052.1379310345
  20
 1374.3078817734
  30
0.0
  11
 1405.1379310345
  21
 1374.3078817734
  31
0.0
   0
LINE
   5
3B4
 100
AcDbEntity
   8
LEVEL002
 370
30
 100
AcDbLine
   6
CONTINUOUS
  62
7
  10
 1405.1379310345
  20
 1342.3078817734
  30
0.0
  11
 2052.1379310345
  21
 1342.3078817734
  31
0.0
   0
LINE
   5
3B5
 100
AcDbEntity
   8
LEVEL002
 370
30
 100
AcDbLine
   6
CONTINUOUS
  62
7
  10
 1405.1379310345
  20
 1310.3078817734
  30
0.0
  11
 2052.1379310345
  21
 1310.3078817734
  31
0.0
   0
LINE
   5
3B6
 100
AcDbEntity
   8
LEVEL002
 370
30
 100
AcDbLine
   6
CONTINUOUS
  62
7
  10
 1405.1379310345
  20
 1278.3078817734
  30
0.0
  11
 2052.1379310345
  21
 1278.3078817734
  31
0.0
   0
LINE
   5
3B7
 100
AcDbEntity
   8
LEVEL002
 370
30
 100
AcDbLine
   6
CONTINUOUS
  62
7
  10
 1405.1379310345
  20
 1246.3078817734
  30
0.0
  11
 2052.1379310345
  21
 1246.3078817734
  31
0.0
   0
LINE
   5
3B8
 100
AcDbEntity
   8
LEVEL002
 370
30
 100
AcDbLine
   6
CONTINUOUS
  62
7
  10
 1405.1379310345
  20
 1214.3078817734
  30
0.0
  11
 2052.1379310345
  21
 1214.3078817734
  31
0.0
   0
LINE
   5
3B9
 100
AcDbEntity
   8
LEVEL002
 370
30
 100
AcDbLine
   6
CONTINUOUS
  62
7
  10
 1405.1379310345
  20
 1182.3078817734
  30
0.0
  11
 2052.1379310345
  21
 1182.3078817734
  31
0.0
   0
LINE
   5
3BA
 100
AcDbEntity
   8
LEVEL002
 370
30
 100
AcDbLine
   6
CONTINUOUS
  62
7
  10
 1437.1379310345
  20
 1150.3078817734
  30
0.0
  11
 2052.1379310345
  21
 1150.3078817734
  31
0.0
   0
LINE
   5
3BB
 100
AcDbEntity
   8
LEVEL002
 370
30
 100
AcDbLine
   6
CONTINUOUS
  62
7
  10
 1437.1379310345
  20
 1118.3078817734
  30
0.0
  11
 2052.1379310345
  21
 1118.3078817734
  31
0.0
   0
LINE
   5
3BC
 100
AcDbEntity
   8
LEVEL002
 370
30
 100
AcDbLine
   6
CONTINUOUS
  62
7
  10
 1405.1379310345
  20
 1086.3078817734
  30
0.0
  11
 2052.1379310345
  21
 1086.3078817734
  31
0.0
   0
LINE
   5
3BD
 100
AcDbEntity
   8
LEVEL002
 370
30
 100
AcDbLine
   6
CONTINUOUS
  62
7
  10
 1405.1379310345
  20
 1054.3078817734
  30
0.0
  11
 2052.1379310345
  21
 1054.3078817734
  31
0.0
   0
LINE
   5
3BE
 100
AcDbEntity
   8
LEVEL002
 370
30
 100
AcDbLine
   6
CONTINUOUS
  62
7
  10
 2052.1379310345
  20
 1374.3078817734
  30
0.0
  11
 2052.1379310345
  21
 990.30788177340
  31
0.0
   0
LINE
   5
3BF
 100
AcDbEntity
   8
LEVEL002
 370
30
 100
AcDbLine
   6
CONTINUOUS
  62
7
  10
 1405.1379310345
  20
 990.30788177340
  30
0.0
  11
 2052.1379310345
  21
 990.30788177340
  31
0.0
   0
CIRCLE
   5
3C0
 100
AcDbEntity
   8
LEVEL002
 370
9
 100
AcDbCircle
   6
HIDDEN
  62
1
  10
 1558.1379310345
  20
 535.30788177340
  30
0.0
  40
 22.500000000000
   0
CIRCLE
   5
3C1
 100
AcDbEntity
   8
LEVEL002
 370
9
 100
AcDbCircle
   6
HIDDEN
  62
1
  10
 1603.1379310345
  20
 535.30788177340
  30
0.0
  40
 22.500000000000
   0
LINE
   5
3C2
 100
AcDbEntity
   8
LEVEL002
 370
9
 100
AcDbLine
   6
DASHDOT
  62
1
  10
 1529.2563576079
  20
 535.30788177340
  30
0.0
  11
 1634.1379310345
  21
 535.30788177340
  31
0.0
   0
LINE
   5
3C3
 100
AcDbEntity
   8
LEVEL002
 370
9
 100
AcDbLine
   6
DASHDOT
  62
1
  10
 1558.1379310345
  20
 563.52504086431
  30
0.0
  11
 1558.1379310345
  21
 506.30788177340
  31
0.0
   0
LINE
   5
3C4
 100
AcDbEntity
   8
LEVEL002
 370
9
 100
AcDbLine
   6
DASHDOT
  62
1
  10
 1603.1379310345
  20
 563.52504086431
  30
0.0
  11
 1603.1379310345
  21
 506.30788177340
  31
0.0
   0
MTEXT
   5
3C6
 100
AcDbEntity
   8
LEVEL002
 370
9
  62
1
 100
AcDbMText
  10
 1441.1379310345
  20
 1154.3078817734
  30
0.0
  40
 16.000000000000
  41
0.0
  71
7
  72
1
   1
\T1.000000;凹凸ロ－ル、平ロ－ル
   7
GMM001
  44
 0.79999984000003
   0
MTEXT
   5
3C8
 100
AcDbEntity
   8
LEVEL002
 370
9
  62
1
 100
AcDbMText
  10
 1441.1379310345
  20
 1090.3078817734
  30
0.0
  40
 16.000000000000
  41
0.0
  71
7
  72
1
   1
\T1.000000;安全カバ－
   7
GMM001
  44
 0.79999984000003
   0
MTEXT
   5
3CA
 100
AcDbEntity
   8
LEVEL002
 370
9
  62
1
 100
AcDbMText
  10
 1441.1379310345
  20
 1282.3078817734
  30
0.0
  40
 16.000000000000
  41
0.0
  71
7
  72
1
   1
\T1.000000;寸法（Ｗ×Ｄ×Ｈ）
   7
GMM001
  44
 0.79999984000003
   0
MTEXT
   5
3CC
 100
AcDbEntity
   8
LEVEL002
 370
9
  62
1
 100
AcDbMText
  10
 1617.1379310345
  20
 1346.3078817734
  30
0.0
  40
 16.000000000000
  41
0.0
  71
7
  72
1
   1
\T1.000000;手打麺機
   7
GMM001
  44
 0.79999984000003
   0
MTEXT
   5
3CE
 100
AcDbEntity
   8
LEVEL002
 370
9
  62
1
 100
AcDbMText
  10
 1617.1379310345
  20
 1314.3078817734
  30
0.0
  40
 16.000000000000
  41
0.0
  71
7
  72
1
   1
\T1.000000;さぬきＭ－３０１Ｐ型
   7
GMM001
  44
 0.79999984000003
   0
MTEXT
   5
3D0
 100
AcDbEntity
   8
LEVEL002
 370
9
  62
1
 100
AcDbMText
  10
 1617.1379310345
  20
 1282.3078817734
  30
0.0
  40
 16.000000000000
  41
0.0
  71
7
  72
1
   1
\T1.000000;７４０×４７５×４５５
   7
GMM001
  44
 0.79999984000003
   0
MTEXT
   5
3D2
 100
AcDbEntity
   8
LEVEL002
 370
9
  62
1
 100
AcDbMText
  10
 1617.1379310345
  20
 1186.3078817734
  30
0.0
  40
 16.000000000000
  41
0.0
  71
7
  72
1
   1
\T1.000000;４００Ｗ
   7
GMM001
  44
 0.79999984000003
   0
MTEXT
   5
3D4
 100
AcDbEntity
   8
LEVEL002
 370
9
  62
1
 100
AcDbMText
  10
 1617.1379310345
  20
 1154.3078817734
  30
0.0
  40
 16.000000000000
  41
0.0
  71
7
  72
1
   1
\T1.000000;ポリプロピレン　（長さ４８０）
   7
GMM001
  44
 0.79999984000003
   0
MTEXT
   5
3D6
 100
AcDbEntity
   8
LEVEL002
 370
9
  62
1
 100
AcDbMText
  10
 1617.1379310345
  20
 1090.3078817734
  30
0.0
  40
 16.000000000000
  41
0.0
  71
7
  72
1
   1
\T1.000000;ＳＵＳ４３０
   7
GMM001
  44
 0.79999984000003
   0
MTEXT
   5
3D8
 100
AcDbEntity
   8
LEVEL002
 370
9
  62
1
 100
AcDbMText
  10
 1412.1379310345
  20
 1145.3078817734
  30
0.0
  40
 16.000000000000
  41
0.0
  71
7
  72
1
   1
\T1.000000;材
   7
GMM001
  44
 0.79999984000003
   0
MTEXT
   5
3DA
 100
AcDbEntity
   8
LEVEL002
 370
9
  62
1
 100
AcDbMText
  10
 1412.1379310345
  20
 1102.6412151067
  30
0.0
  40
 16.000000000000
  41
0.0
  71
7
  72
1
   1
\T1.000000;質
   7
GMM001
  44
 0.79999984000003
   0
MTEXT
   5
3DC
 100
AcDbEntity
   8
LEVEL002
 370
9
  62
1
 100
AcDbMText
  10
 1441.1379310345
  20
 1186.3078817734
  30
0.0
  40
 16.000000000000
  41
0.0
  71
7
  72
1
   1
\W1.000000;\T1.000000;消\W0.500000;\T1.000000;  \W1.000000;\T1.000000;費\W0.500000;\T1.000000;  \W1.000000;\T1.000000;電\W0.500000;\T1.000000;  \W1.000000;\T1.000000;力
   7
GMM001
  44
 0.79999984000003
   0
MTEXT
   5
3DE
 100
AcDbEntity
   8
LEVEL002
 370
9
  62
1
 100
AcDbMText
  10
 1441.1379310345
  20
 1218.3078817734
  30
0.0
  40
 16.000000000000
  41
0.0
  71
7
  72
1
   1
\W1.000000;\T1.000000;電\W0.500000;\T1.000000;          \W1.000000;\T1.000000;源
   7
GMM001
  44
 0.79999984000003
   0
MTEXT
   5
3E0
 100
AcDbEntity
   8
LEVEL002
 370
9
  62
1
 100
AcDbMText
  10
 1441.1379310345
  20
 1250.3078817734
  30
0.0
  40
 16.000000000000
  41
0.0
  71
7
  72
1
   1
\W1.000000;\T1.000000;能\W0.500000;\T1.000000;          \W1.000000;\T1.000000;力
   7
GMM001
  44
 0.79999984000003
   0
MTEXT
   5
3E2
 100
AcDbEntity
   8
LEVEL002
 370
9
  62
1
 100
AcDbMText
  10
 1441.1379310345
  20
 1314.3078817734
  30
0.0
  40
 16.000000000000
  41
0.0
  71
7
  72
1
   1
\W1.000000;\T1.000000;型\W0.500000;\T1.000000;          \W1.000000;\T1.000000;式
   7
GMM001
  44
 0.79999984000003
   0
MTEXT
   5
3E4
 100
AcDbEntity
   8
LEVEL002
 370
9
  62
1
 100
AcDbMText
  10
 1441.1379310345
  20
 1346.3078817734
  30
0.0
  40
 16.000000000000
  41
0.0
  71
7
  72
1
   1
\W1.000000;\T1.000000;製　\W0.500000;\T1.000000;  \W1.000000;\T1.000000;品\W0.500000;\T1.000000;  \W1.000000;\T1.000000;　名
   7
GMM001
  44
 0.79999984000003
   0
MTEXT
   5
3E6
 100
AcDbEntity
   8
LEVEL002
 370
9
  62
1
 100
AcDbMText
  10
 1441.1379310345
  20
 1026.3078817734
  30
0.0
  40
 16.000000000000
  41
0.0
  71
7
  72
1
   1
\T1.000000;電源プラグ
   7
GMM001
  44
 0.79999984000003
   0
MTEXT
   5
3E8
 100
AcDbEntity
   8
LEVEL002
 370
9
  62
1
 100
AcDbMText
  10
 1441.1379310345
  20
 994.30788177340
  30
0.0
  40
 16.000000000000
  41
0.0
  71
7
  72
1
   1
\T1.000000;製品重量
   7
GMM001
  44
 0.79999984000003
   0
MTEXT
   5
3EA
 100
AcDbEntity
   8
LEVEL002
 370
9
  62
1
 100
AcDbMText
  10
 1617.1379310345
  20
 994.30788177340
  30
0.0
  40
 16.000000000000
  41
0.0
  71
7
  72
1
   1
\T1.000000;９０ｋｇ
   7
GMM001
  44
 0.79999984000003
   0
MTEXT
   5
3EC
 100
AcDbEntity
   8
LEVEL002
 370
9
  62
1
 100
AcDbMText
  10
 1441.1379310345
  20
 1058.3078817734
  30
0.0
  40
 16.000000000000
  41
0.0
  71
7
  72
1
   1
\T1.000000;コ－ド長さ
   7
GMM001
  44
 0.79999984000003
   0
MTEXT
   5
3EE
 100
AcDbEntity
   8
LEVEL002
 370
9
  62
1
 100
AcDbMText
  10
 1617.1379310345
  20
 1058.3078817734
  30
0.0
  40
 16.000000000000
  41
0.0
  71
7
  72
1
   1
\T1.000000;３．０ｍ
   7
GMM001
  44
 0.79999984000003
   0
MTEXT
   5
3F0
 100
AcDbEntity
   8
LEVEL002
 370
9
  62
1
 100
AcDbMText
  10
 1617.1379310345
  20
 1250.3078817734
  30
0.0
  40
 16.000000000000
  41
0.0
  71
7
  72
1
   1
\T1.000000;１５０～２００食／時
   7
GMM001
  44
 0.79999984000003
   0
MTEXT
   5
3F2
 100
AcDbEntity
   8
LEVEL002
 370
9
  62
1
 100
AcDbMText
  10
 1617.1379310345
  20
 1122.3078817734
  30
0.0
  40
 16.000000000000
  41
0.0
  71
7
  72
1
   1
\T1.000000;ＳＵＳ３０３
   7
GMM001
  44
 0.79999984000003
   0
MTEXT
   5
3F4
 100
AcDbEntity
   8
LEVEL002
 370
9
  62
1
 100
AcDbMText
  10
 1441.1379310345
  20
 1122.3078817734
  30
0.0
  40
 16.000000000000
  41
0.0
  71
7
  72
1
   1
\W1.000000;\T1.000000;切り刃\W0.500000;\T1.000000; (\W1.000000;\T1.000000;スリッタ－）
   7
GMM001
  44
 0.79999984000003
   0
MTEXT
   5
3F6
 100
AcDbEntity
   8
LEVEL002
 370
9
  62
1
 100
AcDbMText
  10
 1617.1379310345
  20
 1218.3078817734
  30
0.0
  40
 16.000000000000
  41
0.0
  71
7
  72
1
   1
\T1.000000;単相１００Ｖ　５０／６０Ｈｚ
   7
GMM001
  44
 0.79999984000003
   0
MTEXT
   5
3F8
 100
AcDbEntity
   8
LEVEL002
 370
9
  62
1
 100
AcDbMText
  10
 1617.1379310345
  20
 1026.3078817734
  30
0.0
  40
 16.000000000000
  41
0.0
  71
7
  72
1
   1
\T1.000000;２Ｐ１５Ａ
   7
GMM001
  44
 0.79999984000003
   0
DIMENSION
   5
3F9
 100
AcDbEntity
   8
LEVEL001
 370
30
   6
CONTINUOUS
  62
7
 100
AcDbDimension
   2
*D1
  10
 1194.6379310345
  20
 816.28145743431
  30
0.0
  11
 824.63793103448
  21
 816.28145743431
  31
0.0
  70
0
   3
GMM001
 100
AcDbAlignedDimension
  13
 454.63793103448
  23
 737.75272180213
  33
0.0
  14
 1194.6379310345
  24
 735.17800915845
  34
0.0
 100
AcDbRotatedDimension
   0
DIMENSION
   5
3FA
 100
AcDbEntity
   8
LEVEL001
 370
30
   6
CONTINUOUS
  62
7
 100
AcDbDimension
   2
*D2
  10
 1267.8234360089
  20
 304.30788177340
  30
0.0
  11
 1267.8234360089
  21
 531.80788177340
  31
0.0
  70
0
   3
GMM001
 100
AcDbAlignedDimension
  13
 1099.3556762079
  23
 759.30788177340
  33
0.0
  14
 1205.4195331683
  24
 304.30788177340
  34
0.0
  50
 270.00000000000
 100
AcDbRotatedDimension
   0
DIMENSION
   5
3FB
 100
AcDbEntity
   8
LEVEL001
 370
30
   6
CONTINUOUS
  62
7
 100
AcDbDimension
   2
*D3
  10
 1950.1379310345
  20
 816.28145743431
  30
0.0
  11
 1712.6379310345
  21
 816.28145743431
  31
0.0
  70
0
   3
GMM001
 100
AcDbAlignedDimension
  13
 1475.1379310345
  23
 625.31383166689
  33
0.0
  14
 1950.1379310345
  24
 589.27540898514
  34
0.0
 100
AcDbRotatedDimension
   0
MTEXT
   5
3FD
 100
AcDbEntity
   8
LEVEL001
 370
30
  62
7
 100
AcDbMText
  10
 1887.4482758621
  20
 177.93103448276
  30
0.0
  40
 16.000000000000
  41
0.0
  71
7
  72
1
   1
\W0.500000;\T1.000000;M301P \W1.000000;\T1.000000;承認図
   7
GMM001
  44
 0.79999984000003
   0
MTEXT
   5
3FF
 100
AcDbEntity
   8
LEVEL001
 370
30
  62
7
 100
AcDbMText
  10
 2177.4482758621
  20
 177.93103448276
  30
0.0
  40
 16.000000000000
  41
0.0
  71
7
  72
1
   1
\T1.000000;M301P-A
   7
GMM002
  44
 0.79999984000003
   0
MTEXT
   5
401
 100
AcDbEntity
   8
LEVEL001
 370
30
  62
7
 100
AcDbMText
  10
 2171.4482758621
  20
 105.93103448276
  30
0.0
  40
 16.000000000000
  41
0.0
  71
7
  72
1
   1
\T1.000000;'22
   7
GMM002
  44
 0.79999984000003
   0
MTEXT
   5
403
 100
AcDbEntity
   8
LEVEL001
 370
30
  62
7
 100
AcDbMText
  10
 2211.4482758621
  20
 105.93103448276
  30
0.0
  40
 16.000000000000
  41
0.0
  71
7
  72
1
   1
\T1.000000;3
   7
GMM002
  44
 0.79999984000003
   0
MTEXT
   5
405
 100
AcDbEntity
   8
LEVEL001
 370
30
  62
7
 100
AcDbMText
  10
 2239.4482758621
  20
 105.93103448276
  30
0.0
  40
 16.000000000000
  41
0.0
  71
7
  72
1
   1
\T1.000000;17
   7
GMM002
  44
 0.79999984000003
   0
MTEXT
   5
407
 100
AcDbEntity
   8
LEVEL001
 370
30
  62
7
 100
AcDbMText
  10
 2277.4482758621
  20
 105.93103448276
  30
0.0
  40
 16.000000000000
  41
0.0
  71
7
  72
1
   1
\T1.000000;宮崎
   7
GMM001
  44
 0.79999984000003
   0
ENDSEC
  0
SECTION
  2
OBJECTS
  0
DICTIONARY
  5
C
100
AcDbDictionary
  3
ACAD_GROUP
350
D
  3
ACAD_MLINESTYLE
350
1B
  3
DWGPROPS
350
1C
  0
DICTIONARY
  5
D
102
{ACAD_REACTORS
330
C
102
}
100
AcDbDictionary
  0
DICTIONARY
  5
1B
102
{ACAD_REACTORS
330
C
102
}
100
AcDbDictionary
  3
STANDARD
350
1D
  0
MLINESTYLE
  5
1D
102
{ACAD_REACTORS
330
1B
102
}
100
AcDbMlineStyle
  2
STANDARD
 70
     0
  3

 62
   256
 51
90.0
 52
90.0
 71
     2
 49
0.5
 62
   256
  6
BYLAYER
 49
-0.5
 62
   256
  6
BYLAYER
   0
XRECORD
   5
1C
 102
{ACAD_REACTORS
 330
C
 102
}
 330
C
 100
AcDbXrecord
 280
1
   1
DWGPROPS COOKIE
   2
 
   3
 
   4
 
   6
 
   7
M301P-A
   8
 
   9

 300
 = 
 301
 = 
 302
 = 
 303
 = 
 304
 = 
 305
 = 
 306
 = 
 307
 = 
 308
 = 
 309
 = 
  40
0.0
  41
 2459655.5000000
  42
 2459656.5000000
   1

  90
10
   0
ENDSEC
   0
EOF
