   0
SECTION
   2
HEADER
   9
$ACADVER
   1
AC1015
   9
$DWGCODEPAGE
   3
ANSI_932
   9
$LIMMIN
  10
0.0
  20
0.0
   9
$LIMMAX
  10
 4752.0000000000
  20
 3360.0000000000
   9
$EXTMIN
  10
0.0
  20
0.0
  30
0.0
   9
$EXTMAX
  10
 4752.0000000000
  20
 3360.0000000000
  30
0.0
   9
$LTSCALE
  40
 95.040000000000
   9
$HANDSEED
   5
368
   0
ENDSEC
   0
SECTION
   2
TABLES
  0
TABLE
  2
VPORT
  5
8
100
AcDbSymbolTable
 70
     1
  0
VPORT
  5
367
100
AcDbSymbolTableRecord
100
AcDbViewportTableRecord
  2
*ACTIVE
 70
     0
 10
0.0
 20
0.0
 11
1.0
 21
1.0
  12
 2376.0000000000
  22
 1680.0000000000
 13
0.0
 23
0.0
 14
1.0
 24
1.0
 15
0.0
 25
0.0
 16
0.0
 26
0.0
 36
1.0
 17
0.0
 27
0.0
 37
0.0
  40
 4752.0000000000
  41
 1.4787878787879
 42
50.0
 43
0.0
 44
0.0
 50
0.0
 51
0.0
 71
     0
 72
   100
 73
     1
 74
     1
 75
     0
 76
     0
 77
     0
 78
     0
  0
ENDTAB
  0
TABLE
  2
LTYPE
  5
5
100
AcDbSymbolTable
 70
    25
  0
LTYPE
  5
12
100
AcDbSymbolTableRecord
100
AcDbLinetypeTableRecord
  2
BYBLOCK
 70
     0
  3

 72
    65
 73
     0
 40
0.0
  0
LTYPE
  5
13
100
AcDbSymbolTableRecord
100
AcDbLinetypeTableRecord
  2
BYLAYER
 70
     0
  3

 72
    65
 73
     0
 40
0.0
  0
LTYPE
  5
14
100
AcDbSymbolTableRecord
100
AcDbLinetypeTableRecord
  2
CONTINUOUS
 70
     0
  3
Solid line
 72
    65
 73
     0
 40
0.0
  0
LTYPE
  5
20
100
AcDbSymbolTableRecord
100
AcDbLinetypeTableRecord
  2
BORDER
 70
     0
  3
__ __ . __ __ . __ __ . __ __ . __ __ . __ __ .
 72
    65
 73
     6
 40
1.75
 49
0.5
 74
     0
 49
-0.25
 74
     0
 49
0.5
 74
     0
 49
-0.25
 74
     0
 49
0.0
 74
     0
 49
-0.25
 74
     0
  0
LTYPE
  5
21
100
AcDbSymbolTableRecord
100
AcDbLinetypeTableRecord
  2
BORDER2
 70
     0
  3
__.__.__.__.__.__.__.__.__.__.__.__.__.__.__.__
 72
    65
 73
     6
 40
0.875
 49
0.25
 74
     0
 49
-0.125
 74
     0
 49
0.25
 74
     0
 49
-0.125
 74
     0
 49
0.0
 74
     0
 49
-0.125
 74
     0
  0
LTYPE
  5
22
100
AcDbSymbolTableRecord
100
AcDbLinetypeTableRecord
  2
BORDERX2
 70
     0
  3
____  ____  .  ____  ____  .  ____  ____  .  __
 72
    65
 73
     6
 40
3.5
 49
1.0
 74
     0
 49
-0.5
 74
     0
 49
1.0
 74
     0
 49
-0.5
 74
     0
 49
0.0
 74
     0
 49
-0.5
 74
     0
  0
LTYPE
  5
23
100
AcDbSymbolTableRecord
100
AcDbLinetypeTableRecord
  2
CENTER
 70
     0
  3
____ _ ____ _ ____ _ ____ _ ____ _ ____ _ ____ 
 72
    65
 73
     4
 40
2.0
 49
1.25
 74
     0
 49
-0.25
 74
     0
 49
0.25
 74
     0
 49
-0.25
 74
     0
  0
LTYPE
  5
24
100
AcDbSymbolTableRecord
100
AcDbLinetypeTableRecord
  2
CENTER2
 70
     0
  3
___ _ ___ _ ___ _ ___ _ ___ _ ___ _ ___ _ ___ _
 72
    65
 73
     4
 40
1.125
 49
0.75
 74
     0
 49
-0.125
 74
     0
 49
0.125
 74
     0
 49
-0.125
 74
     0
  0
LTYPE
  5
25
100
AcDbSymbolTableRecord
100
AcDbLinetypeTableRecord
  2
CENTERX2
 70
     0
  3
________  __  ________  __  ________  __  _____
 72
    65
 73
     4
 40
4.0
 49
2.5
 74
     0
 49
-0.5
 74
     0
 49
0.5
 74
     0
 49
-0.5
 74
     0
  0
LTYPE
  5
26
100
AcDbSymbolTableRecord
100
AcDbLinetypeTableRecord
  2
DASHDOT
 70
     0
  3
__ . __ . __ . __ . __ . __ . __ . __ . __ . __
 72
    65
 73
     4
 40
1.0
 49
0.5
 74
     0
 49
-0.25
 74
     0
 49
0.0
 74
     0
 49
-0.25
 74
     0
  0
LTYPE
  5
27
100
AcDbSymbolTableRecord
100
AcDbLinetypeTableRecord
  2
DASHDOT2
 70
     0
  3
_._._._._._._._._._._._._._._._._._._._._._._._
 72
    65
 73
     4
 40
0.5
 49
0.25
 74
     0
 49
-0.125
 74
     0
 49
0.0
 74
     0
 49
-0.125
 74
     0
  0
LTYPE
  5
28
100
AcDbSymbolTableRecord
100
AcDbLinetypeTableRecord
  2
DASHDOTX2
 70
     0
  3
____  .  ____  .  ____  .  ____  .  ____  .  __
 72
    65
 73
     4
 40
2.0
 49
1.0
 74
     0
 49
-0.5
 74
     0
 49
0.0
 74
     0
 49
-0.5
 74
     0
  0
LTYPE
  5
29
100
AcDbSymbolTableRecord
100
AcDbLinetypeTableRecord
  2
DASHED
 70
     0
  3
__ __ __ __ __ __ __ __ __ __ __ __ __ __ __ __
 72
    65
 73
     2
 40
0.75
 49
0.5
 74
     0
 49
-0.25
 74
     0
  0
LTYPE
  5
2A
100
AcDbSymbolTableRecord
100
AcDbLinetypeTableRecord
  2
DASHED2
 70
     0
  3
_ _ _ _ _ _ _ _ _ _ _ _ _ _ _ _ _ _ _ _ _ _ _ _
 72
    65
 73
     2
 40
0.375
 49
0.25
 74
     0
 49
-0.125
 74
     0
  0
LTYPE
  5
2B
100
AcDbSymbolTableRecord
100
AcDbLinetypeTableRecord
  2
DASHEDX2
 70
     0
  3
____  ____  ____  ____  ____  ____  ____  ____ 
 72
    65
 73
     2
 40
1.5
 49
1.0
 74
     0
 49
-0.5
 74
     0
  0
LTYPE
  5
2C
100
AcDbSymbolTableRecord
100
AcDbLinetypeTableRecord
  2
DIVIDE
 70
     0
  3
____ . . ____ . . ____ . . ____ . . ____ . . __
 72
    65
 73
     6
 40
1.25
 49
0.5
 74
     0
 49
-0.25
 74
     0
 49
0.0
 74
     0
 49
-0.25
 74
     0
 49
0.0
 74
     0
 49
-0.25
 74
     0
  0
LTYPE
  5
2D
100
AcDbSymbolTableRecord
100
AcDbLinetypeTableRecord
  2
DIVIDE2
 70
     0
  3
__..__..__..__..__..__..__..__..__..__..__..__.
 72
    65
 73
     6
 40
0.625
 49
0.25
 74
     0
 49
-0.125
 74
     0
 49
0.0
 74
     0
 49
-0.125
 74
     0
 49
0.0
 74
     0
 49
-0.125
 74
     0
  0
LTYPE
  5
2E
100
AcDbSymbolTableRecord
100
AcDbLinetypeTableRecord
  2
DIVIDEX2
 70
     0
  3
________  .  .  ________  .  .  ________  .  . 
 72
    65
 73
     6
 40
2.5
 49
1.0
 74
     0
 49
-0.5
 74
     0
 49
0.0
 74
     0
 49
-0.5
 74
     0
 49
0.0
 74
     0
 49
-0.5
 74
     0
  0
LTYPE
  5
2F
100
AcDbSymbolTableRecord
100
AcDbLinetypeTableRecord
  2
DOT
 70
     0
  3
. . . . . . . . . . . . . . . . . . . . . . . .
 72
    65
 73
     2
 40
0.25
 49
0.0
 74
     0
 49
-0.25
 74
     0
  0
LTYPE
  5
30
100
AcDbSymbolTableRecord
100
AcDbLinetypeTableRecord
  2
DOT2
 70
     0
  3
...............................................
 72
    65
 73
     2
 40
0.125
 49
0.0
 74
     0
 49
-0.125
 74
     0
  0
LTYPE
  5
31
100
AcDbSymbolTableRecord
100
AcDbLinetypeTableRecord
  2
DOTX2
 70
     0
  3
.  .  .  .  .  .  .  .  .  .  .  .  .  .  .  . 
 72
    65
 73
     2
 40
0.5
 49
0.0
 74
     0
 49
-0.5
 74
     0
  0
LTYPE
  5
32
100
AcDbSymbolTableRecord
100
AcDbLinetypeTableRecord
  2
HIDDEN
 70
     0
  3
__ __ __ __ __ __ __ __ __ __ __ __ __ __ __ __
 72
    65
 73
     2
 40
0.375
 49
0.25
 74
     0
 49
-0.125
 74
     0
  0
LTYPE
  5
33
100
AcDbSymbolTableRecord
100
AcDbLinetypeTableRecord
  2
HIDDEN2
 70
     0
  3
_ _ _ _ _ _ _ _ _ _ _ _ _ _ _ _ _ _ _ _ _ _ _ _
 72
    65
 73
     2
 40
0.1875
 49
0.125
 74
     0
 49
-0.0625
 74
     0
  0
LTYPE
  5
34
100
AcDbSymbolTableRecord
100
AcDbLinetypeTableRecord
  2
HIDDENX2
 70
     0
  3
____ ____ ____ ____ ____ ____ ____ ____ ____ __
 72
    65
 73
     2
 40
0.75
 49
0.5
 74
     0
 49
-0.25
 74
     0
  0
LTYPE
  5
35
100
AcDbSymbolTableRecord
100
AcDbLinetypeTableRecord
  2
PHANTOM
 70
     0
  3
______  __  __  ______  __  __  ______  __  __ 
 72
    65
 73
     6
 40
2.5
 49
1.25
 74
     0
 49
-0.25
 74
     0
 49
0.25
 74
     0
 49
-0.25
 74
     0
 49
0.25
 74
     0
 49
-0.25
 74
     0
  0
LTYPE
  5
36
100
AcDbSymbolTableRecord
100
AcDbLinetypeTableRecord
  2
PHANTOM2
 70
     0
  3
___ _ _ ___ _ _ ___ _ _ ___ _ _ ___ _ _ ___ _ _
 72
    65
 73
     6
 40
1.25
 49
0.625
 74
     0
 49
-0.125
 74
     0
 49
0.125
 74
     0
 49
-0.125
 74
     0
 49
0.125
 74
     0
 49
-0.125
 74
     0
  0
LTYPE
  5
37
100
AcDbSymbolTableRecord
100
AcDbLinetypeTableRecord
  2
PHANTOMX2
 70
     0
  3
____________    ____    ____    ____________   
 72
    65
 73
     6
 40
5.0
 49
2.5
 74
     0
 49
-0.5
 74
     0
 49
0.5
 74
     0
 49
-0.5
 74
     0
 49
0.5
 74
     0
 49
-0.5
 74
     0
  0
ENDTAB
   0
TABLE
   2
LAYER
   5
2
 100
AcDbSymbolTable
  70
5
   0
LAYER
   5
E
 100
AcDbSymbolTableRecord
 100
AcDbLayerTableRecord
   2
0
  70
0
  62
7
   6
CONTINUOUS
 390
30
   0
LAYER
   5
39
 100
AcDbSymbolTableRecord
 100
AcDbLayerTableRecord
   2
LEVEL001
  70
0
  62
7
   6
CONTINUOUS
 390
30
   0
LAYER
   5
3A
 100
AcDbSymbolTableRecord
 100
AcDbLayerTableRecord
   2
内図枠(作図領域)
  70
0
  62
7
   6
CONTINUOUS
 390
30
   0
LAYER
   5
3B
 100
AcDbSymbolTableRecord
 100
AcDbLayerTableRecord
   2
外図枠(出力紙領域)
  70
0
  62
7
   6
CONTINUOUS
 390
30
   0
LAYER
   5
3C
 100
AcDbSymbolTableRecord
 100
AcDbLayerTableRecord
   2
部品表金額表示用
  70
0
  62
7
   6
CONTINUOUS
 390
30
   0
ENDTAB
  0
TABLE
  2
STYLE
  5
3
100
AcDbSymbolTable
  70
6
  0
STYLE
  5
F
100
AcDbSymbolTableRecord
100
AcDbTextStyleTableRecord
  2
STANDARD
 70
     0
 40
0.0
 41
1.0
 50
0.0
 71
     0
 42
0.2
  3
TXT
  4
BIGFONT
  0
STYLE
  5
38
100
AcDbSymbolTableRecord
100
AcDbTextStyleTableRecord
  2
STANDARD1
 70
     4
 40
0.0
 41
1.0
 50
0.0
 71
     0
 42
0.2
  3
TXT
  4
BIGFONT
   0
STYLE
   5
3D
 100
AcDbSymbolTableRecord
 100
AcDbTextStyleTableRecord
   2
GMM001
  70
0
  40
0.0
  41
 1.0000000000000
  50
0.0
  71
     0
  42
1.0
   3
txt.shx
   4
bigfont.shx
   0
STYLE
   5
3E
 100
AcDbSymbolTableRecord
 100
AcDbTextStyleTableRecord
   2
GMM002
  70
4
  40
0.0
  41
 1.0000000000000
  50
0.0
  71
     0
  42
1.0
   3
txt.shx
   4
bigfont.shx
   0
STYLE
   5
3F
 100
AcDbSymbolTableRecord
 100
AcDbTextStyleTableRecord
   2
GMM003
  70
0
  40
0.0
  41
 0.80000001192093
  50
0.0
  71
     0
  42
1.0
   3
txt.shx
   4
bigfont.shx
   0
STYLE
   5
40
 100
AcDbSymbolTableRecord
 100
AcDbTextStyleTableRecord
   2
GMM004
  70
0
  40
0.0
  41
 0.50000000000000
  50
0.0
  71
     0
  42
1.0
   3
txt.shx
   4
bigfont.shx
   0
ENDTAB
  0
TABLE
  2
VIEW
  5
6
100
AcDbSymbolTable
 70
     0
  0
ENDTAB
  0
TABLE
  2
UCS
  5
7
100
AcDbSymbolTable
 70
     0
  0
ENDTAB
  0
TABLE
  2
APPID
  5
9
100
AcDbSymbolTable
 70
     1
  0
APPID
  5
10
100
AcDbSymbolTableRecord
100
AcDbRegAppTableRecord
  2
ACAD
 70
     0
  0
ENDTAB
   0
TABLE
   2
DIMSTYLE
   5
A
 100
AcDbSymbolTable
  70
6
 100
AcDbDimStyleTable
  0
DIMSTYLE
105
1D
100
AcDbSymbolTableRecord
100
AcDbDimStyleTableRecord
  2
STANDARD
 70
     0
  3

  4

  5

  6

  7

 40
1.0
 41
0.18
 42
0.0625
 43
0.38
 44
0.18
 45
0.0
 46
0.0
 47
0.0
 48
0.0
140
0.18
141
0.09
142
0.0
143
25.4
144
1.0
145
0.0
146
1.0
147
0.09
 71
     0
 72
     0
 73
     1
 74
     1
 75
     0
 76
     0
 77
     0
 78
     0
170
     0
171
     2
172
     0
173
     0
174
     0
175
     0
176
     0
177
     0
178
     0
270
     2
271
     4
272
     4
273
     2
274
     2
340
F
275
     0
280
     0
281
     0
282
     0
283
     1
284
     0
285
     0
286
     0
287
     3
288
     0
   0
DIMSTYLE
 105
41
 100
AcDbSymbolTableRecord
 100
AcDbDimStyleTableRecord
   2
GMM001
  70
0
   3

   4

   5

   6
_OPEN30
   7
_OPEN30
  40
 1.0000000000000
  41
 24.000000000000
  42
0.0
  43
 64.000000000000
  44
 16.000000000000
  45
0.0
  46
0.0
  47
0.0
  48
0.0
 140
 32.000000000000
 141
 8.0000000000000
 142
0.0
 143
 0.39400000000000E-1
 144
 1.0000000000000
 145
0.0
 146
 0.62500000000000
 147
 13.714285714286
  71
0
  72
0
  73
0
  74
0
  75
0
  76
0
  77
3
  78
8
 170
0
 171
2
 172
1
 173
1
 174
0
 175
0
 176
1
 177
1
 178
7
 270
2
 271
6
 272
0
 273
2
 274
2
 340
3D
 275
0
 280
0
 281
0
 282
0
 283
1
 284
0
 285
0
 286
0
 287
5
 288
1
   0
DIMSTYLE
 105
42
 100
AcDbSymbolTableRecord
 100
AcDbDimStyleTableRecord
   2
GMM002
  70
0
   3

   4

   5

   6
_OPEN30
   7
_OPEN30
  40
 1.0000000000000
  41
 24.000000000000
  42
0.0
  43
 64.000000000000
  44
 16.000000000000
  45
0.0
  46
0.0
  47
0.0
  48
0.0
 140
 32.000000000000
 141
 8.0000000000000
 142
0.0
 143
 0.39400000000000E-1
 144
 1.0000000000000
 145
0.0
 146
 0.62500000000000
 147
 8.0000000000000
  71
0
  72
0
  73
0
  74
0
  75
0
  76
0
  77
3
  78
8
 170
0
 171
2
 172
1
 173
1
 174
0
 175
0
 176
1
 177
1
 178
7
 270
2
 271
6
 272
0
 273
2
 274
2
 340
3D
 275
0
 280
0
 281
0
 282
0
 283
1
 284
0
 285
0
 286
0
 287
5
 288
1
   0
DIMSTYLE
 105
43
 100
AcDbSymbolTableRecord
 100
AcDbDimStyleTableRecord
   2
GMM003
  70
0
   3

   4

   5

   6
_OPEN30
   7
_OPEN30
  40
 1.0000000000000
  41
 24.000000000000
  42
0.0
  43
 64.000000000000
  44
 8.0000000000000
  45
0.0
  46
0.0
  47
0.0
  48
0.0
 140
 32.000000000000
 141
 8.0000000000000
 142
0.0
 143
 0.39400000000000E-1
 144
 1.0000000000000
 145
0.0
 146
 0.62500000000000
 147
 5.6000000000000
  71
0
  72
0
  73
0
  74
0
  75
0
  76
0
  77
3
  78
8
 170
0
 171
2
 172
1
 173
1
 174
0
 175
0
 176
1
 177
1
 178
7
 270
2
 271
6
 272
0
 273
2
 274
2
 340
3D
 275
0
 280
0
 281
0
 282
0
 283
1
 284
0
 285
0
 286
0
 287
5
 288
1
   0
DIMSTYLE
 105
44
 100
AcDbSymbolTableRecord
 100
AcDbDimStyleTableRecord
   2
GMM004
  70
0
   3

   4

   5

   6
_OPEN30
   7
_OPEN30
  40
 1.0000000000000
  41
 24.000000000000
  42
0.0
  43
 64.000000000000
  44
 16.000000000000
  45
0.0
  46
0.0
  47
0.0
  48
0.0
 140
 32.000000000000
 141
 8.0000000000000
 142
0.0
 143
 0.39400000000000E-1
 144
 1.0000000000000
 145
0.0
 146
 0.62500000000000
 147
 8.0000000000000
  71
0
  72
0
  73
0
  74
0
  75
0
  76
0
  77
3
  78
8
 170
0
 171
2
 172
1
 173
1
 174
0
 175
0
 176
1
 177
1
 178
7
 270
2
 271
6
 272
0
 273
2
 274
2
 340
3D
 275
1
 280
0
 281
0
 282
0
 283
1
 284
0
 285
0
 286
0
 287
3
 288
0
   0
ENDTAB
  0
TABLE
  2
BLOCK_RECORD
  5
1
100
AcDbSymbolTable
 70
     0
  0
BLOCK_RECORD
  5
18
100
AcDbSymbolTableRecord
100
AcDbBlockTableRecord
  2
*MODEL_SPACE
  0
BLOCK_RECORD
  5
15
100
AcDbSymbolTableRecord
100
AcDbBlockTableRecord
  2
*PAPER_SPACE
   0
BLOCK_RECORD
   5
45
 100
AcDbSymbolTableRecord
 100
AcDbBlockTableRecord
   2
BLOCK001
   0
BLOCK_RECORD
   5
46
 100
AcDbSymbolTableRecord
 100
AcDbBlockTableRecord
   2
BLOCK002
   0
BLOCK_RECORD
   5
47
 100
AcDbSymbolTableRecord
 100
AcDbBlockTableRecord
   2
BLOCK003
   0
BLOCK_RECORD
   5
48
 100
AcDbSymbolTableRecord
 100
AcDbBlockTableRecord
   2
GMM001
   0
BLOCK_RECORD
   5
49
 100
AcDbSymbolTableRecord
 100
AcDbBlockTableRecord
   2
AGM
   0
BLOCK_RECORD
   5
4A
 100
AcDbSymbolTableRecord
 100
AcDbBlockTableRecord
   2
BLOCK004
   0
BLOCK_RECORD
   5
4B
 100
AcDbSymbolTableRecord
 100
AcDbBlockTableRecord
   2
BLOCK005
   0
BLOCK_RECORD
   5
4C
 100
AcDbSymbolTableRecord
 100
AcDbBlockTableRecord
   2
*D1
   0
BLOCK_RECORD
   5
4D
 100
AcDbSymbolTableRecord
 100
AcDbBlockTableRecord
   2
BLOCK006
   0
BLOCK_RECORD
   5
4E
 100
AcDbSymbolTableRecord
 100
AcDbBlockTableRecord
   2
BLOCK007
   0
BLOCK_RECORD
   5
4F
 100
AcDbSymbolTableRecord
 100
AcDbBlockTableRecord
   2
BLOCK008
   0
BLOCK_RECORD
   5
50
 100
AcDbSymbolTableRecord
 100
AcDbBlockTableRecord
   2
BLOCK009
   0
BLOCK_RECORD
   5
51
 100
AcDbSymbolTableRecord
 100
AcDbBlockTableRecord
   2
BLOCK010
   0
BLOCK_RECORD
   5
52
 100
AcDbSymbolTableRecord
 100
AcDbBlockTableRecord
   2
BLOCK011
   0
BLOCK_RECORD
   5
53
 100
AcDbSymbolTableRecord
 100
AcDbBlockTableRecord
   2
*D2
   0
BLOCK_RECORD
   5
54
 100
AcDbSymbolTableRecord
 100
AcDbBlockTableRecord
   2
*D3
   0
BLOCK_RECORD
   5
55
 100
AcDbSymbolTableRecord
 100
AcDbBlockTableRecord
   2
BLOCK012
   0
BLOCK_RECORD
   5
56
 100
AcDbSymbolTableRecord
 100
AcDbBlockTableRecord
   2
BLOCK013
   0
BLOCK_RECORD
   5
57
 100
AcDbSymbolTableRecord
 100
AcDbBlockTableRecord
   2
BLOCK014
   0
BLOCK_RECORD
   5
58
 100
AcDbSymbolTableRecord
 100
AcDbBlockTableRecord
   2
BLOCK015
   0
BLOCK_RECORD
   5
59
 100
AcDbSymbolTableRecord
 100
AcDbBlockTableRecord
   2
*D4
   0
BLOCK_RECORD
   5
5A
 100
AcDbSymbolTableRecord
 100
AcDbBlockTableRecord
   2
*D5
   0
BLOCK_RECORD
   5
5B
 100
AcDbSymbolTableRecord
 100
AcDbBlockTableRecord
   2
*D6
   0
BLOCK_RECORD
   5
5C
 100
AcDbSymbolTableRecord
 100
AcDbBlockTableRecord
   2
*D7
   0
BLOCK_RECORD
   5
5D
 100
AcDbSymbolTableRecord
 100
AcDbBlockTableRecord
   2
*D8
   0
BLOCK_RECORD
   5
5E
 100
AcDbSymbolTableRecord
 100
AcDbBlockTableRecord
   2
_ARCHTICK
   0
BLOCK_RECORD
   5
5F
 100
AcDbSymbolTableRecord
 100
AcDbBlockTableRecord
   2
_BOXBLANK
   0
BLOCK_RECORD
   5
60
 100
AcDbSymbolTableRecord
 100
AcDbBlockTableRecord
   2
_BOXFILLED
   0
BLOCK_RECORD
   5
61
 100
AcDbSymbolTableRecord
 100
AcDbBlockTableRecord
   2
_CLOSED
   0
BLOCK_RECORD
   5
62
 100
AcDbSymbolTableRecord
 100
AcDbBlockTableRecord
   2
_CLOSEDBLANK
   0
BLOCK_RECORD
   5
63
 100
AcDbSymbolTableRecord
 100
AcDbBlockTableRecord
   2
_DATUMBLANK
   0
BLOCK_RECORD
   5
64
 100
AcDbSymbolTableRecord
 100
AcDbBlockTableRecord
   2
_DATUMFILLED
   0
BLOCK_RECORD
   5
65
 100
AcDbSymbolTableRecord
 100
AcDbBlockTableRecord
   2
_DOT
   0
BLOCK_RECORD
   5
66
 100
AcDbSymbolTableRecord
 100
AcDbBlockTableRecord
   2
_DOTBLANK
   0
BLOCK_RECORD
   5
67
 100
AcDbSymbolTableRecord
 100
AcDbBlockTableRecord
   2
_DOTSMALL
   0
BLOCK_RECORD
   5
68
 100
AcDbSymbolTableRecord
 100
AcDbBlockTableRecord
   2
_INTEGRAL
   0
BLOCK_RECORD
   5
69
 100
AcDbSymbolTableRecord
 100
AcDbBlockTableRecord
   2
_NONE
   0
BLOCK_RECORD
   5
6A
 100
AcDbSymbolTableRecord
 100
AcDbBlockTableRecord
   2
_OBLIQUE
   0
BLOCK_RECORD
   5
6B
 100
AcDbSymbolTableRecord
 100
AcDbBlockTableRecord
   2
_OPEN
   0
BLOCK_RECORD
   5
6C
 100
AcDbSymbolTableRecord
 100
AcDbBlockTableRecord
   2
_OPEN30
   0
BLOCK_RECORD
   5
6D
 100
AcDbSymbolTableRecord
 100
AcDbBlockTableRecord
   2
_OPEN90
   0
BLOCK_RECORD
   5
6E
 100
AcDbSymbolTableRecord
 100
AcDbBlockTableRecord
   2
_ORIGIN
   0
ENDTAB
   0
ENDSEC
  0
SECTION
  2
BLOCKS
  0
BLOCK
  5
19
100
AcDbEntity
  8
0
100
AcDbBlockBegin
  2
*MODEL_SPACE
 70
     0
 10
0.0
 20
0.0
 30
0.0
  3
*MODEL_SPACE
  1

  0
ENDBLK
  5
1A
100
AcDbEntity
  8
0
100
AcDbBlockEnd
  0
BLOCK
  5
16
100
AcDbEntity
 67
     1
  8
0
100
AcDbBlockBegin
  2
*PAPER_SPACE
 70
     0
 10
0.0
 20
0.0
 30
0.0
  3
*PAPER_SPACE
  1

  0
ENDBLK
  5
17
100
AcDbEntity
 67
     1
  8
0
100
AcDbBlockEnd
   0
BLOCK
   5
6F
 100
AcDbEntity
   8
0
 100
AcDbBlockBegin
   2
_ARCHTICK
  70
0
  10
0.0
  20
0.0
  30
0.0
   3
_ARCHTICK
   0
POLYLINE
   5
70
 100
AcDbEntity
   8
0
 370
-2
   6
BYBLOCK
  62
0
 100
AcDb2dPolyline
  66
1
  10
0.0
  20
0.0
  30
0.0
  70
1
  40
 0.15000000000000
  41
 0.15000000000000
   0
VERTEX
   5
71
 100
AcDbEntity
   8
0
   6
BYBLOCK
  62
0
 100
AcDbVertex
 100
AcDb2dVertex
  10
-0.50000000000000
  20
-0.50000000000000
  30
0.0
  40
 0.15000000000000
  41
 0.15000000000000
   0
VERTEX
   5
72
 100
AcDbEntity
   8
0
   6
BYBLOCK
  62
0
 100
AcDbVertex
 100
AcDb2dVertex
  10
 0.50000000000000
  20
 0.50000000000000
  30
0.0
  40
 0.15000000000000
  41
 0.15000000000000
   0
SEQEND
   5
73
 100
AcDbEntity
   8
0
   6
BYBLOCK
  62
0
   0
ENDBLK
   5
74
 100
AcDbEntity
   8
0
 100
AcDbBlockEnd
   0
BLOCK
   5
75
 100
AcDbEntity
   8
0
 100
AcDbBlockBegin
   2
_OBLIQUE
  70
0
  10
0.0
  20
0.0
  30
0.0
   3
_OBLIQUE
   0
LINE
   5
76
 100
AcDbEntity
   8
0
 370
-2
 100
AcDbLine
   6
BYBLOCK
  62
0
  10
-0.50000000000000
  20
-0.50000000000000
  30
0.0
  11
 0.50000000000000
  21
 0.50000000000000
  31
0.0
   0
ENDBLK
   5
77
 100
AcDbEntity
   8
0
 100
AcDbBlockEnd
   0
BLOCK
   5
78
 100
AcDbEntity
   8
0
 100
AcDbBlockBegin
   2
_BOXBLANK
  70
0
  10
0.0
  20
0.0
  30
0.0
   3
_BOXBLANK
   0
LINE
   5
79
 100
AcDbEntity
   8
0
 370
-2
 100
AcDbLine
   6
BYBLOCK
  62
0
  10
-0.50000000000000
  20
-0.50000000000000
  30
0.0
  11
 0.50000000000000
  21
-0.50000000000000
  31
0.0
   0
LINE
   5
7A
 100
AcDbEntity
   8
0
 370
-2
 100
AcDbLine
   6
BYBLOCK
  62
0
  10
 0.50000000000000
  20
-0.50000000000000
  30
0.0
  11
 0.50000000000000
  21
 0.50000000000000
  31
0.0
   0
LINE
   5
7B
 100
AcDbEntity
   8
0
 370
-2
 100
AcDbLine
   6
BYBLOCK
  62
0
  10
 0.50000000000000
  20
 0.50000000000000
  30
0.0
  11
-0.50000000000000
  21
 0.50000000000000
  31
0.0
   0
LINE
   5
7C
 100
AcDbEntity
   8
0
 370
-2
 100
AcDbLine
   6
BYBLOCK
  62
0
  10
-0.50000000000000
  20
 0.50000000000000
  30
0.0
  11
-0.50000000000000
  21
-0.50000000000000
  31
0.0
   0
LINE
   5
7D
 100
AcDbEntity
   8
0
 370
-2
 100
AcDbLine
   6
BYBLOCK
  62
0
  10
-0.50000000000000
  20
0.0
  30
0.0
  11
-1.0000000000000
  21
0.0
  31
0.0
   0
ENDBLK
   5
7E
 100
AcDbEntity
   8
0
 100
AcDbBlockEnd
   0
BLOCK
   5
7F
 100
AcDbEntity
   8
0
 100
AcDbBlockBegin
   2
_BOXFILLED
  70
0
  10
0.0
  20
0.0
  30
0.0
   3
_BOXFILLED
   0
SOLID
   5
80
 100
AcDbEntity
   8
0
 100
AcDbTrace
   6
BYBLOCK
  62
0
  10
-0.50000000000000
  20
 0.50000000000000
  30
0.0
  11
 0.50000000000000
  21
 0.50000000000000
  31
0.0
  12
-0.50000000000000
  22
-0.50000000000000
  32
0.0
  13
 0.50000000000000
  23
-0.50000000000000
  33
0.0
   0
LINE
   5
81
 100
AcDbEntity
   8
0
 370
-2
 100
AcDbLine
   6
BYBLOCK
  62
0
  10
-0.50000000000000
  20
0.0
  30
0.0
  11
-1.0000000000000
  21
0.0
  31
0.0
   0
ENDBLK
   5
82
 100
AcDbEntity
   8
0
 100
AcDbBlockEnd
   0
BLOCK
   5
83
 100
AcDbEntity
   8
0
 100
AcDbBlockBegin
   2
_CLOSED
  70
0
  10
0.0
  20
0.0
  30
0.0
   3
_CLOSED
   0
LINE
   5
84
 100
AcDbEntity
   8
0
 370
-2
 100
AcDbLine
   6
BYBLOCK
  62
0
  10
-1.0000000000000
  20
 0.16666666666667
  30
0.0
  11
0.0
  21
0.0
  31
0.0
   0
LINE
   5
85
 100
AcDbEntity
   8
0
 370
-2
 100
AcDbLine
   6
BYBLOCK
  62
0
  10
0.0
  20
0.0
  30
0.0
  11
-1.0000000000000
  21
-0.16666666666667
  31
0.0
   0
LINE
   5
86
 100
AcDbEntity
   8
0
 370
-2
 100
AcDbLine
   6
BYBLOCK
  62
0
  10
-1.0000000000000
  20
 0.16666666666667
  30
0.0
  11
-1.0000000000000
  21
-0.16666666666667
  31
0.0
   0
LINE
   5
87
 100
AcDbEntity
   8
0
 370
-2
 100
AcDbLine
   6
BYBLOCK
  62
0
  10
0.0
  20
0.0
  30
0.0
  11
-1.0000000000000
  21
0.0
  31
0.0
   0
ENDBLK
   5
88
 100
AcDbEntity
   8
0
 100
AcDbBlockEnd
   0
BLOCK
   5
89
 100
AcDbEntity
   8
0
 100
AcDbBlockBegin
   2
_OPEN
  70
0
  10
0.0
  20
0.0
  30
0.0
   3
_OPEN
   0
LINE
   5
8A
 100
AcDbEntity
   8
0
 370
-2
 100
AcDbLine
   6
BYBLOCK
  62
0
  10
-1.0000000000000
  20
 0.16666666666667
  30
0.0
  11
0.0
  21
0.0
  31
0.0
   0
LINE
   5
8B
 100
AcDbEntity
   8
0
 370
-2
 100
AcDbLine
   6
BYBLOCK
  62
0
  10
0.0
  20
0.0
  30
0.0
  11
-1.0000000000000
  21
-0.16666666666667
  31
0.0
   0
LINE
   5
8C
 100
AcDbEntity
   8
0
 370
-2
 100
AcDbLine
   6
BYBLOCK
  62
0
  10
0.0
  20
0.0
  30
0.0
  11
-1.0000000000000
  21
0.0
  31
0.0
   0
ENDBLK
   5
8D
 100
AcDbEntity
   8
0
 100
AcDbBlockEnd
   0
BLOCK
   5
8E
 100
AcDbEntity
   8
0
 100
AcDbBlockBegin
   2
_OPEN30
  70
0
  10
0.0
  20
0.0
  30
0.0
   3
_OPEN30
   0
LINE
   5
8F
 100
AcDbEntity
   8
0
 370
-2
 100
AcDbLine
   6
BYBLOCK
  62
0
  10
-1.0000000000000
  20
 0.26794919243110
  30
0.0
  11
0.0
  21
0.0
  31
0.0
   0
LINE
   5
90
 100
AcDbEntity
   8
0
 370
-2
 100
AcDbLine
   6
BYBLOCK
  62
0
  10
0.0
  20
0.0
  30
0.0
  11
-1.0000000000000
  21
-0.26794919243110
  31
0.0
   0
LINE
   5
91
 100
AcDbEntity
   8
0
 370
-2
 100
AcDbLine
   6
BYBLOCK
  62
0
  10
0.0
  20
0.0
  30
0.0
  11
-1.0000000000000
  21
0.0
  31
0.0
   0
ENDBLK
   5
92
 100
AcDbEntity
   8
0
 100
AcDbBlockEnd
   0
BLOCK
   5
93
 100
AcDbEntity
   8
0
 100
AcDbBlockBegin
   2
_OPEN90
  70
0
  10
0.0
  20
0.0
  30
0.0
   3
_OPEN90
   0
LINE
   5
94
 100
AcDbEntity
   8
0
 370
-2
 100
AcDbLine
   6
BYBLOCK
  62
0
  10
-0.50000000000000
  20
 0.50000000000000
  30
0.0
  11
0.0
  21
0.0
  31
0.0
   0
LINE
   5
95
 100
AcDbEntity
   8
0
 370
-2
 100
AcDbLine
   6
BYBLOCK
  62
0
  10
0.0
  20
0.0
  30
0.0
  11
-0.50000000000000
  21
-0.50000000000000
  31
0.0
   0
LINE
   5
96
 100
AcDbEntity
   8
0
 370
-2
 100
AcDbLine
   6
BYBLOCK
  62
0
  10
0.0
  20
0.0
  30
0.0
  11
-1.0000000000000
  21
0.0
  31
0.0
   0
ENDBLK
   5
97
 100
AcDbEntity
   8
0
 100
AcDbBlockEnd
   0
BLOCK
   5
98
 100
AcDbEntity
   8
0
 100
AcDbBlockBegin
   2
_CLOSEDBLANK
  70
0
  10
0.0
  20
0.0
  30
0.0
   3
_CLOSEDBLANK
   0
LINE
   5
99
 100
AcDbEntity
   8
0
 370
-2
 100
AcDbLine
   6
BYBLOCK
  62
0
  10
-1.0000000000000
  20
 0.16666666666667
  30
0.0
  11
0.0
  21
0.0
  31
0.0
   0
LINE
   5
9A
 100
AcDbEntity
   8
0
 370
-2
 100
AcDbLine
   6
BYBLOCK
  62
0
  10
0.0
  20
0.0
  30
0.0
  11
-1.0000000000000
  21
-0.16666666666667
  31
0.0
   0
LINE
   5
9B
 100
AcDbEntity
   8
0
 370
-2
 100
AcDbLine
   6
BYBLOCK
  62
0
  10
-1.0000000000000
  20
 0.16666666666667
  30
0.0
  11
-1.0000000000000
  21
-0.16666666666667
  31
0.0
   0
ENDBLK
   5
9C
 100
AcDbEntity
   8
0
 100
AcDbBlockEnd
   0
BLOCK
   5
9D
 100
AcDbEntity
   8
0
 100
AcDbBlockBegin
   2
_DOT
  70
0
  10
0.0
  20
0.0
  30
0.0
   3
_DOT
   0
POLYLINE
   5
9E
 100
AcDbEntity
   8
0
 370
-2
   6
BYBLOCK
  62
0
 100
AcDb2dPolyline
  66
1
  10
0.0
  20
0.0
  30
0.0
  70
1
  40
 0.50000000000000
  41
 0.50000000000000
   0
VERTEX
   5
9F
 100
AcDbEntity
   8
0
   6
BYBLOCK
  62
0
 100
AcDbVertex
 100
AcDb2dVertex
  10
-0.25000000000000
  20
0.0
  30
0.0
  42
 1.0000000000000
  40
 0.50000000000000
  41
 0.50000000000000
   0
VERTEX
   5
A0
 100
AcDbEntity
   8
0
   6
BYBLOCK
  62
0
 100
AcDbVertex
 100
AcDb2dVertex
  10
 0.25000000000000
  20
0.0
  30
0.0
  42
 1.0000000000000
  40
 0.50000000000000
  41
 0.50000000000000
   0
SEQEND
   5
A1
 100
AcDbEntity
   8
0
   6
BYBLOCK
  62
0
   0
LINE
   5
A2
 100
AcDbEntity
   8
0
 370
-2
 100
AcDbLine
   6
BYBLOCK
  62
0
  10
-0.50000000000000
  20
0.0
  30
0.0
  11
-1.0000000000000
  21
0.0
  31
0.0
   0
ENDBLK
   5
A3
 100
AcDbEntity
   8
0
 100
AcDbBlockEnd
   0
BLOCK
   5
A4
 100
AcDbEntity
   8
0
 100
AcDbBlockBegin
   2
_DOTSMALL
  70
0
  10
0.0
  20
0.0
  30
0.0
   3
_DOTSMALL
   0
POLYLINE
   5
A5
 100
AcDbEntity
   8
0
 370
-2
   6
BYBLOCK
  62
0
 100
AcDb2dPolyline
  66
1
  10
0.0
  20
0.0
  30
0.0
  70
1
  40
 0.50000000000000
  41
 0.50000000000000
   0
VERTEX
   5
A6
 100
AcDbEntity
   8
0
   6
BYBLOCK
  62
0
 100
AcDbVertex
 100
AcDb2dVertex
  10
-0.62500000000000E-1
  20
0.0
  30
0.0
  42
 1.0000000000000
  40
 0.50000000000000
  41
 0.50000000000000
   0
VERTEX
   5
A7
 100
AcDbEntity
   8
0
   6
BYBLOCK
  62
0
 100
AcDbVertex
 100
AcDb2dVertex
  10
 0.62500000000000E-1
  20
0.0
  30
0.0
  42
 1.0000000000000
  40
 0.50000000000000
  41
 0.50000000000000
   0
SEQEND
   5
A8
 100
AcDbEntity
   8
0
   6
BYBLOCK
  62
0
   0
ENDBLK
   5
A9
 100
AcDbEntity
   8
0
 100
AcDbBlockEnd
   0
BLOCK
   5
AA
 100
AcDbEntity
   8
0
 100
AcDbBlockBegin
   2
_DATUMBLANK
  70
0
  10
0.0
  20
0.0
  30
0.0
   3
_DATUMBLANK
   0
LINE
   5
AB
 100
AcDbEntity
   8
0
 370
-2
 100
AcDbLine
   6
BYBLOCK
  62
0
  10
0.0
  20
 0.57735027000000
  30
0.0
  11
-1.0000000000000
  21
0.0
  31
0.0
   0
LINE
   5
AC
 100
AcDbEntity
   8
0
 370
-2
 100
AcDbLine
   6
BYBLOCK
  62
0
  10
-1.0000000000000
  20
0.0
  30
0.0
  11
0.0
  21
-0.57735027000000
  31
0.0
   0
LINE
   5
AD
 100
AcDbEntity
   8
0
 370
-2
 100
AcDbLine
   6
BYBLOCK
  62
0
  10
0.0
  20
-0.57735027000000
  30
0.0
  11
0.0
  21
 0.57735027000000
  31
0.0
   0
ENDBLK
   5
AE
 100
AcDbEntity
   8
0
 100
AcDbBlockEnd
   0
BLOCK
   5
AF
 100
AcDbEntity
   8
0
 100
AcDbBlockBegin
   2
_DATUMFILLED
  70
0
  10
0.0
  20
0.0
  30
0.0
   3
_DATUMFILLED
   0
SOLID
   5
B0
 100
AcDbEntity
   8
0
 100
AcDbTrace
   6
BYBLOCK
  62
0
  10
0.0
  20
 0.57735027000000
  30
0.0
  11
-1.0000000000000
  21
0.0
  31
0.0
  12
0.0
  22
-0.57735027000000
  32
0.0
  13
0.0
  23
-0.57735027000000
  33
0.0
   0
ENDBLK
   5
B1
 100
AcDbEntity
   8
0
 100
AcDbBlockEnd
   0
BLOCK
   5
B2
 100
AcDbEntity
   8
0
 100
AcDbBlockBegin
   2
_ORIGIN
  70
0
  10
0.0
  20
0.0
  30
0.0
   3
_ORIGIN
   0
CIRCLE
   5
B3
 100
AcDbEntity
   8
0
 370
-2
 100
AcDbCircle
   6
BYBLOCK
  62
0
  10
0.0
  20
0.0
  30
0.0
  40
 0.50000000000000
   0
LINE
   5
B4
 100
AcDbEntity
   8
0
 370
-2
 100
AcDbLine
   6
BYBLOCK
  62
0
  10
0.0
  20
0.0
  30
0.0
  11
-1.0000000000000
  21
0.0
  31
0.0
   0
ENDBLK
   5
B5
 100
AcDbEntity
   8
0
 100
AcDbBlockEnd
   0
BLOCK
   5
B6
 100
AcDbEntity
   8
0
 100
AcDbBlockBegin
   2
_NONE
  70
0
  10
0.0
  20
0.0
  30
0.0
   3
_NONE
   0
CIRCLE
   5
B7
 100
AcDbEntity
   8
0
 370
-2
 100
AcDbCircle
   6
BYBLOCK
  62
0
  10
0.0
  20
0.0
  30
0.0
  40
 0.25000000000000
   0
ENDBLK
   5
B8
 100
AcDbEntity
   8
0
 100
AcDbBlockEnd
   0
BLOCK
   5
B9
 100
AcDbEntity
   8
0
 100
AcDbBlockBegin
   2
_DOTBLANK
  70
0
  10
0.0
  20
0.0
  30
0.0
   3
_DOTBLANK
   0
CIRCLE
   5
BA
 100
AcDbEntity
   8
0
 370
-2
 100
AcDbCircle
   6
BYBLOCK
  62
0
  10
0.0
  20
0.0
  30
0.0
  40
 0.50000000000000
   0
LINE
   5
BB
 100
AcDbEntity
   8
0
 370
-2
 100
AcDbLine
   6
BYBLOCK
  62
0
  10
-0.50000000000000
  20
0.0
  30
0.0
  11
-1.0000000000000
  21
0.0
  31
0.0
   0
ENDBLK
   5
BC
 100
AcDbEntity
   8
0
 100
AcDbBlockEnd
   0
BLOCK
   5
BD
 100
AcDbEntity
   8
0
 100
AcDbBlockBegin
   2
_INTEGRAL
  70
0
  10
0.0
  20
0.0
  30
0.0
   3
_INTEGRAL
   0
ARC
   5
BE
 100
AcDbEntity
   8
0
 370
-2
   6
BYBLOCK
  62
0
 100
AcDbCircle
  10
 0.44488800000000
  20
-0.91335000000000E-1
  30
0.0
  40
 0.45416700000000
 100
AcDbArc
  50
 102.00000000000
  51
 168.00000000000
   0
ARC
   5
BF
 100
AcDbEntity
   8
0
 370
-2
   6
BYBLOCK
  62
0
 100
AcDbCircle
  10
-0.44488800000000
  20
 0.91335000000000E-1
  30
0.0
  40
 0.45416700000000
 100
AcDbArc
  50
 282.00000000000
  51
 348.00000000000
   0
ENDBLK
   5
C0
 100
AcDbEntity
   8
0
 100
AcDbBlockEnd
   0
BLOCK
   5
C1
 100
AcDbEntity
   8
0
 100
AcDbBlockBegin
   2
BLOCK001
  70
64
  10
0.0
  20
0.0
  30
0.0
   3
BLOCK001
   0
LINE
   5
C2
 100
AcDbEntity
   8
LEVEL001
 370
30
 100
AcDbLine
   6
CONTINUOUS
  62
7
  10
 3562.7586206897
  20
 288.00000000000
  30
0.0
  11
 4650.7586206897
  21
 288.00000000000
  31
0.0
   0
LINE
   5
C3
 100
AcDbEntity
   8
LEVEL001
 370
30
 100
AcDbLine
   6
CONTINUOUS
  62
7
  10
 3562.7586206897
  20
 192.00000000000
  30
0.0
  11
 4650.7586206897
  21
 192.00000000000
  31
0.0
   0
LINE
   5
C4
 100
AcDbEntity
   8
LEVEL001
 370
30
 100
AcDbLine
   6
CONTINUOUS
  62
7
  10
 3562.7586206897
  20
 288.00000000000
  30
0.0
  11
 3562.7586206897
  21
 192.00000000000
  31
0.0
   0
LINE
   5
C5
 100
AcDbEntity
   8
LEVEL001
 370
30
 100
AcDbLine
   6
CONTINUOUS
  62
7
  10
 3626.7586206897
  20
 288.00000000000
  30
0.0
  11
 3626.7586206897
  21
 192.00000000000
  31
0.0
   0
LINE
   5
C6
 100
AcDbEntity
   8
LEVEL001
 370
30
 100
AcDbLine
   6
CONTINUOUS
  62
7
  10
 4106.7586206897
  20
 288.00000000000
  30
0.0
  11
 4106.7586206897
  21
 192.00000000000
  31
0.0
   0
LINE
   5
C7
 100
AcDbEntity
   8
LEVEL001
 370
30
 100
AcDbLine
   6
CONTINUOUS
  62
7
  10
 4170.7586206897
  20
 288.00000000000
  30
0.0
  11
 4170.7586206897
  21
 192.00000000000
  31
0.0
   0
LINE
   5
C8
 100
AcDbEntity
   8
LEVEL001
 370
30
 100
AcDbLine
   6
CONTINUOUS
  62
7
  10
 4650.7586206897
  20
 288.00000000000
  30
0.0
  11
 4650.7586206897
  21
 192.00000000000
  31
0.0
   0
ENDBLK
   5
C9
 100
AcDbEntity
   8
0
 100
AcDbBlockEnd
   0
BLOCK
   5
CA
 100
AcDbEntity
   8
0
 100
AcDbBlockBegin
   2
BLOCK002
  70
64
  10
0.0
  20
0.0
  30
0.0
   3
BLOCK002
   0
LINE
   5
CB
 100
AcDbEntity
   8
LEVEL001
 370
30
 100
AcDbLine
   6
CONTINUOUS
  62
7
  10
 3562.7586206897
  20
 192.00000000000
  30
0.0
  11
 4650.7586206897
  21
 192.00000000000
  31
0.0
   0
LINE
   5
CC
 100
AcDbEntity
   8
LEVEL001
 370
30
 100
AcDbLine
   6
CONTINUOUS
  62
7
  10
 3866.7586206897
  20
 128.00000000000
  30
0.0
  11
 4650.7586206897
  21
 128.00000000000
  31
0.0
   0
LINE
   5
CD
 100
AcDbEntity
   8
LEVEL001
 370
30
 100
AcDbLine
   6
CONTINUOUS
  62
7
  10
 3562.7586206897
  20
 64.000000000000
  30
0.0
  11
 4650.7586206897
  21
 64.000000000000
  31
0.0
   0
LINE
   5
CE
 100
AcDbEntity
   8
LEVEL001
 370
30
 100
AcDbLine
   6
CONTINUOUS
  62
7
  10
 3562.7586206897
  20
0.0
  30
0.0
  11
 4650.7586206897
  21
0.0
  31
0.0
   0
LINE
   5
CF
 100
AcDbEntity
   8
LEVEL001
 370
30
 100
AcDbLine
   6
CONTINUOUS
  62
7
  10
 3562.7586206897
  20
 192.00000000000
  30
0.0
  11
 3562.7586206897
  21
0.0
  31
0.0
   0
LINE
   5
D0
 100
AcDbEntity
   8
LEVEL001
 370
30
 100
AcDbLine
   6
CONTINUOUS
  62
7
  10
 3626.7586206897
  20
 192.00000000000
  30
0.0
  11
 3626.7586206897
  21
 64.000000000000
  31
0.0
   0
LINE
   5
D1
 100
AcDbEntity
   8
LEVEL001
 370
30
 100
AcDbLine
   6
CONTINUOUS
  62
7
  10
 3866.7586206897
  20
 192.00000000000
  30
0.0
  11
 3866.7586206897
  21
 64.000000000000
  31
0.0
   0
LINE
   5
D2
 100
AcDbEntity
   8
LEVEL001
 370
30
 100
AcDbLine
   6
CONTINUOUS
  62
7
  10
 4106.7586206897
  20
 192.00000000000
  30
0.0
  11
 4106.7586206897
  21
 64.000000000000
  31
0.0
   0
LINE
   5
D3
 100
AcDbEntity
   8
LEVEL001
 370
30
 100
AcDbLine
   6
CONTINUOUS
  62
7
  10
 4170.7586206897
  20
 192.00000000000
  30
0.0
  11
 4170.7586206897
  21
 64.000000000000
  31
0.0
   0
LINE
   5
D4
 100
AcDbEntity
   8
LEVEL001
 370
30
 100
AcDbLine
   6
CONTINUOUS
  62
7
  10
 4330.7586206897
  20
 192.00000000000
  30
0.0
  11
 4330.7586206897
  21
 64.000000000000
  31
0.0
   0
LINE
   5
D5
 100
AcDbEntity
   8
LEVEL001
 370
30
 100
AcDbLine
   6
CONTINUOUS
  62
7
  10
 4386.7586206897
  20
 192.00000000000
  30
0.0
  11
 4386.7586206897
  21
 64.000000000000
  31
0.0
   0
LINE
   5
D6
 100
AcDbEntity
   8
LEVEL001
 370
30
 100
AcDbLine
   6
CONTINUOUS
  62
7
  10
 4434.7586206897
  20
 192.00000000000
  30
0.0
  11
 4434.7586206897
  21
 64.000000000000
  31
0.0
   0
LINE
   5
D7
 100
AcDbEntity
   8
LEVEL001
 370
30
 100
AcDbLine
   6
CONTINUOUS
  62
7
  10
 4490.7586206897
  20
 192.00000000000
  30
0.0
  11
 4490.7586206897
  21
 64.000000000000
  31
0.0
   0
LINE
   5
D8
 100
AcDbEntity
   8
LEVEL001
 370
30
 100
AcDbLine
   6
CONTINUOUS
  62
7
  10
 4650.7586206897
  20
 192.00000000000
  30
0.0
  11
 4650.7586206897
  21
0.0
  31
0.0
   0
ENDBLK
   5
D9
 100
AcDbEntity
   8
0
 100
AcDbBlockEnd
   0
BLOCK
   5
DA
 100
AcDbEntity
   8
0
 100
AcDbBlockBegin
   2
BLOCK003
  70
64
  10
0.0
  20
0.0
  30
0.0
   3
BLOCK003
   0
MTEXT
   5
DC
 100
AcDbEntity
   8
LEVEL001
 370
30
  62
7
 100
AcDbMText
  10
 3860.3586573107
  20
 16.000000000000
  30
0.0
  40
 32.000000000000
  41
0.0
  71
7
  72
1
   1
\T1.800000;さぬき麺機株式会社
   7
GMM001
  44
 0.79999984000003
   0
TEXT
   5
DD
 100
AcDbEntity
   8
LEVEL001
 370
30
  62
7
 100
AcDbText
  10
 3580.7586206897
  20
 280.88885498047
  30
0.0
  40
 4.0000000000000
   1
名称
   7
STANDARD1
 100
AcDbText
   0
TEXT
   5
DE
 100
AcDbEntity
   8
LEVEL001
 370
30
  62
7
 100
AcDbText
  10
 4124.7586206897
  20
 280.88879394531
  30
0.0
  40
 4.0000000000000
   1
図番
   7
STANDARD1
 100
AcDbText
   0
TEXT
   5
DF
 100
AcDbEntity
   8
LEVEL001
 370
30
  62
7
 100
AcDbText
  10
 3580.7586206897
  20
 174.22222264608
  30
0.0
  40
 4.0000000000000
   1
画法
   7
STANDARD1
 100
AcDbText
   0
MTEXT
   5
E1
 100
AcDbEntity
   8
LEVEL001
 370
30
  62
7
 100
AcDbMText
  10
 3649.1586212619
  20
 112.00000000000
  30
0.0
  40
 32.000000000000
  41
0.0
  71
7
  72
1
   1
\T1.700000;第三角法
   7
GMM001
  44
 0.79999984000003
   0
MTEXT
   5
E3
 100
AcDbEntity
   8
LEVEL001
 370
30
  62
7
 100
AcDbMText
  10
 3889.1586212619
  20
 144.00000000000
  30
0.0
  40
 32.000000000000
  41
0.0
  71
7
  72
1
   1
\T1.700000;共通機種
   7
GMM001
  44
 0.79999984000003
   0
MTEXT
   5
E5
 100
AcDbEntity
   8
LEVEL001
 370
30
  62
7
 100
AcDbMText
  10
 4113.1586203121
  20
 144.00000000000
  30
0.0
  40
 32.000000000000
  41
0.0
  71
7
  72
1
   1
\T1.000000;個数
   7
GMM003
  44
 0.79999984000003
   0
MTEXT
   5
E7
 100
AcDbEntity
   8
LEVEL001
 370
30
  62
7
 100
AcDbMText
  10
 4202.7586206897
  20
 144.00000000000
  30
0.0
  40
 32.000000000000
  41
0.0
  71
7
  72
1
   1
\T2.000000;尺度
   7
GMM001
  44
 0.79999984000003
   0
MTEXT
   5
E9
 100
AcDbEntity
   8
LEVEL001
 370
30
  62
7
 100
AcDbMText
  10
 4346.7586206897
  20
 144.00000000000
  30
0.0
  40
 32.000000000000
  41
0.0
  71
7
  72
1
   1
\T1.500000;年月日
   7
GMM001
  44
 0.79999984000003
   0
MTEXT
   5
EB
 100
AcDbEntity
   8
LEVEL001
 370
30
  62
7
 100
AcDbMText
  10
 4522.7586206897
  20
 144.00000000000
  30
0.0
  40
 32.000000000000
  41
0.0
  71
7
  72
1
   1
\T2.000000;製図
   7
GMM001
  44
 0.79999984000003
   0
ENDBLK
   5
EC
 100
AcDbEntity
   8
0
 100
AcDbBlockEnd
   0
BLOCK
   5
ED
 100
AcDbEntity
   8
0
 100
AcDbBlockBegin
   2
GMM001
  70
64
  10
0.0
  20
0.0
  30
0.0
   3
GMM001
   0
LWPOLYLINE
   5
EE
 100
AcDbEntity
   8
LEVEL001
 370
30
   6
CONTINUOUS
  62
7
 100
AcDbPolyline
  90
4
  70
1
  10
-568.00000000000
  20
 394.00000000000
  10
-568.00000000000
  20
0.0
  10
0.0
  20
0.0
  10
0.0
  20
 394.00000000000
   0
ENDBLK
   5
EF
 100
AcDbEntity
   8
0
 100
AcDbBlockEnd
   0
BLOCK
   5
F0
 100
AcDbEntity
   8
0
 100
AcDbBlockBegin
   2
AGM
  70
64
  10
0.0
  20
0.0
  30
0.0
   3
AGM
   0
LINE
   5
F1
 100
AcDbEntity
   8
LEVEL001
 370
30
 100
AcDbLine
   6
CONTINUOUS
  62
7
  10
 1458.0266602304
  20
 2750.8511910231
  30
0.0
  11
 1441.5721775585
  21
 2750.8511910231
  31
0.0
   0
ARC
   5
F2
 100
AcDbEntity
   8
LEVEL001
 370
30
   6
CONTINUOUS
  62
7
 100
AcDbCircle
  10
 1449.7994188944
  20
 2737.0554468880
  30
0.0
  40
 13.795744135177
 100
AcDbArc
  50
 66.573402491373
  51
 113.42659750863
   0
LINE
   5
F3
 100
AcDbEntity
   8
LEVEL001
 370
30
 100
AcDbLine
   6
CONTINUOUS
  62
7
  10
 1460.7690740090
  20
 2740.8511910231
  30
0.0
  11
 1460.7690740090
  21
 2749.7140101125
  31
0.0
   0
LINE
   5
F4
 100
AcDbEntity
   8
LEVEL001
 370
30
 100
AcDbLine
   6
CONTINUOUS
  62
7
  10
 1455.2842464517
  20
 2740.8511910231
  30
0.0
  11
 1455.2842464517
  21
 2749.7140101125
  31
0.0
   0
ARC
   5
F5
 100
AcDbEntity
   8
LEVEL001
 370
30
   6
CONTINUOUS
  62
7
 100
AcDbCircle
  10
 1458.0266602304
  20
 2746.9758121478
  30
0.0
  40
 3.8753788752793
 100
AcDbArc
  50
 44.955926762743
  51
 135.04407323726
   0
LINE
   5
F6
 100
AcDbEntity
   8
LEVEL001
 370
30
 100
AcDbLine
   6
CONTINUOUS
  62
7
  10
 1438.8297637798
  20
 2740.8511910231
  30
0.0
  11
 1438.8297637798
  21
 2749.7140101125
  31
0.0
   0
LINE
   5
F7
 100
AcDbEntity
   8
LEVEL001
 370
30
 100
AcDbLine
   6
CONTINUOUS
  62
7
  10
 1444.3145913371
  20
 2740.8511910231
  30
0.0
  11
 1444.3145913371
  21
 2749.7140101125
  31
0.0
   0
ARC
   5
F8
 100
AcDbEntity
   8
LEVEL001
 370
30
   6
CONTINUOUS
  62
7
 100
AcDbCircle
  10
 1441.5721775585
  20
 2746.9758121478
  30
0.0
  40
 3.8753788752793
 100
AcDbArc
  50
 44.955926762743
  51
 135.04407323726
   0
LINE
   5
F9
 100
AcDbEntity
   8
LEVEL001
 370
30
 100
AcDbLine
   6
CONTINUOUS
  62
7
  10
 1460.7690740090
  20
 2740.8511910231
  30
0.0
  11
 1438.8297637798
  21
 2740.8511910231
  31
0.0
   0
LINE
   5
FA
 100
AcDbEntity
   8
LEVEL001
 370
30
 100
AcDbLine
   6
CONTINUOUS
  62
7
  10
 1461.7994188944
  20
 2740.8511910231
  30
0.0
  11
 1437.7994188944
  21
 2740.8511910231
  31
0.0
   0
LINE
   5
FB
 100
AcDbEntity
   8
LEVEL001
 370
30
 100
AcDbLine
   6
CONTINUOUS
  62
7
  10
 1437.7994188944
  20
 2740.8511910231
  30
0.0
  11
 1437.7994188944
  21
 2738.3511910231
  31
0.0
   0
LINE
   5
FC
 100
AcDbEntity
   8
LEVEL001
 370
30
 100
AcDbLine
   6
CONTINUOUS
  62
7
  10
 1437.7994188944
  20
 2738.3511910231
  30
0.0
  11
 1461.7994188944
  21
 2738.3511910231
  31
0.0
   0
LINE
   5
FD
 100
AcDbEntity
   8
LEVEL001
 370
30
 100
AcDbLine
   6
CONTINUOUS
  62
7
  10
 1461.7994188944
  20
 2738.3511910231
  30
0.0
  11
 1461.7994188944
  21
 2740.8511910231
  31
0.0
   0
ENDBLK
   5
FE
 100
AcDbEntity
   8
0
 100
AcDbBlockEnd
   0
BLOCK
   5
FF
 100
AcDbEntity
   8
0
 100
AcDbBlockBegin
   2
BLOCK004
  70
64
  10
0.0
  20
0.0
  30
0.0
   3
BLOCK004
   0
LINE
   5
100
 100
AcDbEntity
   8
LEVEL001
 370
30
 100
AcDbLine
   6
CONTINUOUS
  62
7
  10
 926.62666023036
  20
 2750.8511910231
  30
0.0
  11
 910.17217755846
  21
 2750.8511910231
  31
0.0
   0
ARC
   5
101
 100
AcDbEntity
   8
LEVEL001
 370
30
   6
CONTINUOUS
  62
7
 100
AcDbCircle
  10
 918.39941889441
  20
 2737.0554468880
  30
0.0
  40
 13.795744135177
 100
AcDbArc
  50
 66.573402491373
  51
 113.42659750863
   0
LINE
   5
102
 100
AcDbEntity
   8
LEVEL001
 370
30
 100
AcDbLine
   6
CONTINUOUS
  62
7
  10
 929.36907400901
  20
 2740.8511910231
  30
0.0
  11
 929.36907400901
  21
 2749.7140101125
  31
0.0
   0
LINE
   5
103
 100
AcDbEntity
   8
LEVEL001
 370
30
 100
AcDbLine
   6
CONTINUOUS
  62
7
  10
 923.88424645171
  20
 2740.8511910231
  30
0.0
  11
 923.88424645171
  21
 2749.7140101125
  31
0.0
   0
ARC
   5
104
 100
AcDbEntity
   8
LEVEL001
 370
30
   6
CONTINUOUS
  62
7
 100
AcDbCircle
  10
 926.62666023036
  20
 2746.9758121478
  30
0.0
  40
 3.8753788752793
 100
AcDbArc
  50
 44.955926762743
  51
 135.04407323726
   0
LINE
   5
105
 100
AcDbEntity
   8
LEVEL001
 370
30
 100
AcDbLine
   6
CONTINUOUS
  62
7
  10
 907.42976377981
  20
 2740.8511910231
  30
0.0
  11
 907.42976377981
  21
 2749.7140101125
  31
0.0
   0
LINE
   5
106
 100
AcDbEntity
   8
LEVEL001
 370
30
 100
AcDbLine
   6
CONTINUOUS
  62
7
  10
 912.91459133711
  20
 2740.8511910231
  30
0.0
  11
 912.91459133711
  21
 2749.7140101125
  31
0.0
   0
ARC
   5
107
 100
AcDbEntity
   8
LEVEL001
 370
30
   6
CONTINUOUS
  62
7
 100
AcDbCircle
  10
 910.17217755846
  20
 2746.9758121478
  30
0.0
  40
 3.8753788752793
 100
AcDbArc
  50
 44.955926762743
  51
 135.04407323726
   0
LINE
   5
108
 100
AcDbEntity
   8
LEVEL001
 370
30
 100
AcDbLine
   6
CONTINUOUS
  62
7
  10
 929.36907400901
  20
 2740.8511910231
  30
0.0
  11
 907.42976377981
  21
 2740.8511910231
  31
0.0
   0
LINE
   5
109
 100
AcDbEntity
   8
LEVEL001
 370
30
 100
AcDbLine
   6
CONTINUOUS
  62
7
  10
 930.39941889441
  20
 2740.8511910231
  30
0.0
  11
 906.39941889441
  21
 2740.8511910231
  31
0.0
   0
LINE
   5
10A
 100
AcDbEntity
   8
LEVEL001
 370
30
 100
AcDbLine
   6
CONTINUOUS
  62
7
  10
 906.39941889441
  20
 2740.8511910231
  30
0.0
  11
 906.39941889441
  21
 2738.3511910231
  31
0.0
   0
LINE
   5
10B
 100
AcDbEntity
   8
LEVEL001
 370
30
 100
AcDbLine
   6
CONTINUOUS
  62
7
  10
 906.39941889441
  20
 2738.3511910231
  30
0.0
  11
 930.39941889441
  21
 2738.3511910231
  31
0.0
   0
LINE
   5
10C
 100
AcDbEntity
   8
LEVEL001
 370
30
 100
AcDbLine
   6
CONTINUOUS
  62
7
  10
 930.39941889441
  20
 2738.3511910231
  30
0.0
  11
 930.39941889441
  21
 2740.8511910231
  31
0.0
   0
ENDBLK
   5
10D
 100
AcDbEntity
   8
0
 100
AcDbBlockEnd
   0
BLOCK
   5
10E
 100
AcDbEntity
   8
0
 100
AcDbBlockBegin
   2
BLOCK005
  70
64
  10
0.0
  20
0.0
  30
0.0
   3
BLOCK005
   0
LWPOLYLINE
   5
10F
 100
AcDbEntity
   8
LEVEL001
 370
30
   6
CONTINUOUS
  62
7
 100
AcDbPolyline
  90
6
  70
1
  10
 2966.5829037687
  20
 1305.7658068754
  10
 2966.5829037687
  20
 1307.0286259648
  10
 2965.4999999999
  20
 1308.1658068754
  10
 2951.4999999999
  20
 1308.1658068754
  10
 2950.4170962312
  20
 1307.0286259648
  10
 2950.4170962314
  20
 1305.7658068754
   0
LINE
   5
110
 100
AcDbEntity
   8
LEVEL001
 370
30
 100
AcDbLine
   6
CONTINUOUS
  62
7
  10
 2954.4585481157
  20
 1307.0286259648
  30
0.0
  11
 2954.4585481157
  21
 1305.7658068754
  31
0.0
   0
LINE
   5
111
 100
AcDbEntity
   8
LEVEL001
 370
30
 100
AcDbLine
   6
CONTINUOUS
  62
7
  10
 2962.5414518844
  20
 1307.0286259648
  30
0.0
  11
 2962.5414518844
  21
 1305.7658068754
  31
0.0
   0
ARC
   5
112
 100
AcDbEntity
   8
LEVEL001
 370
30
   6
CONTINUOUS
  62
7
 100
AcDbCircle
  10
 2958.5000000000
  20
 1300.4157146991
  30
0.0
  40
 7.7500921762708
 100
AcDbArc
  50
 58.568994004812
  51
 121.43100599519
   0
ARC
   5
113
 100
AcDbEntity
   8
LEVEL001
 370
30
   6
CONTINUOUS
  62
7
 100
AcDbCircle
  10
 2964.5621778265
  20
 1305.8018409899
  30
0.0
  40
 2.3639658855270
 100
AcDbArc
  50
 90.000000000011
  51
 148.73801577641
   0
ARC
   5
114
 100
AcDbEntity
   8
LEVEL001
 370
30
   6
CONTINUOUS
  62
7
 100
AcDbCircle
  10
 2952.4378221734
  20
 1305.8018409897
  30
0.0
  40
 2.3639658857093
 100
AcDbArc
  50
 31.261984226079
  51
 89.999999997498
   0
ENDBLK
   5
115
 100
AcDbEntity
   8
0
 100
AcDbBlockEnd
   0
BLOCK
   5
116
 100
AcDbEntity
   8
0
 100
AcDbBlockBegin
   2
*D1
  70
65
  10
0.0
  20
0.0
  30
0.0
   3
*D1
   0
LINE
   5
117
 100
AcDbEntity
   8
LEVEL001
 370
9
 100
AcDbLine
   6
CONTINUOUS
  62
1
  10
 3451.0000000000
  20
 913.76580687539
  30
0.0
  11
 3451.0000000000
  21
 1480.1318179997
  31
0.0
   0
LINE
   5
118
 100
AcDbEntity
   8
LEVEL001
 370
9
 100
AcDbLine
   6
CONTINUOUS
  62
1
  10
 2726.0000000000
  20
 886.76580687536
  30
0.0
  11
 2726.0000000000
  21
 1480.1318179997
  31
0.0
   0
LINE
   5
119
 100
AcDbEntity
   8
LEVEL001
 370
9
 100
AcDbLine
   6
CONTINUOUS
  62
1
  10
 3451.0000000000
  20
 1464.1318179997
  30
0.0
  11
 3088.5000000000
  21
 1464.1318179997
  31
0.0
   0
LINE
   5
11A
 100
AcDbEntity
   8
LEVEL001
 370
9
 100
AcDbLine
   6
CONTINUOUS
  62
1
  10
 2726.0000000000
  20
 1464.1318179997
  30
0.0
  11
 3088.5000000000
  21
 1464.1318179997
  31
0.0
   0
INSERT
   5
11B
 100
AcDbEntity
   8
LEVEL001
   6
CONTINUOUS
  62
1
 100
AcDbBlockReference
   2
_OPEN30
  10
 3451.0000000000
  20
 1464.1318179997
  30
0.0
  41
 24.000000000000
  42
 24.000000000000
  43
 24.000000000000
  50
0.0
   0
INSERT
   5
11C
 100
AcDbEntity
   8
LEVEL001
   6
CONTINUOUS
  62
1
 100
AcDbBlockReference
   2
_OPEN30
  10
 2726.0000000000
  20
 1464.1318179997
  30
0.0
  41
 24.000000000000
  42
 24.000000000000
  43
 24.000000000000
  50
 180.00000000000
   0
MTEXT
   5
11D
 100
AcDbEntity
   8
LEVEL001
 370
30
  62
7
 100
AcDbMText
  10
 3088.5000000000
  20
 1477.8461037140
  30
0.0
  40
 32.000000000000
  41
0.0
  71
8
  72
1
   1
\A1;725
   7
GMM001
   0
ENDBLK
   5
11E
 100
AcDbEntity
   8
0
 100
AcDbBlockEnd
   0
BLOCK
   5
11F
 100
AcDbEntity
   8
0
 100
AcDbBlockBegin
   2
BLOCK006
  70
64
  10
0.0
  20
0.0
  30
0.0
   3
BLOCK006
   0
LINE
   5
120
 100
AcDbEntity
   8
LEVEL001
 370
30
 100
AcDbLine
   6
CONTINUOUS
  62
7
  10
 2839.6850454238
  20
 1340.8622799295
  30
0.0
  11
 2839.6850454238
  21
 1333.7658068754
  31
0.0
   0
LINE
   5
121
 100
AcDbEntity
   8
LEVEL001
 370
30
 100
AcDbLine
   6
CONTINUOUS
  62
7
  10
 2839.6850454238
  20
 1333.7658068754
  30
0.0
  11
 2859.3149545762
  21
 1333.7658068754
  31
0.0
   0
LINE
   5
122
 100
AcDbEntity
   8
LEVEL001
 370
30
 100
AcDbLine
   6
CONTINUOUS
  62
7
  10
 2859.3149545762
  20
 1333.7658068754
  30
0.0
  11
 2859.3149545762
  21
 1340.8622799295
  31
0.0
   0
LINE
   5
123
 100
AcDbEntity
   8
LEVEL001
 370
30
 100
AcDbLine
   6
CONTINUOUS
  62
7
  10
 2856.8612159322
  20
 1341.7658068754
  30
0.0
  11
 2842.1387840678
  21
 1341.7658068754
  31
0.0
   0
ARC
   5
124
 100
AcDbEntity
   8
LEVEL001
 370
30
   6
CONTINUOUS
  62
7
 100
AcDbCircle
  10
 2849.5000000000
  20
 1327.9866415779
  30
0.0
  40
 13.779165297460
 100
AcDbArc
  50
 69.135935636081
  51
 110.86406436392
   0
LINE
   5
125
 100
AcDbEntity
   8
LEVEL001
 370
30
 100
AcDbLine
   6
CONTINUOUS
  62
7
  10
 2854.4074772881
  20
 1333.7658068754
  30
0.0
  11
 2854.4074772881
  21
 1340.8622799295
  31
0.0
   0
ARC
   5
126
 100
AcDbEntity
   8
LEVEL001
 370
30
   6
CONTINUOUS
  62
7
 100
AcDbCircle
  10
 2856.8612159322
  20
 1337.9821929463
  30
0.0
  40
 3.7836139290595
 100
AcDbArc
  50
 49.570103155171
  51
 130.42989684482
   0
LINE
   5
127
 100
AcDbEntity
   8
LEVEL001
 370
30
 100
AcDbLine
   6
CONTINUOUS
  62
7
  10
 2844.5925227119
  20
 1333.7658068754
  30
0.0
  11
 2844.5925227119
  21
 1340.8622799295
  31
0.0
   0
ARC
   5
128
 100
AcDbEntity
   8
LEVEL001
 370
30
   6
CONTINUOUS
  62
7
 100
AcDbCircle
  10
 2842.1387840678
  20
 1337.9821929463
  30
0.0
  40
 3.7836139290595
 100
AcDbArc
  50
 49.570103155176
  51
 130.42989684483
   0
ENDBLK
   5
129
 100
AcDbEntity
   8
0
 100
AcDbBlockEnd
   0
BLOCK
   5
12A
 100
AcDbEntity
   8
0
 100
AcDbBlockBegin
   2
BLOCK007
  70
64
  10
0.0
  20
0.0
  30
0.0
   3
BLOCK007
   0
LINE
   5
12B
 100
AcDbEntity
   8
LEVEL001
 370
30
 100
AcDbLine
   6
CONTINUOUS
  62
7
  10
 2856.8612159322
  20
 1315.7658068754
  30
0.0
  11
 2842.1387840678
  21
 1315.7658068754
  31
0.0
   0
ARC
   5
12C
 100
AcDbEntity
   8
LEVEL001
 370
30
   6
CONTINUOUS
  62
7
 100
AcDbCircle
  10
 2849.5000000000
  20
 1301.9866415779
  30
0.0
  40
 13.779165297460
 100
AcDbArc
  50
 69.135935636081
  51
 110.86406436392
   0
LINE
   5
12D
 100
AcDbEntity
   8
LEVEL001
 370
30
 100
AcDbLine
   6
CONTINUOUS
  62
7
  10
 2859.3149545762
  20
 1307.7658068754
  30
0.0
  11
 2859.3149545762
  21
 1314.8622799295
  31
0.0
   0
LINE
   5
12E
 100
AcDbEntity
   8
LEVEL001
 370
30
 100
AcDbLine
   6
CONTINUOUS
  62
7
  10
 2854.4074772881
  20
 1307.7658068754
  30
0.0
  11
 2854.4074772881
  21
 1314.8622799295
  31
0.0
   0
ARC
   5
12F
 100
AcDbEntity
   8
LEVEL001
 370
30
   6
CONTINUOUS
  62
7
 100
AcDbCircle
  10
 2856.8612159322
  20
 1311.9821929463
  30
0.0
  40
 3.7836139290595
 100
AcDbArc
  50
 49.570103155171
  51
 130.42989684482
   0
LINE
   5
130
 100
AcDbEntity
   8
LEVEL001
 370
30
 100
AcDbLine
   6
CONTINUOUS
  62
7
  10
 2839.6850454238
  20
 1307.7658068754
  30
0.0
  11
 2839.6850454238
  21
 1314.8622799295
  31
0.0
   0
LINE
   5
131
 100
AcDbEntity
   8
LEVEL001
 370
30
 100
AcDbLine
   6
CONTINUOUS
  62
7
  10
 2844.5925227119
  20
 1307.7658068754
  30
0.0
  11
 2844.5925227119
  21
 1314.8622799295
  31
0.0
   0
ARC
   5
132
 100
AcDbEntity
   8
LEVEL001
 370
30
   6
CONTINUOUS
  62
7
 100
AcDbCircle
  10
 2842.1387840678
  20
 1311.9821929463
  30
0.0
  40
 3.7836139290595
 100
AcDbArc
  50
 49.570103155176
  51
 130.42989684483
   0
LINE
   5
133
 100
AcDbEntity
   8
LEVEL001
 370
30
 100
AcDbLine
   6
CONTINUOUS
  62
7
  10
 2859.3149545762
  20
 1307.7658068754
  30
0.0
  11
 2839.6850454238
  21
 1307.7658068754
  31
0.0
   0
LINE
   5
134
 100
AcDbEntity
   8
LEVEL001
 370
30
 100
AcDbLine
   6
CONTINUOUS
  62
7
  10
 2859.5000000000
  20
 1307.7658068754
  30
0.0
  11
 2839.5000000000
  21
 1307.7658068754
  31
0.0
   0
LINE
   5
135
 100
AcDbEntity
   8
LEVEL001
 370
30
 100
AcDbLine
   6
CONTINUOUS
  62
7
  10
 2839.5000000000
  20
 1307.7658068754
  30
0.0
  11
 2839.5000000000
  21
 1305.7658068754
  31
0.0
   0
LINE
   5
136
 100
AcDbEntity
   8
LEVEL001
 370
30
 100
AcDbLine
   6
CONTINUOUS
  62
7
  10
 2839.5000000000
  20
 1305.7658068754
  30
0.0
  11
 2859.5000000000
  21
 1305.7658068754
  31
0.0
   0
LINE
   5
137
 100
AcDbEntity
   8
LEVEL001
 370
30
 100
AcDbLine
   6
CONTINUOUS
  62
7
  10
 2859.5000000000
  20
 1305.7658068754
  30
0.0
  11
 2859.5000000000
  21
 1307.7658068754
  31
0.0
   0
ENDBLK
   5
138
 100
AcDbEntity
   8
0
 100
AcDbBlockEnd
   0
BLOCK
   5
139
 100
AcDbEntity
   8
0
 100
AcDbBlockBegin
   2
BLOCK008
  70
64
  10
0.0
  20
0.0
  30
0.0
   3
BLOCK008
   0
LINE
   5
13A
 100
AcDbEntity
   8
LEVEL001
 370
30
 100
AcDbLine
   6
CONTINUOUS
  62
7
  10
 3175.0000000000
  20
 1146.5385655394
  30
0.0
  11
 3175.0000000000
  21
 1162.9930482113
  31
0.0
   0
ARC
   5
13B
 100
AcDbEntity
   8
LEVEL001
 370
30
   6
CONTINUOUS
  62
7
 100
AcDbCircle
  10
 3161.2042558648
  20
 1154.7658068754
  30
0.0
  40
 13.795744135177
 100
AcDbArc
  50
 336.57340249137
  51
 23.426597508627
   0
LINE
   5
13C
 100
AcDbEntity
   8
LEVEL001
 370
30
 100
AcDbLine
   6
CONTINUOUS
  62
7
  10
 3165.0000000000
  20
 1143.7961517608
  30
0.0
  11
 3173.8628190894
  21
 1143.7961517608
  31
0.0
   0
LINE
   5
13D
 100
AcDbEntity
   8
LEVEL001
 370
30
 100
AcDbLine
   6
CONTINUOUS
  62
7
  10
 3165.0000000000
  20
 1149.2809793181
  30
0.0
  11
 3173.8628190894
  21
 1149.2809793181
  31
0.0
   0
ARC
   5
13E
 100
AcDbEntity
   8
LEVEL001
 370
30
   6
CONTINUOUS
  62
7
 100
AcDbCircle
  10
 3171.1246211247
  20
 1146.5385655394
  30
0.0
  40
 3.8753788752793
 100
AcDbArc
  50
 314.95592676274
  51
 45.044073237257
   0
LINE
   5
13F
 100
AcDbEntity
   8
LEVEL001
 370
30
 100
AcDbLine
   6
CONTINUOUS
  62
7
  10
 3165.0000000000
  20
 1165.7354619900
  30
0.0
  11
 3173.8628190894
  21
 1165.7354619900
  31
0.0
   0
LINE
   5
140
 100
AcDbEntity
   8
LEVEL001
 370
30
 100
AcDbLine
   6
CONTINUOUS
  62
7
  10
 3165.0000000000
  20
 1160.2506344327
  30
0.0
  11
 3173.8628190894
  21
 1160.2506344327
  31
0.0
   0
ARC
   5
141
 100
AcDbEntity
   8
LEVEL001
 370
30
   6
CONTINUOUS
  62
7
 100
AcDbCircle
  10
 3171.1246211247
  20
 1162.9930482113
  30
0.0
  40
 3.8753788752793
 100
AcDbArc
  50
 314.95592676274
  51
 45.044073237257
   0
LINE
   5
142
 100
AcDbEntity
   8
LEVEL001
 370
30
 100
AcDbLine
   6
CONTINUOUS
  62
7
  10
 3165.0000000000
  20
 1143.7961517608
  30
0.0
  11
 3165.0000000000
  21
 1165.7354619900
  31
0.0
   0
LINE
   5
143
 100
AcDbEntity
   8
LEVEL001
 370
30
 100
AcDbLine
   6
CONTINUOUS
  62
7
  10
 3165.0000000000
  20
 1142.7658068754
  30
0.0
  11
 3165.0000000000
  21
 1166.7658068754
  31
0.0
   0
LINE
   5
144
 100
AcDbEntity
   8
LEVEL001
 370
30
 100
AcDbLine
   6
CONTINUOUS
  62
7
  10
 3165.0000000000
  20
 1166.7658068754
  30
0.0
  11
 3162.5000000000
  21
 1166.7658068754
  31
0.0
   0
LINE
   5
145
 100
AcDbEntity
   8
LEVEL001
 370
30
 100
AcDbLine
   6
CONTINUOUS
  62
7
  10
 3162.5000000000
  20
 1166.7658068754
  30
0.0
  11
 3162.5000000000
  21
 1142.7658068754
  31
0.0
   0
LINE
   5
146
 100
AcDbEntity
   8
LEVEL001
 370
30
 100
AcDbLine
   6
CONTINUOUS
  62
7
  10
 3162.5000000000
  20
 1142.7658068754
  30
0.0
  11
 3165.0000000000
  21
 1142.7658068754
  31
0.0
   0
ENDBLK
   5
147
 100
AcDbEntity
   8
0
 100
AcDbBlockEnd
   0
BLOCK
   5
148
 100
AcDbEntity
   8
0
 100
AcDbBlockBegin
   2
BLOCK009
  70
64
  10
0.0
  20
0.0
  30
0.0
   3
BLOCK009
   0
LWPOLYLINE
   5
149
 100
AcDbEntity
   8
LEVEL001
 370
30
   6
CONTINUOUS
  62
7
 100
AcDbPolyline
  90
8
  70
1
  10
 812.59941889441
  20
 274.76580687539
  10
 812.59941889441
  20
 299.26580687539
  10
 1132.5994188944
  20
 299.26580687539
  10
 1132.5994188944
  20
 274.76580687539
  10
 1128.0994188944
  20
 274.76580687539
  10
 1128.0994188944
  20
 294.76580687539
  10
 817.09941889441
  20
 294.76580687539
  10
 817.09941889441
  20
 274.76580687539
   0
LWPOLYLINE
   5
14A
 100
AcDbEntity
   8
LEVEL001
 370
30
   6
CONTINUOUS
  62
7
 100
AcDbPolyline
  90
4
  70
1
  10
 849.09941889441
  20
 229.76580687539
  10
 870.09941889441
  20
 229.76580687539
  10
 870.09941889441
  20
 279.76580687539
  10
 849.09941889441
  20
 279.76580687539
   0
ARC
   5
14B
 100
AcDbEntity
   8
LEVEL001
 370
30
   6
CONTINUOUS
  62
7
 100
AcDbCircle
  10
 859.59941889441
  20
 279.76580687539
  30
0.0
  40
 12.000000000000
 100
AcDbArc
  50
0.0
  51
 180.00000000000
   0
LWPOLYLINE
   5
14C
 100
AcDbEntity
   8
LEVEL001
 370
30
   6
CONTINUOUS
  62
7
 100
AcDbPolyline
  90
4
  70
1
  10
 1075.0994188944
  20
 229.76580687539
  10
 1096.0994188944
  20
 229.76580687539
  10
 1096.0994188944
  20
 279.76580687539
  10
 1075.0994188944
  20
 279.76580687539
   0
ARC
   5
14D
 100
AcDbEntity
   8
LEVEL001
 370
30
   6
CONTINUOUS
  62
7
 100
AcDbCircle
  10
 1085.5994188944
  20
 279.76580687539
  30
0.0
  40
 12.000000000000
 100
AcDbArc
  50
0.0
  51
 180.00000000000
   0
LWPOLYLINE
   5
14E
 100
AcDbEntity
   8
LEVEL001
 370
30
   6
CONTINUOUS
  62
7
 100
AcDbPolyline
  90
4
  70
1
  10
 902.59941889441
  20
 641.76580687539
  10
 1042.5994188944
  20
 641.76580687539
  10
 1042.5994188944
  20
 666.76580687539
  10
 902.59941889441
  20
 666.76580687539
   0
CIRCLE
   5
14F
 100
AcDbEntity
   8
LEVEL001
 370
30
 100
AcDbCircle
   6
CONTINUOUS
  62
7
  10
 1101.5705620647
  20
 747.76580687536
  30
0.0
  40
 15.000000000000
   0
LINE
   5
150
 100
AcDbEntity
   8
LEVEL001
 370
30
 100
AcDbLine
   6
CONTINUOUS
  62
7
  10
 1060.0994188944
  20
 729.59593389432
  30
0.0
  11
 1086.8231133508
  21
 745.02486608243
  31
0.0
   0
LINE
   5
151
 100
AcDbEntity
   8
LEVEL001
 370
30
 100
AcDbLine
   6
CONTINUOUS
  62
7
  10
 1065.0994188944
  20
 720.93567985647
  30
0.0
  11
 1091.8231133508
  21
 736.36461204458
  31
0.0
   0
ARC
   5
152
 100
AcDbEntity
   8
LEVEL001
 370
30
   6
CONTINUOUS
  62
7
 100
AcDbCircle
  10
 1062.5994188944
  20
 725.26580687539
  30
0.0
  40
 5.0000000000000
 100
AcDbArc
  50
 119.99999999994
  51
 299.99999999994
   0
LWPOLYLINE
   5
153
 100
AcDbEntity
   8
LEVEL001
 370
30
   6
CONTINUOUS
  62
7
 100
AcDbPolyline
  90
6
  70
0
  10
 847.59941889441
  20
 279.76580687539
  10
 847.59941889441
  20
 247.26580687539
  10
 845.59941889441
  20
 247.26580687539
  10
 845.59941889441
  20
 292.76580687539
  10
 830.09941889441
  20
 292.76580687539
  10
 830.09941889441
  20
 294.76580687539
   0
LWPOLYLINE
   5
154
 100
AcDbEntity
   8
LEVEL001
 370
30
   6
CONTINUOUS
  62
7
 100
AcDbPolyline
  90
6
  70
0
  10
 889.09941889441
  20
 294.76580687539
  10
 889.09941889441
  20
 292.76580687539
  10
 873.59941889441
  20
 292.76580687539
  10
 873.59941889441
  20
 247.26580687539
  10
 871.59941889441
  20
 247.26580687539
  10
 871.59941889441
  20
 279.76580687539
   0
LWPOLYLINE
   5
155
 100
AcDbEntity
   8
LEVEL001
 370
30
   6
CONTINUOUS
  62
7
 100
AcDbPolyline
  90
6
  70
0
  10
 1073.5994188944
  20
 279.76580687539
  10
 1073.5994188944
  20
 247.26580687539
  10
 1071.5994188944
  20
 247.26580687539
  10
 1071.5994188944
  20
 292.76580687539
  10
 1056.0994188944
  20
 292.76580687539
  10
 1056.0994188944
  20
 294.76580687539
   0
LWPOLYLINE
   5
156
 100
AcDbEntity
   8
LEVEL001
 370
30
   6
CONTINUOUS
  62
7
 100
AcDbPolyline
  90
6
  70
0
  10
 1115.0994188944
  20
 294.76580687539
  10
 1115.0994188944
  20
 292.76580687539
  10
 1099.5994188944
  20
 292.76580687539
  10
 1099.5994188944
  20
 247.26580687539
  10
 1097.5994188944
  20
 247.26580687539
  10
 1097.5994188944
  20
 279.76580687539
   0
ARC
   5
157
 100
AcDbEntity
   8
LEVEL001
 370
30
   6
CONTINUOUS
  62
7
 100
AcDbCircle
  10
 1062.5994188944
  20
 725.26580687539
  30
0.0
  40
 10.000000000000
 100
AcDbArc
  50
 59.999999999943
  51
0.0
   0
LWPOLYLINE
   5
158
 100
AcDbEntity
   8
LEVEL001
 370
30
   6
CONTINUOUS
  62
7
 100
AcDbPolyline
  90
4
  70
0
  10
 1079.0994188944
  20
 810.26580687539
  10
 1079.0994188944
  20
 839.26580687539
  10
 1019.0994188944
  20
 839.26580687539
  10
 1019.0994188944
  20
 810.26580687539
   0
LINE
   5
159
 100
AcDbEntity
   8
LEVEL001
 370
30
 100
AcDbLine
   6
CONTINUOUS
  62
7
  10
 1069.0994188944
  20
 839.26580687539
  30
0.0
  11
 1069.0994188944
  21
 810.26580687539
  31
0.0
   0
LINE
   5
15A
 100
AcDbEntity
   8
LEVEL001
 370
30
 100
AcDbLine
   6
CONTINUOUS
  62
7
  10
 1029.0994188944
  20
 839.26580687539
  30
0.0
  11
 1029.0994188944
  21
 810.26580687539
  31
0.0
   0
LWPOLYLINE
   5
15B
 100
AcDbEntity
   8
LEVEL001
 370
30
   6
CONTINUOUS
  62
7
 100
AcDbPolyline
  90
4
  70
1
  10
 1134.0994188944
  20
 299.26580687539
  10
 811.09941889441
  20
 299.26580687539
  10
 811.09941889441
  20
 839.26580687539
  10
 1134.0994188944
  20
 839.26580687539
   0
LINE
   5
15C
 100
AcDbEntity
   8
LEVEL001
 370
30
 100
AcDbLine
   6
CONTINUOUS
  62
7
  10
 811.09941889441
  20
 810.26580687539
  30
0.0
  11
 1134.0994188944
  21
 810.26580687539
  31
0.0
   0
LWPOLYLINE
   5
15D
 100
AcDbEntity
   8
LEVEL001
 370
30
   6
CONTINUOUS
  62
7
 100
AcDbPolyline
  90
4
  70
0
  10
 1155.0994188944
  20
 767.46580687539
  10
 1155.5994188944
  20
 763.96580687539
  10
 1155.5994188944
  20
 747.96580687539
  10
 1155.0994188944
  20
 744.46580687539
   0
LWPOLYLINE
   5
15E
 100
AcDbEntity
   8
LEVEL001
 370
30
   6
CONTINUOUS
  62
7
 100
AcDbPolyline
  90
3
  70
0
  10
 1153.5994188944
  20
 744.46580687539
  10
 1152.5994188944
  20
 739.71580687539
  10
 1142.5994188944
  20
 739.71580687539
   0
LINE
   5
15F
 100
AcDbEntity
   8
LEVEL001
 370
30
 100
AcDbLine
   6
CONTINUOUS
  62
7
  10
 1145.0994188944
  20
 744.46580687539
  30
0.0
  11
 1143.5994188944
  21
 742.96580687539
  31
0.0
   0
LWPOLYLINE
   5
160
 100
AcDbEntity
   8
LEVEL001
 370
30
   6
CONTINUOUS
  62
7
 100
AcDbPolyline
  90
4
  70
0
  10
 1135.5994188944
  20
 695.01580687539
  10
 1147.0994188944
  20
 695.01580687539
  10
 1147.0994188944
  20
 662.51580687539
  10
 1135.5994188944
  20
 662.51580687539
   0
LWPOLYLINE
   5
161
 100
AcDbEntity
   8
LEVEL001
 370
30
   6
CONTINUOUS
  62
7
 100
AcDbPolyline
  90
4
  70
0
  10
 1147.0994188944
  20
 691.26580687539
  10
 1153.0994188944
  20
 691.26580687539
  10
 1153.0994188944
  20
 666.26580687539
  10
 1147.0994188944
  20
 666.26580687539
   0
LWPOLYLINE
   5
162
 100
AcDbEntity
   8
LEVEL001
 370
30
   6
CONTINUOUS
  62
7
 100
AcDbPolyline
  90
4
  70
0
  10
 1134.0994188944
  20
 800.76580687539
  10
 1136.5994188944
  20
 800.76580687539
  10
 1136.5994188944
  20
 755.76580687539
  10
 1134.0994188944
  20
 755.76580687539
   0
LWPOLYLINE
   5
163
 100
AcDbEntity
   8
LEVEL001
 370
30
   6
CONTINUOUS
  62
7
 100
AcDbPolyline
  90
4
  70
0
  10
 1136.5994188944
  20
 789.51580687539
  10
 1148.0994188944
  20
 789.51580687539
  10
 1148.0994188944
  20
 757.01580687539
  10
 1136.5994188944
  20
 757.01580687539
   0
LWPOLYLINE
   5
164
 100
AcDbEntity
   8
LEVEL001
 370
30
   6
CONTINUOUS
  62
7
 100
AcDbPolyline
  90
4
  70
0
  10
 1148.0994188944
  20
 785.76580687539
  10
 1154.0994188944
  20
 785.76580687539
  10
 1154.0994188944
  20
 760.76580687539
  10
 1148.0994188944
  20
 760.76580687539
   0
LWPOLYLINE
   5
165
 100
AcDbEntity
   8
LEVEL001
 370
30
   6
CONTINUOUS
  62
7
 100
AcDbPolyline
  90
3
  70
0
  10
 1134.0994188944
  20
 834.76580687539
  10
 1135.5994188944
  20
 834.76580687539
  10
 1135.5994188944
  20
 800.76580687539
   0
LWPOLYLINE
   5
166
 100
AcDbEntity
   8
LEVEL001
 370
30
   6
CONTINUOUS
  62
7
 100
AcDbPolyline
  90
3
  70
0
  10
 1135.5994188944
  20
 755.76580687539
  10
 1135.5994188944
  20
 628.76580687539
  10
 1134.0994188944
  20
 628.76580687539
   0
LWPOLYLINE
   5
167
 100
AcDbEntity
   8
LEVEL001
 370
30
   6
CONTINUOUS
  62
7
 100
AcDbPolyline
  90
3
  70
0
  10
 1136.5994188944
  20
 792.76580687539
  10
 1139.5994188944
  20
 792.76580687539
  10
 1139.5994188944
  20
 789.51580687539
   0
LWPOLYLINE
   5
168
 100
AcDbEntity
   8
LEVEL001
 370
30
   6
CONTINUOUS
  62
7
 100
AcDbPolyline
  90
4
  70
0
  10
 1139.5994188944
  20
 757.01580687539
  10
 1139.5994188944
  20
 708.76580687539
  10
 1135.5994188944
  20
 708.76580687539
  10
 1135.5994188944
  20
 755.76580687539
   0
LWPOLYLINE
   5
169
 100
AcDbEntity
   8
LEVEL001
 370
30
   6
CONTINUOUS
  62
7
 100
AcDbPolyline
  90
3
  70
0
  10
 1142.5994188944
  20
 757.01580687539
  10
 1142.5994188944
  20
 716.76580687539
  10
 1139.5994188944
  20
 716.76580687539
   0
LWPOLYLINE
   5
16A
 100
AcDbEntity
   8
LEVEL001
 370
30
   6
CONTINUOUS
  62
7
 100
AcDbPolyline
  90
5
  70
0
  10
 1154.0994188944
  20
 767.46580687539
  10
 1155.0994188944
  20
 767.46580687539
  10
 1155.0994188944
  20
 744.46580687539
  10
 1145.0994188944
  20
 744.46580687539
  10
 1145.0994188944
  20
 757.01580687539
   0
LWPOLYLINE
   5
16B
 100
AcDbEntity
   8
LEVEL001
 370
30
   6
CONTINUOUS
  62
7
 100
AcDbPolyline
  90
3
  70
0
  10
 1143.5994188944
  20
 757.01580687539
  10
 1143.5994188944
  20
 742.96580687539
  10
 1142.5994188944
  20
 742.96580687539
   0
ENDBLK
   5
16C
 100
AcDbEntity
   8
0
 100
AcDbBlockEnd
   0
BLOCK
   5
16D
 100
AcDbEntity
   8
0
 100
AcDbBlockBegin
   2
BLOCK010
  70
64
  10
0.0
  20
0.0
  30
0.0
   3
BLOCK010
   0
LWPOLYLINE
   5
16E
 100
AcDbEntity
   8
LEVEL001
 370
30
   6
CONTINUOUS
  62
7
 100
AcDbPolyline
  90
4
  70
1
  10
 1476.3622133107
  20
 667.96580687539
  10
 1336.3622133107
  20
 667.96580687539
  10
 1336.3622133107
  20
 692.96580687539
  10
 1476.3622133107
  20
 692.96580687539
   0
LWPOLYLINE
   5
16F
 100
AcDbEntity
   8
LEVEL001
 370
30
   6
CONTINUOUS
  62
7
 100
AcDbPolyline
  90
4
  70
1
  10
 1549.5994188944
  20
 294.76580687539
  10
 1239.5994188944
  20
 294.76580687539
  10
 1239.5994188944
  20
 299.26580687539
  10
 1549.5994188944
  20
 299.26580687539
   0
ARC
   5
170
 100
AcDbEntity
   8
LEVEL001
 370
30
   6
CONTINUOUS
  62
7
 100
AcDbCircle
  10
 1524.5994188944
  20
 279.76580687539
  30
0.0
  40
 12.000000000000
 100
AcDbArc
  50
0.0
  51
 180.00000000000
   0
LWPOLYLINE
   5
171
 100
AcDbEntity
   8
LEVEL001
 370
30
   6
CONTINUOUS
  62
7
 100
AcDbPolyline
  90
4
  70
0
  10
 1536.5994188944
  20
 279.76580687539
  10
 1536.5994188944
  20
 247.26580687539
  10
 1538.5994188944
  20
 247.26580687539
  10
 1538.5994188944
  20
 294.76580687539
   0
LWPOLYLINE
   5
172
 100
AcDbEntity
   8
LEVEL001
 370
30
   6
CONTINUOUS
  62
7
 100
AcDbPolyline
  90
4
  70
0
  10
 1510.5994188944
  20
 294.76580687539
  10
 1510.5994188944
  20
 247.26580687539
  10
 1512.5994188944
  20
 247.26580687539
  10
 1512.5994188944
  20
 279.76580687539
   0
ARC
   5
173
 100
AcDbEntity
   8
LEVEL001
 370
30
   6
CONTINUOUS
  62
7
 100
AcDbCircle
  10
 1264.5994188944
  20
 279.76580687539
  30
0.0
  40
 12.000000000000
 100
AcDbArc
  50
0.0
  51
 180.00000000000
   0
LWPOLYLINE
   5
174
 100
AcDbEntity
   8
LEVEL001
 370
30
   6
CONTINUOUS
  62
7
 100
AcDbPolyline
  90
4
  70
0
  10
 1276.5994188944
  20
 279.76580687539
  10
 1276.5994188944
  20
 247.26580687539
  10
 1278.5994188944
  20
 247.26580687539
  10
 1278.5994188944
  20
 294.76580687539
   0
LWPOLYLINE
   5
175
 100
AcDbEntity
   8
LEVEL001
 370
30
   6
CONTINUOUS
  62
7
 100
AcDbPolyline
  90
4
  70
0
  10
 1250.5994188944
  20
 294.76580687539
  10
 1250.5994188944
  20
 247.26580687539
  10
 1252.5994188944
  20
 247.26580687539
  10
 1252.5994188944
  20
 279.76580687539
   0
LWPOLYLINE
   5
176
 100
AcDbEntity
   8
LEVEL001
 370
30
   6
CONTINUOUS
  62
7
 100
AcDbPolyline
  90
4
  70
1
  10
 1535.0994188944
  20
 229.76580687539
  10
 1514.0994188944
  20
 229.76580687539
  10
 1514.0994188944
  20
 279.76580687539
  10
 1535.0994188944
  20
 279.76580687539
   0
LWPOLYLINE
   5
177
 100
AcDbEntity
   8
LEVEL001
 370
30
   6
CONTINUOUS
  62
7
 100
AcDbPolyline
  90
4
  70
1
  10
 1275.0994188944
  20
 229.76580687539
  10
 1254.0994188944
  20
 229.76580687539
  10
 1254.0994188944
  20
 279.76580687539
  10
 1275.0994188944
  20
 279.76580687539
   0
CIRCLE
   5
178
 100
AcDbEntity
   8
LEVEL001
 370
30
 100
AcDbCircle
   6
CONTINUOUS
  62
7
  10
 1439.5730858526
  20
 824.98016687509
  30
0.0
  40
 7.7000000000000
   0
LINE
   5
179
 100
AcDbEntity
   8
LEVEL001
 370
30
 100
AcDbLine
   6
CONTINUOUS
  62
7
  10
 1469.6020539418
  20
 809.38333785453
  30
0.0
  11
 1437.9516197596
  21
 814.10033012497
  31
0.0
   0
LINE
   5
17A
 100
AcDbEntity
   8
LEVEL001
 370
30
 100
AcDbLine
   6
CONTINUOUS
  62
7
  10
 1468.5702118827
  20
 802.45980537718
  30
0.0
  11
 1436.9197777005
  21
 807.17679764761
  31
0.0
   0
ARC
   5
17B
 100
AcDbEntity
   8
LEVEL001
 370
30
   6
CONTINUOUS
  62
7
 100
AcDbCircle
  10
 1466.6539337728
  20
 789.60181649067
  30
0.0
  40
 20.000000000000
 100
AcDbArc
  50
 351.52336925826
  51
 81.523369258261
   0
ARC
   5
17C
 100
AcDbEntity
   8
LEVEL001
 370
30
   6
CONTINUOUS
  62
7
 100
AcDbCircle
  10
 1466.6539337728
  20
 789.60181649067
  30
0.0
  40
 13.000000000000
 100
AcDbArc
  50
 351.52336925826
  51
 81.523369258262
   0
ARC
   5
17D
 100
AcDbEntity
   8
LEVEL001
 370
30
   6
CONTINUOUS
  62
7
 100
AcDbCircle
  10
 1439.5730858526
  20
 824.98016687509
  30
0.0
  40
 18.000000000000
 100
AcDbArc
  50
 81.523369258262
  51
 261.52336925826
   0
ARC
   5
17E
 100
AcDbEntity
   8
LEVEL001
 370
30
   6
CONTINUOUS
  62
7
 100
AcDbCircle
  10
 1439.5730858526
  20
 824.98016687509
  30
0.0
  40
 11.000000000000
 100
AcDbArc
  50
 81.523369258263
  51
 261.52336925826
   0
LINE
   5
17F
 100
AcDbEntity
   8
LEVEL001
 370
30
 100
AcDbLine
   6
CONTINUOUS
  62
7
  10
 1442.2263940047
  20
 842.78353610257
  30
0.0
  11
 1526.2978598011
  21
 830.25402538423
  31
0.0
   0
LINE
   5
180
 100
AcDbEntity
   8
LEVEL001
 370
30
 100
AcDbLine
   6
CONTINUOUS
  62
7
  10
 1441.1945519456
  20
 835.86000362522
  30
0.0
  11
 1525.2660177420
  21
 823.33049290688
  31
0.0
   0
ARC
   5
181
 100
AcDbEntity
   8
LEVEL001
 370
30
   6
CONTINUOUS
  62
7
 100
AcDbCircle
  10
 1523.3497396321
  20
 810.47250402037
  30
0.0
  40
 20.000000000000
 100
AcDbArc
  50
 351.52336925826
  51
 81.523369258261
   0
ARC
   5
182
 100
AcDbEntity
   8
LEVEL001
 370
30
   6
CONTINUOUS
  62
7
 100
AcDbCircle
  10
 1523.3497396321
  20
 810.47250402037
  30
0.0
  40
 13.000000000000
 100
AcDbArc
  50
 351.52336925826
  51
 81.523369258262
   0
LWPOLYLINE
   5
183
 100
AcDbEntity
   8
LEVEL001
 370
30
   6
CONTINUOUS
  62
7
 100
AcDbPolyline
  90
4
  70
0
  10
 1225.0994188944
  20
 612.06580687539
  10
 1223.0994188944
  20
 612.06580687539
  10
 1223.0994188944
  20
 595.06580687539
  10
 1225.0994188944
  20
 595.06580687539
   0
LWPOLYLINE
   5
184
 100
AcDbEntity
   8
LEVEL001
 370
30
   6
CONTINUOUS
  62
7
 100
AcDbPolyline
  90
4
  70
0
  10
 1225.0994188944
  20
 589.06580687539
  10
 1223.0994188944
  20
 589.06580687539
  10
 1223.0994188944
  20
 572.06580687539
  10
 1225.0994188944
  20
 572.06580687539
   0
LWPOLYLINE
   5
185
 100
AcDbEntity
   8
LEVEL001
 370
30
   6
CONTINUOUS
  62
7
 100
AcDbPolyline
  90
4
  70
0
  10
 1233.0994188944
  20
 650.06580687539
  10
 1225.0994188944
  20
 650.06580687539
  10
 1225.0994188944
  20
 550.06580687539
  10
 1233.0994188944
  20
 550.06580687539
   0
CIRCLE
   5
186
 100
AcDbEntity
   8
LEVEL001
 370
30
 100
AcDbCircle
   6
CONTINUOUS
  62
7
  10
 1439.5730858526
  20
 824.98016687509
  30
0.0
  40
 6.3000000000000
   0
LWPOLYLINE
   5
187
 100
AcDbEntity
   8
LEVEL001
 370
30
   6
CONTINUOUS
  62
7
 100
AcDbPolyline
  90
6
  70
1
  10
 1439.5730858526
  20
 832.48572037453
  10
 1433.0730858526
  20
 828.73294362477
  10
 1433.0730858526
  20
 821.22739012541
  10
 1439.5730858526
  20
 817.47461337565
  10
 1446.0730858526
  20
 821.22739012541
  10
 1446.0730858526
  20
 828.73294362477
   0
LWPOLYLINE
   5
188
 100
AcDbEntity
   8
LEVEL001
 370
30
   6
CONTINUOUS
  62
7
 100
AcDbPolyline
  90
3
  70
0
  10
 1471.1082626619
  20
 777.06580687539
  10
 1382.0994188944
  20
 777.06580687539
  10
 1382.0994188944
  20
 701.06580687539
   0
LWPOLYLINE
   5
189
 100
AcDbEntity
   8
LEVEL001
 370
30
   6
CONTINUOUS
  62
7
 100
AcDbPolyline
  90
3
  70
0
  10
 1544.0994188944
  20
 701.06580687539
  10
 1544.0994188944
  20
 777.06580687539
  10
 1471.1082626619
  20
 777.06580687539
   0
ARC
   5
18A
 100
AcDbEntity
   8
LEVEL001
 370
30
   6
CONTINUOUS
  62
7
 100
AcDbCircle
  10
 1501.2242802488
  20
 729.85325044484
  30
0.0
  40
 56.000000000000
 100
AcDbArc
  50
 329.06525556234
  51
 40.037152615579
   0
LINE
   5
18B
 100
AcDbEntity
   8
LEVEL001
 370
30
 100
AcDbLine
   6
CONTINUOUS
  62
7
  10
 1543.1312609960
  20
 807.52438385135
  30
0.0
  11
 1538.5918960275
  21
 777.06580687539
  31
0.0
   0
LINE
   5
18C
 100
AcDbEntity
   8
LEVEL001
 370
30
 100
AcDbLine
   6
CONTINUOUS
  62
7
  10
 1536.2077285186
  20
 808.55622591050
  30
0.0
  11
 1531.5145839530
  21
 777.06580687539
  31
0.0
   0
LINE
   5
18D
 100
AcDbEntity
   8
LEVEL001
 370
30
 100
AcDbLine
   6
CONTINUOUS
  62
7
  10
 1477.9292211034
  20
 777.06580687539
  30
0.0
  11
 1479.5119226593
  21
 787.68553838080
  31
0.0
   0
LINE
   5
18E
 100
AcDbEntity
   8
LEVEL001
 370
30
 100
AcDbLine
   6
CONTINUOUS
  62
7
  10
 1485.0065331779
  20
 777.06580687539
  30
0.0
  11
 1486.4354551367
  21
 786.65369632165
  31
0.0
   0
ARC
   5
18F
 100
AcDbEntity
   8
LEVEL001
 370
30
   6
CONTINUOUS
  62
7
 100
AcDbCircle
  10
 1501.2242802488
  20
 729.85325044484
  30
0.0
  40
 56.000000000000
 100
AcDbArc
  50
 113.91573474411
  51
 121.62285607261
   0
ARC
   5
190
 100
AcDbEntity
   8
LEVEL001
 370
30
   6
CONTINUOUS
  62
7
 100
AcDbCircle
  10
 1400.5994188944
  20
 654.06580687539
  30
0.0
  40
 57.500000000000
 100
AcDbArc
  50
 108.76813277386
  51
 125.17550049715
   0
LWPOLYLINE
   5
191
 100
AcDbEntity
   8
LEVEL001
 370
30
   6
CONTINUOUS
  62
7
 100
AcDbPolyline
  90
3
  70
0
  10
 1554.5994188944
  20
 319.06580687539
  10
 1556.0994188944
  20
 319.06580687539
  10
 1556.0994188944
  20
 333.06580687539
   0
LWPOLYLINE
   5
192
 100
AcDbEntity
   8
LEVEL001
 370
30
   6
CONTINUOUS
  62
7
 100
AcDbPolyline
  90
3
  70
0
  10
 1233.0994188944
  20
 333.06580687539
  10
 1233.0994188944
  20
 319.06580687539
  10
 1234.5994188944
  20
 319.06580687539
   0
LWPOLYLINE
   5
193
 100
AcDbEntity
   8
LEVEL001
 370
30
   6
CONTINUOUS
  62
7
 100
AcDbPolyline
  90
3
  70
0
  10
 1556.0994188944
  20
 333.06580687539
  10
 1556.0994188944
  20
 701.06580687539
  10
 1233.0994188944
  20
 701.06580687539
   0
LINE
   5
194
 100
AcDbEntity
   8
LEVEL001
 370
30
 100
AcDbLine
   6
CONTINUOUS
  62
7
  10
 1233.0994188944
  20
 701.06580687539
  30
0.0
  11
 1233.0994188944
  21
 333.06580687539
  31
0.0
   0
LWPOLYLINE
   5
195
 100
AcDbEntity
   8
LEVEL001
 370
30
   6
CONTINUOUS
  62
7
 100
AcDbPolyline
  90
4
  70
0
  10
 1234.5994188944
  20
 319.06580687539
  10
 1234.5994188944
  20
 299.26580687539
  10
 1554.5994188944
  20
 299.26580687539
  10
 1554.5994188944
  20
 319.06580687539
   0
LINE
   5
196
 100
AcDbEntity
   8
LEVEL001
 370
30
 100
AcDbLine
   6
CONTINUOUS
  62
7
  10
 1234.5994188944
  20
 319.06580687539
  30
0.0
  11
 1554.5994188944
  21
 319.06580687539
  31
0.0
   0
ENDBLK
   5
197
 100
AcDbEntity
   8
0
 100
AcDbBlockEnd
   0
BLOCK
   5
198
 100
AcDbEntity
   8
0
 100
AcDbBlockBegin
   2
BLOCK011
  70
64
  10
0.0
  20
0.0
  30
0.0
   3
BLOCK011
   0
LWPOLYLINE
   5
199
 100
AcDbEntity
   8
LEVEL001
 370
30
   6
CONTINUOUS
  62
7
 100
AcDbPolyline
  90
6
  70
1
  10
 1515.7165151257
  20
 1305.7658068754
  10
 1515.7165151257
  20
 1307.0286259648
  10
 1516.7994188945
  20
 1308.1658068754
  10
 1530.7994188945
  20
 1308.1658068754
  10
 1531.8823226632
  20
 1307.0286259648
  10
 1531.8823226630
  20
 1305.7658068754
   0
LINE
   5
19A
 100
AcDbEntity
   8
LEVEL001
 370
30
 100
AcDbLine
   6
CONTINUOUS
  62
7
  10
 1527.8408707787
  20
 1307.0286259648
  30
0.0
  11
 1527.8408707787
  21
 1305.7658068754
  31
0.0
   0
LINE
   5
19B
 100
AcDbEntity
   8
LEVEL001
 370
30
 100
AcDbLine
   6
CONTINUOUS
  62
7
  10
 1519.7579670100
  20
 1307.0286259648
  30
0.0
  11
 1519.7579670100
  21
 1305.7658068754
  31
0.0
   0
ARC
   5
19C
 100
AcDbEntity
   8
LEVEL001
 370
30
   6
CONTINUOUS
  62
7
 100
AcDbCircle
  10
 1523.7994188944
  20
 1300.4157146991
  30
0.0
  40
 7.7500921762708
 100
AcDbArc
  50
 58.568994004812
  51
 121.43100599519
   0
ARC
   5
19D
 100
AcDbEntity
   8
LEVEL001
 370
30
   6
CONTINUOUS
  62
7
 100
AcDbCircle
  10
 1517.7372410679
  20
 1305.8018409899
  30
0.0
  40
 2.3639658855270
 100
AcDbArc
  50
 31.261984223594
  51
 89.999999999989
   0
ARC
   5
19E
 100
AcDbEntity
   8
LEVEL001
 370
30
   6
CONTINUOUS
  62
7
 100
AcDbCircle
  10
 1529.8615967210
  20
 1305.8018409897
  30
0.0
  40
 2.3639658857093
 100
AcDbArc
  50
 90.000000002496
  51
 148.73801577392
   0
ENDBLK
   5
19F
 100
AcDbEntity
   8
0
 100
AcDbBlockEnd
   0
BLOCK
   5
1A0
 100
AcDbEntity
   8
0
 100
AcDbBlockBegin
   2
*D2
  70
65
  10
0.0
  20
0.0
  30
0.0
   3
*D2
   0
LINE
   5
1A1
 100
AcDbEntity
   8
LEVEL001
 370
9
 100
AcDbLine
   6
CONTINUOUS
  62
1
  10
 741.59941889441
  20
 242.76580687539
  30
0.0
  11
 741.59941889441
  21
 66.338263106037
  31
0.0
   0
LINE
   5
1A2
 100
AcDbEntity
   8
LEVEL001
 370
9
 100
AcDbLine
   6
CONTINUOUS
  62
1
  10
 1626.5994188944
  20
 242.76580687539
  30
0.0
  11
 1626.5994188944
  21
 66.338263106037
  31
0.0
   0
LINE
   5
1A3
 100
AcDbEntity
   8
LEVEL001
 370
9
 100
AcDbLine
   6
CONTINUOUS
  62
1
  10
 741.59941889441
  20
 82.338263106037
  30
0.0
  11
 1184.0994188944
  21
 82.338263106037
  31
0.0
   0
LINE
   5
1A4
 100
AcDbEntity
   8
LEVEL001
 370
9
 100
AcDbLine
   6
CONTINUOUS
  62
1
  10
 1626.5994188944
  20
 82.338263106037
  30
0.0
  11
 1184.0994188944
  21
 82.338263106037
  31
0.0
   0
INSERT
   5
1A5
 100
AcDbEntity
   8
LEVEL001
   6
CONTINUOUS
  62
1
 100
AcDbBlockReference
   2
_OPEN30
  10
 741.59941889441
  20
 82.338263106037
  30
0.0
  41
 24.000000000000
  42
 24.000000000000
  43
 24.000000000000
  50
 180.00000000000
   0
INSERT
   5
1A6
 100
AcDbEntity
   8
LEVEL001
   6
CONTINUOUS
  62
1
 100
AcDbBlockReference
   2
_OPEN30
  10
 1626.5994188944
  20
 82.338263106037
  30
0.0
  41
 24.000000000000
  42
 24.000000000000
  43
 24.000000000000
  50
0.0
   0
MTEXT
   5
1A7
 100
AcDbEntity
   8
LEVEL001
 370
30
  62
7
 100
AcDbMText
  10
 1184.0994188944
  20
 90.338263106037
  30
0.0
  40
 32.000000000000
  41
0.0
  71
8
  72
1
   1
\A1;885
   7
GMM001
   0
ENDBLK
   5
1A8
 100
AcDbEntity
   8
0
 100
AcDbBlockEnd
   0
BLOCK
   5
1A9
 100
AcDbEntity
   8
0
 100
AcDbBlockBegin
   2
*D3
  70
65
  10
0.0
  20
0.0
  30
0.0
   3
*D3
   0
LINE
   5
1AA
 100
AcDbEntity
   8
LEVEL001
 370
9
 100
AcDbLine
   6
CONTINUOUS
  62
1
  10
 814.39941889441
  20
 1352.6220847631
  30
0.0
  11
 814.39941889441
  21
 1472.1318179997
  31
0.0
   0
LINE
   5
1AB
 100
AcDbEntity
   8
LEVEL001
 370
9
 100
AcDbLine
   6
CONTINUOUS
  62
1
  10
 1554.3994188944
  20
 1340.7658068754
  30
0.0
  11
 1554.3994188944
  21
 1472.1318179997
  31
0.0
   0
LINE
   5
1AC
 100
AcDbEntity
   8
LEVEL001
 370
9
 100
AcDbLine
   6
CONTINUOUS
  62
1
  10
 814.39941889441
  20
 1464.1318179997
  30
0.0
  11
 1184.3994188944
  21
 1464.1318179997
  31
0.0
   0
LINE
   5
1AD
 100
AcDbEntity
   8
LEVEL001
 370
9
 100
AcDbLine
   6
CONTINUOUS
  62
1
  10
 1554.3994188944
  20
 1464.1318179997
  30
0.0
  11
 1184.3994188944
  21
 1464.1318179997
  31
0.0
   0
INSERT
   5
1AE
 100
AcDbEntity
   8
LEVEL001
   6
CONTINUOUS
  62
1
 100
AcDbBlockReference
   2
_OPEN30
  10
 814.39941889441
  20
 1464.1318179997
  30
0.0
  41
 24.000000000000
  42
 24.000000000000
  43
 24.000000000000
  50
 180.00000000000
   0
INSERT
   5
1AF
 100
AcDbEntity
   8
LEVEL001
   6
CONTINUOUS
  62
1
 100
AcDbBlockReference
   2
_OPEN30
  10
 1554.3994188944
  20
 1464.1318179997
  30
0.0
  41
 24.000000000000
  42
 24.000000000000
  43
 24.000000000000
  50
0.0
   0
MTEXT
   5
1B0
 100
AcDbEntity
   8
LEVEL001
 370
30
  62
7
 100
AcDbMText
  10
 1184.3994188944
  20
 1469.7318179997
  30
0.0
  40
 32.000000000000
  41
0.0
  71
8
  72
1
   1
\A1;740
   7
GMM001
   0
ENDBLK
   5
1B1
 100
AcDbEntity
   8
0
 100
AcDbBlockEnd
   0
BLOCK
   5
1B2
 100
AcDbEntity
   8
0
 100
AcDbBlockBegin
   2
BLOCK012
  70
64
  10
0.0
  20
0.0
  30
0.0
   3
BLOCK012
   0
LINE
   5
1B3
 100
AcDbEntity
   8
LEVEL001
 370
30
 100
AcDbLine
   6
CONTINUOUS
  62
7
  10
 930.96063482658
  20
 1315.7658068754
  30
0.0
  11
 916.23820296224
  21
 1315.7658068754
  31
0.0
   0
ARC
   5
1B4
 100
AcDbEntity
   8
LEVEL001
 370
30
   6
CONTINUOUS
  62
7
 100
AcDbCircle
  10
 923.59941889441
  20
 1301.9866415779
  30
0.0
  40
 13.779165297460
 100
AcDbArc
  50
 69.135935636081
  51
 110.86406436392
   0
LINE
   5
1B5
 100
AcDbEntity
   8
LEVEL001
 370
30
 100
AcDbLine
   6
CONTINUOUS
  62
7
  10
 933.41437347063
  20
 1307.7658068754
  30
0.0
  11
 933.41437347063
  21
 1314.8622799295
  31
0.0
   0
LINE
   5
1B6
 100
AcDbEntity
   8
LEVEL001
 370
30
 100
AcDbLine
   6
CONTINUOUS
  62
7
  10
 928.50689618252
  20
 1307.7658068754
  30
0.0
  11
 928.50689618252
  21
 1314.8622799295
  31
0.0
   0
ARC
   5
1B7
 100
AcDbEntity
   8
LEVEL001
 370
30
   6
CONTINUOUS
  62
7
 100
AcDbCircle
  10
 930.96063482658
  20
 1311.9821929463
  30
0.0
  40
 3.7836139290595
 100
AcDbArc
  50
 49.570103155173
  51
 130.42989684483
   0
LINE
   5
1B8
 100
AcDbEntity
   8
LEVEL001
 370
30
 100
AcDbLine
   6
CONTINUOUS
  62
7
  10
 913.78446431819
  20
 1307.7658068754
  30
0.0
  11
 913.78446431819
  21
 1314.8622799295
  31
0.0
   0
LINE
   5
1B9
 100
AcDbEntity
   8
LEVEL001
 370
30
 100
AcDbLine
   6
CONTINUOUS
  62
7
  10
 918.69194160630
  20
 1307.7658068754
  30
0.0
  11
 918.69194160630
  21
 1314.8622799295
  31
0.0
   0
ARC
   5
1BA
 100
AcDbEntity
   8
LEVEL001
 370
30
   6
CONTINUOUS
  62
7
 100
AcDbCircle
  10
 916.23820296224
  20
 1311.9821929463
  30
0.0
  40
 3.7836139290595
 100
AcDbArc
  50
 49.570103155173
  51
 130.42989684483
   0
LINE
   5
1BB
 100
AcDbEntity
   8
LEVEL001
 370
30
 100
AcDbLine
   6
CONTINUOUS
  62
7
  10
 933.41437347063
  20
 1307.7658068754
  30
0.0
  11
 913.78446431819
  21
 1307.7658068754
  31
0.0
   0
LINE
   5
1BC
 100
AcDbEntity
   8
LEVEL001
 370
30
 100
AcDbLine
   6
CONTINUOUS
  62
7
  10
 933.59941889441
  20
 1307.7658068754
  30
0.0
  11
 913.59941889441
  21
 1307.7658068754
  31
0.0
   0
LINE
   5
1BD
 100
AcDbEntity
   8
LEVEL001
 370
30
 100
AcDbLine
   6
CONTINUOUS
  62
7
  10
 913.59941889441
  20
 1307.7658068754
  30
0.0
  11
 913.59941889441
  21
 1305.7658068754
  31
0.0
   0
LINE
   5
1BE
 100
AcDbEntity
   8
LEVEL001
 370
30
 100
AcDbLine
   6
CONTINUOUS
  62
7
  10
 913.59941889441
  20
 1305.7658068754
  30
0.0
  11
 933.59941889441
  21
 1305.7658068754
  31
0.0
   0
LINE
   5
1BF
 100
AcDbEntity
   8
LEVEL001
 370
30
 100
AcDbLine
   6
CONTINUOUS
  62
7
  10
 933.59941889441
  20
 1305.7658068754
  30
0.0
  11
 933.59941889441
  21
 1307.7658068754
  31
0.0
   0
ENDBLK
   5
1C0
 100
AcDbEntity
   8
0
 100
AcDbBlockEnd
   0
BLOCK
   5
1C1
 100
AcDbEntity
   8
0
 100
AcDbBlockBegin
   2
BLOCK013
  70
64
  10
0.0
  20
0.0
  30
0.0
   3
BLOCK013
   0
LINE
   5
1C2
 100
AcDbEntity
   8
LEVEL001
 370
30
 100
AcDbLine
   6
CONTINUOUS
  62
7
  10
 1434.7844643182
  20
 1340.8622799295
  30
0.0
  11
 1434.7844643182
  21
 1333.7658068754
  31
0.0
   0
LINE
   5
1C3
 100
AcDbEntity
   8
LEVEL001
 370
30
 100
AcDbLine
   6
CONTINUOUS
  62
7
  10
 1434.7844643182
  20
 1333.7658068754
  30
0.0
  11
 1454.4143734706
  21
 1333.7658068754
  31
0.0
   0
LINE
   5
1C4
 100
AcDbEntity
   8
LEVEL001
 370
30
 100
AcDbLine
   6
CONTINUOUS
  62
7
  10
 1454.4143734706
  20
 1333.7658068754
  30
0.0
  11
 1454.4143734706
  21
 1340.8622799295
  31
0.0
   0
LINE
   5
1C5
 100
AcDbEntity
   8
LEVEL001
 370
30
 100
AcDbLine
   6
CONTINUOUS
  62
7
  10
 1451.9606348266
  20
 1341.7658068754
  30
0.0
  11
 1437.2382029622
  21
 1341.7658068754
  31
0.0
   0
ARC
   5
1C6
 100
AcDbEntity
   8
LEVEL001
 370
30
   6
CONTINUOUS
  62
7
 100
AcDbCircle
  10
 1444.5994188944
  20
 1327.9866415779
  30
0.0
  40
 13.779165297460
 100
AcDbArc
  50
 69.135935636081
  51
 110.86406436392
   0
LINE
   5
1C7
 100
AcDbEntity
   8
LEVEL001
 370
30
 100
AcDbLine
   6
CONTINUOUS
  62
7
  10
 1449.5068961825
  20
 1333.7658068754
  30
0.0
  11
 1449.5068961825
  21
 1340.8622799295
  31
0.0
   0
ARC
   5
1C8
 100
AcDbEntity
   8
LEVEL001
 370
30
   6
CONTINUOUS
  62
7
 100
AcDbCircle
  10
 1451.9606348266
  20
 1337.9821929463
  30
0.0
  40
 3.7836139290595
 100
AcDbArc
  50
 49.570103155173
  51
 130.42989684483
   0
LINE
   5
1C9
 100
AcDbEntity
   8
LEVEL001
 370
30
 100
AcDbLine
   6
CONTINUOUS
  62
7
  10
 1439.6919416063
  20
 1333.7658068754
  30
0.0
  11
 1439.6919416063
  21
 1340.8622799295
  31
0.0
   0
ARC
   5
1CA
 100
AcDbEntity
   8
LEVEL001
 370
30
   6
CONTINUOUS
  62
7
 100
AcDbCircle
  10
 1437.2382029622
  20
 1337.9821929463
  30
0.0
  40
 3.7836139290595
 100
AcDbArc
  50
 49.570103155173
  51
 130.42989684483
   0
ENDBLK
   5
1CB
 100
AcDbEntity
   8
0
 100
AcDbBlockEnd
   0
BLOCK
   5
1CC
 100
AcDbEntity
   8
0
 100
AcDbBlockBegin
   2
BLOCK014
  70
64
  10
0.0
  20
0.0
  30
0.0
   3
BLOCK014
   0
LINE
   5
1CD
 100
AcDbEntity
   8
LEVEL001
 370
30
 100
AcDbLine
   6
CONTINUOUS
  62
7
  10
 1451.9606348266
  20
 1315.7658068754
  30
0.0
  11
 1437.2382029622
  21
 1315.7658068754
  31
0.0
   0
ARC
   5
1CE
 100
AcDbEntity
   8
LEVEL001
 370
30
   6
CONTINUOUS
  62
7
 100
AcDbCircle
  10
 1444.5994188944
  20
 1301.9866415779
  30
0.0
  40
 13.779165297460
 100
AcDbArc
  50
 69.135935636081
  51
 110.86406436392
   0
LINE
   5
1CF
 100
AcDbEntity
   8
LEVEL001
 370
30
 100
AcDbLine
   6
CONTINUOUS
  62
7
  10
 1454.4143734706
  20
 1307.7658068754
  30
0.0
  11
 1454.4143734706
  21
 1314.8622799295
  31
0.0
   0
LINE
   5
1D0
 100
AcDbEntity
   8
LEVEL001
 370
30
 100
AcDbLine
   6
CONTINUOUS
  62
7
  10
 1449.5068961825
  20
 1307.7658068754
  30
0.0
  11
 1449.5068961825
  21
 1314.8622799295
  31
0.0
   0
ARC
   5
1D1
 100
AcDbEntity
   8
LEVEL001
 370
30
   6
CONTINUOUS
  62
7
 100
AcDbCircle
  10
 1451.9606348266
  20
 1311.9821929463
  30
0.0
  40
 3.7836139290595
 100
AcDbArc
  50
 49.570103155173
  51
 130.42989684483
   0
LINE
   5
1D2
 100
AcDbEntity
   8
LEVEL001
 370
30
 100
AcDbLine
   6
CONTINUOUS
  62
7
  10
 1434.7844643182
  20
 1307.7658068754
  30
0.0
  11
 1434.7844643182
  21
 1314.8622799295
  31
0.0
   0
LINE
   5
1D3
 100
AcDbEntity
   8
LEVEL001
 370
30
 100
AcDbLine
   6
CONTINUOUS
  62
7
  10
 1439.6919416063
  20
 1307.7658068754
  30
0.0
  11
 1439.6919416063
  21
 1314.8622799295
  31
0.0
   0
ARC
   5
1D4
 100
AcDbEntity
   8
LEVEL001
 370
30
   6
CONTINUOUS
  62
7
 100
AcDbCircle
  10
 1437.2382029622
  20
 1311.9821929463
  30
0.0
  40
 3.7836139290595
 100
AcDbArc
  50
 49.570103155173
  51
 130.42989684483
   0
LINE
   5
1D5
 100
AcDbEntity
   8
LEVEL001
 370
30
 100
AcDbLine
   6
CONTINUOUS
  62
7
  10
 1454.4143734706
  20
 1307.7658068754
  30
0.0
  11
 1434.7844643182
  21
 1307.7658068754
  31
0.0
   0
LINE
   5
1D6
 100
AcDbEntity
   8
LEVEL001
 370
30
 100
AcDbLine
   6
CONTINUOUS
  62
7
  10
 1454.5994188944
  20
 1307.7658068754
  30
0.0
  11
 1434.5994188944
  21
 1307.7658068754
  31
0.0
   0
LINE
   5
1D7
 100
AcDbEntity
   8
LEVEL001
 370
30
 100
AcDbLine
   6
CONTINUOUS
  62
7
  10
 1434.5994188944
  20
 1307.7658068754
  30
0.0
  11
 1434.5994188944
  21
 1305.7658068754
  31
0.0
   0
LINE
   5
1D8
 100
AcDbEntity
   8
LEVEL001
 370
30
 100
AcDbLine
   6
CONTINUOUS
  62
7
  10
 1434.5994188944
  20
 1305.7658068754
  30
0.0
  11
 1454.5994188944
  21
 1305.7658068754
  31
0.0
   0
LINE
   5
1D9
 100
AcDbEntity
   8
LEVEL001
 370
30
 100
AcDbLine
   6
CONTINUOUS
  62
7
  10
 1454.5994188944
  20
 1305.7658068754
  30
0.0
  11
 1454.5994188944
  21
 1307.7658068754
  31
0.0
   0
ENDBLK
   5
1DA
 100
AcDbEntity
   8
0
 100
AcDbBlockEnd
   0
BLOCK
   5
1DB
 100
AcDbEntity
   8
0
 100
AcDbBlockBegin
   2
BLOCK015
  70
64
  10
0.0
  20
0.0
  30
0.0
   3
BLOCK015
   0
LINE
   5
1DC
 100
AcDbEntity
   8
LEVEL001
 370
30
 100
AcDbLine
   6
CONTINUOUS
  62
7
  10
 913.78446431819
  20
 1340.8622799295
  30
0.0
  11
 913.78446431819
  21
 1333.7658068754
  31
0.0
   0
LINE
   5
1DD
 100
AcDbEntity
   8
LEVEL001
 370
30
 100
AcDbLine
   6
CONTINUOUS
  62
7
  10
 913.78446431819
  20
 1333.7658068754
  30
0.0
  11
 933.41437347063
  21
 1333.7658068754
  31
0.0
   0
LINE
   5
1DE
 100
AcDbEntity
   8
LEVEL001
 370
30
 100
AcDbLine
   6
CONTINUOUS
  62
7
  10
 933.41437347063
  20
 1333.7658068754
  30
0.0
  11
 933.41437347063
  21
 1340.8622799295
  31
0.0
   0
LINE
   5
1DF
 100
AcDbEntity
   8
LEVEL001
 370
30
 100
AcDbLine
   6
CONTINUOUS
  62
7
  10
 930.96063482658
  20
 1341.7658068754
  30
0.0
  11
 916.23820296224
  21
 1341.7658068754
  31
0.0
   0
ARC
   5
1E0
 100
AcDbEntity
   8
LEVEL001
 370
30
   6
CONTINUOUS
  62
7
 100
AcDbCircle
  10
 923.59941889441
  20
 1327.9866415779
  30
0.0
  40
 13.779165297460
 100
AcDbArc
  50
 69.135935636081
  51
 110.86406436392
   0
LINE
   5
1E1
 100
AcDbEntity
   8
LEVEL001
 370
30
 100
AcDbLine
   6
CONTINUOUS
  62
7
  10
 928.50689618252
  20
 1333.7658068754
  30
0.0
  11
 928.50689618252
  21
 1340.8622799295
  31
0.0
   0
ARC
   5
1E2
 100
AcDbEntity
   8
LEVEL001
 370
30
   6
CONTINUOUS
  62
7
 100
AcDbCircle
  10
 930.96063482658
  20
 1337.9821929463
  30
0.0
  40
 3.7836139290595
 100
AcDbArc
  50
 49.570103155173
  51
 130.42989684483
   0
LINE
   5
1E3
 100
AcDbEntity
   8
LEVEL001
 370
30
 100
AcDbLine
   6
CONTINUOUS
  62
7
  10
 918.69194160630
  20
 1333.7658068754
  30
0.0
  11
 918.69194160630
  21
 1340.8622799295
  31
0.0
   0
ARC
   5
1E4
 100
AcDbEntity
   8
LEVEL001
 370
30
   6
CONTINUOUS
  62
7
 100
AcDbCircle
  10
 916.23820296224
  20
 1337.9821929463
  30
0.0
  40
 3.7836139290595
 100
AcDbArc
  50
 49.570103155173
  51
 130.42989684483
   0
ENDBLK
   5
1E5
 100
AcDbEntity
   8
0
 100
AcDbBlockEnd
   0
BLOCK
   5
1E6
 100
AcDbEntity
   8
0
 100
AcDbBlockBegin
   2
*D4
  70
65
  10
0.0
  20
0.0
  30
0.0
   3
*D4
   0
LINE
   5
1E7
 100
AcDbEntity
   8
LEVEL001
 370
9
 100
AcDbLine
   6
CONTINUOUS
  62
1
  10
 706.59941889441
  20
 229.76580687539
  30
0.0
  11
 568.00000000000
  21
 229.76580687539
  31
0.0
   0
LINE
   5
1E8
 100
AcDbEntity
   8
LEVEL001
 370
9
 100
AcDbLine
   6
CONTINUOUS
  62
1
  10
 584.00000000000
  20
 229.76580687539
  30
0.0
  11
 584.00000000000
  21
 559.76580687539
  31
0.0
   0
LINE
   5
1E9
 100
AcDbEntity
   8
LEVEL001
 370
9
 100
AcDbLine
   6
CONTINUOUS
  62
1
  10
 584.00000000000
  20
 889.76580687539
  30
0.0
  11
 584.00000000000
  21
 559.76580687539
  31
0.0
   0
INSERT
   5
1EA
 100
AcDbEntity
   8
LEVEL001
   6
CONTINUOUS
  62
1
 100
AcDbBlockReference
   2
_OPEN30
  10
 584.00000000000
  20
 229.76580687539
  30
0.0
  41
 24.000000000000
  42
 24.000000000000
  43
 24.000000000000
  50
 270.00000000000
   0
INSERT
   5
1EB
 100
AcDbEntity
   8
LEVEL001
   6
CONTINUOUS
  62
1
 100
AcDbBlockReference
   2
_OPEN30
  10
 584.00000000000
  20
 889.76580687539
  30
0.0
  41
 24.000000000000
  42
 24.000000000000
  43
 24.000000000000
  50
 90.000000000000
   0
MTEXT
   5
1EC
 100
AcDbEntity
   8
LEVEL001
 370
30
  62
7
 100
AcDbMText
  10
 576.00000000000
  20
 559.76580687539
  30
0.0
  40
 32.000000000000
  41
0.0
  71
8
  72
1
   1
\A1;660
   7
GMM001
  11
0.0
  21
 1.0000000000000
  31
0.0
   0
ENDBLK
   5
1ED
 100
AcDbEntity
   8
0
 100
AcDbBlockEnd
   0
BLOCK
   5
1EE
 100
AcDbEntity
   8
0
 100
AcDbBlockBegin
   2
*D5
  70
65
  10
0.0
  20
0.0
  30
0.0
   3
*D5
   0
LINE
   5
1EF
 100
AcDbEntity
   8
LEVEL001
 370
9
 100
AcDbLine
   6
CONTINUOUS
  62
1
  10
 736.78718611764
  20
 889.76580687539
  30
0.0
  11
 568.00000000000
  21
 889.76580687539
  31
0.0
   0
LINE
   5
1F0
 100
AcDbEntity
   8
LEVEL001
 370
9
 100
AcDbLine
   6
CONTINUOUS
  62
1
  10
 814.39941889441
  20
 1344.7658068754
  30
0.0
  11
 568.00000000000
  21
 1344.7658068754
  31
0.0
   0
LINE
   5
1F1
 100
AcDbEntity
   8
LEVEL001
 370
9
 100
AcDbLine
   6
CONTINUOUS
  62
1
  10
 584.00000000000
  20
 889.76580687539
  30
0.0
  11
 584.00000000000
  21
 1117.2658068754
  31
0.0
   0
LINE
   5
1F2
 100
AcDbEntity
   8
LEVEL001
 370
9
 100
AcDbLine
   6
CONTINUOUS
  62
1
  10
 584.00000000000
  20
 1344.7658068754
  30
0.0
  11
 584.00000000000
  21
 1117.2658068754
  31
0.0
   0
INSERT
   5
1F3
 100
AcDbEntity
   8
LEVEL001
   6
CONTINUOUS
  62
1
 100
AcDbBlockReference
   2
_OPEN30
  10
 584.00000000000
  20
 889.76580687539
  30
0.0
  41
 24.000000000000
  42
 24.000000000000
  43
 24.000000000000
  50
 270.00000000000
   0
INSERT
   5
1F4
 100
AcDbEntity
   8
LEVEL001
   6
CONTINUOUS
  62
1
 100
AcDbBlockReference
   2
_OPEN30
  10
 584.00000000000
  20
 1344.7658068754
  30
0.0
  41
 24.000000000000
  42
 24.000000000000
  43
 24.000000000000
  50
 90.000000000000
   0
MTEXT
   5
1F5
 100
AcDbEntity
   8
LEVEL001
 370
30
  62
7
 100
AcDbMText
  10
 576.00000000000
  20
 1117.2658068754
  30
0.0
  40
 32.000000000000
  41
0.0
  71
8
  72
1
   1
\A1;455
   7
GMM001
  11
0.0
  21
 1.0000000000000
  31
0.0
   0
ENDBLK
   5
1F6
 100
AcDbEntity
   8
0
 100
AcDbBlockEnd
   0
BLOCK
   5
1F7
 100
AcDbEntity
   8
0
 100
AcDbBlockBegin
   2
*D6
  70
65
  10
0.0
  20
0.0
  30
0.0
   3
*D6
   0
LINE
   5
1F8
 100
AcDbEntity
   8
LEVEL001
 370
9
 100
AcDbLine
   6
CONTINUOUS
  62
1
  10
 814.39941889441
  20
 1344.7658068754
  30
0.0
  11
 494.62068965517
  21
 1344.7658068754
  31
0.0
   0
LINE
   5
1F9
 100
AcDbEntity
   8
LEVEL001
 370
9
 100
AcDbLine
   6
CONTINUOUS
  62
1
  10
 706.59941889441
  20
 229.76580687539
  30
0.0
  11
 494.62068965517
  21
 229.76580687539
  31
0.0
   0
LINE
   5
1FA
 100
AcDbEntity
   8
LEVEL001
 370
9
 100
AcDbLine
   6
CONTINUOUS
  62
1
  10
 510.62068965517
  20
 1344.7658068754
  30
0.0
  11
 510.62068965517
  21
 787.26580687539
  31
0.0
   0
LINE
   5
1FB
 100
AcDbEntity
   8
LEVEL001
 370
9
 100
AcDbLine
   6
CONTINUOUS
  62
1
  10
 510.62068965517
  20
 229.76580687539
  30
0.0
  11
 510.62068965517
  21
 787.26580687539
  31
0.0
   0
INSERT
   5
1FC
 100
AcDbEntity
   8
LEVEL001
   6
CONTINUOUS
  62
1
 100
AcDbBlockReference
   2
_OPEN30
  10
 510.62068965517
  20
 1344.7658068754
  30
0.0
  41
 24.000000000000
  42
 24.000000000000
  43
 24.000000000000
  50
 90.000000000000
   0
INSERT
   5
1FD
 100
AcDbEntity
   8
LEVEL001
   6
CONTINUOUS
  62
1
 100
AcDbBlockReference
   2
_OPEN30
  10
 510.62068965517
  20
 229.76580687539
  30
0.0
  41
 24.000000000000
  42
 24.000000000000
  43
 24.000000000000
  50
 270.00000000000
   0
MTEXT
   5
1FE
 100
AcDbEntity
   8
LEVEL001
 370
30
  62
7
 100
AcDbMText
  10
 502.62068965517
  20
 787.26580687539
  30
0.0
  40
 32.000000000000
  41
0.0
  71
8
  72
1
   1
\A1;1115
   7
GMM001
  11
0.0
  21
 1.0000000000000
  31
0.0
   0
ENDBLK
   5
1FF
 100
AcDbEntity
   8
0
 100
AcDbBlockEnd
   0
BLOCK
   5
200
 100
AcDbEntity
   8
0
 100
AcDbBlockBegin
   2
*D7
  70
65
  10
0.0
  20
0.0
  30
0.0
   3
*D7
   0
LINE
   5
201
 100
AcDbEntity
   8
LEVEL001
 370
9
 100
AcDbLine
   6
CONTINUOUS
  62
1
  10
 2001.0000000000
  20
 229.76580687539
  30
0.0
  11
 2001.0000000000
  21
 66.338263106037
  31
0.0
   0
LINE
   5
202
 100
AcDbEntity
   8
LEVEL001
 370
9
 100
AcDbLine
   6
CONTINUOUS
  62
1
  10
 3451.0000000000
  20
 229.76580687539
  30
0.0
  11
 3451.0000000000
  21
 66.338263106037
  31
0.0
   0
LINE
   5
203
 100
AcDbEntity
   8
LEVEL001
 370
9
 100
AcDbLine
   6
CONTINUOUS
  62
1
  10
 2001.0000000000
  20
 82.338263106037
  30
0.0
  11
 2726.0000000000
  21
 82.338263106037
  31
0.0
   0
LINE
   5
204
 100
AcDbEntity
   8
LEVEL001
 370
9
 100
AcDbLine
   6
CONTINUOUS
  62
1
  10
 3451.0000000000
  20
 82.338263106037
  30
0.0
  11
 2726.0000000000
  21
 82.338263106037
  31
0.0
   0
INSERT
   5
205
 100
AcDbEntity
   8
LEVEL001
   6
CONTINUOUS
  62
1
 100
AcDbBlockReference
   2
_OPEN30
  10
 2001.0000000000
  20
 82.338263106037
  30
0.0
  41
 24.000000000000
  42
 24.000000000000
  43
 24.000000000000
  50
 180.00000000000
   0
INSERT
   5
206
 100
AcDbEntity
   8
LEVEL001
   6
CONTINUOUS
  62
1
 100
AcDbBlockReference
   2
_OPEN30
  10
 3451.0000000000
  20
 82.338263106037
  30
0.0
  41
 24.000000000000
  42
 24.000000000000
  43
 24.000000000000
  50
0.0
   0
MTEXT
   5
207
 100
AcDbEntity
   8
LEVEL001
 370
30
  62
7
 100
AcDbMText
  10
 2726.0000000000
  20
 90.338263106037
  30
0.0
  40
 32.000000000000
  41
0.0
  71
8
  72
1
   1
\A1;1450
   7
GMM001
   0
ENDBLK
   5
208
 100
AcDbEntity
   8
0
 100
AcDbBlockEnd
   0
BLOCK
   5
209
 100
AcDbEntity
   8
0
 100
AcDbBlockBegin
   2
*D8
  70
65
  10
0.0
  20
0.0
  30
0.0
   3
*D8
   0
LINE
   5
20A
 100
AcDbEntity
   8
LEVEL001
 370
9
 100
AcDbLine
   6
CONTINUOUS
  62
1
  10
 1626.5994188944
  20
 3026.8511910231
  30
0.0
  11
 1874.9693869934
  21
 3026.8511910231
  31
0.0
   0
LINE
   5
20B
 100
AcDbEntity
   8
LEVEL001
 370
9
 100
AcDbLine
   6
CONTINUOUS
  62
1
  10
 1556.0994188944
  20
 1576.8511910231
  30
0.0
  11
 1874.9693869934
  21
 1576.8511910231
  31
0.0
   0
LINE
   5
20C
 100
AcDbEntity
   8
LEVEL001
 370
9
 100
AcDbLine
   6
CONTINUOUS
  62
1
  10
 1858.9693869934
  20
 3026.8511910231
  30
0.0
  11
 1858.9693869934
  21
 2301.8511910231
  31
0.0
   0
LINE
   5
20D
 100
AcDbEntity
   8
LEVEL001
 370
9
 100
AcDbLine
   6
CONTINUOUS
  62
1
  10
 1858.9693869934
  20
 1576.8511910231
  30
0.0
  11
 1858.9693869934
  21
 2301.8511910231
  31
0.0
   0
INSERT
   5
20E
 100
AcDbEntity
   8
LEVEL001
   6
CONTINUOUS
  62
1
 100
AcDbBlockReference
   2
_OPEN30
  10
 1858.9693869934
  20
 3026.8511910231
  30
0.0
  41
 24.000000000000
  42
 24.000000000000
  43
 24.000000000000
  50
 90.000000000000
   0
INSERT
   5
20F
 100
AcDbEntity
   8
LEVEL001
   6
CONTINUOUS
  62
1
 100
AcDbBlockReference
   2
_OPEN30
  10
 1858.9693869934
  20
 1576.8511910231
  30
0.0
  41
 24.000000000000
  42
 24.000000000000
  43
 24.000000000000
  50
 270.00000000000
   0
MTEXT
   5
210
 100
AcDbEntity
   8
LEVEL001
 370
30
  62
7
 100
AcDbMText
  10
 1850.9693869934
  20
 2301.8511910231
  30
0.0
  40
 32.000000000000
  41
0.0
  71
8
  72
1
   1
\A1;1450
   7
GMM001
  11
0.0
  21
 1.0000000000000
  31
0.0
   0
ENDBLK
   5
211
 100
AcDbEntity
   8
0
 100
AcDbBlockEnd
   0
ENDSEC
   0
SECTION
   2
ENTITIES
   0
MTEXT
   5
213
 100
AcDbEntity
   8
LEVEL001
 370
30
  62
7
 100
AcDbMText
  10
 4538.7586206897
  20
 80.000000000000
  30
0.0
  40
 32.000000000000
  41
0.0
  71
7
  72
1
   1
\T1.000000;井上
   7
GMM001
  44
 0.79999984000003
   0
INSERT
   5
214
 100
AcDbEntity
   8
LEVEL001
 100
AcDbBlockReference
   2
BLOCK001
  10
0.0
  20
0.0
  30
0.0
   0
INSERT
   5
215
 100
AcDbEntity
   8
LEVEL001
 100
AcDbBlockReference
   2
BLOCK002
  10
0.0
  20
0.0
  30
0.0
   0
INSERT
   5
216
 100
AcDbEntity
   8
0
 100
AcDbBlockReference
   2
BLOCK003
  10
0.0
  20
0.0
  30
0.0
   0
MTEXT
   5
218
 100
AcDbEntity
   8
LEVEL001
 370
30
  62
7
 100
AcDbMText
  10
 4346.7586206897
  20
 80.000000000000
  30
0.0
  40
 32.000000000000
  41
0.0
  71
7
  72
1
   1
\T1.000000;27
   7
GMM004
  44
 0.79999984000003
   0
MTEXT
   5
21A
 100
AcDbEntity
   8
LEVEL001
 370
30
  62
7
 100
AcDbMText
  10
 4399.3690458004
  20
 80.000000000000
  30
0.0
  40
 32.000000000000
  41
0.0
  71
7
  72
1
   1
\T1.000000; 3
   7
GMM004
  44
 0.79999984000003
   0
LINE
   5
21B
 100
AcDbEntity
   8
LEVEL001
 370
30
 100
AcDbLine
   6
CONTINUOUS
  62
7
  10
 3334.7586206897
  20
 2604.0000000000
  30
0.0
  11
 4550.7586206897
  21
 2604.0000000000
  31
0.0
   0
LINE
   5
21C
 100
AcDbEntity
   8
LEVEL001
 370
30
 100
AcDbLine
   6
CONTINUOUS
  62
7
  10
 3344.0919540230
  20
 2540.0000000000
  30
0.0
  11
 4550.7586206897
  21
 2540.0000000000
  31
0.0
   0
LINE
   5
21D
 100
AcDbEntity
   8
LEVEL001
 370
30
 100
AcDbLine
   6
CONTINUOUS
  62
7
  10
 3334.7586206897
  20
 2476.0000000000
  30
0.0
  11
 4550.7586206897
  21
 2476.0000000000
  31
0.0
   0
LINE
   5
21E
 100
AcDbEntity
   8
LEVEL001
 370
30
 100
AcDbLine
   6
CONTINUOUS
  62
7
  10
 3234.7586206897
  20
 2412.0000000000
  30
0.0
  11
 4550.7586206897
  21
 2412.0000000000
  31
0.0
   0
LINE
   5
21F
 100
AcDbEntity
   8
LEVEL001
 370
30
 100
AcDbLine
   6
CONTINUOUS
  62
7
  10
 3234.7586206897
  20
 2412.0000000000
  30
0.0
  11
 3334.7586206897
  21
 2668.0000000000
  31
0.0
   0
LINE
   5
220
 100
AcDbEntity
   8
LEVEL001
 370
30
 100
AcDbLine
   6
CONTINUOUS
  62
7
  10
 3334.7586206897
  20
 2348.0000000000
  30
0.0
  11
 4550.7586206897
  21
 2348.0000000000
  31
0.0
   0
LINE
   5
221
 100
AcDbEntity
   8
LEVEL001
 370
30
 100
AcDbLine
   6
CONTINUOUS
  62
7
  10
 3334.7586206897
  20
 2284.0000000000
  30
0.0
  11
 4550.7586206897
  21
 2284.0000000000
  31
0.0
   0
LINE
   5
222
 100
AcDbEntity
   8
LEVEL001
 370
30
 100
AcDbLine
   6
CONTINUOUS
  62
7
  10
 3334.7586206897
  20
 2220.0000000000
  30
0.0
  11
 4550.7586206897
  21
 2220.0000000000
  31
0.0
   0
LINE
   5
223
 100
AcDbEntity
   8
LEVEL001
 370
30
 100
AcDbLine
   6
CONTINUOUS
  62
7
  10
 3334.7586206897
  20
 2156.0000000000
  30
0.0
  11
 4550.7586206897
  21
 2156.0000000000
  31
0.0
   0
LINE
   5
224
 100
AcDbEntity
   8
LEVEL001
 370
30
 100
AcDbLine
   6
CONTINUOUS
  62
7
  10
 3334.7586206897
  20
 2092.0000000000
  30
0.0
  11
 4550.7586206897
  21
 2092.0000000000
  31
0.0
   0
LINE
   5
225
 100
AcDbEntity
   8
LEVEL001
 370
30
 100
AcDbLine
   6
CONTINUOUS
  62
7
  10
 3234.7586206897
  20
 2732.0000000000
  30
0.0
  11
 4550.7586206897
  21
 2732.0000000000
  31
0.0
   0
LINE
   5
226
 100
AcDbEntity
   8
LEVEL001
 370
30
 100
AcDbLine
   6
CONTINUOUS
  62
7
  10
 3234.7586206897
  20
 2796.0000000000
  30
0.0
  11
 4550.7586206897
  21
 2796.0000000000
  31
0.0
   0
LINE
   5
227
 100
AcDbEntity
   8
LEVEL001
 370
30
 100
AcDbLine
   6
CONTINUOUS
  62
7
  10
 3234.7586206897
  20
 2860.0000000000
  30
0.0
  11
 4550.7586206897
  21
 2860.0000000000
  31
0.0
   0
LINE
   5
228
 100
AcDbEntity
   8
LEVEL001
 370
30
 100
AcDbLine
   6
CONTINUOUS
  62
7
  10
 3234.7586206897
  20
 2924.0000000000
  30
0.0
  11
 4550.7586206897
  21
 2924.0000000000
  31
0.0
   0
LINE
   5
229
 100
AcDbEntity
   8
LEVEL001
 370
30
 100
AcDbLine
   6
CONTINUOUS
  62
7
  10
 3234.7586206897
  20
 2668.0000000000
  30
0.0
  11
 4550.7586206897
  21
 2668.0000000000
  31
0.0
   0
MTEXT
   5
22B
 100
AcDbEntity
   8
LEVEL001
 370
9
  62
1
 100
AcDbMText
  10
 3292.7586206897
  20
 2493.0000000000
  30
0.0
  40
 32.000000000000
  41
0.0
  71
4
  72
1
   1
{\T1.000000;能}\P{\T1.000000;力}
   7
GMM001
  44
 0.79999984000003
   0
MTEXT
   5
22D
 100
AcDbEntity
   8
LEVEL001
 370
9
  62
1
 100
AcDbMText
  10
 3240.7586206897
  20
 2665.0000000000
  30
0.0
  40
 32.000000000000
  41
0.0
  71
1
  72
1
   1
{\T1.000000;消}\P{\T1.000000;費}\P{\T1.000000;電}\P{\T1.000000;力}
   7
GMM001
  44
 0.79999984000003
   0
MTEXT
   5
22F
 100
AcDbEntity
   8
LEVEL001
 370
9
  62
1
 100
AcDbMText
  10
 3339.3811987782
  20
 2422.6666666667
  30
0.0
  40
 32.000000000000
  41
0.0
  71
7
  72
1
   1
\T1.000000;（合計）
   7
GMM001
  44
 0.79999984000003
   0
MTEXT
   5
231
 100
AcDbEntity
   8
LEVEL001
 370
9
  62
1
 100
AcDbMText
  10
 3692.0919540230
  20
 2613.3333333333
  30
0.0
  40
 32.000000000000
  41
0.0
  71
7
  72
1
   1
\T1.000000;　１００Ｗ　／　３～６ｋｇ／回（ミキシング）
   7
GMM001
  44
 0.79999984000003
   0
MTEXT
   5
233
 100
AcDbEntity
   8
LEVEL001
 370
9
  62
1
 100
AcDbMText
  10
 3344.0919540230
  20
 2358.6666666667
  30
0.0
  40
 32.000000000000
  41
0.0
  71
7
  72
1
   1
\T1.000000;凹凸ロ－ル、平ロ－ル
   7
GMM001
  44
 0.79999984000003
   0
MTEXT
   5
235
 100
AcDbEntity
   8
LEVEL001
 370
9
  62
1
 100
AcDbMText
  10
 3692.0919540230
  20
 2293.3333333333
  30
0.0
  40
 32.000000000000
  41
0.0
  71
7
  72
1
   1
\T1.000000;ＳＵＳ３０４
   7
GMM001
  44
 0.79999984000003
   0
MTEXT
   5
237
 100
AcDbEntity
   8
LEVEL001
 370
9
  62
1
 100
AcDbMText
  10
 3344.0919540230
  20
 2294.6666666667
  30
0.0
  40
 32.000000000000
  41
0.0
  71
7
  72
1
   1
\T1.000000;凹凸ロ－ル（プレス機）
   7
GMM001
  44
 0.79999984000003
   0
MTEXT
   5
239
 100
AcDbEntity
   8
LEVEL001
 370
9
  62
1
 100
AcDbMText
  10
 3272.7586206897
  20
 2330.0000000000
  30
0.0
  40
 32.000000000000
  41
0.0
  71
1
  72
1
   1
{\T1.000000;材}\P\P\P\P{\T1.000000;料}
   7
GMM001
  44
 0.79999984000003
   0
MTEXT
   5
23B
 100
AcDbEntity
   8
LEVEL001
 370
9
  62
1
 100
AcDbMText
  10
 3692.0919540230
  20
 2869.3333333333
  30
0.0
  40
 32.000000000000
  41
0.0
  71
7
  72
1
   1
\T1.000000;手打麺機
   7
GMM001
  44
 0.79999984000003
   0
MTEXT
   5
23D
 100
AcDbEntity
   8
LEVEL001
 370
9
  62
1
 100
AcDbMText
  10
 3342.7586206897
  20
 2869.3333333333
  30
0.0
  40
 32.000000000000
  41
0.0
  71
7
  72
1
   1
\T1.000000;製　　品　　名
   7
GMM001
  44
 0.79999984000003
   0
MTEXT
   5
23F
 100
AcDbEntity
   8
LEVEL001
 370
9
  62
1
 100
AcDbMText
  10
 3342.7586206897
  20
 2805.3333333333
  30
0.0
  40
 32.000000000000
  41
0.0
  71
7
  72
1
   1
\T1.000000;型　　　　　式
   7
GMM001
  44
 0.79999984000003
   0
MTEXT
   5
241
 100
AcDbEntity
   8
LEVEL001
 370
9
  62
1
 100
AcDbMText
  10
 3342.7586206897
  20
 2741.3333333333
  30
0.0
  40
 32.000000000000
  41
0.0
  71
7
  72
1
   1
\W1.000000;\T1.000000;寸法\W0.500000;\T1.000000;(\W1.000000;\T1.000000;Ｗ×Ｄ×Ｈ）
   7
GMM001
  44
 0.79999984000003
   0
MTEXT
   5
243
 100
AcDbEntity
   8
LEVEL001
 370
9
  62
1
 100
AcDbMText
  10
 3342.7586206897
  20
 2677.3333333333
  30
0.0
  40
 32.000000000000
  41
0.0
  71
7
  72
1
   1
\T1.000000;電　　　　　源
   7
GMM001
  44
 0.79999984000003
   0
MTEXT
   5
245
 100
AcDbEntity
   8
LEVEL001
 370
9
  62
1
 100
AcDbMText
  10
 3692.0919540230
  20
 2549.3333333333
  30
0.0
  40
 32.000000000000
  41
0.0
  71
7
  72
1
   1
\T1.000000;　１００Ｗ　／　１ｋｇ／回（プレス）
   7
GMM001
  44
 0.79999984000003
   0
MTEXT
   5
247
 100
AcDbEntity
   8
LEVEL001
 370
9
  62
1
 100
AcDbMText
  10
 3344.0919540230
  20
 2614.6666666667
  30
0.0
  40
 32.000000000000
  41
0.0
  71
7
  72
1
   1
\T1.000000;ＳＮ－６Ｐ
   7
GMM001
  44
 0.79999984000003
   0
MTEXT
   5
249
 100
AcDbEntity
   8
LEVEL001
 370
9
  62
1
 100
AcDbMText
  10
 3344.0919540230
  20
 2550.6666666667
  30
0.0
  40
 32.000000000000
  41
0.0
  71
7
  72
1
   1
\T1.000000;ＲＰ－１Ｐ
   7
GMM001
  44
 0.79999984000003
   0
MTEXT
   5
24B
 100
AcDbEntity
   8
LEVEL001
 370
30
  62
7
 100
AcDbMText
  10
 4443.6096305526
  20
 80.000000000000
  30
0.0
  40
 32.000000000000
  41
0.0
  71
7
  72
1
   1
\T1.000000;26
   7
GMM004
  44
 0.79999984000003
   0
MTEXT
   5
24D
 100
AcDbEntity
   8
LEVEL001
 370
9
  62
1
 100
AcDbMText
  10
 3692.0919540230
  20
 2805.3333333333
  30
0.0
  40
 32.000000000000
  41
0.0
  71
7
  72
1
   1
\W1.000000;\T1.000000;さぬき\W0.500000;\T1.000000; \W1.000000;\T1.000000;Ｍ－３０１ＡＰ－６
   7
GMM001
  44
 0.79999984000003
   0
MTEXT
   5
24F
 100
AcDbEntity
   8
LEVEL001
 370
9
  62
1
 100
AcDbMText
  10
 3692.0919540230
  20
 2741.3333333333
  30
0.0
  40
 32.000000000000
  41
0.0
  71
7
  72
1
   1
\T1.000000;８８５×７２５×１，１１５
   7
GMM001
  44
 0.79999984000003
   0
MTEXT
   5
251
 100
AcDbEntity
   8
LEVEL001
 370
9
  62
1
 100
AcDbMText
  10
 3344.0919540230
  20
 2486.6666666667
  30
0.0
  40
 32.000000000000
  41
0.0
  71
7
  72
1
   1
\T1.000000;Ｍ－３０１
   7
GMM001
  44
 0.79999984000003
   0
MTEXT
   5
253
 100
AcDbEntity
   8
LEVEL001
 370
9
  62
1
 100
AcDbMText
  10
 3692.0919540230
  20
 2485.3333333333
  30
0.0
  40
 32.000000000000
  41
0.0
  71
7
  72
1
   1
\T1.000000;　２００Ｗ　／　２００食／時（製麺能力）
   7
GMM001
  44
 0.79999984000003
   0
MTEXT
   5
255
 100
AcDbEntity
   8
LEVEL001
 370
9
  62
1
 100
AcDbMText
  10
 3687.3811987782
  20
 2421.3333333333
  30
0.0
  40
 32.000000000000
  41
0.0
  71
7
  72
1
   1
\T1.000000;（４００Ｗ）
   7
GMM001
  44
 0.79999984000003
   0
MTEXT
   5
257
 100
AcDbEntity
   8
LEVEL001
 370
9
  62
1
 100
AcDbMText
  10
 3692.0919540230
  20
 2357.3333333333
  30
0.0
  40
 32.000000000000
  41
0.0
  71
7
  72
1
   1
\T1.000000;ポリプロピレン　（長さ４８０）
   7
GMM001
  44
 0.79999984000003
   0
MTEXT
   5
259
 100
AcDbEntity
   8
LEVEL001
 370
9
  62
1
 100
AcDbMText
  10
 3344.0919540230
  20
 2102.6666666667
  30
0.0
  40
 32.000000000000
  41
0.0
  71
7
  72
1
   1
\T1.000000;安全カバ－類
   7
GMM001
  44
 0.79999984000003
   0
MTEXT
   5
25B
 100
AcDbEntity
   8
LEVEL001
 370
9
  62
1
 100
AcDbMText
  10
 3344.0919540230
  20
 2038.6666666667
  30
0.0
  40
 32.000000000000
  41
0.0
  71
7
  72
1
   1
\T1.000000;下部台
   7
GMM001
  44
 0.79999984000003
   0
MTEXT
   5
25D
 100
AcDbEntity
   8
LEVEL001
 370
9
  62
1
 100
AcDbMText
  10
 3344.0919540230
  20
 2166.6666666667
  30
0.0
  40
 32.000000000000
  41
0.0
  71
7
  72
1
   1
\T1.000000;羽根
   7
GMM001
  44
 0.79999984000003
   0
MTEXT
   5
25F
 100
AcDbEntity
   8
LEVEL001
 370
9
  62
1
 100
AcDbMText
  10
 3692.0919540230
  20
 2037.3333333333
  30
0.0
  40
 32.000000000000
  41
0.0
  71
7
  72
1
   1
\T1.000000;ＳＵＳ４３０
   7
GMM001
  44
 0.79999984000003
   0
MTEXT
   5
261
 100
AcDbEntity
   8
LEVEL001
 370
9
  62
1
 100
AcDbMText
  10
 3692.0919540230
  20
 2165.3333333333
  30
0.0
  40
 32.000000000000
  41
0.0
  71
7
  72
1
   1
\T1.000000;ＳＵＳ３０４
   7
GMM001
  44
 0.79999984000003
   0
MTEXT
   5
263
 100
AcDbEntity
   8
LEVEL001
 370
9
  62
1
 100
AcDbMText
  10
 3692.0919540230
  20
 2101.3333333333
  30
0.0
  40
 32.000000000000
  41
0.0
  71
7
  72
1
   1
\T1.000000;ＳＵＳ４３０　ＳＵＳ３０４
   7
GMM001
  44
 0.79999984000003
   0
LINE
   5
264
 100
AcDbEntity
   8
LEVEL001
 370
30
 100
AcDbLine
   6
CONTINUOUS
  62
7
  10
 4550.7586206897
  20
 2028.0000000000
  30
0.0
  11
 3234.7586206897
  21
 2028.0000000000
  31
0.0
   0
LINE
   5
265
 100
AcDbEntity
   8
LEVEL001
 370
30
 100
AcDbLine
   6
CONTINUOUS
  62
7
  10
 3234.7586206897
  20
 2028.0000000000
  30
0.0
  11
 3234.7586206897
  21
 2924.0000000000
  31
0.0
   0
LINE
   5
266
 100
AcDbEntity
   8
LEVEL001
 370
30
 100
AcDbLine
   6
CONTINUOUS
  62
7
  10
 3334.7586206897
  20
 2668.0000000000
  30
0.0
  11
 3334.7586206897
  21
 2028.0000000000
  31
0.0
   0
LINE
   5
267
 100
AcDbEntity
   8
LEVEL001
 370
30
 100
AcDbLine
   6
CONTINUOUS
  62
7
  10
 3684.0919540230
  20
 2924.0000000000
  30
0.0
  11
 3684.0919540230
  21
 2028.0000000000
  31
0.0
   0
LINE
   5
268
 100
AcDbEntity
   8
LEVEL001
 370
30
 100
AcDbLine
   6
CONTINUOUS
  62
7
  10
 4550.7586206897
  20
 2924.0000000000
  30
0.0
  11
 4550.7586206897
  21
 2028.0000000000
  31
0.0
   0
MTEXT
   5
26A
 100
AcDbEntity
   8
LEVEL001
 370
9
  62
1
 100
AcDbMText
  10
 3344.0919540230
  20
 2230.6666666667
  30
0.0
  40
 32.000000000000
  41
0.0
  71
7
  72
1
   1
\T1.000000;切刃（スリッター）
   7
GMM001
  44
 0.79999984000003
   0
MTEXT
   5
26C
 100
AcDbEntity
   8
LEVEL001
 370
9
  62
1
 100
AcDbMText
  10
 3692.0919540230
  20
 2229.3333333333
  30
0.0
  40
 32.000000000000
  41
0.0
  71
7
  72
1
   1
\T1.000000;ＳＵＳ
   7
GMM001
  44
 0.79999984000003
   0
INSERT
   5
26D
 100
AcDbEntity
   8
0
 100
AcDbBlockReference
   2
GMM001
  10
 4650.7586206897
  20
0.0
  30
0.0
  41
 8.0000000000000
  42
 8.0000000000000
   0
MTEXT
   5
26F
 100
AcDbEntity
   8
LEVEL001
 370
9
  62
1
 100
AcDbMText
  10
 3692.0919540230
  20
 2677.3333333333
  30
0.0
  40
 32.000000000000
  41
0.0
  71
7
  72
1
   1
\T1.000000;単相１００Ｖ　５０／６０Ｈｚ
   7
GMM001
  44
 0.79999984000003
   0
LINE
   5
270
 100
AcDbEntity
   8
LEVEL001
 370
30
 100
AcDbLine
   6
CONTINUOUS
  62
7
  10
 741.59941889441
  20
 2301.8511910231
  30
0.0
  11
 741.59941889441
  21
 3026.8511910231
  31
0.0
   0
LINE
   5
271
 100
AcDbEntity
   8
LEVEL001
 370
30
 100
AcDbLine
   6
CONTINUOUS
  62
7
  10
 1626.5994188944
  20
 2301.8511910231
  30
0.0
  11
 1626.5994188944
  21
 3026.8511910231
  31
0.0
   0
LINE
   5
272
 100
AcDbEntity
   8
LEVEL001
 370
30
 100
AcDbLine
   6
CONTINUOUS
  62
7
  10
 741.59941889441
  20
 2301.8511910231
  30
0.0
  11
 1626.5994188944
  21
 2301.8511910231
  31
0.0
   0
LINE
   5
273
 100
AcDbEntity
   8
LEVEL001
 370
30
 100
AcDbLine
   6
CONTINUOUS
  62
7
  10
 741.59941889441
  20
 3026.8511910231
  30
0.0
  11
 1626.5994188944
  21
 3026.8511910231
  31
0.0
   0
LWPOLYLINE
   5
274
 100
AcDbEntity
   8
LEVEL001
 370
30
   6
CONTINUOUS
  62
7
 100
AcDbPolyline
  90
4
  70
1
  10
 942.59941889441
  20
 2359.7731760880
  10
 1425.5994188944
  20
 2359.7731760880
  10
 1425.5994188944
  20
 2471.3511910231
  10
 942.59941889441
  20
 2471.3511910231
   0
POINT
   5
275
 100
AcDbEntity
   8
LEVEL001
 100
AcDbPoint
  62
7
  10
 964.09941889441
  20
 2455.5062018077
  30
0.0
   0
POINT
   5
276
 100
AcDbEntity
   8
LEVEL001
 100
AcDbPoint
  62
7
  10
 1404.0994188944
  20
 2455.5062018077
  30
0.0
   0
LINE
   5
277
 100
AcDbEntity
   8
LEVEL001
 370
30
 100
AcDbLine
   6
CONTINUOUS
  62
7
  10
 942.59941889441
  20
 2365.1452522000
  30
0.0
  11
 1425.5994188944
  21
 2365.1452522000
  31
0.0
   0
LINE
   5
278
 100
AcDbEntity
   8
LEVEL001
 370
30
 100
AcDbLine
   6
CONTINUOUS
  62
7
  10
 942.09941889441
  20
 2492.5568900726
  30
0.0
  11
 1426.0994188944
  21
 2492.5568900726
  31
0.0
   0
CIRCLE
   5
279
 100
AcDbEntity
   8
LEVEL001
 370
30
 100
AcDbCircle
   6
CONTINUOUS
  62
7
  10
 1444.5994188944
  20
 2425.3511910231
  30
0.0
  40
 10.500000000000
   0
CIRCLE
   5
27A
 100
AcDbEntity
   8
LEVEL001
 370
30
 100
AcDbCircle
   6
CONTINUOUS
  62
7
  10
 923.59941889441
  20
 2425.3511910231
  30
0.0
  40
 10.500000000000
   0
LINE
   5
27B
 100
AcDbEntity
   8
LEVEL001
 370
30
 100
AcDbLine
   6
CONTINUOUS
  62
7
  10
 1426.0994188944
  20
 2649.7635797797
  30
0.0
  11
 942.09941889441
  21
 2649.7635797797
  31
0.0
   0
POINT
   5
27C
 100
AcDbEntity
   8
LEVEL001
 100
AcDbPoint
  62
7
  10
 923.59941889441
  20
 2425.3511910231
  30
0.0
   0
POINT
   5
27D
 100
AcDbEntity
   8
LEVEL001
 100
AcDbPoint
  62
7
  10
 1444.5994188944
  20
 2425.3511910231
  30
0.0
   0
LWPOLYLINE
   5
27E
 100
AcDbEntity
   8
LEVEL001
 370
30
   6
CONTINUOUS
  62
7
 100
AcDbPolyline
  90
16
  70
1
  10
 1445.0994188944
  20
 2495.2625857003
  10
 1424.0994188944
  20
 2495.2625857003
  10
 1424.0994188944
  20
 2501.5534261527
  10
 944.09941889441
  20
 2501.5534261527
  10
 944.09941889441
  20
 2495.2625857003
  10
 923.09941889441
  20
 2495.2625857003
  10
 923.09941889441
  20
 2616.1768052368
  10
 931.09941889441
  20
 2616.1768052368
  10
 931.09941889441
  20
 2630.9215420341
  10
 944.09941889441
  20
 2630.9215420341
  10
 944.09941889441
  20
 2648.3796908960
  10
 1424.0994188944
  20
 2648.3796908960
  10
 1424.0994188944
  20
 2630.9215420341
  10
 1437.0994188944
  20
 2630.9215420341
  10
 1437.0994188944
  20
 2616.1768052368
  10
 1445.0994188944
  20
 2616.1768052368
   0
LINE
   5
27F
 100
AcDbEntity
   8
LEVEL001
 370
30
 100
AcDbLine
   6
CONTINUOUS
  62
7
  10
 1424.0994188944
  20
 2501.5534261527
  30
0.0
  11
 1424.0994188944
  21
 2630.9215420341
  31
0.0
   0
LINE
   5
280
 100
AcDbEntity
   8
LEVEL001
 370
30
 100
AcDbLine
   6
CONTINUOUS
  62
7
  10
 944.09941889441
  20
 2501.5534261527
  30
0.0
  11
 944.09941889441
  21
 2630.9215420341
  31
0.0
   0
LINE
   5
281
 100
AcDbEntity
   8
LEVEL001
 370
30
 100
AcDbLine
   6
CONTINUOUS
  62
7
  10
 944.09941889441
  20
 2502.5359126770
  30
0.0
  11
 1424.0994188944
  21
 2502.5359126770
  31
0.0
   0
LINE
   5
282
 100
AcDbEntity
   8
LEVEL001
 370
30
 100
AcDbLine
   6
CONTINUOUS
  62
7
  10
 1424.0994188944
  20
 2626.2625857003
  30
0.0
  11
 944.09941889441
  21
 2626.2625857003
  31
0.0
   0
LINE
   5
283
 100
AcDbEntity
   8
LEVEL001
 370
30
 100
AcDbLine
   6
CONTINUOUS
  62
7
  10
 1445.0994188944
  20
 2558.5778844891
  30
0.0
  11
 1424.0994188944
  21
 2558.5778844891
  31
0.0
   0
LINE
   5
284
 100
AcDbEntity
   8
LEVEL001
 370
30
 100
AcDbLine
   6
CONTINUOUS
  62
7
  10
 923.09941889441
  20
 2558.5778844891
  30
0.0
  11
 944.09941889441
  21
 2558.5778844891
  31
0.0
   0
LWPOLYLINE
   5
285
 100
AcDbEntity
   8
LEVEL001
 370
30
   6
CONTINUOUS
  62
7
 100
AcDbPolyline
  90
12
  70
1
  10
 1374.0994188944
  20
 2528.7625857003
  10
 1368.0994188944
  20
 2528.7625857003
  10
 1368.0994188944
  20
 2529.7625857003
  10
 1000.0994188944
  20
 2529.7625857003
  10
 1000.0994188944
  20
 2528.7625857003
  10
 994.09941889441
  20
 2528.7625857003
  10
 994.09941889441
  20
 2571.7625857003
  10
 1000.0994188944
  20
 2571.7625857003
  10
 1000.0994188944
  20
 2570.7625857003
  10
 1368.0994188944
  20
 2570.7625857003
  10
 1368.0994188944
  20
 2571.7625857003
  10
 1374.0994188944
  20
 2571.7625857003
   0
LWPOLYLINE
   5
286
 100
AcDbEntity
   8
LEVEL001
 370
30
   6
CONTINUOUS
  62
7
 100
AcDbPolyline
  90
3
  70
0
  10
 941.59941889441
  20
 2495.2625857003
  10
 941.59941889441
  20
 2341.3511910231
  10
 939.39941889441
  20
 2341.3511910231
   0
LWPOLYLINE
   5
287
 100
AcDbEntity
   8
LEVEL001
 370
30
   6
CONTINUOUS
  62
7
 100
AcDbPolyline
  90
4
  70
0
  10
 1426.0994188944
  20
 2630.9215420341
  10
 1426.0994188944
  20
 2733.3081180646
  10
 942.09941889441
  20
 2733.3081180646
  10
 942.09941889441
  20
 2630.9215420341
   0
LWPOLYLINE
   5
288
 100
AcDbEntity
   8
LEVEL001
 370
30
   6
CONTINUOUS
  62
7
 100
AcDbPolyline
  90
4
  70
0
  10
 942.09941889441
  20
 2495.2625857003
  10
 942.09941889441
  20
 2478.0462043548
  10
 1426.0994188944
  20
 2478.0462043548
  10
 1426.0994188944
  20
 2495.2625857003
   0
LWPOLYLINE
   5
289
 100
AcDbEntity
   8
LEVEL001
 370
30
   6
CONTINUOUS
  62
7
 100
AcDbPolyline
  90
4
  70
0
  10
 1498.7994188944
  20
 2338.3511910231
  10
 1498.7994188944
  20
 2331.8511910231
  10
 1550.7994188944
  20
 2331.8511910231
  10
 1550.7994188944
  20
 2340.3511910231
   0
LINE
   5
28A
 100
AcDbEntity
   8
LEVEL001
 370
30
 100
AcDbLine
   6
CONTINUOUS
  62
7
  10
 1445.0994188944
  20
 2557.6643595832
  30
0.0
  11
 1553.7994188944
  21
 2557.6643595832
  31
0.0
   0
LWPOLYLINE
   5
28B
 100
AcDbEntity
   8
LEVEL001
 370
30
   6
CONTINUOUS
  62
7
 100
AcDbPolyline
  90
6
  70
0
  10
 942.59941889441
  20
 2362.3511910231
  10
 941.59941889441
  20
 2362.3511910231
  10
 941.59941889441
  20
 2350.3511910231
  10
 1426.5994188944
  20
 2350.3511910231
  10
 1426.5994188944
  20
 2362.3511910231
  10
 1425.5994188944
  20
 2362.3511910231
   0
LWPOLYLINE
   5
28C
 100
AcDbEntity
   8
LEVEL001
 370
30
   6
CONTINUOUS
  62
7
 100
AcDbPolyline
  90
4
  70
0
  10
 1422.3494188944
  20
 2350.3511910231
  10
 1422.3494188944
  20
 2348.6866598641
  10
 945.84941889441
  20
 2348.6866598641
  10
 945.84941889441
  20
 2350.3511910231
   0
LWPOLYLINE
   5
28D
 100
AcDbEntity
   8
LEVEL001
 370
30
   6
CONTINUOUS
  62
7
 100
AcDbPolyline
  90
4
  70
0
  10
 1423.3494188944
  20
 2338.3511910231
  10
 1539.0994188944
  20
 2338.3511910231
  10
 1539.0994188944
  20
 2340.3511910231
  10
 1423.3494188944
  20
 2340.3511910231
   0
LINE
   5
28E
 100
AcDbEntity
   8
LEVEL001
 370
30
 100
AcDbLine
   6
CONTINUOUS
  62
7
  10
 941.59941889441
  20
 2736.3511910231
  30
0.0
  11
 1426.5994188944
  21
 2736.3511910231
  31
0.0
   0
ARC
   5
28F
 100
AcDbEntity
   8
LEVEL001
 370
30
   6
CONTINUOUS
  62
7
 100
AcDbCircle
  10
 1523.7994188944
  20
 2534.3511910231
  30
0.0
  40
 4.0000000000000
 100
AcDbArc
  50
0.0
  51
 180.00000000000
   0
POINT
   5
290
 100
AcDbEntity
   8
LEVEL001
 100
AcDbPoint
  62
7
  10
 1523.7994188944
  20
 2534.3511910231
  30
0.0
   0
ARC
   5
291
 100
AcDbEntity
   8
LEVEL001
 370
30
   6
CONTINUOUS
  62
7
 100
AcDbCircle
  10
 1523.7994188944
  20
 2534.3511910231
  30
0.0
  40
 6.5000000000000
 100
AcDbArc
  50
 307.97987244485
  51
 232.02012755515
   0
LINE
   5
292
 100
AcDbEntity
   8
LEVEL001
 370
30
 100
AcDbLine
   6
CONTINUOUS
  62
7
  10
 1519.7994188944
  20
 2534.3511910231
  30
0.0
  11
 1519.7994188944
  21
 2529.3511910231
  31
0.0
   0
LINE
   5
293
 100
AcDbEntity
   8
LEVEL001
 370
30
 100
AcDbLine
   6
CONTINUOUS
  62
7
  10
 1527.7994188944
  20
 2534.3511910231
  30
0.0
  11
 1527.7994188944
  21
 2529.3511910231
  31
0.0
   0
ARC
   5
294
 100
AcDbEntity
   8
LEVEL001
 370
30
   6
CONTINUOUS
  62
7
 100
AcDbCircle
  10
 1523.7994188944
  20
 2529.3511910231
  30
0.0
  40
 4.0000000000000
 100
AcDbArc
  50
 180.00000000000
  51
0.0
   0
CIRCLE
   5
295
 100
AcDbEntity
   8
LEVEL001
 370
30
 100
AcDbCircle
   6
CONTINUOUS
  62
7
  10
 1523.7994188944
  20
 2534.3511910231
  30
0.0
  40
 9.0000000000000
   0
LWPOLYLINE
   5
296
 100
AcDbEntity
   8
LEVEL001
 370
30
   6
CONTINUOUS
  62
7
 100
AcDbPolyline
  90
6
  70
0
  10
 939.39941889441
  20
 2650.1659975564
  10
 939.39941889441
  20
 2738.3511910231
  10
 814.39941889441
  20
 2738.3511910231
  10
 814.39941889441
  20
 2340.3511910231
  10
 939.39941889441
  20
 2340.3511910231
  10
 939.39941889441
  20
 2418.8511910231
   0
POINT
   5
297
 100
AcDbEntity
   8
LEVEL001
 100
AcDbPoint
  62
7
  10
 844.39941889441
  20
 2485.3511910231
  30
0.0
   0
CIRCLE
   5
298
 100
AcDbEntity
   8
LEVEL001
 370
30
 100
AcDbCircle
   6
CONTINUOUS
  62
7
  10
 844.39941889441
  20
 2485.3511910231
  30
0.0
  40
 20.000000000000
   0
LINE
   5
299
 100
AcDbEntity
   8
LEVEL001
 370
30
 100
AcDbLine
   6
CONTINUOUS
  62
7
  10
 939.39941889441
  20
 2431.8511910231
  30
0.0
  11
 939.39941889441
  21
 2495.2625857003
  31
0.0
   0
LWPOLYLINE
   5
29A
 100
AcDbEntity
   8
LEVEL001
 370
30
   6
CONTINUOUS
  62
7
 100
AcDbPolyline
  90
8
  70
0
  10
 924.39941889441
  20
 2750.8511910231
  10
 924.39941889441
  20
 2755.3511910231
  10
 921.39941889441
  20
 2755.3511910231
  10
 921.39941889441
  20
 2765.3511910231
  10
 915.39941889441
  20
 2765.3511910231
  10
 915.39941889441
  20
 2755.3511910231
  10
 912.39941889441
  20
 2755.3511910231
  10
 912.39941889441
  20
 2750.8511910231
   0
LINE
   5
29B
 100
AcDbEntity
   8
LEVEL001
 370
30
 100
AcDbLine
   6
CONTINUOUS
  62
7
  10
 910.39941889441
  20
 2640.4692687441
  30
0.0
  11
 910.39941889440
  21
 2632.2555690509
  31
0.0
   0
ELLIPSE
   5
29C
 100
AcDbEntity
   8
LEVEL001
 370
30
   6
CONTINUOUS
  62
7
 100
AcDbEllipse
  10
 922.89941889441
  20
 2632.2555690509
  30
0.0
  11
-12.500000000000
  21
 0.28998965717619E-6
  31
0.0
  40
 0.82136996932055
  41
 0.28245174005671E-7
  42
 1.5707963458493
   0
ELLIPSE
   5
29D
 100
AcDbEntity
   8
LEVEL001
 370
30
   6
CONTINUOUS
  62
7
 100
AcDbEllipse
  10
 915.09941889429
  20
 2630.6110892044
  30
0.0
  11
-12.500000000000
  21
 0.34001914173132E-6
  31
0.0
  40
 0.82136520071042
  41
 2.1446089538494
  42
-3.1415926204723
   0
LWPOLYLINE
   5
29E
 100
AcDbEntity
   8
LEVEL001
 370
30
   6
CONTINUOUS
  62
7
 100
AcDbPolyline
  90
8
  70
0
  10
 924.39941889441
  20
 2623.7508455612
  10
 924.39941889441
  20
 2652.6610516310
  10
 921.39941889441
  20
 2652.6610516310
  10
 921.39941889441
  20
 2662.6610516310
  10
 915.39941889441
  20
 2662.6610516310
  10
 915.39941889441
  20
 2652.6610516310
  10
 912.39941889441
  20
 2652.6610516310
  10
 912.39941889441
  20
 2626.6847669600
   0
ELLIPSE
   5
29F
 100
AcDbEntity
   8
LEVEL001
 370
30
   6
CONTINUOUS
  62
7
 100
AcDbEllipse
  10
 922.89941889441
  20
 2640.4692687441
  30
0.0
  11
-12.500000000000
  21
 0.28998965717619E-6
  31
0.0
  40
 0.82136996932055
  41
-0.57351308536804
  42
 0.28244465340123E-7
   0
ELLIPSE
   5
2A0
 100
AcDbEntity
   8
LEVEL001
 370
30
   6
CONTINUOUS
  62
7
 100
AcDbEllipse
  10
 922.89941889441
  20
 2639.8988729398
  30
0.0
  11
-12.500000000000
  21
 0.28998965717619E-6
  31
0.0
  40
 0.82136996932055
  41
-0.57351308536804
  42
 0.28244465340123E-7
   0
ELLIPSE
   5
2A1
 100
AcDbEntity
   8
LEVEL001
 370
30
   6
CONTINUOUS
  62
7
 100
AcDbEllipse
  10
 915.09941889434
  20
 2638.9731230592
  30
0.0
  11
-12.500000000000
  21
 0.34001914173132E-6
  31
0.0
  40
 0.82136520071042
  41
-3.1415926204754
  42
-2.4098332923542
   0
ELLIPSE
   5
2A2
 100
AcDbEntity
   8
LEVEL001
 370
30
   6
CONTINUOUS
  62
7
 100
AcDbEllipse
  10
 915.09941889434
  20
 2637.1478345121
  30
0.0
  11
-12.500000000000
  21
 0.34001914173132E-6
  31
0.0
  40
 0.82136520071042
  41
-3.1415926204753
  42
-2.4098332923542
   0
LINE
   5
2A3
 100
AcDbEntity
   8
LEVEL001
 370
30
 100
AcDbLine
   6
CONTINUOUS
  62
7
  10
 939.39941889441
  20
 2650.1659975564
  30
0.0
  11
 924.39941889441
  21
 2650.1659975564
  31
0.0
   0
LINE
   5
2A4
 100
AcDbEntity
   8
LEVEL001
 370
30
 100
AcDbLine
   6
CONTINUOUS
  62
7
  10
 939.39941889441
  20
 2650.7363933606
  30
0.0
  11
 924.39941889441
  21
 2650.7363933606
  31
0.0
   0
LINE
   5
2A5
 100
AcDbEntity
   8
LEVEL001
 370
30
 100
AcDbLine
   6
CONTINUOUS
  62
7
  10
 927.59941889434
  20
 2638.9731230592
  30
0.0
  11
 927.59941889429
  21
 2630.6110892044
  31
0.0
   0
LINE
   5
2A6
 100
AcDbEntity
   8
LEVEL001
 370
30
 100
AcDbLine
   6
CONTINUOUS
  62
7
  10
 922.89941889440
  20
 2621.9884444344
  30
0.0
  11
 931.09941889441
  21
 2621.9884444344
  31
0.0
   0
LINE
   5
2A7
 100
AcDbEntity
   8
LEVEL001
 370
30
 100
AcDbLine
   6
CONTINUOUS
  62
7
  10
 931.59941889441
  20
 2431.8511910231
  30
0.0
  11
 939.39941889441
  21
 2431.8511910231
  31
0.0
   0
LINE
   5
2A8
 100
AcDbEntity
   8
LEVEL001
 370
30
 100
AcDbLine
   6
CONTINUOUS
  62
7
  10
 931.59941889441
  20
 2418.8511910231
  30
0.0
  11
 939.39941889441
  21
 2418.8511910231
  31
0.0
   0
LINE
   5
2A9
 100
AcDbEntity
   8
LEVEL001
 370
30
 100
AcDbLine
   6
CONTINUOUS
  62
7
  10
 923.09941889441
  20
 2557.6643595832
  30
0.0
  11
 814.39941889441
  21
 2557.6643595832
  31
0.0
   0
LWPOLYLINE
   5
2AA
 100
AcDbEntity
   8
LEVEL001
 370
30
   6
CONTINUOUS
  62
7
 100
AcDbPolyline
  90
3
  70
0
  10
 939.39941889441
  20
 2736.3511910231
  10
 941.59941889441
  20
 2736.3511910231
  10
 941.59941889441
  20
 2630.9215420341
   0
LWPOLYLINE
   5
2AB
 100
AcDbEntity
   8
LEVEL001
 370
30
   6
CONTINUOUS
  62
7
 100
AcDbPolyline
  90
4
  70
0
  10
 1423.3494188944
  20
 2350.3511910231
  10
 1423.3494188944
  20
 2302.6677567138
  10
 1420.1494188944
  20
 2302.6677567138
  10
 1420.1494188944
  20
 2348.6866598641
   0
LINE
   5
2AC
 100
AcDbEntity
   8
LEVEL001
 370
30
 100
AcDbLine
   6
CONTINUOUS
  62
7
  10
 1420.1494188944
  20
 2306.0446445890
  30
0.0
  11
 1423.3494188944
  21
 2306.0446445890
  31
0.0
   0
LWPOLYLINE
   5
2AD
 100
AcDbEntity
   8
LEVEL001
 370
30
   6
CONTINUOUS
  62
7
 100
AcDbPolyline
  90
4
  70
0
  10
 1420.1494188944
  20
 2340.3511910231
  10
 884.09941889441
  20
 2340.3511910231
  10
 884.09941889441
  20
 2338.3511910231
  10
 1420.1494188944
  20
 2338.3511910231
   0
LWPOLYLINE
   5
2AE
 100
AcDbEntity
   8
LEVEL001
 370
30
   6
CONTINUOUS
  62
7
 100
AcDbPolyline
  90
6
  70
0
  10
 1428.7994188944
  20
 2650.1659975564
  10
 1428.7994188944
  20
 2738.3511910231
  10
 1553.7994188944
  20
 2738.3511910231
  10
 1553.7994188944
  20
 2340.3511910231
  10
 1428.7994188944
  20
 2340.3511910231
  10
 1428.7994188944
  20
 2418.8511910231
   0
LINE
   5
2AF
 100
AcDbEntity
   8
LEVEL001
 370
30
 100
AcDbLine
   6
CONTINUOUS
  62
7
  10
 1428.7994188944
  20
 2431.8511910231
  30
0.0
  11
 1428.7994188944
  21
 2495.2625857003
  31
0.0
   0
LWPOLYLINE
   5
2B0
 100
AcDbEntity
   8
LEVEL001
 370
30
   6
CONTINUOUS
  62
7
 100
AcDbPolyline
  90
3
  70
0
  10
 1428.7994188944
  20
 2736.3511910231
  10
 1426.5994188944
  20
 2736.3511910231
  10
 1426.5994188944
  20
 2630.9215420341
   0
LWPOLYLINE
   5
2B1
 100
AcDbEntity
   8
LEVEL001
 370
30
   6
CONTINUOUS
  62
7
 100
AcDbPolyline
  90
3
  70
0
  10
 1426.5994188944
  20
 2495.2625857003
  10
 1426.5994188944
  20
 2341.3511910231
  10
 1428.7994188944
  20
 2341.3511910231
   0
LINE
   5
2B2
 100
AcDbEntity
   8
LEVEL001
 370
30
 100
AcDbLine
   6
CONTINUOUS
  62
7
  10
 1436.3532076432
  20
 2431.8511910231
  30
0.0
  11
 1428.7994188944
  21
 2431.8511910231
  31
0.0
   0
LINE
   5
2B3
 100
AcDbEntity
   8
LEVEL001
 370
30
 100
AcDbLine
   6
CONTINUOUS
  62
7
  10
 1436.3532076432
  20
 2418.8511910231
  30
0.0
  11
 1428.7994188944
  21
 2418.8511910231
  31
0.0
   0
LWPOLYLINE
   5
2B4
 100
AcDbEntity
   8
LEVEL001
 370
30
   6
CONTINUOUS
  62
7
 100
AcDbPolyline
  90
8
  70
0
  10
 1443.7994188944
  20
 2750.8511910231
  10
 1443.7994188944
  20
 2755.3511910231
  10
 1446.7994188944
  20
 2755.3511910231
  10
 1446.7994188944
  20
 2765.3511910231
  10
 1452.7994188944
  20
 2765.3511910231
  10
 1452.7994188944
  20
 2755.3511910231
  10
 1455.7994188944
  20
 2755.3511910231
  10
 1455.7994188944
  20
 2750.8511910231
   0
LWPOLYLINE
   5
2B5
 100
AcDbEntity
   8
LEVEL001
 370
30
   6
CONTINUOUS
  62
7
 100
AcDbPolyline
  90
8
  70
0
  10
 1443.7994188944
  20
 2623.7508455612
  10
 1443.7994188944
  20
 2652.6610516310
  10
 1446.7994188944
  20
 2652.6610516310
  10
 1446.7994188944
  20
 2662.6610516310
  10
 1452.7994188944
  20
 2662.6610516310
  10
 1452.7994188944
  20
 2652.6610516310
  10
 1455.7994188944
  20
 2652.6610516310
  10
 1455.7994188944
  20
 2626.6847669600
   0
LINE
   5
2B6
 100
AcDbEntity
   8
LEVEL001
 370
30
 100
AcDbLine
   6
CONTINUOUS
  62
7
  10
 1428.7994188944
  20
 2650.7363933606
  30
0.0
  11
 1443.7994188944
  21
 2650.7363933606
  31
0.0
   0
LINE
   5
2B7
 100
AcDbEntity
   8
LEVEL001
 370
30
 100
AcDbLine
   6
CONTINUOUS
  62
7
  10
 1428.7994188944
  20
 2650.1659975564
  30
0.0
  11
 1443.7994188944
  21
 2650.1659975564
  31
0.0
   0
ELLIPSE
   5
2B8
 100
AcDbEntity
   8
LEVEL001
 370
30
   6
CONTINUOUS
  62
7
 100
AcDbEllipse
  10
 1453.0994188944
  20
 2630.6110892044
  30
0.0
  11
 12.500000000000
  21
 0.34001914173132E-6
  31
0.0
  40
 0.82136520071042
  41
 3.1415926204722
  42
-2.1446089538494
   0
LINE
   5
2B9
 100
AcDbEntity
   8
LEVEL001
 370
30
 100
AcDbLine
   6
CONTINUOUS
  62
7
  10
 1445.2994188943
  20
 2621.9884444344
  30
0.0
  11
 1437.0994188944
  21
 2621.9884444344
  31
0.0
   0
LINE
   5
2BA
 100
AcDbEntity
   8
LEVEL001
 370
30
 100
AcDbLine
   6
CONTINUOUS
  62
7
  10
 1440.5994188944
  20
 2638.9731230592
  30
0.0
  11
 1440.5994188944
  21
 2630.6110892044
  31
0.0
   0
ELLIPSE
   5
2BB
 100
AcDbEntity
   8
LEVEL001
 370
30
   6
CONTINUOUS
  62
7
 100
AcDbEllipse
  10
 1453.0994188944
  20
 2638.9731230592
  30
0.0
  11
 12.500000000000
  21
 0.34001914173132E-6
  31
0.0
  40
 0.82136520071042
  41
 2.4098332923542
  42
 3.1415926204754
   0
ELLIPSE
   5
2BC
 100
AcDbEntity
   8
LEVEL001
 370
30
   6
CONTINUOUS
  62
7
 100
AcDbEllipse
  10
 1453.0994188944
  20
 2637.1478345121
  30
0.0
  11
 12.500000000000
  21
 0.34001914173132E-6
  31
0.0
  40
 0.82136520071042
  41
 2.4098332923542
  42
 3.1415926204753
   0
ELLIPSE
   5
2BD
 100
AcDbEntity
   8
LEVEL001
 370
30
   6
CONTINUOUS
  62
7
 100
AcDbEllipse
  10
 1445.2994188944
  20
 2632.2555690509
  30
0.0
  11
 12.500000000000
  21
 0.28998965717619E-6
  31
0.0
  40
 0.82136996932055
  41
-1.5707963458493
  42
-0.28245173556269E-7
   0
LINE
   5
2BE
 100
AcDbEntity
   8
LEVEL001
 370
30
 100
AcDbLine
   6
CONTINUOUS
  62
7
  10
 1457.7994188944
  20
 2640.4692687441
  30
0.0
  11
 1457.7994188944
  21
 2632.2555690509
  31
0.0
   0
ELLIPSE
   5
2BF
 100
AcDbEntity
   8
LEVEL001
 370
30
   6
CONTINUOUS
  62
7
 100
AcDbEllipse
  10
 1445.2994188944
  20
 2640.4692687441
  30
0.0
  11
 12.500000000000
  21
 0.28998965717619E-6
  31
0.0
  40
 0.82136996932055
  41
-0.28244464789890E-7
  42
 0.57351308536804
   0
ELLIPSE
   5
2C0
 100
AcDbEntity
   8
LEVEL001
 370
30
   6
CONTINUOUS
  62
7
 100
AcDbEllipse
  10
 1445.2994188944
  20
 2639.8988729398
  30
0.0
  11
 12.500000000000
  21
 0.28998965717619E-6
  31
0.0
  40
 0.82136996932055
  41
-0.28244464789890E-7
  42
 0.57351308536804
   0
POINT
   5
2C1
 100
AcDbEntity
   8
LEVEL001
 100
AcDbPoint
  62
7
  10
 1425.8494188944
  20
 2471.3511910231
  30
0.0
   0
LWPOLYLINE
   5
2C2
 100
AcDbEntity
   8
LEVEL001
 370
30
   6
CONTINUOUS
  62
7
 100
AcDbPolyline
  90
6
  70
0
  10
 942.59941889441
  20
 2465.3511910231
  10
 942.34941889441
  20
 2465.3511910231
  10
 942.34941889441
  20
 2477.3511910231
  10
 1425.8494188944
  20
 2477.3511910231
  10
 1425.8494188944
  20
 2465.3511910231
  10
 1425.5994188944
  20
 2465.3511910231
   0
POINT
   5
2C3
 100
AcDbEntity
   8
LEVEL001
 100
AcDbPoint
  62
7
  10
 942.34941889441
  20
 2471.3511910231
  30
0.0
   0
LWPOLYLINE
   5
2C4
 100
AcDbEntity
   8
LEVEL001
 370
30
   6
CONTINUOUS
  62
7
 100
AcDbPolyline
  90
37
  70
0
  10
 994.09941889441
  20
 2554.0808206528
  10
 1000.4994188944
  20
 2556.4511910231
  10
 1011.2994188944
  20
 2552.4511910231
  10
 1022.0994188944
  20
 2556.4511910231
  10
 1032.8994188944
  20
 2552.4511910231
  10
 1043.6994188944
  20
 2556.4511910231
  10
 1054.4994188944
  20
 2552.4511910231
  10
 1065.2994188944
  20
 2556.4511910231
  10
 1076.0994188944
  20
 2552.4511910231
  10
 1086.8994188944
  20
 2556.4511910231
  10
 1097.6994188944
  20
 2552.4511910231
  10
 1108.4994188944
  20
 2556.4511910231
  10
 1119.2994188944
  20
 2552.4511910231
  10
 1130.0994188944
  20
 2556.4511910231
  10
 1140.8994188944
  20
 2552.4511910231
  10
 1151.6994188944
  20
 2556.4511910231
  10
 1162.4994188944
  20
 2552.4511910231
  10
 1173.2994188944
  20
 2556.4511910231
  10
 1184.0994188944
  20
 2552.4511910231
  10
 1194.8994188944
  20
 2556.4511910231
  10
 1205.6994188944
  20
 2552.4511910231
  10
 1216.4994188944
  20
 2556.4511910231
  10
 1227.2994188944
  20
 2552.4511910231
  10
 1238.0994188944
  20
 2556.4511910231
  10
 1248.8994188944
  20
 2552.4511910231
  10
 1259.6994188944
  20
 2556.4511910231
  10
 1270.4994188944
  20
 2552.4511910231
  10
 1281.2994188944
  20
 2556.4511910231
  10
 1292.0994188944
  20
 2552.4511910231
  10
 1302.8994188944
  20
 2556.4511910231
  10
 1313.6994188944
  20
 2552.4511910231
  10
 1324.4994188944
  20
 2556.4511910231
  10
 1335.2994188944
  20
 2552.4511910231
  10
 1346.0994188944
  20
 2556.4511910231
  10
 1356.8994188944
  20
 2552.4511910231
  10
 1367.6994188944
  20
 2556.4511910231
  10
 1374.0994188944
  20
 2554.0808206528
   0
LWPOLYLINE
   5
2C5
 100
AcDbEntity
   8
LEVEL001
 370
30
   6
CONTINUOUS
  62
7
 100
AcDbPolyline
  90
37
  70
0
  10
 994.09941889441
  20
 2562.0808206528
  10
 1000.4994188944
  20
 2564.4511910231
  10
 1011.2994188944
  20
 2560.4511910231
  10
 1022.0994188944
  20
 2564.4511910231
  10
 1032.8994188944
  20
 2560.4511910231
  10
 1043.6994188944
  20
 2564.4511910231
  10
 1054.4994188944
  20
 2560.4511910231
  10
 1065.2994188944
  20
 2564.4511910231
  10
 1076.0994188944
  20
 2560.4511910231
  10
 1086.8994188944
  20
 2564.4511910231
  10
 1097.6994188944
  20
 2560.4511910231
  10
 1108.4994188944
  20
 2564.4511910231
  10
 1119.2994188944
  20
 2560.4511910231
  10
 1130.0994188944
  20
 2564.4511910231
  10
 1140.8994188944
  20
 2560.4511910231
  10
 1151.6994188944
  20
 2564.4511910231
  10
 1162.4994188944
  20
 2560.4511910231
  10
 1173.2994188944
  20
 2564.4511910231
  10
 1184.0994188944
  20
 2560.4511910231
  10
 1194.8994188944
  20
 2564.4511910231
  10
 1205.6994188944
  20
 2560.4511910231
  10
 1216.4994188944
  20
 2564.4511910231
  10
 1227.2994188944
  20
 2560.4511910231
  10
 1238.0994188944
  20
 2564.4511910231
  10
 1248.8994188944
  20
 2560.4511910231
  10
 1259.6994188944
  20
 2564.4511910231
  10
 1270.4994188944
  20
 2560.4511910231
  10
 1281.2994188944
  20
 2564.4511910231
  10
 1292.0994188944
  20
 2560.4511910231
  10
 1302.8994188944
  20
 2564.4511910231
  10
 1313.6994188944
  20
 2560.4511910231
  10
 1324.4994188944
  20
 2564.4511910231
  10
 1335.2994188944
  20
 2560.4511910231
  10
 1346.0994188944
  20
 2564.4511910231
  10
 1356.8994188944
  20
 2560.4511910231
  10
 1367.6994188944
  20
 2564.4511910231
  10
 1374.0994188944
  20
 2562.0808206528
   0
INSERT
   5
2C6
 100
AcDbEntity
   8
0
 100
AcDbBlockReference
   2
AGM
  10
0.0
  20
0.0
  30
0.0
   0
INSERT
   5
2C7
 100
AcDbEntity
   8
0
 100
AcDbBlockReference
   2
BLOCK004
  10
0.0
  20
0.0
  30
0.0
   0
LWPOLYLINE
   5
2C8
 100
AcDbEntity
   8
LEVEL001
 370
9
   6
DIVIDE
  62
1
 100
AcDbPolyline
  90
4
  70
0
  10
 811.09941889441
  20
 2301.8511910231
  10
 811.09941889441
  20
 1576.8511910231
  10
 1556.0994188944
  20
 1576.8511910231
  10
 1556.0994188944
  20
 2301.8511910231
   0
LINE
   5
2C9
 100
AcDbEntity
   8
LEVEL001
 370
30
 100
AcDbLine
   6
CONTINUOUS
  62
7
  10
 2767.6000000000
  20
 889.76580687539
  30
0.0
  11
 3427.6000000000
  21
 889.76580687539
  31
0.0
   0
LINE
   5
2CA
 100
AcDbEntity
   8
LEVEL001
 370
30
 100
AcDbLine
   6
CONTINUOUS
  62
7
  10
 3451.0000000000
  20
 860.76580687539
  30
0.0
  11
 3451.0000000000
  21
 889.76580687539
  31
0.0
   0
LINE
   5
2CB
 100
AcDbEntity
   8
LEVEL001
 370
30
 100
AcDbLine
   6
CONTINUOUS
  62
7
  10
 3451.0000000000
  20
 860.76580687539
  30
0.0
  11
 3451.0000000000
  21
 229.76580687539
  31
0.0
   0
LINE
   5
2CC
 100
AcDbEntity
   8
LEVEL001
 370
30
 100
AcDbLine
   6
CONTINUOUS
  62
7
  10
 2726.0000000000
  20
 860.76580687539
  30
0.0
  11
 3451.0000000000
  21
 860.76580687539
  31
0.0
   0
LINE
   5
2CD
 100
AcDbEntity
   8
LEVEL001
 370
30
 100
AcDbLine
   6
CONTINUOUS
  62
7
  10
 3451.0000000000
  20
 889.76580687539
  30
0.0
  11
 2726.0000000000
  21
 889.76580687539
  31
0.0
   0
LINE
   5
2CE
 100
AcDbEntity
   8
LEVEL001
 370
30
 100
AcDbLine
   6
CONTINUOUS
  62
7
  10
 2726.0000000000
  20
 889.76580687539
  30
0.0
  11
 2726.0000000000
  21
 860.76580687539
  31
0.0
   0
LINE
   5
2CF
 100
AcDbEntity
   8
LEVEL001
 370
30
 100
AcDbLine
   6
CONTINUOUS
  62
7
  10
 2726.0000000000
  20
 860.76580687539
  30
0.0
  11
 2726.0000000000
  21
 229.76580687539
  31
0.0
   0
LWPOLYLINE
   5
2D0
 100
AcDbEntity
   8
LEVEL001
 370
30
   6
CONTINUOUS
  62
7
 100
AcDbPolyline
  90
4
  70
0
  10
 2764.5000000000
  20
 1036.7658068754
  10
 2756.0000000000
  20
 1036.7658068754
  10
 2756.0000000000
  20
 946.76580687540
  10
 2764.5000000000
  20
 946.76580687540
   0
LWPOLYLINE
   5
2D1
 100
AcDbEntity
   8
LEVEL001
 370
30
   6
CONTINUOUS
  62
7
 100
AcDbPolyline
  90
5
  70
1
  10
 2764.5000000000
  20
 907.76580687540
  10
 2764.5000000000
  20
 1305.7658068754
  10
 2981.8131685601
  20
 1305.7658068754
  10
 3162.5000000000
  20
 1180.2888405977
  10
 3162.5000000000
  20
 907.76580687540
   0
LWPOLYLINE
   5
2D2
 100
AcDbEntity
   8
LEVEL001
 370
30
   6
CONTINUOUS
  62
7
 100
AcDbPolyline
  90
4
  70
1
  10
 2762.5000000000
  20
 1067.7658068754
  10
 2764.5000000000
  20
 1067.7658068754
  10
 2764.5000000000
  20
 1173.7658068754
  10
 2762.5000000000
  20
 1173.7658068754
   0
POINT
   5
2D3
 100
AcDbEntity
   8
LEVEL001
 100
AcDbPoint
  62
7
  10
 2764.5000000000
  20
 1165.7658068754
  30
0.0
   0
POINT
   5
2D4
 100
AcDbEntity
   8
LEVEL001
 100
AcDbPoint
  62
7
  10
 2764.5000000000
  20
 1075.7658068754
  30
0.0
   0
LWPOLYLINE
   5
2D5
 100
AcDbEntity
   8
LEVEL001
 370
30
   6
CONTINUOUS
  62
7
 100
AcDbPolyline
  90
4
  70
0
  10
 3086.8098606079
  20
 1254.4619592981
  10
 3076.8098606079
  20
 1254.4619592981
  10
 3076.8098606079
  20
 1244.0696544527
  10
 3086.8098606079
  20
 1244.0696544527
   0
LWPOLYLINE
   5
2D6
 100
AcDbEntity
   8
LEVEL001
 370
30
   6
CONTINUOUS
  62
7
 100
AcDbPolyline
  90
4
  70
0
  10
 3189.5000000000
  20
 1159.9619592981
  10
 3179.5000000000
  20
 1159.9619592981
  10
 3179.5000000000
  20
 1149.5696544527
  10
 3189.5000000000
  20
 1149.5696544527
   0
LWPOLYLINE
   5
2D7
 100
AcDbEntity
   8
LEVEL001
 370
30
   6
CONTINUOUS
  62
7
 100
AcDbPolyline
  90
3
  70
0
  10
 2919.4113946771
  20
 1305.7658068754
  10
 2982.4113946771
  20
 1305.7658068754
  10
 3054.4967745746
  20
 1255.2910804764
   0
LWPOLYLINE
   5
2D8
 100
AcDbEntity
   8
LEVEL001
 370
30
   6
CONTINUOUS
  62
7
 100
AcDbPolyline
  90
5
  70
0
  10
 2919.4113946771
  20
 1305.7658068754
  10
 2919.4113946771
  20
 1306.7658068754
  10
 2982.7266934659
  20
 1306.7658068754
  10
 3055.0703510110
  20
 1256.1102325207
  10
 3054.4967745746
  20
 1255.2910804764
   0
LWPOLYLINE
   5
2D9
 100
AcDbEntity
   8
LEVEL001
 370
30
   6
CONTINUOUS
  62
7
 100
AcDbPolyline
  90
7
  70
0
  10
 2926.5000000000
  20
 1306.7658068754
  10
 2926.5000000000
  20
 1311.7658068754
  10
 2924.5000000000
  20
 1317.7658068754
  10
 2894.5000000000
  20
 1317.7658068754
  10
 2892.5000000000
  20
 1311.7658068754
  10
 2892.5000000000
  20
 1305.7658068754
  10
 2919.4113946771
  20
 1305.7658068754
   0
LWPOLYLINE
   5
2DA
 100
AcDbEntity
   8
LEVEL001
 370
30
   6
CONTINUOUS
  62
7
 100
AcDbPolyline
  90
4
  70
0
  10
 3054.5331685601
  20
 1255.2658068754
  10
 3086.8098606079
  20
 1255.2658068754
  10
 3086.8098606079
  20
 1243.2658068754
  10
 3071.8131685601
  20
 1243.2658068754
   0
LWPOLYLINE
   5
2DB
 100
AcDbEntity
   8
LEVEL001
 370
30
   6
CONTINUOUS
  62
7
 100
AcDbPolyline
  90
4
  70
0
  10
 3175.0000000000
  20
 1148.7658068754
  10
 3189.5000000000
  20
 1148.7658068754
  10
 3189.5000000000
  20
 1160.7658068754
  10
 3175.0000000000
  20
 1160.7658068754
   0
LWPOLYLINE
   5
2DC
 100
AcDbEntity
   8
LEVEL001
 370
30
   6
CONTINUOUS
  62
7
 100
AcDbPolyline
  90
4
  70
0
  10
 2822.3000000000
  20
 907.76580687540
  10
 2822.3000000000
  20
 892.96580687540
  10
 2793.7000000000
  20
 892.96580687540
  10
 2793.7000000000
  20
 907.76580687540
   0
LWPOLYLINE
   5
2DD
 100
AcDbEntity
   8
LEVEL001
 370
30
   6
CONTINUOUS
  62
7
 100
AcDbPolyline
  90
4
  70
0
  10
 2825.5000000000
  20
 907.76580687540
  10
 2825.5000000000
  20
 889.76580687540
  10
 2790.5000000000
  20
 889.76580687540
  10
 2790.5000000000
  20
 907.76580687540
   0
LWPOLYLINE
   5
2DE
 100
AcDbEntity
   8
LEVEL001
 370
30
   6
CONTINUOUS
  62
7
 100
AcDbPolyline
  90
4
  70
0
  10
 3135.5000000000
  20
 907.76580687540
  10
 3135.5000000000
  20
 889.76580687540
  10
 3100.5000000000
  20
 889.76580687540
  10
 3100.5000000000
  20
 907.76580687540
   0
LWPOLYLINE
   5
2DF
 100
AcDbEntity
   8
LEVEL001
 370
30
   6
CONTINUOUS
  62
7
 100
AcDbPolyline
  90
4
  70
0
  10
 2762.5000000000
  20
 1165.6157775217
  10
 2726.8165656907
  20
 1171.7284872423
  10
 2730.1934535658
  20
 1191.4413416343
  10
 2764.5000000000
  20
 1185.5644981094
   0
LWPOLYLINE
   5
2E0
 100
AcDbEntity
   8
LEVEL001
 370
30
   6
CONTINUOUS
  62
7
 100
AcDbPolyline
  90
4
  70
0
  10
 3103.7000000000
  20
 907.76580687540
  10
 3103.7000000000
  20
 892.96580687540
  10
 3132.3000000000
  20
 892.96580687540
  10
 3132.3000000000
  20
 907.76580687540
   0
INSERT
   5
2E1
 100
AcDbEntity
   8
LEVEL001
 100
AcDbBlockReference
   2
BLOCK005
  10
0.0
  20
0.0
  30
0.0
   0
LWPOLYLINE
   5
2E2
 100
AcDbEntity
   8
LEVEL001
 370
30
   6
CONTINUOUS
  62
7
 100
AcDbPolyline
  90
8
  70
1
  10
 2951.4472693404
  20
 1317.1385255372
  10
 2965.0000000000
  20
 1317.1658068754
  10
 2965.0000000000
  20
 1312.1658068754
  10
 2967.5000000000
  20
 1312.1658068754
  10
 2967.5000000000
  20
 1308.1658068754
  10
 2949.5000000000
  20
 1308.1658068754
  10
 2949.5000000000
  20
 1312.1658068754
  10
 2952.0000000000
  20
 1312.1658068754
   0
POINT
   5
2E3
 100
AcDbEntity
   8
LEVEL001
 100
AcDbPoint
  62
7
  10
 2958.5000000000
  20
 1306.5158990517
  30
0.0
   0
ARC
   5
2E4
 100
AcDbEntity
   8
LEVEL001
 370
30
   6
CONTINUOUS
  62
7
 100
AcDbCircle
  10
 2909.5000000000
  20
 1229.2658068754
  30
0.0
  40
 101.00000000000
 100
AcDbArc
  50
 78.578813725001
  51
 101.42118627500
   0
LWPOLYLINE
   5
2E5
 100
AcDbEntity
   8
LEVEL001
 370
30
   6
CONTINUOUS
  62
7
 100
AcDbPolyline
  90
4
  70
0
  10
 2889.5000000000
  20
 1328.2658068754
  10
 2889.5000000000
  20
 1324.2658068754
  10
 2929.5000000000
  20
 1324.2658068754
  10
 2929.5000000000
  20
 1328.2658068754
   0
LINE
   5
2E6
 100
AcDbEntity
   8
LEVEL001
 370
30
 100
AcDbLine
   6
CONTINUOUS
  62
7
  10
 2926.5000000000
  20
 1311.7658068754
  30
0.0
  11
 2892.5000000000
  21
 1311.7658068754
  31
0.0
   0
LINE
   5
2E7
 100
AcDbEntity
   8
LEVEL001
 370
30
 100
AcDbLine
   6
CONTINUOUS
  62
7
  10
 2897.0000000000
  20
 1317.7658068754
  30
0.0
  11
 2897.0000000000
  21
 1324.2658068754
  31
0.0
   0
LINE
   5
2E8
 100
AcDbEntity
   8
LEVEL001
 370
30
 100
AcDbLine
   6
CONTINUOUS
  62
7
  10
 2922.0000000000
  20
 1317.7658068754
  30
0.0
  11
 2922.0000000000
  21
 1324.2658068754
  31
0.0
   0
LINE
   5
2E9
 100
AcDbEntity
   8
LEVEL001
 370
30
 100
AcDbLine
   6
CONTINUOUS
  62
7
  10
 2854.5000000000
  20
 1333.7658068754
  30
0.0
  11
 2854.5000000000
  21
 1315.7658068754
  31
0.0
   0
LINE
   5
2EA
 100
AcDbEntity
   8
LEVEL001
 370
30
 100
AcDbLine
   6
CONTINUOUS
  62
7
  10
 2844.5000000000
  20
 1333.7658068754
  30
0.0
  11
 2844.5000000000
  21
 1315.7658068754
  31
0.0
   0
ARC
   5
2EB
 100
AcDbEntity
   8
LEVEL001
 370
30
   6
CONTINUOUS
  62
7
 100
AcDbCircle
  10
 2953.5000000000
  20
 1324.7943699943
  30
0.0
  40
 4.0000000000000
 100
AcDbArc
  50
 15.298764031536
  51
 195.29876403154
   0
LINE
   5
2EC
 100
AcDbEntity
   8
LEVEL001
 370
30
 100
AcDbLine
   6
CONTINUOUS
  62
7
  10
 2959.7368991654
  20
 1317.1541739608
  30
0.0
  11
 2957.3582524417
  21
 1325.8497789652
  31
0.0
   0
LINE
   5
2ED
 100
AcDbEntity
   8
LEVEL001
 370
30
 100
AcDbLine
   6
CONTINUOUS
  62
7
  10
 2951.4472693404
  20
 1317.1385255372
  30
0.0
  11
 2949.6417475583
  21
 1323.7389610233
  31
0.0
   0
LINE
   5
2EE
 100
AcDbEntity
   8
LEVEL001
 370
30
 100
AcDbLine
   6
CONTINUOUS
  62
7
  10
 2965.0000000000
  20
 1312.1658068754
  30
0.0
  11
 2952.0000000000
  21
 1312.1658068754
  31
0.0
   0
DIMENSION
   5
2EF
 100
AcDbEntity
   8
LEVEL001
 370
30
   6
CONTINUOUS
  62
7
 100
AcDbDimension
   2
*D1
  10
 2726.0000000000
  20
 1464.1318179997
  30
0.0
  11
 3088.5000000000
  21
 1477.8461037140
  31
0.0
  70
128
   3
GMM001
 100
AcDbAlignedDimension
  13
 3451.0000000000
  23
 913.76580687539
  33
0.0
  14
 2726.0000000000
  24
 886.76580687536
  34
0.0
  50
 180.00000000000
 100
AcDbRotatedDimension
   0
INSERT
   5
2F0
 100
AcDbEntity
   8
0
 100
AcDbBlockReference
   2
BLOCK006
  10
0.0
  20
0.0
  30
0.0
   0
INSERT
   5
2F1
 100
AcDbEntity
   8
0
 100
AcDbBlockReference
   2
BLOCK007
  10
0.0
  20
0.0
  30
0.0
   0
INSERT
   5
2F2
 100
AcDbEntity
   8
0
 100
AcDbBlockReference
   2
BLOCK008
  10
0.0
  20
0.0
  30
0.0
   0
LINE
   5
2F3
 100
AcDbEntity
   8
LEVEL001
 370
30
 100
AcDbLine
   6
CONTINUOUS
  62
7
  10
 1567.5994188944
  20
 889.76580687539
  30
0.0
  11
 1587.5994188944
  21
 889.76580687539
  31
0.0
   0
LINE
   5
2F4
 100
AcDbEntity
   8
LEVEL001
 370
30
 100
AcDbLine
   6
CONTINUOUS
  62
7
  10
 842.59941889441
  20
 889.76580687539
  30
0.0
  11
 822.59941889441
  21
 889.76580687539
  31
0.0
   0
LINE
   5
2F5
 100
AcDbEntity
   8
LEVEL001
 370
30
 100
AcDbLine
   6
CONTINUOUS
  62
7
  10
 741.59941889441
  20
 860.76580687539
  30
0.0
  11
 741.59941889441
  21
 229.76580687539
  31
0.0
   0
LINE
   5
2F6
 100
AcDbEntity
   8
LEVEL001
 370
30
 100
AcDbLine
   6
CONTINUOUS
  62
7
  10
 770.59941889441
  20
 860.76580687539
  30
0.0
  11
 770.59941889441
  21
 229.76580687539
  31
0.0
   0
INSERT
   5
2F7
 100
AcDbEntity
   8
0
 100
AcDbBlockReference
   2
BLOCK009
  10
0.0
  20
0.0
  30
0.0
   0
INSERT
   5
2F8
 100
AcDbEntity
   8
0
 100
AcDbBlockReference
   2
BLOCK010
  10
0.0
  20
0.0
  30
0.0
   0
LINE
   5
2F9
 100
AcDbEntity
   8
LEVEL001
 370
30
 100
AcDbLine
   6
CONTINUOUS
  62
7
  10
 701.59941889441
  20
 229.76580687539
  30
0.0
  11
 1658.6870466830
  21
 229.76580687539
  31
0.0
   0
LWPOLYLINE
   5
2FA
 100
AcDbEntity
   8
LEVEL001
 370
30
   6
CONTINUOUS
  62
7
 100
AcDbPolyline
  90
4
  70
1
  10
 1626.5994188944
  20
 889.76580687539
  10
 741.59941889441
  20
 889.76580687539
  10
 741.59941889441
  20
 860.76580687539
  10
 1626.5994188944
  20
 860.76580687539
   0
LINE
   5
2FB
 100
AcDbEntity
   8
LEVEL001
 370
30
 100
AcDbLine
   6
CONTINUOUS
  62
7
  10
 1626.5994188944
  20
 860.76580687539
  30
0.0
  11
 1626.5994188944
  21
 229.76580687539
  31
0.0
   0
LINE
   5
2FC
 100
AcDbEntity
   8
LEVEL001
 370
30
 100
AcDbLine
   6
CONTINUOUS
  62
7
  10
 1597.5994188944
  20
 229.76580687539
  30
0.0
  11
 1597.5994188944
  21
 860.76580687539
  31
0.0
   0
LINE
   5
2FD
 100
AcDbEntity
   8
LEVEL001
 370
30
 100
AcDbLine
   6
CONTINUOUS
  62
7
  10
 1413.0994188944
  20
 889.76580687539
  30
0.0
  11
 1391.0994188944
  21
 889.76580687539
  31
0.0
   0
LINE
   5
2FE
 100
AcDbEntity
   8
LEVEL001
 370
30
 100
AcDbLine
   6
CONTINUOUS
  62
7
  10
 853.09941889441
  20
 889.76580687539
  30
0.0
  11
 831.09941889441
  21
 889.76580687539
  31
0.0
   0
POINT
   5
2FF
 100
AcDbEntity
   8
LEVEL001
 100
AcDbPoint
  62
7
  10
 941.59941889441
  20
 1284.7658068754
  30
0.0
   0
POINT
   5
300
 100
AcDbEntity
   8
LEVEL001
 100
AcDbPoint
  62
7
  10
 965.84941889441
  20
 1271.5497323268
  30
0.0
   0
LWPOLYLINE
   5
301
 100
AcDbEntity
   8
LEVEL001
 370
30
   6
CONTINUOUS
  62
7
 100
AcDbPolyline
  90
4
  70
1
  10
 945.84941889441
  20
 1243.7658068754
  10
 1422.3494188944
  20
 1243.7658068754
  10
 1422.3494188944
  20
 1282.4734364619
  10
 945.84941889441
  20
 1282.4734364619
   0
LINE
   5
302
 100
AcDbEntity
   8
LEVEL001
 370
30
 100
AcDbLine
   6
CONTINUOUS
  62
7
  10
 945.84941889441
  20
 1246.5115536180
  30
0.0
  11
 1422.3494188944
  21
 1246.5115536180
  31
0.0
   0
POINT
   5
303
 100
AcDbEntity
   8
LEVEL001
 100
AcDbPoint
  62
7
  10
 1426.5994188944
  20
 1284.7658068754
  30
0.0
   0
POINT
   5
304
 100
AcDbEntity
   8
LEVEL001
 100
AcDbPoint
  62
7
  10
 1402.3494188944
  20
 1271.5497323268
  30
0.0
   0
POINT
   5
305
 100
AcDbEntity
   8
LEVEL001
 100
AcDbPoint
  62
7
  10
 1404.0994188944
  20
 1186.1304529504
  30
0.0
   0
POINT
   5
306
 100
AcDbEntity
   8
LEVEL001
 100
AcDbPoint
  62
7
  10
 964.09941889441
  20
 1186.1304529504
  30
0.0
   0
LINE
   5
307
 100
AcDbEntity
   8
LEVEL001
 370
30
 100
AcDbLine
   6
CONTINUOUS
  62
7
  10
 1420.1494188944
  20
 1171.7284872423
  30
0.0
  11
 1423.3494188944
  21
 1171.7284872423
  31
0.0
   0
POINT
   5
308
 100
AcDbEntity
   8
LEVEL001
 100
AcDbPoint
  62
7
  10
 1425.8494188944
  20
 1169.7658068754
  30
0.0
   0
POINT
   5
309
 100
AcDbEntity
   8
LEVEL001
 100
AcDbPoint
  62
7
  10
 942.34941889441
  20
 1169.7658068754
  30
0.0
   0
LWPOLYLINE
   5
30A
 100
AcDbEntity
   8
LEVEL001
 370
30
   6
CONTINUOUS
  62
7
 100
AcDbPolyline
  90
4
  70
1
  10
 1425.5994188944
  20
 1301.4241404179
  10
 942.59941889441
  20
 1301.4241404179
  10
 942.59941889441
  20
 1295.5896482053
  10
 1425.5994188944
  20
 1295.5896482053
   0
LINE
   5
30B
 100
AcDbEntity
   8
LEVEL001
 370
30
 100
AcDbLine
   6
CONTINUOUS
  62
7
  10
 942.59941889441
  20
 1296.3142127282
  30
0.0
  11
 1425.5994188944
  21
 1296.3142127282
  31
0.0
   0
LINE
   5
30C
 100
AcDbEntity
   8
LEVEL001
 370
30
 100
AcDbLine
   6
CONTINUOUS
  62
7
  10
 941.59941889441
  20
 909.76580687540
  30
0.0
  11
 1426.5994188944
  21
 909.76580687540
  31
0.0
   0
LWPOLYLINE
   5
30D
 100
AcDbEntity
   8
LEVEL001
 370
30
   6
CONTINUOUS
  62
7
 100
AcDbPolyline
  90
4
  70
1
  10
 1498.7994188944
  20
 946.76580687540
  10
 1550.7994188944
  20
 946.76580687540
  10
 1550.7994188944
  20
 1036.7658068754
  10
 1498.7994188944
  20
 1036.7658068754
   0
POINT
   5
30E
 100
AcDbEntity
   8
LEVEL001
 100
AcDbPoint
  62
7
  10
 1545.2994188944
  20
 1030.7658068754
  30
0.0
   0
LWPOLYLINE
   5
30F
 100
AcDbEntity
   8
LEVEL001
 370
30
   6
CONTINUOUS
  62
7
 100
AcDbPolyline
  90
4
  70
1
  10
 1514.7994188944
  20
 994.26580687540
  10
 1534.7994188944
  20
 994.26580687540
  10
 1534.7994188944
  20
 1014.2658068754
  10
 1514.7994188944
  20
 1014.2658068754
   0
LWPOLYLINE
   5
310
 100
AcDbEntity
   8
LEVEL001
 370
30
   6
CONTINUOUS
  62
7
 100
AcDbPolyline
  90
4
  70
1
  10
 1514.7994188944
  20
 969.26580687540
  10
 1534.7994188944
  20
 969.26580687540
  10
 1534.7994188944
  20
 989.26580687540
  10
 1514.7994188944
  20
 989.26580687540
   0
POINT
   5
311
 100
AcDbEntity
   8
LEVEL001
 100
AcDbPoint
  62
7
  10
 1504.2994188944
  20
 952.76580687540
  30
0.0
   0
LINE
   5
312
 100
AcDbEntity
   8
LEVEL001
 370
30
 100
AcDbLine
   6
CONTINUOUS
  62
7
  10
 1449.5994188944
  20
 1333.7658068754
  30
0.0
  11
 1449.5994188944
  21
 1315.7658068754
  31
0.0
   0
LINE
   5
313
 100
AcDbEntity
   8
LEVEL001
 370
30
 100
AcDbLine
   6
CONTINUOUS
  62
7
  10
 1439.5994188944
  20
 1333.7658068754
  30
0.0
  11
 1439.5994188944
  21
 1315.7658068754
  31
0.0
   0
LINE
   5
314
 100
AcDbEntity
   8
LEVEL001
 370
30
 100
AcDbLine
   6
CONTINUOUS
  62
7
  10
 928.59941889441
  20
 1333.7658068754
  30
0.0
  11
 928.59941889441
  21
 1315.7658068754
  31
0.0
   0
LINE
   5
315
 100
AcDbEntity
   8
LEVEL001
 370
30
 100
AcDbLine
   6
CONTINUOUS
  62
7
  10
 918.59941889441
  20
 1333.7658068754
  30
0.0
  11
 918.59941889441
  21
 1315.7658068754
  31
0.0
   0
POINT
   5
316
 100
AcDbEntity
   8
LEVEL001
 100
AcDbPoint
  62
7
  10
 929.09941889441
  20
 929.76580687540
  30
0.0
   0
POINT
   5
317
 100
AcDbEntity
   8
LEVEL001
 100
AcDbPoint
  62
7
  10
 929.09941889441
  20
 1075.7658068754
  30
0.0
   0
POINT
   5
318
 100
AcDbEntity
   8
LEVEL001
 100
AcDbPoint
  62
7
  10
 929.09941889441
  20
 1165.7658068754
  30
0.0
   0
POINT
   5
319
 100
AcDbEntity
   8
LEVEL001
 100
AcDbPoint
  62
7
  10
 929.09941889441
  20
 1284.7658068754
  30
0.0
   0
POINT
   5
31A
 100
AcDbEntity
   8
LEVEL001
 100
AcDbPoint
  62
7
  10
 1439.0994188944
  20
 929.76580687540
  30
0.0
   0
POINT
   5
31B
 100
AcDbEntity
   8
LEVEL001
 100
AcDbPoint
  62
7
  10
 1439.0994188944
  20
 1075.7658068754
  30
0.0
   0
POINT
   5
31C
 100
AcDbEntity
   8
LEVEL001
 100
AcDbPoint
  62
7
  10
 1439.0994188944
  20
 1165.7658068754
  30
0.0
   0
POINT
   5
31D
 100
AcDbEntity
   8
LEVEL001
 100
AcDbPoint
  62
7
  10
 1439.0994188944
  20
 1284.7658068754
  30
0.0
   0
POINT
   5
31E
 100
AcDbEntity
   8
LEVEL001
 100
AcDbPoint
  62
7
  10
 929.09941889441
  20
 1075.7658068754
  30
0.0
   0
POINT
   5
31F
 100
AcDbEntity
   8
LEVEL001
 100
AcDbPoint
  62
7
  10
 929.09941889441
  20
 1165.7658068754
  30
0.0
   0
POINT
   5
320
 100
AcDbEntity
   8
LEVEL001
 100
AcDbPoint
  62
7
  10
 1439.0994188944
  20
 1075.7658068754
  30
0.0
   0
POINT
   5
321
 100
AcDbEntity
   8
LEVEL001
 100
AcDbPoint
  62
7
  10
 1439.0994188944
  20
 1165.7658068754
  30
0.0
   0
LWPOLYLINE
   5
322
 100
AcDbEntity
   8
LEVEL001
 370
30
   6
CONTINUOUS
  62
7
 100
AcDbPolyline
  90
12
  70
1
  10
 884.09941889441
  20
 1067.7658068754
  10
 884.09941889441
  20
 1173.7658068754
  10
 939.09941889441
  20
 1173.7658068754
  10
 939.09941889441
  20
 1165.7658068754
  10
 1429.0994188944
  20
 1165.7658068754
  10
 1429.0994188944
  20
 1173.7658068754
  10
 1539.0994188944
  20
 1173.7658068754
  10
 1539.0994188944
  20
 1067.7658068754
  10
 1429.0994188944
  20
 1067.7658068754
  10
 1429.0994188944
  20
 1075.7658068754
  10
 939.09941889441
  20
 1075.7658068754
  10
 939.09941889441
  20
 1067.7658068754
   0
POINT
   5
323
 100
AcDbEntity
   8
LEVEL001
 100
AcDbPoint
  62
7
  10
 929.09941889441
  20
 929.76580687540
  30
0.0
   0
POINT
   5
324
 100
AcDbEntity
   8
LEVEL001
 100
AcDbPoint
  62
7
  10
 929.09941889441
  20
 1075.7658068754
  30
0.0
   0
POINT
   5
325
 100
AcDbEntity
   8
LEVEL001
 100
AcDbPoint
  62
7
  10
 929.09941889441
  20
 1165.7658068754
  30
0.0
   0
POINT
   5
326
 100
AcDbEntity
   8
LEVEL001
 100
AcDbPoint
  62
7
  10
 929.09941889441
  20
 1284.7658068754
  30
0.0
   0
POINT
   5
327
 100
AcDbEntity
   8
LEVEL001
 100
AcDbPoint
  62
7
  10
 1439.0994188944
  20
 929.76580687540
  30
0.0
   0
POINT
   5
328
 100
AcDbEntity
   8
LEVEL001
 100
AcDbPoint
  62
7
  10
 1439.0994188944
  20
 1075.7658068754
  30
0.0
   0
POINT
   5
329
 100
AcDbEntity
   8
LEVEL001
 100
AcDbPoint
  62
7
  10
 1439.0994188944
  20
 1165.7658068754
  30
0.0
   0
POINT
   5
32A
 100
AcDbEntity
   8
LEVEL001
 100
AcDbPoint
  62
7
  10
 1439.0994188944
  20
 1284.7658068754
  30
0.0
   0
LWPOLYLINE
   5
32B
 100
AcDbEntity
   8
LEVEL001
 370
30
   6
CONTINUOUS
  62
7
 100
AcDbPolyline
  90
4
  70
0
  10
 1451.5994188944
  20
 908.76580687540
  10
 1451.5994188944
  20
 889.76580687540
  10
 1431.5994188944
  20
 889.76580687540
  10
 1431.5994188944
  20
 908.76580687540
   0
LWPOLYLINE
   5
32C
 100
AcDbEntity
   8
LEVEL001
 370
30
   6
CONTINUOUS
  62
7
 100
AcDbPolyline
  90
3
  70
0
  10
 939.39941889441
  20
 1304.7658068754
  10
 941.59941889441
  20
 1304.7658068754
  10
 941.59941889441
  20
 1165.7658068754
   0
LWPOLYLINE
   5
32D
 100
AcDbEntity
   8
LEVEL001
 370
30
   6
CONTINUOUS
  62
7
 100
AcDbPolyline
  90
4
  70
0
  10
 916.59941889441
  20
 908.76580687540
  10
 916.59941889441
  20
 889.76580687540
  10
 936.59941889441
  20
 889.76580687540
  10
 936.59941889441
  20
 908.76580687540
   0
LWPOLYLINE
   5
32E
 100
AcDbEntity
   8
LEVEL001
 370
30
   6
CONTINUOUS
  62
7
 100
AcDbPolyline
  90
3
  70
0
  10
 1423.3494188944
  20
 1176.1158068754
  10
 1425.8494188944
  20
 1176.1158068754
  10
 1425.8494188944
  20
 1165.7658068754
   0
LWPOLYLINE
   5
32F
 100
AcDbEntity
   8
LEVEL001
 370
30
   6
CONTINUOUS
  62
7
 100
AcDbPolyline
  90
4
  70
0
  10
 1423.3494188944
  20
 1165.7658068754
  10
 1423.3494188944
  20
 1191.4413416343
  10
 1420.1494188944
  20
 1191.4413416343
  10
 1420.1494188944
  20
 1165.7658068754
   0
LWPOLYLINE
   5
330
 100
AcDbEntity
   8
LEVEL001
 370
30
   6
CONTINUOUS
  62
7
 100
AcDbPolyline
  90
3
  70
0
  10
 1417.0994188944
  20
 1176.2658068754
  10
 1420.1494188944
  20
 1176.2658068754
  10
 1420.1494188944
  20
 1194.2009431314
   0
LINE
   5
331
 100
AcDbEntity
   8
LEVEL001
 370
30
 100
AcDbLine
   6
CONTINUOUS
  62
7
  10
 1420.1494188944
  20
 1176.1158068754
  30
0.0
  11
 1417.0994188944
  21
 1176.1158068754
  31
0.0
   0
LWPOLYLINE
   5
332
 100
AcDbEntity
   8
LEVEL001
 370
30
   6
CONTINUOUS
  62
7
 100
AcDbPolyline
  90
3
  70
0
  10
 944.09941889441
  20
 1176.1158068754
  10
 942.34941889441
  20
 1176.1158068754
  10
 942.34941889441
  20
 1165.7658068754
   0
LWPOLYLINE
   5
333
 100
AcDbEntity
   8
LEVEL001
 370
30
   6
CONTINUOUS
  62
7
 100
AcDbPolyline
  90
4
  70
0
  10
 1424.0994188944
  20
 1218.7658068754
  10
 1424.0994188944
  20
 1194.2009431314
  10
 1417.0994188944
  20
 1194.2009431314
  10
 1417.0994188944
  20
 1165.7658068754
   0
LINE
   5
334
 100
AcDbEntity
   8
LEVEL001
 370
30
 100
AcDbLine
   6
CONTINUOUS
  62
7
  10
 944.09941889441
  20
 1165.7658068754
  30
0.0
  11
 944.09941889441
  21
 1218.7658068754
  31
0.0
   0
LWPOLYLINE
   5
335
 100
AcDbEntity
   8
LEVEL001
 370
30
   6
CONTINUOUS
  62
7
 100
AcDbPolyline
  90
4
  70
0
  10
 1422.3494188944
  20
 1265.7658068754
  10
 1424.0994188944
  20
 1265.7658068754
  10
 1424.0994188944
  20
 1278.7658068754
  10
 1422.3494188944
  20
 1278.7658068754
   0
LWPOLYLINE
   5
336
 100
AcDbEntity
   8
LEVEL001
 370
30
   6
CONTINUOUS
  62
7
 100
AcDbPolyline
  90
4
  70
0
  10
 945.84941889441
  20
 1278.7658068754
  10
 944.09941889441
  20
 1278.7658068754
  10
 944.09941889441
  20
 1265.7658068754
  10
 945.84941889441
  20
 1265.7658068754
   0
LWPOLYLINE
   5
337
 100
AcDbEntity
   8
LEVEL001
 370
30
   6
CONTINUOUS
  62
7
 100
AcDbPolyline
  90
6
  70
0
  10
 1422.3494188944
  20
 1278.7658068754
  10
 1426.5994188944
  20
 1278.7658068754
  10
 1426.5994188944
  20
 1290.7658068754
  10
 941.59941889441
  20
 1290.7658068754
  10
 941.59941889441
  20
 1278.7658068754
  10
 945.84941889441
  20
 1278.7658068754
   0
LWPOLYLINE
   5
338
 100
AcDbEntity
   8
LEVEL001
 370
30
   6
CONTINUOUS
  62
7
 100
AcDbPolyline
  90
4
  70
0
  10
 944.09941889441
  20
 1265.7658068754
  10
 944.09941889441
  20
 1218.7658068754
  10
 1424.0994188944
  20
 1218.7658068754
  10
 1424.0994188944
  20
 1265.7658068754
   0
LWPOLYLINE
   5
339
 100
AcDbEntity
   8
LEVEL001
 370
30
   6
CONTINUOUS
  62
7
 100
AcDbPolyline
  90
3
  70
0
  10
 1434.0994188944
  20
 1306.7658068754
  10
 1424.0994188944
  20
 1306.7658068754
  10
 1424.0994188944
  20
 1301.4241404179
   0
LWPOLYLINE
   5
33A
 100
AcDbEntity
   8
LEVEL001
 370
30
   6
CONTINUOUS
  62
7
 100
AcDbPolyline
  90
3
  70
0
  10
 934.09941889441
  20
 1306.7658068754
  10
 944.09941889441
  20
 1306.7658068754
  10
 944.09941889441
  20
 1301.4241404179
   0
ARC
   5
33B
 100
AcDbEntity
   8
LEVEL001
 370
30
   6
CONTINUOUS
  62
7
 100
AcDbCircle
  10
 844.39941889441
  20
 1229.2658068754
  30
0.0
  40
 101.00000000000
 100
AcDbArc
  50
 78.578813725001
  51
 101.42118627500
   0
LWPOLYLINE
   5
33C
 100
AcDbEntity
   8
LEVEL001
 370
30
   6
CONTINUOUS
  62
7
 100
AcDbPolyline
  90
4
  70
0
  10
 824.39941889441
  20
 1328.2658068754
  10
 824.39941889441
  20
 1324.2658068754
  10
 864.39941889441
  20
 1324.2658068754
  10
 864.39941889441
  20
 1328.2658068754
   0
LWPOLYLINE
   5
33D
 100
AcDbEntity
   8
LEVEL001
 370
30
   6
CONTINUOUS
  62
7
 100
AcDbPolyline
  90
6
  70
1
  10
 861.39941889441
  20
 1305.7658068754
  10
 861.39941889441
  20
 1311.7658068754
  10
 859.39941889441
  20
 1317.7658068754
  10
 829.39941889441
  20
 1317.7658068754
  10
 827.39941889441
  20
 1311.7658068754
  10
 827.39941889441
  20
 1305.7658068754
   0
LINE
   5
33E
 100
AcDbEntity
   8
LEVEL001
 370
30
 100
AcDbLine
   6
CONTINUOUS
  62
7
  10
 861.39941889441
  20
 1311.7658068754
  30
0.0
  11
 827.39941889441
  21
 1311.7658068754
  31
0.0
   0
LINE
   5
33F
 100
AcDbEntity
   8
LEVEL001
 370
30
 100
AcDbLine
   6
CONTINUOUS
  62
7
  10
 831.89941889441
  20
 1317.7658068754
  30
0.0
  11
 831.89941889441
  21
 1324.2658068754
  31
0.0
   0
LINE
   5
340
 100
AcDbEntity
   8
LEVEL001
 370
30
 100
AcDbLine
   6
CONTINUOUS
  62
7
  10
 856.89941889441
  20
 1317.7658068754
  30
0.0
  11
 856.89941889441
  21
 1324.2658068754
  31
0.0
   0
LWPOLYLINE
   5
341
 100
AcDbEntity
   8
LEVEL001
 370
30
   6
CONTINUOUS
  62
7
 100
AcDbPolyline
  90
6
  70
0
  10
 939.39941889441
  20
 1165.7658068754
  10
 939.39941889441
  20
 1305.7658068754
  10
 814.39941889441
  20
 1305.7658068754
  10
 814.39941889441
  20
 907.76580687540
  10
 894.39941889441
  20
 907.76580687540
  10
 894.39941889441
  20
 908.76580687540
   0
LWPOLYLINE
   5
342
 100
AcDbEntity
   8
LEVEL001
 370
30
   6
CONTINUOUS
  62
7
 100
AcDbPolyline
  90
3
  70
0
  10
 815.39941889441
  20
 908.76580687540
  10
 939.39941889441
  20
 908.76580687540
  10
 939.39941889441
  20
 1075.7658068754
   0
LWPOLYLINE
   5
343
 100
AcDbEntity
   8
LEVEL001
 370
30
   6
CONTINUOUS
  62
7
 100
AcDbPolyline
  90
6
  70
0
  10
 1428.7994188944
  20
 1165.7658068754
  10
 1428.7994188944
  20
 1305.7658068754
  10
 1553.7994188944
  20
 1305.7658068754
  10
 1553.7994188944
  20
 907.76580687540
  10
 1473.7994188944
  20
 907.76580687540
  10
 1473.7994188944
  20
 908.76580687540
   0
LWPOLYLINE
   5
344
 100
AcDbEntity
   8
LEVEL001
 370
30
   6
CONTINUOUS
  62
7
 100
AcDbPolyline
  90
3
  70
0
  10
 1428.7994188944
  20
 1304.7658068754
  10
 1426.5994188944
  20
 1304.7658068754
  10
 1426.5994188944
  20
 1165.7658068754
   0
LWPOLYLINE
   5
345
 100
AcDbEntity
   8
LEVEL001
 370
30
   6
CONTINUOUS
  62
7
 100
AcDbPolyline
  90
3
  70
0
  10
 1426.5994188944
  20
 1075.7658068754
  10
 1426.5994188944
  20
 909.76580687540
  10
 1428.7994188944
  20
 909.76580687540
   0
LWPOLYLINE
   5
346
 100
AcDbEntity
   8
LEVEL001
 370
30
   6
CONTINUOUS
  62
7
 100
AcDbPolyline
  90
3
  70
0
  10
 1552.7994188944
  20
 908.76580687540
  10
 1428.7994188944
  20
 908.76580687540
  10
 1428.7994188944
  20
 1075.7658068754
   0
LWPOLYLINE
   5
347
 100
AcDbEntity
   8
LEVEL001
 370
30
   6
CONTINUOUS
  62
7
 100
AcDbPolyline
  90
3
  70
0
  10
 941.59941889441
  20
 1075.7658068754
  10
 941.59941889441
  20
 909.76580687540
  10
 939.39941889441
  20
 909.76580687540
   0
INSERT
   5
348
 100
AcDbEntity
   8
LEVEL001
 100
AcDbBlockReference
   2
BLOCK011
  10
0.0
  20
0.0
  30
0.0
   0
POINT
   5
349
 100
AcDbEntity
   8
LEVEL001
 100
AcDbPoint
  62
7
  10
 1523.7994188944
  20
 1306.5158990517
  30
0.0
   0
LINE
   5
34A
 100
AcDbEntity
   8
LEVEL001
 370
30
 100
AcDbLine
   6
CONTINUOUS
  62
7
  10
 1519.7994188944
  20
 1317.1658068754
  30
0.0
  11
 1527.7994188944
  21
 1317.1658068754
  31
0.0
   0
LINE
   5
34B
 100
AcDbEntity
   8
LEVEL001
 370
30
 100
AcDbLine
   6
CONTINUOUS
  62
7
  10
 1517.2994188944
  20
 1312.1658068754
  30
0.0
  11
 1530.2994188944
  21
 1312.1658068754
  31
0.0
   0
ARC
   5
34C
 100
AcDbEntity
   8
LEVEL001
 370
30
   6
CONTINUOUS
  62
7
 100
AcDbCircle
  10
 1523.7994188944
  20
 1324.7943699943
  30
0.0
  40
 4.0000000000000
 100
AcDbArc
  50
0.0
  51
 180.00000000000
   0
LWPOLYLINE
   5
34D
 100
AcDbEntity
   8
LEVEL001
 370
30
   6
CONTINUOUS
  62
7
 100
AcDbPolyline
  90
12
  70
0
  10
 1519.7994188944
  20
 1324.7943699943
  10
 1519.7994188944
  20
 1317.1658068754
  10
 1517.2994188944
  20
 1317.1658068754
  10
 1517.2994188944
  20
 1312.1658068754
  10
 1514.7994188944
  20
 1312.1658068754
  10
 1514.7994188944
  20
 1308.1658068754
  10
 1532.7994188944
  20
 1308.1658068754
  10
 1532.7994188944
  20
 1312.1658068754
  10
 1530.2994188944
  20
 1312.1658068754
  10
 1530.2994188944
  20
 1317.1658068754
  10
 1527.7994188944
  20
 1317.1658068754
  10
 1527.7994188944
  20
 1324.7943699943
   0
MTEXT
   5
34F
 100
AcDbEntity
   8
LEVEL001
 370
9
  62
1
 100
AcDbMText
  10
 979.89002312728
  20
 611.80831984945
  30
0.0
  40
 32.000000000000
  41
0.0
  71
2
  72
1
   1
{\T1.000000;スーパーニーダー}\P{\T1.000000;　ＳＮ－６Ｐ}
   7
GMM001
  44
 0.79999984000003
   0
MTEXT
   5
351
 100
AcDbEntity
   8
LEVEL001
 370
9
  62
1
 100
AcDbMText
  10
 1281.9691702619
  20
 569.04618025029
  30
0.0
  40
 32.000000000000
  41
0.0
  71
4
  72
1
   1
{\W1.000000;\T1.000000;ローリングプレス}\P{\W0.500000;\T1.000000;  \W1.000000;\T1.000000;ＲＰ－１Ｐ}
   7
GMM001
  44
 0.79999984000003
   0
DIMENSION
   5
352
 100
AcDbEntity
   8
LEVEL001
 370
30
   6
CONTINUOUS
  62
7
 100
AcDbDimension
   2
*D2
  10
 1626.5994188944
  20
 82.338263106037
  30
0.0
  11
 1184.0994188944
  21
 90.338263106037
  31
0.0
  70
128
   3
GMM002
 100
AcDbAlignedDimension
  13
 741.59941889441
  23
 242.76580687539
  33
0.0
  14
 1626.5994188944
  24
 242.76580687539
  34
0.0
 100
AcDbRotatedDimension
   0
DIMENSION
   5
353
 100
AcDbEntity
   8
LEVEL001
 370
30
   6
CONTINUOUS
  62
7
 100
AcDbDimension
   2
*D3
  10
 1554.3994188944
  20
 1464.1318179997
  30
0.0
  11
 1184.3994188944
  21
 1469.7318179997
  31
0.0
  70
128
   3
GMM003
 100
AcDbAlignedDimension
  13
 814.39941889441
  23
 1352.6220847631
  33
0.0
  14
 1554.3994188944
  24
 1340.7658068754
  34
0.0
 100
AcDbRotatedDimension
   0
MTEXT
   5
355
 100
AcDbEntity
   8
LEVEL001
 370
9
  62
1
 100
AcDbMText
  10
 1143.3214129198
  20
 1035.8012811099
  30
0.0
  40
 32.000000000000
  41
0.0
  71
5
  72
1
   1
\T1.000000;Ｍ－３０１
   7
GMM001
  44
 0.79999984000003
   0
INSERT
   5
356
 100
AcDbEntity
   8
0
 100
AcDbBlockReference
   2
BLOCK012
  10
0.0
  20
0.0
  30
0.0
   0
INSERT
   5
357
 100
AcDbEntity
   8
0
 100
AcDbBlockReference
   2
BLOCK013
  10
0.0
  20
0.0
  30
0.0
   0
INSERT
   5
358
 100
AcDbEntity
   8
0
 100
AcDbBlockReference
   2
BLOCK014
  10
0.0
  20
0.0
  30
0.0
   0
INSERT
   5
359
 100
AcDbEntity
   8
0
 100
AcDbBlockReference
   2
BLOCK015
  10
0.0
  20
0.0
  30
0.0
   0
DIMENSION
   5
35A
 100
AcDbEntity
   8
LEVEL001
 370
30
   6
CONTINUOUS
  62
7
 100
AcDbDimension
   2
*D4
  10
 584.00000000000
  20
 889.76580687539
  30
0.0
  11
 584.00000000000
  21
 559.76580687539
  31
0.0
  70
0
   3
GMM004
 100
AcDbAlignedDimension
  13
 706.59941889441
  23
 229.76580687539
  33
0.0
  14
 736.78718611764
  24
 889.76580687539
  34
0.0
  50
 90.000000000000
 100
AcDbRotatedDimension
   0
DIMENSION
   5
35B
 100
AcDbEntity
   8
LEVEL001
 370
30
   6
CONTINUOUS
  62
7
 100
AcDbDimension
   2
*D5
  10
 584.00000000000
  20
 1344.7658068754
  30
0.0
  11
 584.00000000000
  21
 1117.2658068754
  31
0.0
  70
0
   3
GMM004
 100
AcDbAlignedDimension
  13
 736.78718611764
  23
 889.76580687539
  33
0.0
  14
 814.39941889441
  24
 1344.7658068754
  34
0.0
  50
 90.000000000000
 100
AcDbRotatedDimension
   0
DIMENSION
   5
35C
 100
AcDbEntity
   8
LEVEL001
 370
30
   6
CONTINUOUS
  62
7
 100
AcDbDimension
   2
*D6
  10
 510.62068965517
  20
 229.76580687539
  30
0.0
  11
 510.62068965517
  21
 787.26580687539
  31
0.0
  70
0
   3
GMM004
 100
AcDbAlignedDimension
  13
 814.39941889441
  23
 1344.7658068754
  33
0.0
  14
 706.59941889441
  24
 229.76580687539
  34
0.0
  50
 270.00000000000
 100
AcDbRotatedDimension
   0
LINE
   5
35D
 100
AcDbEntity
   8
LEVEL001
 370
30
 100
AcDbLine
   6
CONTINUOUS
  62
7
  10
 1954.4287677120
  20
 229.76580687539
  30
0.0
  11
 3496.0000000000
  21
 229.76580687539
  31
0.0
   0
LWPOLYLINE
   5
35E
 100
AcDbEntity
   8
LEVEL001
 370
9
   6
DIVIDE
  62
1
 100
AcDbPolyline
  90
3
  70
0
  10
 2726.0000000000
  20
 839.26580687539
  10
 2001.0000000000
  20
 839.26580687539
  10
 2001.0000000000
  20
 229.76580687539
   0
DIMENSION
   5
35F
 100
AcDbEntity
   8
LEVEL001
 370
30
   6
CONTINUOUS
  62
7
 100
AcDbDimension
   2
*D7
  10
 3451.0000000000
  20
 82.338263106037
  30
0.0
  11
 2726.0000000000
  21
 82.338263106037
  31
0.0
  70
0
   3
GMM004
 100
AcDbAlignedDimension
  13
 2001.0000000000
  23
 229.76580687539
  33
0.0
  14
 3451.0000000000
  24
 229.76580687539
  34
0.0
 100
AcDbRotatedDimension
   0
DIMENSION
   5
360
 100
AcDbEntity
   8
LEVEL001
 370
30
   6
CONTINUOUS
  62
7
 100
AcDbDimension
   2
*D8
  10
 1858.9693869934
  20
 1576.8511910231
  30
0.0
  11
 1858.9693869934
  21
 2301.8511910231
  31
0.0
  70
0
   3
GMM004
 100
AcDbAlignedDimension
  13
 1626.5994188944
  23
 3026.8511910231
  33
0.0
  14
 1556.0994188944
  24
 1576.8511910231
  34
0.0
  50
 270.00000000000
 100
AcDbRotatedDimension
   0
MTEXT
   5
362
 100
AcDbEntity
   8
LEVEL001
 370
30
  62
7
 100
AcDbMText
  10
 3786.7586206897
  20
 224.00000000000
  30
0.0
  40
 32.000000000000
  41
0.0
  71
7
  72
1
   1
\T1.000000;M-301 AP-6
   7
GMM004
  44
 0.79999984000003
   0
MTEXT
   5
364
 100
AcDbEntity
   8
LEVEL001
 370
30
  62
7
 100
AcDbMText
  10
 4330.7586206897
  20
 224.00000000000
  30
0.0
  40
 32.000000000000
  41
0.0
  71
7
  72
1
   1
\T1.000000;M301-AP6-A
   7
GMM004
  44
 0.79999984000003
   0
MTEXT
   5
366
 100
AcDbEntity
   8
LEVEL001
 370
30
  62
7
 100
AcDbMText
  10
 3213.8238516340
  20
 10.495638518282
  30
0.0
  40
 32.000000000000
  41
0.0
  71
7
  72
1
   1
\W0.500000;\T1.000000;'22.03.17\W1.000000;\T1.000000;　変更　\W0.500000;\T1.000000;H.M
   7
GMM001
  44
 0.79999984000003
   0
ENDSEC
  0
SECTION
  2
OBJECTS
  0
DICTIONARY
  5
C
100
AcDbDictionary
  3
ACAD_GROUP
350
D
  3
ACAD_MLINESTYLE
350
1B
  3
DWGPROPS
350
1C
  0
DICTIONARY
  5
D
102
{ACAD_REACTORS
330
C
102
}
100
AcDbDictionary
  0
DICTIONARY
  5
1B
102
{ACAD_REACTORS
330
C
102
}
100
AcDbDictionary
  3
STANDARD
350
1D
  0
MLINESTYLE
  5
1D
102
{ACAD_REACTORS
330
1B
102
}
100
AcDbMlineStyle
  2
STANDARD
 70
     0
  3

 62
   256
 51
90.0
 52
90.0
 71
     2
 49
0.5
 62
   256
  6
BYLAYER
 49
-0.5
 62
   256
  6
BYLAYER
   0
XRECORD
   5
1C
 102
{ACAD_REACTORS
 330
C
 102
}
 330
C
 100
AcDbXrecord
 280
1
   1
DWGPROPS COOKIE
   2
 
   3
M301AP6
   4
 
   6
 
   7
M301-AP6-A
   8
 
   9

 300
 = 
 301
 = 
 302
 = 
 303
 = 
 304
 = 
 305
 = 
 306
 = 
 307
 = 
 308
 = 
 309
 = 
  40
0.0
  41
 2457107.5000000
  42
 2459656.5000000
   1

  90
10
   0
ENDSEC
   0
EOF
